  0
SECTION
  2
HEADER
  9
$ACADVER
  1
AC1009
  9
$INSBASE
 10
0.0
 20
0.0
 30
0.0
  9
$EXTMIN
 10
-0.4998397926137841
 20
-0.3584016095373954
 30
-0.0015258207003583
  9
$EXTMAX
 10
16380.499916067931
 20
11745.35845630145
 30
0.0000000349246037
  9
$LIMMIN
 10
0.0
 20
0.0
  9
$LIMMAX
 10
420.0
 20
297.0
  9
$ORTHOMODE
 70
     0
  9
$REGENMODE
 70
     1
  9
$FILLMODE
 70
     1
  9
$QTEXTMODE
 70
     0
  9
$MIRRTEXT
 70
     1
  9
$DRAGMODE
 70
     2
  9
$LTSCALE
 40
7.5
  9
$OSMODE
 70
  3071
  9
$ATTMODE
 70
     1
  9
$TEXTSIZE
 40
105.0
  9
$TRACEWID
 40
1.0
  9
$TEXTSTYLE
  7
文字
  9
$CLAYER
  8
0
  9
$CELTYPE
  6
BYLAYER
  9
$CECOLOR
 62
   256
  9
$DIMSCALE
 40
30.0
  9
$DIMASZ
 40
2.0
  9
$DIMEXO
 40
5.0
  9
$DIMDLI
 40
7.5
  9
$DIMRND
 40
0.0
  9
$DIMDLE
 40
0.0
  9
$DIMEXE
 40
1.0
  9
$DIMTP
 40
0.0
  9
$DIMTM
 40
0.0
  9
$DIMTXT
 40
3.5
  9
$DIMCEN
 40
1.0
  9
$DIMTSZ
 40
0.0
  9
$DIMTOL
 70
     0
  9
$DIMLIM
 70
     0
  9
$DIMTIH
 70
     0
  9
$DIMTOH
 70
     0
  9
$DIMSE1
 70
     0
  9
$DIMSE2
 70
     0
  9
$DIMTAD
 70
     1
  9
$DIMZIN
 70
     8
  9
$DIMBLK
  1
ORIGIN
  9
$DIMASO
 70
     1
  9
$DIMSHO
 70
     1
  9
$DIMPOST
  1

  9
$DIMAPOST
  1

  9
$DIMALT
 70
     0
  9
$DIMALTD
 70
     3
  9
$DIMALTF
 40
0.03937007874016
  9
$DIMLFAC
 40
1.0
  9
$DIMTOFL
 70
     1
  9
$DIMTVP
 40
0.0
  9
$DIMTIX
 70
     1
  9
$DIMSOXD
 70
     0
  9
$DIMSAH
 70
     0
  9
$DIMBLK1
  1

  9
$DIMBLK2
  1

  9
$DIMSTYLE
  2
寸法線30
  9
$DIMCLRD
 70
   256
  9
$DIMCLRE
 70
   256
  9
$DIMCLRT
 70
   256
  9
$DIMTFAC
 40
1.0
  9
$DIMGAP
 40
1.0
  9
$LUNITS
 70
     2
  9
$LUPREC
 70
     4
  9
$SKETCHINC
 40
1.0
  9
$FILLETRAD
 40
0.0
  9
$AUNITS
 70
     0
  9
$AUPREC
 70
     0
  9
$MENU
  1
.
  9
$ELEVATION
 40
0.0
  9
$PELEVATION
 40
0.0
  9
$THICKNESS
 40
0.0
  9
$LIMCHECK
 70
     0
  9
$BLIPMODE
 70
     0
  9
$CHAMFERA
 40
10.0
  9
$CHAMFERB
 40
10.0
  9
$SKPOLY
 70
     0
  9
$TDCREATE
 40
2452654.657629028
  9
$TDUPDATE
 40
2456778.7052100468
  9
$TDINDWG
 40
0.8012310995
  9
$TDUSRTIMER
 40
0.8012293056000001
  9
$USRTIMER
 70
     1
  9
$ANGBASE
 50
0.0
  9
$ANGDIR
 70
     0
  9
$PDMODE
 70
     0
  9
$PDSIZE
 40
0.0
  9
$PLINEWID
 40
0.0
  9
$COORDS
 70
     2
  9
$SPLFRAME
 70
     0
  9
$SPLINETYPE
 70
     6
  9
$SPLINESEGS
 70
     8
  9
$ATTDIA
 70
     0
  9
$ATTREQ
 70
     1
  9
$HANDLING
 70
     1
  9
$HANDSEED
  5
AF0B
  9
$SURFTAB1
 70
     6
  9
$SURFTAB2
 70
     6
  9
$SURFTYPE
 70
     6
  9
$SURFU
 70
     6
  9
$SURFV
 70
     6
  9
$UCSNAME
  2

  9
$UCSORG
 10
0.0
 20
0.0
 30
0.0
  9
$UCSXDIR
 10
1.0
 20
0.0
 30
0.0
  9
$UCSYDIR
 10
0.0
 20
1.0
 30
0.0
  9
$PUCSNAME
  2

  9
$PUCSORG
 10
0.0
 20
0.0
 30
0.0
  9
$PUCSXDIR
 10
1.0
 20
0.0
 30
0.0
  9
$PUCSYDIR
 10
0.0
 20
1.0
 30
0.0
  9
$USERI1
 70
     0
  9
$USERI2
 70
     0
  9
$USERI3
 70
     0
  9
$USERI4
 70
     0
  9
$USERI5
 70
     0
  9
$USERR1
 40
0.0
  9
$USERR2
 40
0.0
  9
$USERR3
 40
0.0
  9
$USERR4
 40
0.0
  9
$USERR5
 40
0.0
  9
$WORLDVIEW
 70
     1
  9
$SHADEDGE
 70
     3
  9
$SHADEDIF
 70
    70
  9
$TILEMODE
 70
     1
  9
$MAXACTVP
 70
    64
  9
$PLIMCHECK
 70
     0
  9
$PEXTMIN
 10
1.0000000000000000E+020
 20
1.0000000000000000E+020
 30
1.0000000000000000E+020
  9
$PEXTMAX
 10
-1.0000000000000000E+020
 20
-1.0000000000000000E+020
 30
-1.0000000000000000E+020
  9
$PLIMMIN
 10
0.0
 20
0.0
  9
$PLIMMAX
 10
420.0
 20
297.0
  9
$UNITMODE
 70
     0
  9
$VISRETAIN
 70
     1
  9
$PLINEGEN
 70
     0
  9
$PSLTSCALE
 70
     1
  0
ENDSEC
  0
SECTION
  2
TABLES
  0
TABLE
  2
VPORT
 70
     1
  0
VPORT
  2
*ACTIVE
 70
     0
 10
0.0
 20
0.0
 11
1.0
 21
1.0
 12
8190.0000381376594
 22
5872.5000273459573
 13
0.0
 23
0.0
 14
10.0
 24
10.0
 15
10.0
 25
10.0
 16
0.0
 26
0.0
 36
1.0
 17
0.0
 27
0.0
 37
0.0
 40
11826.443434254021
 41
1.7981651376146781
 42
50.0
 43
0.0
 44
0.0
 50
0.0
 51
0.0
 71
     0
 72
   100
 73
     1
 74
     3
 75
     0
 76
     0
 77
     0
 78
     0
  0
ENDTAB
  0
TABLE
  2
LTYPE
 70
     4
  0
LTYPE
  2
CONTINUOUS
 70
     0
  3
Solid line
 72
    65
 73
     0
 40
0.0
  0
LTYPE
  2
HIDDEN
 70
     0
  3
Hidden __ __ __ __ __ __ __ __ __ __ __ __ __ _
 72
    65
 73
     2
 40
9.5249999999999986
 49
6.3499999999999979
 49
-3.174999999999998
  0
LTYPE
  2
CENTER2
 70
     0
  3
Center (.5x) ___ _ ___ _ ___ _ ___ _ ___ _ ___
 72
    65
 73
     4
 40
28.574999999999999
 49
19.050000000000001
 49
-3.174999999999998
 49
3.174999999999998
 49
-3.174999999999998
  0
LTYPE
  2
PHANTOM2
 70
     0
  3
Phantom (.5x) ___ _ _ ___ _ _ ___ _ _ ___ _ _
 72
    65
 73
     6
 40
31.75
 49
15.875
 49
-3.174999999999998
 49
3.174999999999998
 49
-3.174999999999998
 49
3.174999999999998
 49
-3.174999999999998
  0
ENDTAB
  0
TABLE
  2
LAYER
 70
     2
  0
LAYER
  2
0
 70
     0
 62
     7
  6
CONTINUOUS
  0
LAYER
  2
DEFPOINTS
 70
     0
 62
     7
  6
CONTINUOUS
  0
ENDTAB
  0
TABLE
  2
STYLE
 70
     4
  0
STYLE
  2
STANDARD
 70
     0
 40
0.0
 41
1.0
 50
0.0
 71
     0
 42
105.0
  3
romans.shx
  4
bigfont.shx
  0
STYLE
  2
文字
 70
     0
 40
0.0
 41
0.8
 50
0.0
 71
     0
 42
105.0
  3
romans.shx
  4
extfont.shx
  0
STYLE
  2
横文字
 70
     0
 40
0.0
 41
0.8
 50
0.0
 71
     0
 42
105.0
  3
romans.shx
  4
extfont.shx
  0
ENDTAB
  0
TABLE
  2
VIEW
 70
     0
  0
ENDTAB
  0
TABLE
  2
UCS
 70
     0
  0
ENDTAB
  0
TABLE
  2
APPID
 70
    81
  0
APPID
  2
ACAD
 70
     0
  0
APPID
  2
ACADANNOTATIVE
 70
     0
  0
APPID
  2
ADE
 70
     0
  0
APPID
  2
DCO15
 70
     0
  0
APPID
  2
SETH_MM
 70
     0
  0
APPID
  2
ACAD_PSEXT
 70
     0
  0
APPID
  2
ACAD_EXEMPT_FROM_CAD_STANDARDS
 70
     0
  0
APPID
  2
ACAD_MLEADERVER
 70
     0
  0
APPID
  2
AUTOESSSHUTTERLINE1
 70
     0
  0
APPID
  2
AUTOESSSHUTTERLINE2
 70
     0
  0
APPID
  2
AUTOESSSHUTTERPT
 70
     0
  0
APPID
  2
MAKICIRCLE
 70
     0
  0
APPID
  2
ACAD_DSTYLE_DIMJAG
 70
     0
  0
APPID
  2
ACAD_DSTYLE_DIMTALN
 70
     0
  0
APPID
  2
SETW_MM
 70
     0
  0
APPID
  2
PARADIMLINE
 70
     0
  0
APPID
  2
PARABASEPT
 70
     0
  0
APPID
  2
MIRRORCHK_L
 70
     0
  0
APPID
  2
MIRRORCHK_R
 70
     0
  0
APPID
  2
LINKSPLIT1
 70
     0
  0
APPID
  2
LINKSPLIT2
 70
     0
  0
APPID
  2
LINKSPLIT3
 70
     0
  0
APPID
  2
LINKSPLIT4
 70
     0
  0
APPID
  2
TBANLLINE
 70
     0
  0
APPID
  2
TBANRLINE
 70
     0
  0
APPID
  2
TBANHLINE
 70
     0
  0
APPID
  2
ARCLINEA1
 70
     0
  0
APPID
  2
ARCLINEA2
 70
     0
  0
APPID
  2
ARCLINEB1
 70
     0
  0
APPID
  2
ARCLINEB2
 70
     0
  0
APPID
  2
ODPDW
 70
     0
  0
APPID
  2
ODPDH
 70
     0
  0
APPID
  2
ODWLINE1
 70
     0
  0
APPID
  2
ODWLINE2
 70
     0
  0
APPID
  2
ODSY
 70
     0
  0
APPID
  2
EDWDW
 70
     0
  0
APPID
  2
EDWDH
 70
     0
  0
APPID
  2
LINKSPLIT11
 70
     0
  0
APPID
  2
LINKSPLIT12
 70
     0
  0
APPID
  2
LINKSPLIT13
 70
     0
  0
APPID
  2
LINKSPLIT14
 70
     0
  0
APPID
  2
AUTOESSDOORPTH1
 70
     0
  0
APPID
  2
AUTOESSDOORPTH2
 70
     0
  0
APPID
  2
AUTOESSDOORPTV1
 70
     0
  0
APPID
  2
AUTOESSDOORPTV2
 70
     0
  0
APPID
  2
TBANPT1
 70
     0
  0
APPID
  2
TBANPT2
 70
     0
  0
APPID
  2
SETDH_MM
 70
     0
  0
APPID
  2
SETV1_MM
 70
     0
  0
APPID
  2
SETV2_MM
 70
     0
  0
APPID
  2
KAIKOUDIM
 70
     0
  0
APPID
  2
TBANK
 70
     0
  0
APPID
  2
TBANR
 70
     0
  0
APPID
  2
TBANO
 70
     0
  0
APPID
  2
TBANHATA1
 70
     0
  0
APPID
  2
TBANHATA2
 70
     0
  0
APPID
  2
TBANMEN
 70
     0
  0
APPID
  2
TBANW
 70
     0
  0
APPID
  2
TBANH
 70
     0
  0
APPID
  2
ARCLINEA3
 70
     0
  0
APPID
  2
ARCLINEB3
 70
     0
  0
APPID
  2
WORKNAME_UE
 70
     0
  0
APPID
  2
WORKNAME
 70
     0
  0
APPID
  2
SD1
 70
     0
  0
APPID
  2
SD2
 70
     0
  0
APPID
  2
DELETEOBJ
 70
     0
  0
APPID
  2
TBANTEXT
 70
     0
  0
APPID
  2
MAKITEXT
 70
     0
  0
APPID
  2
N_01
 70
     0
  0
APPID
  2
N_02
 70
     0
  0
APPID
  2
N_03
 70
     0
  0
APPID
  2
N_04
 70
     0
  0
APPID
  2
N_05
 70
     0
  0
APPID
  2
N_06
 70
     0
  0
APPID
  2
N_07
 70
     0
  0
APPID
  2
N_08
 70
     0
  0
APPID
  2
N_09
 70
     0
  0
APPID
  2
N_10
 70
     0
  0
APPID
  2
N_11
 70
     0
  0
APPID
  2
N_12
 70
     0
  0
APPID
  2
N_13
 70
     0
  0
ENDTAB
  0
TABLE
  2
DIMSTYLE
 70
     3
  0
DIMSTYLE
  2
STANDARD
 70
     0
  3

  4

  5

  6

  7

 40
30.0
 41
1.0
 42
5.0
 43
7.5
 44
1.0
 45
0.0
 46
0.0
 47
0.0
 48
0.0
140
3.5
141
2.5
142
0.0
143
25.399999999999999
144
1.0
145
0.0
146
1.0
147
1.0
 71
     0
 72
     0
 73
     0
 74
     0
 75
     0
 76
     0
 77
     1
 78
     8
170
     0
171
     2
172
     1
173
     0
174
     1
175
     0
176
     0
177
     0
178
     0
  0
DIMSTYLE
  2
寸法線30
 70
     0
  3

  4

  5

  6

  7

 40
30.0
 41
2.0
 42
5.0
 43
7.5
 44
1.0
 45
0.0
 46
0.0
 47
0.0
 48
0.0
140
3.5
141
1.0
142
0.0
143
0.03937007874016
144
1.0
145
0.0
146
1.0
147
1.0
 71
     0
 72
     0
 73
     0
 74
     0
 75
     0
 76
     0
 77
     1
 78
     8
170
     0
171
     3
172
     1
173
     0
174
     1
175
     0
176
   256
177
   256
178
   256
  0
ENDTAB
  0
ENDSEC
  0
SECTION
  2
BLOCKS
  0
BLOCK
  8
0
  2
$MODEL_SPACE
 70
     0
 10
0.0
 20
0.0
 30
0.0
  3
$MODEL_SPACE
  1

  0
ENDBLK
  5
AE01
  8
0
  0
BLOCK
 67
     1
  8
0
  2
$PAPER_SPACE
 70
     0
 10
0.0
 20
0.0
 30
0.0
  3
$PAPER_SPACE
  1

  0
ENDBLK
  5
ADFD
 67
     1
  8
0
  0
BLOCK
  8
0
  2
_ORIGIN
 70
     0
 10
0.0
 20
0.0
 30
0.0
  3
_ORIGIN
  1

  0
CIRCLE
  5
A7
  8
0
  6
BYBLOCK
 62
     0
 10
0.0
 20
0.0
 30
0.0
 40
0.5
  0
LINE
  5
A8
  8
0
  6
BYBLOCK
 62
     0
 10
0.0
 20
0.0
 30
0.0
 11
-1.0
 21
0.0
 31
0.0
  0
ENDBLK
  5
AA
  8
0
  0
BLOCK
  8
0
  2
_OPEN30
 70
     0
 10
0.0
 20
0.0
 30
0.0
  3
_OPEN30
  1

  0
LINE
  5
AC
  8
0
  6
BYBLOCK
 62
     0
 10
-1.0
 20
0.26794919
 30
0.0
 11
0.0
 21
0.0
 31
0.0
  0
LINE
  5
AD
  8
0
  6
BYBLOCK
 62
     0
 10
0.0
 20
0.0
 30
0.0
 11
-1.0
 21
-0.26794919
 31
0.0
  0
LINE
  5
AE
  8
0
  6
BYBLOCK
 62
     0
 10
0.0
 20
0.0
 30
0.0
 11
-1.0
 21
0.0
 31
0.0
  0
ENDBLK
  5
B0
  8
0
  0
BLOCK
  8
0
  2
_NONE
 70
     0
 10
0.0
 20
0.0
 30
0.0
  3
_NONE
  1

  0
ENDBLK
  5
A4DE
  8
0
  0
BLOCK
  8
0
  2
*D5
 70
     1
 10
0.0
 20
0.0
 30
0.0
  3
*D5
  1

  0
LINE
  5
AC18
  8
0
 10
4273.0
 20
3500.0000000000209
 30
0.0
 11
4293.0
 21
3500.0000000000209
 31
0.0
  0
LINE
  5
AC19
  8
0
 10
4573.0
 20
3335.0000000000159
 30
0.0
 11
4293.0
 21
3335.0000000000159
 31
0.0
  0
LINE
  5
AC1A
  8
0
 10
4323.0
 20
3470.0000000000218
 30
0.0
 11
4323.0
 21
3365.0000000000159
 31
0.0
  0
INSERT
  5
AC1B
  8
0
  2
*U6
 10
0.0
 20
0.0
 30
0.0
  0
INSERT
  5
AC1C
  8
0
  2
_ORIGIN
 10
4323.0
 20
3500.0000000000209
 30
0.0
 41
30.0
 42
30.0
 43
30.0
 50
90.0
  0
INSERT
  5
AC1D
  8
0
  2
_ORIGIN
 10
4323.0
 20
3335.0000000000159
 30
0.0
 41
30.0
 42
30.0
 43
30.0
 50
270.0
  0
POINT
  5
AC1E
  8
DEFPOINTS
 62
     0
 10
4423.0
 20
3500.0000000000209
 30
0.0
  0
POINT
  5
AC1F
  8
DEFPOINTS
 62
     0
 10
4723.0
 20
3335.0000000000159
 30
0.0
  0
POINT
  5
AC20
  8
DEFPOINTS
 62
     0
 10
4323.0
 20
3335.0000000000159
 30
0.0
  0
ENDBLK
  5
AB5E
  8
0
  0
BLOCK
  8
0
  2
*U6
 70
     1
 10
0.0
 20
0.0
 30
0.0
  3
*U6
  1

  0
TEXT
  5
AD5D
  8
0
 10
4293.0
 20
3241.5000000000218
 30
0.0
 40
105.0
  1
165
 50
90.0
 41
0.8
  7
文字
  0
ENDBLK
  5
AD5F
  8
0
  0
BLOCK
  8
0
  2
*D7
 70
     1
 10
0.0
 20
0.0
 30
0.0
  3
*D7
  1

  0
LINE
  5
AD55
  8
0
 10
7000.0
 20
10350.000000000009
 30
0.0
 11
7000.0
 21
10380.0
 31
0.0
  0
LINE
  5
AD56
  8
0
 10
7030.0
 20
10350.000000000009
 30
0.0
 11
11140.0
 21
10350.000000000009
 31
0.0
  0
INSERT
  5
AD57
  8
0
  2
_ORIGIN
 10
7000.0
 20
10350.000000000009
 30
0.0
 41
30.0
 42
30.0
 43
30.0
 50
180.0
  0
TEXT
  5
AD94
  8
0
 10
9085.0
 20
10296.0
 30
0.0
 40
105.0
  1
奥行寸法D
  7
文字
  0
POINT
  5
AD59
  8
DEFPOINTS
 62
     0
 10
7000.0
 20
10200.0
 30
0.0
  0
POINT
  5
AD5A
  8
DEFPOINTS
 62
     0
 10
11140.0
 20
10200.0
 30
0.0
  0
POINT
  5
AD5B
  8
DEFPOINTS
 62
     0
 10
11140.0
 20
10350.000000000009
 30
0.0
  0
ENDBLK
  5
AB6A
  8
0
  0
BLOCK
  8
0
  2
*D8
 70
     1
 10
0.0
 20
0.0
 30
0.0
  3
*D8
  1

  0
LINE
  5
AC28
  8
0
 10
6500.0
 20
8500.0
 30
0.0
 11
5945.0
 21
8500.0
 31
0.0
  0
LINE
  5
AC29
  8
0
 10
6500.0
 20
8930.0
 30
0.0
 11
5945.0
 21
8930.0
 31
0.0
  0
LINE
  5
AC2A
  8
0
 10
5975.0
 20
8530.0
 30
0.0
 11
5975.0
 21
8900.0
 31
0.0
  0
INSERT
  5
AC2B
  8
0
  2
_ORIGIN
 10
5975.0
 20
8500.0
 30
0.0
 41
30.0
 42
30.0
 43
30.0
 50
270.0
  0
INSERT
  5
AC2C
  8
0
  2
_ORIGIN
 10
5975.0
 20
8930.0
 30
0.0
 41
30.0
 42
30.0
 43
30.0
 50
90.0
  0
INSERT
  5
AC2D
  8
0
  2
*U9
 10
0.0
 20
0.0
 30
0.0
  0
POINT
  5
AC2E
  8
DEFPOINTS
 62
     0
 10
6650.0
 20
8500.0
 30
0.0
  0
POINT
  5
AC2F
  8
DEFPOINTS
 62
     0
 10
6650.0
 20
8930.0
 30
0.0
  0
POINT
  5
AC30
  8
DEFPOINTS
 62
     0
 10
5975.0
 20
8930.0
 30
0.0
  0
ENDBLK
  5
AB74
  8
0
  0
BLOCK
  8
0
  2
*U9
 70
     1
 10
0.0
 20
0.0
 30
0.0
  3
*U9
  1

  0
TEXT
  5
AD61
  8
0
 10
5944.9999999999991
 20
8595.0000000000018
 30
0.0
 40
105.0
  1
430
 50
90.0
 41
0.8
  7
文字
  0
ENDBLK
  5
AD63
  8
0
  0
BLOCK
  8
0
  2
*D10
 70
     1
 10
0.0
 20
0.0
 30
0.0
  3
*D10
  1

  0
LINE
  5
AC31
  8
0
 10
6500.0
 20
8500.0
 30
0.0
 11
5945.0
 21
8500.0
 31
0.0
  0
LINE
  5
AC32
  8
0
 10
6500.0
 20
8400.0
 30
0.0
 11
5945.0
 21
8400.0
 31
0.0
  0
LINE
  5
AC33
  8
0
 10
5975.0
 20
8530.0
 30
0.0
 11
5975.0
 21
8560.0
 31
0.0
  0
LINE
  5
AC34
  8
0
 10
5975.0
 20
8370.0
 30
0.0
 11
5975.0
 21
8340.0
 31
0.0
  0
LINE
  5
AC35
  8
0
 10
5975.0
 20
8500.0
 30
0.0
 11
5975.0
 21
8400.0
 31
0.0
  0
INSERT
  5
AC36
  8
0
  2
_ORIGIN
 10
5975.0
 20
8500.0
 30
0.0
 41
30.0
 42
30.0
 43
30.0
 50
270.0
  0
INSERT
  5
AC37
  8
0
  2
_ORIGIN
 10
5975.0
 20
8400.0
 30
0.0
 41
30.0
 42
30.0
 43
30.0
 50
90.0
  0
INSERT
  5
AC38
  8
0
  2
*U11
 10
0.0
 20
0.0
 30
0.0
  0
POINT
  5
AC39
  8
DEFPOINTS
 62
     0
 10
6650.0
 20
8500.0
 30
0.0
  0
POINT
  5
AC3A
  8
DEFPOINTS
 62
     0
 10
6650.0
 20
8400.0
 30
0.0
  0
POINT
  5
AC3B
  8
DEFPOINTS
 62
     0
 10
5975.0
 20
8400.0
 30
0.0
  0
ENDBLK
  5
AB80
  8
0
  0
BLOCK
  8
0
  2
*U11
 70
     1
 10
0.0
 20
0.0
 30
0.0
  3
*U11
  1

  0
TEXT
  5
AD65
  8
0
 10
5944.9999999999991
 20
8414.0000000000018
 30
0.0
 40
105.0
  1
Y
 50
90.0
 41
0.8
  7
文字
  0
ENDBLK
  5
AD67
  8
0
  0
BLOCK
  8
0
  2
*D12
 70
     1
 10
0.0
 20
0.0
 30
0.0
  3
*D12
  1

  0
LINE
  5
AC3C
  8
0
 10
6500.0
 20
8400.0
 30
0.0
 11
5945.0000000000009
 21
8400.0
 31
0.0
  0
LINE
  5
AC3D
  8
0
 10
5975.0
 20
6000.0
 30
0.0
 11
5945.0
 21
6000.0
 31
0.0
  0
LINE
  5
AC3E
  8
0
 10
5975.0000000000009
 20
8370.0
 30
0.0
 11
5975.0
 21
6030.0
 31
0.0
  0
INSERT
  5
AC3F
  8
0
  2
_ORIGIN
 10
5975.0000000000009
 20
8400.0
 30
0.0
 41
30.0
 42
30.0
 43
30.0
 50
90.0
  0
INSERT
  5
AC40
  8
0
  2
_ORIGIN
 10
5975.0
 20
6000.0
 30
0.0
 41
30.0
 42
30.0
 43
30.0
 50
270.0
  0
INSERT
  5
AC41
  8
0
  2
*U13
 10
0.0
 20
0.0
 30
0.0
  0
POINT
  5
AC42
  8
DEFPOINTS
 62
     0
 10
6650.0
 20
8400.0
 30
0.0
  0
POINT
  5
AC43
  8
DEFPOINTS
 62
     0
 10
6125.0
 20
6000.0
 30
0.0
  0
POINT
  5
AC44
  8
DEFPOINTS
 62
     0
 10
5975.0
 20
6000.0
 30
0.0
  0
ENDBLK
  5
AB8E
  8
0
  0
BLOCK
  8
0
  2
*U13
 70
     1
 10
0.0
 20
0.0
 30
0.0
  3
*U13
  1

  0
TEXT
  5
AD69
  8
0
 10
5944.9999999999991
 20
6766.0000000000018
 30
0.0
 40
105.0
  1
有効開口高=H-Y
 50
90.0
 41
0.8
  7
文字
  0
ENDBLK
  5
AD6B
  8
0
  0
BLOCK
  8
0
  2
*D14
 70
     1
 10
0.0
 20
0.0
 30
0.0
  3
*D14
  1

  0
LINE
  5
AC45
  8
0
 10
4750.0
 20
4000.0000000000209
 30
0.0
 11
4750.0
 21
4530.0000000000209
 31
0.0
  0
LINE
  5
AC46
  8
0
 10
9250.0
 20
4000.0000000000209
 30
0.0
 11
9250.0
 21
4530.0000000000209
 31
0.0
  0
LINE
  5
AC47
  8
0
 10
4780.0
 20
4500.0000000000209
 30
0.0
 11
9220.0
 21
4500.0000000000209
 31
0.0
  0
INSERT
  5
AC48
  8
0
  2
_ORIGIN
 10
4750.0
 20
4500.0000000000209
 30
0.0
 41
30.0
 42
30.0
 43
30.0
 50
180.0
  0
INSERT
  5
AC49
  8
0
  2
_ORIGIN
 10
9250.0
 20
4500.0000000000209
 30
0.0
 41
30.0
 42
30.0
 43
30.0
  0
INSERT
  5
AC4A
  8
0
  2
*U15
 10
0.0
 20
0.0
 30
0.0
  0
POINT
  5
AC4B
  8
DEFPOINTS
 62
     0
 10
4750.0
 20
3850.0000000000209
 30
0.0
  0
POINT
  5
AC4C
  8
DEFPOINTS
 62
     0
 10
9250.0
 20
3850.0000000000209
 30
0.0
  0
POINT
  5
AC4D
  8
DEFPOINTS
 62
     0
 10
9250.0
 20
4500.0000000000209
 30
0.0
  0
ENDBLK
  5
AB9A
  8
0
  0
BLOCK
  8
0
  2
*U15
 70
     1
 10
0.0
 20
0.0
 30
0.0
  3
*U15
  1

  0
TEXT
  5
AD6D
  8
0
 10
6952.0
 20
4530.0000000000209
 30
0.0
 40
105.0
  1
W
 41
0.8
  7
文字
  0
ENDBLK
  5
AD6F
  8
0
  0
BLOCK
  8
0
  2
*D16
 70
     1
 10
0.0
 20
0.0
 30
0.0
  3
*D16
  1

  0
LINE
  5
AC4E
  8
0
 10
6500.0
 20
8500.0
 30
0.0
 11
5720.0000000000009
 21
8500.0
 31
0.0
  0
LINE
  5
AC4F
  8
0
 10
5700.0
 20
6000.0
 30
0.0
 11
5720.0
 21
6000.0
 31
0.0
  0
LINE
  5
AC50
  8
0
 10
5750.0
 20
8470.0
 30
0.0
 11
5750.0
 21
6030.0
 31
0.0
  0
INSERT
  5
AC51
  8
0
  2
_ORIGIN
 10
5750.0
 20
8500.0
 30
0.0
 41
30.0
 42
30.0
 43
30.0
 50
90.0
  0
INSERT
  5
AC52
  8
0
  2
_ORIGIN
 10
5750.0
 20
6000.0
 30
0.0
 41
30.0
 42
30.0
 43
30.0
 50
270.0
  0
INSERT
  5
AC53
  8
0
  2
*U17
 10
0.0
 20
0.0
 30
0.0
  0
POINT
  5
AC54
  8
DEFPOINTS
 62
     0
 10
6650.0
 20
8500.0
 30
0.0
  0
POINT
  5
AC55
  8
DEFPOINTS
 62
     0
 10
5850.0
 20
6000.0
 30
0.0
  0
POINT
  5
AC56
  8
DEFPOINTS
 62
     0
 10
5750.0
 20
6000.0
 30
0.0
  0
ENDBLK
  5
ABA6
  8
0
  0
BLOCK
  8
0
  2
*U17
 70
     1
 10
0.0
 20
0.0
 30
0.0
  3
*U17
  1

  0
TEXT
  5
AD71
  8
0
 10
5719.9999999999973
 20
7206.0000000000027
 30
0.0
 40
105.0
  1
H
 50
90.0
 41
0.8
  7
文字
  0
ENDBLK
  5
AD73
  8
0
  0
BLOCK
  8
0
  2
*D18
 70
     1
 10
0.0
 20
0.0
 30
0.0
  3
*D18
  1

  0
LINE
  5
AC57
  8
0
 10
6500.0
 20
8500.0
 30
0.0
 11
5720.0
 21
8500.0
 31
0.0
  0
LINE
  5
AC58
  8
0
 10
6500.0
 20
9100.0
 30
0.0
 11
5720.0
 21
9100.0
 31
0.0
  0
LINE
  5
AC59
  8
0
 10
5750.0
 20
8470.0
 30
0.0
 11
5750.0
 21
8440.0
 31
0.0
  0
LINE
  5
AC5A
  8
0
 10
5750.0
 20
9130.0
 30
0.0
 11
5750.0
 21
9160.0
 31
0.0
  0
LINE
  5
AC5B
  8
0
 10
5750.0
 20
8500.0
 30
0.0
 11
5750.0
 21
9100.0
 31
0.0
  0
INSERT
  5
AC5C
  8
0
  2
_ORIGIN
 10
5750.0
 20
8500.0
 30
0.0
 41
30.0
 42
30.0
 43
30.0
 50
90.0
  0
INSERT
  5
AC5D
  8
0
  2
_ORIGIN
 10
5750.0
 20
9100.0
 30
0.0
 41
30.0
 42
30.0
 43
30.0
 50
270.0
  0
INSERT
  5
AC5E
  8
0
  2
*U19
 10
0.0
 20
0.0
 30
0.0
  0
POINT
  5
AC5F
  8
DEFPOINTS
 62
     0
 10
6650.0
 20
8500.0
 30
0.0
  0
POINT
  5
AC60
  8
DEFPOINTS
 62
     0
 10
6650.0
 20
9100.0
 30
0.0
  0
POINT
  5
AC61
  8
DEFPOINTS
 62
     0
 10
5750.0
 20
9100.0
 30
0.0
  0
ENDBLK
  5
ABB2
  8
0
  0
BLOCK
  8
0
  2
*U19
 70
     1
 10
0.0
 20
0.0
 30
0.0
  3
*U19
  1

  0
TEXT
  5
AD75
  8
0
 10
5719.9999999999973
 20
8444.4000000000033
 30
0.0
 40
105.0
  1
HR=600以上
 50
90.0
 41
0.8
  7
文字
  0
ENDBLK
  5
AD77
  8
0
  0
BLOCK
  8
0
  2
*D20
 70
     1
 10
0.0
 20
0.0
 30
0.0
  3
*D20
  1

  0
LINE
  5
AC62
  8
0
 10
7406.0
 20
6020.0
 30
0.0
 11
8035.9999999999973
 21
6020.0
 31
0.0
  0
LINE
  5
AC63
  8
0
 10
7406.0
 20
8585.0000000000055
 30
0.0
 11
8036.0
 21
8585.0000000000055
 31
0.0
  0
LINE
  5
AC64
  8
0
 10
8005.9999999999982
 20
6050.0
 30
0.0
 11
8006.0
 21
8555.0000000000055
 31
0.0
  0
INSERT
  5
AC65
  8
0
  2
_ORIGIN
 10
8005.9999999999982
 20
6020.0
 30
0.0
 41
30.0
 42
30.0
 43
30.0
 50
270.0
  0
INSERT
  5
AC66
  8
0
  2
_ORIGIN
 10
8006.0
 20
8585.0000000000055
 30
0.0
 41
30.0
 42
30.0
 43
30.0
 50
90.0
  0
INSERT
  5
AC67
  8
0
  2
*U21
 10
0.0
 20
0.0
 30
0.0
  0
POINT
  5
AC68
  8
DEFPOINTS
 62
     0
 10
7256.0
 20
6020.0
 30
0.0
  0
POINT
  5
AC69
  8
DEFPOINTS
 62
     0
 10
7256.0
 20
8585.0000000000055
 30
0.0
  0
POINT
  5
AC6A
  8
DEFPOINTS
 62
     0
 10
8006.0
 20
8585.0000000000055
 30
0.0
  0
ENDBLK
  5
ABC0
  8
0
  0
BLOCK
  8
0
  2
*U21
 70
     1
 10
0.0
 20
0.0
 30
0.0
  3
*U21
  1

  0
TEXT
  5
AD79
  8
0
 10
7975.9999999999982
 20
7216.5000000000027
 30
0.0
 40
105.0
  1
DH
 50
90.0
 41
0.8
  7
文字
  0
ENDBLK
  5
AD7B
  8
0
  0
BLOCK
  8
0
  2
*D22
 70
     1
 10
0.0
 20
0.0
 30
0.0
  3
*D22
  1

  0
LINE
  5
AC6B
  8
0
 10
7000.0
 20
9675.0000000000109
 30
0.0
 11
7000.0
 21
9705.0000000000091
 31
0.0
  0
LINE
  5
AC6C
  8
0
 10
7110.0
 20
9450.0000000000091
 30
0.0
 11
7110.0
 21
9705.0000000000091
 31
0.0
  0
LINE
  5
AC6D
  8
0
 10
6970.0
 20
9675.0000000000109
 30
0.0
 11
6940.0
 21
9675.0000000000109
 31
0.0
  0
LINE
  5
AC6E
  8
0
 10
7140.0
 20
9675.0000000000109
 30
0.0
 11
7170.0
 21
9675.0000000000109
 31
0.0
  0
LINE
  5
AC6F
  8
0
 10
7000.0
 20
9675.0000000000109
 30
0.0
 11
7110.0
 21
9675.0000000000109
 31
0.0
  0
INSERT
  5
AC70
  8
0
  2
_ORIGIN
 10
7000.0
 20
9675.0000000000109
 30
0.0
 41
30.0
 42
30.0
 43
30.0
  0
INSERT
  5
AC71
  8
0
  2
_ORIGIN
 10
7110.0
 20
9675.0000000000109
 30
0.0
 41
30.0
 42
30.0
 43
30.0
 50
180.0
  0
INSERT
  5
AC72
  8
0
  2
*U23
 10
0.0
 20
0.0
 30
0.0
  0
POINT
  5
AC73
  8
DEFPOINTS
 62
     0
 10
7000.0
 20
9525.0000000000109
 30
0.0
  0
POINT
  5
AC74
  8
DEFPOINTS
 62
     0
 10
7110.0
 20
9300.0000000000091
 30
0.0
  0
POINT
  5
AC75
  8
DEFPOINTS
 62
     0
 10
7110.0
 20
9675.0000000000109
 30
0.0
  0
ENDBLK
  5
ABCC
  8
0
  0
BLOCK
  8
0
  2
*U23
 70
     1
 10
0.0
 20
0.0
 30
0.0
  3
*U23
  1

  0
TEXT
  5
AD7D
  8
0
 10
6929.0
 20
9705.0000000000091
 30
0.0
 40
105.0
  1
110
 41
0.8
  7
文字
  0
ENDBLK
  5
AD7F
  8
0
  0
BLOCK
  8
0
  2
*D24
 70
     1
 10
0.0
 20
0.0
 30
0.0
  3
*D24
  1

  0
LINE
  5
AC76
  8
0
 10
7000.0
 20
9900.0000000000109
 30
0.0
 11
7000.0
 21
9930.0000000000055
 31
0.0
  0
LINE
  5
AC77
  8
0
 10
9915.0
 20
9450.0000000000091
 30
0.0
 11
9915.0
 21
9930.0000000000055
 31
0.0
  0
LINE
  5
AC78
  8
0
 10
7030.0
 20
9900.0000000000109
 30
0.0
 11
9885.0
 21
9900.0000000000109
 31
0.0
  0
INSERT
  5
AC79
  8
0
  2
_ORIGIN
 10
7000.0
 20
9900.0000000000109
 30
0.0
 41
30.0
 42
30.0
 43
30.0
 50
180.0
  0
INSERT
  5
AC7A
  8
0
  2
_ORIGIN
 10
9915.0
 20
9900.0000000000109
 30
0.0
 41
30.0
 42
30.0
 43
30.0
  0
INSERT
  5
AC7B
  8
0
  2
*U25
 10
0.0
 20
0.0
 30
0.0
  0
POINT
  5
AC7C
  8
DEFPOINTS
 62
     0
 10
7000.0
 20
9750.0000000000091
 30
0.0
  0
POINT
  5
AC7D
  8
DEFPOINTS
 62
     0
 10
9915.0
 20
9300.0000000000091
 30
0.0
  0
POINT
  5
AC7E
  8
DEFPOINTS
 62
     0
 10
9915.0
 20
9900.0000000000109
 30
0.0
  0
ENDBLK
  5
ABDA
  8
0
  0
BLOCK
  8
0
  2
*U25
 70
     1
 10
0.0
 20
0.0
 30
0.0
  3
*U25
  1

  0
TEXT
  5
AD81
  8
0
 10
8197.5000000000036
 20
9930.0000000000055
 30
0.0
 40
105.0
  1
DH+350
 41
0.8
  7
文字
  0
ENDBLK
  5
AD83
  8
0
  0
BLOCK
  8
0
  2
*D26
 70
     1
 10
0.0
 20
0.0
 30
0.0
  3
*D26
  1

  0
LINE
  5
AC7F
  8
0
 10
4725.0
 20
3100.0000000000209
 30
0.0
 11
4725.0
 21
2720.0000000000218
 31
0.0
  0
LINE
  5
AC80
  8
0
 10
9275.0
 20
3100.0000000000209
 30
0.0
 11
9275.0
 21
2720.0000000000218
 31
0.0
  0
LINE
  5
AC81
  8
0
 10
4755.0
 20
2750.0000000000209
 30
0.0
 11
9245.0
 21
2750.0000000000209
 31
0.0
  0
INSERT
  5
AC82
  8
0
  2
_ORIGIN
 10
4725.0
 20
2750.0000000000209
 30
0.0
 41
30.0
 42
30.0
 43
30.0
 50
180.0
  0
INSERT
  5
AC83
  8
0
  2
_ORIGIN
 10
9275.0
 20
2750.0000000000209
 30
0.0
 41
30.0
 42
30.0
 43
30.0
  0
INSERT
  5
AC84
  8
0
  2
*U27
 10
0.0
 20
0.0
 30
0.0
  0
POINT
  5
AC85
  8
DEFPOINTS
 62
     0
 10
4725.0
 20
3250.0000000000209
 30
0.0
  0
POINT
  5
AC86
  8
DEFPOINTS
 62
     0
 10
9275.0
 20
3250.0000000000209
 30
0.0
  0
POINT
  5
AC87
  8
DEFPOINTS
 62
     0
 10
9275.0
 20
2750.0000000000209
 30
0.0
  0
ENDBLK
  5
ABE6
  8
0
  0
BLOCK
  8
0
  2
*U27
 70
     1
 10
0.0
 20
0.0
 30
0.0
  3
*U27
  1

  0
TEXT
  5
AD85
  8
0
 10
6906.0
 20
2780.0000000000218
 30
0.0
 40
105.0
  1
DW
 41
0.8
  7
文字
  0
ENDBLK
  5
AD87
  8
0
  0
BLOCK
  8
0
  2
*D28
 70
     1
 10
0.0
 20
0.0
 30
0.0
  3
*D28
  1

  0
LINE
  5
AC88
  8
0
 10
4750.0
 20
4000.0000000000209
 30
0.0
 11
4750.0
 21
4305.0000000000209
 31
0.0
  0
LINE
  5
AC89
  8
0
 10
4600.0
 20
4000.0000000000209
 30
0.0
 11
4600.0
 21
4305.0000000000209
 31
0.0
  0
LINE
  5
AC8A
  8
0
 10
4780.0
 20
4275.0000000000209
 30
0.0
 11
4810.0
 21
4275.0000000000209
 31
0.0
  0
LINE
  5
AC8B
  8
0
 10
4570.0
 20
4275.0000000000209
 30
0.0
 11
4540.0
 21
4275.0000000000209
 31
0.0
  0
LINE
  5
AC8C
  8
0
 10
4750.0
 20
4275.0000000000209
 30
0.0
 11
4600.0
 21
4275.0000000000209
 31
0.0
  0
INSERT
  5
AC8D
  8
0
  2
_ORIGIN
 10
4750.0
 20
4275.0000000000209
 30
0.0
 41
30.0
 42
30.0
 43
30.0
 50
180.0
  0
INSERT
  5
AC8E
  8
0
  2
_ORIGIN
 10
4600.0
 20
4275.0000000000209
 30
0.0
 41
30.0
 42
30.0
 43
30.0
  0
INSERT
  5
AC8F
  8
0
  2
*U29
 10
0.0
 20
0.0
 30
0.0
  0
POINT
  5
AC90
  8
DEFPOINTS
 62
     0
 10
4750.0
 20
3850.0000000000209
 30
0.0
  0
POINT
  5
AC91
  8
DEFPOINTS
 62
     0
 10
4600.0
 20
3850.0000000000209
 30
0.0
  0
POINT
  5
AC92
  8
DEFPOINTS
 62
     0
 10
4600.0
 20
4275.0000000000209
 30
0.0
  0
ENDBLK
  5
ABF2
  8
0
  0
BLOCK
  8
0
  2
*U29
 70
     1
 10
0.0
 20
0.0
 30
0.0
  3
*U29
  1

  0
TEXT
  5
AD89
  8
0
 10
4453.3999999999996
 20
4305.0000000000209
 30
0.0
 40
105.0
  1
150以上
 41
0.8
  7
文字
  0
ENDBLK
  5
AD8B
  8
0
  0
BLOCK
  8
0
  2
*D30
 70
     1
 10
0.0
 20
0.0
 30
0.0
  3
*D30
  1

  0
LINE
  5
AC93
  8
0
 10
9250.0
 20
4000.0000000000209
 30
0.0
 11
9250.0
 21
4305.0000000000209
 31
0.0
  0
LINE
  5
AC94
  8
0
 10
9400.0
 20
4000.0000000000209
 30
0.0
 11
9400.0
 21
4305.0000000000209
 31
0.0
  0
LINE
  5
AC95
  8
0
 10
9220.0
 20
4275.0000000000209
 30
0.0
 11
9190.0
 21
4275.0000000000209
 31
0.0
  0
LINE
  5
AC96
  8
0
 10
9430.0
 20
4275.0000000000209
 30
0.0
 11
9460.0
 21
4275.0000000000209
 31
0.0
  0
LINE
  5
AC97
  8
0
 10
9250.0
 20
4275.0000000000209
 30
0.0
 11
9400.0
 21
4275.0000000000209
 31
0.0
  0
INSERT
  5
AC98
  8
0
  2
_ORIGIN
 10
9250.0
 20
4275.0000000000209
 30
0.0
 41
30.0
 42
30.0
 43
30.0
  0
INSERT
  5
AC99
  8
0
  2
_ORIGIN
 10
9400.0
 20
4275.0000000000209
 30
0.0
 41
30.0
 42
30.0
 43
30.0
 50
180.0
  0
INSERT
  5
AC9A
  8
0
  2
*U31
 10
0.0
 20
0.0
 30
0.0
  0
POINT
  5
AC9B
  8
DEFPOINTS
 62
     0
 10
9250.0
 20
3850.0000000000209
 30
0.0
  0
POINT
  5
AC9C
  8
DEFPOINTS
 62
     0
 10
9400.0
 20
3850.0000000000209
 30
0.0
  0
POINT
  5
AC9D
  8
DEFPOINTS
 62
     0
 10
9400.0
 20
4275.0000000000209
 30
0.0
  0
ENDBLK
  5
AC00
  8
0
  0
BLOCK
  8
0
  2
*U31
 70
     1
 10
0.0
 20
0.0
 30
0.0
  3
*U31
  1

  0
TEXT
  5
AD8D
  8
0
 10
9103.3999999999978
 20
4305.0000000000209
 30
0.0
 40
105.0
  1
150以上
 41
0.8
  7
文字
  0
ENDBLK
  5
AD8F
  8
0
  0
BLOCK
  8
0
  2
*D32
 70
     1
 10
0.0
 20
0.0
 30
0.0
  3
*D32
  1

  0
LINE
  5
AC9E
  8
0
 10
7000.0
 20
10125.000000000009
 30
0.0
 11
7000.0
 21
10155.0
 31
0.0
  0
LINE
  5
AC9F
  8
0
 10
11055.0
 20
9450.0000000000091
 30
0.0
 11
11055.0
 21
10155.0
 31
0.0
  0
LINE
  5
ACA0
  8
0
 10
7030.0
 20
10125.000000000009
 30
0.0
 11
11025.0
 21
10125.000000000009
 31
0.0
  0
INSERT
  5
ACA1
  8
0
  2
_ORIGIN
 10
7000.0
 20
10125.000000000009
 30
0.0
 41
30.0
 42
30.0
 43
30.0
 50
180.0
  0
INSERT
  5
ACA2
  8
0
  2
_ORIGIN
 10
11055.0
 20
10125.000000000009
 30
0.0
 41
30.0
 42
30.0
 43
30.0
  0
INSERT
  5
ACA3
  8
0
  2
*U33
 10
0.0
 20
0.0
 30
0.0
  0
POINT
  5
ACA4
  8
DEFPOINTS
 62
     0
 10
7000.0
 20
9975.0000000000091
 30
0.0
  0
POINT
  5
ACA5
  8
DEFPOINTS
 62
     0
 10
11055.0
 20
9300.0000000000091
 30
0.0
  0
POINT
  5
ACA6
  8
DEFPOINTS
 62
     0
 10
11055.0
 20
10125.000000000009
 30
0.0
  0
ENDBLK
  5
AC0E
  8
0
  0
BLOCK
  8
0
  2
*U33
 70
     1
 10
0.0
 20
0.0
 30
0.0
  3
*U33
  1

  0
TEXT
  5
AD91
  8
0
 10
8987.5
 20
10155.0
 30
0.0
 40
105.0
  1
L
 41
0.8
  7
文字
  0
ENDBLK
  5
AD93
  8
0
  0
BLOCK
  8
0
  2
*U34
 70
     1
 10
0.0
 20
0.0
 30
0.0
  3
*U34
  1

  0
INSERT
  5
AD29
  8
0
  2
_OPEN30
 10
7135.0
 20
8955.0
 30
0.0
 41
60.0
 42
60.0
 43
60.0
 50
255.00000000000659
  0
POLYLINE
  5
AD2A
  8
0
 66
     1
 10
0.0
 20
0.0
 30
0.0
  0
VERTEX
  5
AEBB
  8
0
 10
7150.5291427061447
 20
9012.9555495773475
 30
0.0
  0
VERTEX
  5
AEBC
  8
0
 10
7251.4685702960851
 20
9389.6666218300961
 30
0.0
  0
VERTEX
  5
AEBD
  8
0
 10
7832.4685702960851
 20
9389.6666218300961
 30
0.0
  0
SEQEND
  5
AEBE
  8
0
  0
ENDBLK
  5
AD30
  8
0
  0
BLOCK
  8
0
  2
*U35
 70
     1
 10
0.0
 20
0.0
 30
0.0
  3
*U35
  1

  0
INSERT
  5
AD32
  8
0
  2
_OPEN30
 10
8500.0
 20
8737.0000000000073
 30
0.0
 41
60.0
 42
60.0
 43
60.0
 50
105.0000000000003
  0
POLYLINE
  5
AD33
  8
0
 66
     1
 10
0.0
 20
0.0
 30
0.0
  0
VERTEX
  5
AEBF
  8
0
 10
8515.5291427061493
 20
8679.0444504226616
 30
0.0
  0
VERTEX
  5
AEC0
  8
0
 10
8590.586665785886
 20
8398.9259607988297
 30
0.0
  0
VERTEX
  5
AEC1
  8
0
 10
9165.9866657858784
 20
8398.9259607988297
 30
0.0
  0
SEQEND
  5
AEC2
  8
0
  0
ENDBLK
  5
AD39
  8
0
  0
BLOCK
  8
0
  2
*U36
 70
     1
 10
0.0
 20
0.0
 30
0.0
  3
*U36
  1

  0
INSERT
  5
AD3B
  8
0
  2
_OPEN30
 10
7375.3922227930016
 20
8454.9939689848088
 30
0.0
 41
60.0
 42
60.0
 43
60.0
 50
119.9999999999841
  0
POLYLINE
  5
AD3C
  8
0
 66
     1
 10
0.0
 20
0.0
 30
0.0
  0
VERTEX
  5
AEC3
  8
0
 10
7405.392222792987
 20
8403.0324447577386
 30
0.0
  0
VERTEX
  5
AEC4
  8
0
 10
7465.9788885788848
 20
8298.0932613552941
 30
0.0
  0
VERTEX
  5
AEC5
  8
0
 10
8353.7788885788923
 20
8298.0932613552941
 30
0.0
  0
SEQEND
  5
AEC6
  8
0
  0
ENDBLK
  5
AD42
  8
0
  0
BLOCK
  8
0
  2
*U37
 70
     1
 10
0.0
 20
0.0
 30
0.0
  3
*U37
  1

  0
INSERT
  5
AD44
  8
0
  2
_OPEN30
 10
8250.0
 20
3335.0000000000218
 30
0.0
 41
60.0
 42
60.0
 43
60.0
 50
104.9999999999995
  0
POLYLINE
  5
AD45
  8
0
 66
     1
 10
0.0
 20
0.0
 30
0.0
  0
VERTEX
  5
AEC7
  8
0
 10
8265.5291427061493
 20
3277.0444504226771
 30
0.0
  0
VERTEX
  5
AEC8
  8
0
 10
8314.7047612756287
 20
3093.5185434277519
 30
0.0
  0
VERTEX
  5
AEC9
  8
0
 10
8598.9047612756258
 20
3093.5185434277519
 30
0.0
  0
SEQEND
  5
AECA
  8
0
  0
ENDBLK
  5
AD4B
  8
0
  0
BLOCK
  8
0
  2
*U38
 70
     1
 10
0.0
 20
0.0
 30
0.0
  3
*U38
  1

  0
INSERT
  5
AD4D
  8
0
  2
_OPEN30
 10
7016.0
 20
7171.0475088412213
 30
0.0
 41
60.0
 42
60.0
 43
60.0
 50
299.99999999999852
  0
POLYLINE
  5
AD4E
  8
0
 66
     1
 10
0.0
 20
0.0
 30
0.0
  0
VERTEX
  5
AECB
  8
0
 10
6986.0000000000009
 20
7223.0090330682879
 30
0.0
  0
VERTEX
  5
AECC
  8
0
 10
6885.4957445612672
 20
7397.0875098650658
 30
0.0
  0
VERTEX
  5
AECD
  8
0
 10
6500.4957445612672
 20
7397.0875098650658
 30
0.0
  0
SEQEND
  5
AECE
  8
0
  0
ENDBLK
  5
AD54
  8
0
  0
ENDSEC
  0
SECTION
  2
ENTITIES
  0
LINE
  5
6011
  8
0
 10
16380.0
 20
0.0
 30
0.0
 11
0.0
 21
0.0
 31
0.0
  0
LINE
  5
6012
  8
0
 10
0.0
 20
11745.0
 30
0.0
 11
16380.0
 21
11745.0
 31
0.0
  0
LINE
  5
6013
  8
0
 10
0.0
 20
11745.0
 30
0.0
 11
0.0
 21
0.0
 31
0.0
  0
LINE
  5
6014
  8
0
 10
16380.0
 20
11745.0
 30
0.0
 11
16380.0
 21
0.0
 31
0.0
  0
LINE
  5
A821
  8
0
 10
10130.0
 20
400.0
 30
0.0
 11
10130.0
 21
0.0
 31
0.0
  0
TEXT
  5
A822
  8
0
 10
10979.999999999971
 20
247.5
 30
0.0
 40
105.0
  1
オーバードア（電動トロリー式　LM1355R型）
 11
10979.999999999971
 21
300.0
 31
0.0
 73
     2
  0
TEXT
  5
A823
  8
0
 10
10229.999999999971
 20
247.5
 30
0.0
 40
105.0
  1
製品名称  :
 11
10229.999999999971
 21
300.0
 31
0.0
 73
     2
  0
LINE
  5
A824
  8
0
 10
10130.0
 20
200.0
 30
0.0
 11
13880.0
 21
200.0
 31
0.0
  0
LINE
  5
A825
  8
0
 10
13880.0
 20
400.0
 30
0.0
 11
13880.0
 21
0.0
 31
0.0
  0
TEXT
  5
A826
  8
0
 10
13998.33333333333
 20
112.5
 30
0.0
 40
175.0
  1
東洋シヤッター株式会社
 72
     1
 11
15130.0
 21
200.0
 31
0.0
 73
     2
  0
LINE
  5
A827
  8
0
 10
10130.0
 20
400.0
 30
0.0
 11
16380.0
 21
400.0
 31
0.0
  0
TEXT
  5
A828
  8
0
 10
12979.999999999971
 20
47.5
 30
0.0
 40
105.0
  1
縮尺:1/30
 11
12979.999999999971
 21
100.0
 31
0.0
 73
     2
  0
LINE
  5
A829
  8
0
 10
4724.9999999999864
 20
3432.5
 30
0.0
 11
9274.9999999999836
 21
3432.5
 31
0.0
  0
LINE
  5
A82A
  8
0
 10
9274.9999999999836
 20
3432.5
 30
0.0
 11
9274.9999999999836
 21
3484.0
 31
0.0
  0
LINE
  5
A82B
  8
0
 10
9274.9999999999836
 20
3484.0
 30
0.0
 11
4724.9999999999864
 21
3484.0
 31
0.0
  0
LINE
  5
A82C
  8
0
 10
4724.9999999999864
 20
3484.0
 30
0.0
 11
4724.9999999999864
 21
3432.5
 31
0.0
  0
ARC
  5
A82D
  8
0
 10
9327.2999999999884
 20
3497.6999999999971
 30
0.0
 40
2.299999999999998
 50
90.0
 51
180.0
  0
LINE
  5
A82E
  8
0
 10
9364.9999999999836
 20
3497.6999999999971
 30
0.0
 11
9364.9999999999836
 21
3500.0
 31
0.0
  0
LINE
  5
A82F
  8
0
 10
9327.2999999999884
 20
3497.6999999999971
 30
0.0
 11
9364.9999999999836
 21
3497.6999999999971
 31
0.0
  0
LINE
  5
A830
  8
0
 10
9327.2999999999884
 20
3384.0
 30
0.0
 11
9327.2999999999884
 21
3497.6999999999971
 31
0.0
  0
LINE
  5
A831
  8
0
 10
9324.9999999999854
 20
3384.0
 30
0.0
 11
9327.2999999999884
 21
3384.0
 31
0.0
  0
LINE
  5
A832
  8
0
 10
9324.9999999999854
 20
3497.6999999999971
 30
0.0
 11
9324.9999999999854
 21
3384.0
 31
0.0
  0
LINE
  5
A833
  8
0
 10
9364.9999999999836
 20
3500.0
 30
0.0
 11
9327.2999999999884
 21
3500.0
 31
0.0
  0
ARC
  5
A834
  8
0
 10
9312.4999999999836
 20
3386.4999999999409
 30
0.0
 40
5.7499999999704414
 50
180.0
 51
0.0
  0
ARC
  5
A835
  8
0
 10
9312.4999999999836
 20
3421.5
 30
0.0
 40
5.7499999999704414
 50
0.0
 51
180.0
  0
LINE
  5
A836
  8
0
 10
9306.7500000000127
 20
3386.4999999999409
 30
0.0
 11
9306.7500000000127
 21
3421.5
 31
0.0
  0
LINE
  5
A837
  8
0
 10
9318.2500000000127
 20
3421.5
 30
0.0
 11
9318.2500000000127
 21
3386.4999999999409
 31
0.0
  0
ARC
  5
A838
  8
0
 10
9318.9999999999836
 20
3389.7190997647272
 30
0.0
 40
4.0
 50
329.99999999989421
 51
0.0
  0
ARC
  5
A839
  8
0
 10
9318.9999999999836
 20
3389.7190997647349
 30
0.0
 40
6.0
 50
329.99999999989421
 51
0.0
  0
ARC
  5
A83A
  8
0
 10
9319.9999999999836
 20
3425.5
 30
0.0
 40
3.0
 50
0.0
 51
90.0
  0
ARC
  5
A83B
  8
0
 10
9319.9999999999836
 20
3425.5
 30
0.0
 40
5.0
 50
0.0
 51
90.0
  0
LINE
  5
A83C
  8
0
 10
9301.5529946162005
 20
3387.5
 30
0.0
 11
9304.4397459621396
 21
3382.5
 31
0.0
  0
LINE
  5
A83D
  8
0
 10
9303.2850454237632
 20
3388.4999999999932
 30
0.0
 11
9301.5529946162005
 21
3387.5
 31
0.0
  0
LINE
  5
A83E
  8
0
 10
9306.1717967697186
 20
3383.4999999999932
 30
0.0
 11
9303.2850454237632
 21
3388.4999999999932
 31
0.0
  0
LINE
  5
A83F
  8
0
 10
9322.4641016151327
 20
3387.7190997647281
 30
0.0
 11
9320.0282032302348
 21
3383.5000000000141
 31
0.0
  0
LINE
  5
A840
  8
0
 10
9324.1961524226917
 20
3386.719099764734
 30
0.0
 11
9321.7602540377848
 21
3382.5
 31
0.0
  0
ARC
  5
A841
  8
0
 10
9313.0999999999913
 20
3387.5
 30
0.0
 40
8.0
 50
210.0000000001059
 51
329.99999999989421
  0
ARC
  5
A842
  8
0
 10
9313.0999999999913
 20
3387.5
 30
0.0
 40
10.0
 50
210.0000000001059
 51
329.99999999989421
  0
LINE
  5
A843
  8
0
 10
9322.9999999999836
 20
3425.5
 30
0.0
 11
9322.9999999999836
 21
3389.7190997647272
 31
0.0
  0
LINE
  5
A844
  8
0
 10
9299.9999999999836
 20
3428.5
 30
0.0
 11
9319.9999999999836
 21
3428.5
 31
0.0
  0
LINE
  5
A845
  8
0
 10
9299.9999999999836
 20
3430.5
 30
0.0
 11
9299.9999999999836
 21
3428.5
 31
0.0
  0
LINE
  5
A846
  8
0
 10
9319.9999999999836
 20
3430.5
 30
0.0
 11
9299.9999999999836
 21
3430.5
 31
0.0
  0
LINE
  5
A847
  8
0
 10
9324.9999999999854
 20
3389.7190997647349
 30
0.0
 11
9324.9999999999854
 21
3425.5
 31
0.0
  0
LINE
  5
A848
  8
0
 10
9265.6999999999971
 20
3382.5
 30
0.0
 11
9267.9999999999836
 21
3382.5
 31
0.0
  0
LINE
  5
A849
  8
0
 10
9201.9999999999836
 20
3382.5
 30
0.0
 11
9204.2999999999865
 21
3382.5
 31
0.0
  0
LINE
  5
A84A
  8
0
 10
9178.2500000000127
 20
3397.5
 30
0.0
 11
9306.7500000000127
 21
3397.5
 31
0.0
  0
LINE
  5
A84B
  8
0
 10
9178.2500000000127
 20
3410.5000000000009
 30
0.0
 11
9178.2500000000127
 21
3397.5
 31
0.0
  0
LINE
  5
A84C
  8
0
 10
9306.7500000000127
 20
3410.5000000000009
 30
0.0
 11
9178.2500000000127
 21
3410.5000000000009
 31
0.0
  0
LINE
  5
A84D
  8
0
 10
9265.6999999999971
 20
3430.1999999999971
 30
0.0
 11
9265.6999999999971
 21
3382.5
 31
0.0
  0
LINE
  5
A84E
  8
0
 10
9204.2999999999865
 20
3430.1999999999971
 30
0.0
 11
9265.6999999999971
 21
3430.1999999999971
 31
0.0
  0
LINE
  5
A84F
  8
0
 10
9204.2999999999865
 20
3382.5
 30
0.0
 11
9204.2999999999865
 21
3430.1999999999971
 31
0.0
  0
LINE
  5
A850
  8
0
 10
9201.9999999999836
 20
3432.5
 30
0.0
 11
9201.9999999999836
 21
3382.5
 31
0.0
  0
LINE
  5
A851
  8
0
 10
9267.9999999999836
 20
3432.5
 30
0.0
 11
9201.9999999999836
 21
3432.5
 31
0.0
  0
LINE
  5
A852
  8
0
 10
9267.9999999999836
 20
3382.5
 30
0.0
 11
9267.9999999999836
 21
3432.5
 31
0.0
  0
LINE
  5
A853
  8
0
  6
PHANTOM2
 10
9374.9999999999836
 20
3499.9999999999859
 30
0.0
 11
9374.9999999999836
 21
2335.0000000000218
 31
0.0
  0
LINE
  5
A854
  8
0
  6
PHANTOM2
 10
9374.9999999999836
 20
2085.0000000000218
 30
0.0
 11
9299.9999999999836
 21
2085.0000000000218
 31
0.0
  0
LINE
  5
A855
  8
0
  6
PHANTOM2
 10
9299.9999999999836
 20
2085.0000000000218
 30
0.0
 11
9299.9999999999836
 21
2285.0000000000209
 31
0.0
  0
LINE
  5
A856
  8
0
  6
PHANTOM2
 10
9324.9999999999854
 20
2085.0000000000218
 30
0.0
 11
9324.9999999999854
 21
2285.0000000000209
 31
0.0
  0
ARC
  5
A857
  8
0
 10
4672.6999999999971
 20
3497.6999999999971
 30
0.0
 40
2.299999999999998
 50
0.0
 51
90.0
  0
LINE
  5
A858
  8
0
 10
4634.9999999999864
 20
3497.6999999999971
 30
0.0
 11
4634.9999999999864
 21
3500.0
 31
0.0
  0
LINE
  5
A859
  8
0
 10
4672.6999999999971
 20
3497.6999999999971
 30
0.0
 11
4634.9999999999864
 21
3497.6999999999971
 31
0.0
  0
LINE
  5
A85A
  8
0
 10
4672.6999999999971
 20
3384.0
 30
0.0
 11
4672.6999999999971
 21
3497.6999999999971
 31
0.0
  0
LINE
  5
A85B
  8
0
 10
4674.9999999999864
 20
3384.0
 30
0.0
 11
4672.6999999999971
 21
3384.0
 31
0.0
  0
LINE
  5
A85C
  8
0
 10
4674.9999999999864
 20
3497.6999999999971
 30
0.0
 11
4674.9999999999864
 21
3384.0
 31
0.0
  0
LINE
  5
A85D
  8
0
 10
4634.9999999999864
 20
3500.0
 30
0.0
 11
4672.6999999999971
 21
3500.0
 31
0.0
  0
ARC
  5
A85E
  8
0
 10
4687.4999999999864
 20
3386.4999999999409
 30
0.0
 40
5.7499999999704414
 50
180.0
 51
0.0
  0
ARC
  5
A85F
  8
0
 10
4687.4999999999864
 20
3421.5
 30
0.0
 40
5.7499999999704414
 50
0.0
 51
180.0
  0
LINE
  5
A860
  8
0
 10
4693.2499999999563
 20
3386.4999999999409
 30
0.0
 11
4693.2499999999563
 21
3421.5
 31
0.0
  0
LINE
  5
A861
  8
0
 10
4681.7499999999563
 20
3421.5
 30
0.0
 11
4681.7499999999563
 21
3386.4999999999409
 31
0.0
  0
ARC
  5
A862
  8
0
 10
4680.9999999999864
 20
3389.7190997647272
 30
0.0
 40
4.0
 50
180.0
 51
210.0000000001059
  0
ARC
  5
A863
  8
0
 10
4680.9999999999864
 20
3389.7190997647349
 30
0.0
 40
6.0
 50
180.0
 51
210.0000000001059
  0
ARC
  5
A864
  8
0
 10
4679.9999999999864
 20
3425.5
 30
0.0
 40
3.0
 50
90.0
 51
180.0
  0
ARC
  5
A865
  8
0
 10
4679.9999999999864
 20
3425.5
 30
0.0
 40
5.0
 50
90.0
 51
180.0
  0
LINE
  5
A866
  8
0
 10
4698.4470053837858
 20
3387.5
 30
0.0
 11
4695.5602540378322
 21
3382.5
 31
0.0
  0
LINE
  5
A867
  8
0
 10
4696.7149545762222
 20
3388.4999999999932
 30
0.0
 11
4698.4470053837858
 21
3387.5
 31
0.0
  0
LINE
  5
A868
  8
0
 10
4693.8282032302659
 20
3383.4999999999932
 30
0.0
 11
4696.7149545762222
 21
3388.4999999999932
 31
0.0
  0
LINE
  5
A869
  8
0
 10
4677.5358983848564
 20
3387.7190997647281
 30
0.0
 11
4679.9717967697507
 21
3383.5000000000141
 31
0.0
  0
LINE
  5
A86A
  8
0
 10
4675.8038475772919
 20
3386.719099764734
 30
0.0
 11
4678.2397459621861
 21
3382.5
 31
0.0
  0
ARC
  5
A86B
  8
0
 10
4686.8999999999942
 20
3387.5
 30
0.0
 40
8.0
 50
210.0000000001059
 51
329.99999999989421
  0
ARC
  5
A86C
  8
0
 10
4686.8999999999942
 20
3387.5
 30
0.0
 40
10.0
 50
210.0000000001059
 51
329.99999999989421
  0
LINE
  5
A86D
  8
0
 10
4676.9999999999864
 20
3425.5
 30
0.0
 11
4676.9999999999864
 21
3389.7190997647272
 31
0.0
  0
LINE
  5
A86E
  8
0
 10
4699.9999999999864
 20
3428.5
 30
0.0
 11
4679.9999999999864
 21
3428.5
 31
0.0
  0
LINE
  5
A86F
  8
0
 10
4699.9999999999864
 20
3430.5
 30
0.0
 11
4699.9999999999864
 21
3428.5
 31
0.0
  0
LINE
  5
A870
  8
0
 10
4679.9999999999864
 20
3430.5
 30
0.0
 11
4699.9999999999864
 21
3430.5
 31
0.0
  0
LINE
  5
A871
  8
0
 10
4674.9999999999864
 20
3389.7190997647349
 30
0.0
 11
4674.9999999999864
 21
3425.5
 31
0.0
  0
LINE
  5
A872
  8
0
 10
4734.2999999999893
 20
3382.5
 30
0.0
 11
4731.9999999999864
 21
3382.5
 31
0.0
  0
LINE
  5
A873
  8
0
 10
4797.9999999999864
 20
3382.5
 30
0.0
 11
4795.6999999999971
 21
3382.5
 31
0.0
  0
LINE
  5
A874
  8
0
 10
4821.7499999999582
 20
3397.5
 30
0.0
 11
4693.2499999999563
 21
3397.5
 31
0.0
  0
LINE
  5
A875
  8
0
 10
4821.7499999999582
 20
3410.5000000000009
 30
0.0
 11
4821.7499999999582
 21
3397.5
 31
0.0
  0
LINE
  5
A876
  8
0
 10
4693.2499999999563
 20
3410.5000000000009
 30
0.0
 11
4821.7499999999582
 21
3410.5000000000009
 31
0.0
  0
LINE
  5
A877
  8
0
 10
4734.2999999999893
 20
3430.1999999999971
 30
0.0
 11
4734.2999999999893
 21
3382.5
 31
0.0
  0
LINE
  5
A878
  8
0
 10
4795.6999999999971
 20
3430.1999999999971
 30
0.0
 11
4734.2999999999893
 21
3430.1999999999971
 31
0.0
  0
LINE
  5
A879
  8
0
 10
4795.6999999999971
 20
3382.5
 30
0.0
 11
4795.6999999999971
 21
3430.1999999999971
 31
0.0
  0
LINE
  5
A87A
  8
0
 10
4797.9999999999864
 20
3432.5
 30
0.0
 11
4797.9999999999864
 21
3382.5
 31
0.0
  0
LINE
  5
A87B
  8
0
 10
4731.9999999999864
 20
3432.5
 30
0.0
 11
4797.9999999999864
 21
3432.5
 31
0.0
  0
LINE
  5
A87C
  8
0
 10
4731.9999999999864
 20
3382.5
 30
0.0
 11
4731.9999999999864
 21
3432.5
 31
0.0
  0
LINE
  5
A87D
  8
0
  6
PHANTOM2
 10
4625.0000000000146
 20
3499.9999999999859
 30
0.0
 11
4625.0000000000146
 21
2335.0000000000218
 31
0.0
  0
LINE
  5
A87E
  8
0
  6
PHANTOM2
 10
4625.0000000000146
 20
2085.0000000000218
 30
0.0
 11
4700.0000000000164
 21
2085.0000000000218
 31
0.0
  0
LINE
  5
A87F
  8
0
  6
PHANTOM2
 10
4700.0000000000164
 20
2085.0000000000218
 30
0.0
 11
4700.0000000000164
 21
2285.0000000000209
 31
0.0
  0
LINE
  5
A880
  8
0
  6
PHANTOM2
 10
4675.0000000000136
 20
2085.0000000000218
 30
0.0
 11
4675.0
 21
2285.0000000000209
 31
0.0
  0
DIMENSION
  5
A881
  8
0
  2
*D14
 10
9250.0
 20
4500.0000000000209
 30
0.0
 11
7000.0
 21
4582.50000000002
 31
0.0
  1
W
 13
4750.0
 23
3850.0000000000209
 33
0.0
 14
9250.0
 24
3850.0000000000209
 34
0.0
1001
ACAD
1000
DSTYLE
1002
{
1070
    41
1040
1.0
1002
}
  0
LINE
  5
A882
  8
0
 10
7016.0000000000164
 20
8584.9999999999764
 30
0.0
 11
7067.5000000000146
 21
8584.9999999999764
 31
0.0
  0
LINE
  5
A883
  8
0
 10
7067.5000000000146
 20
8584.9999999999764
 30
0.0
 11
7067.5000000000146
 21
6019.9999999999691
 31
0.0
  0
LINE
  5
A884
  8
0
 10
7067.5000000000146
 20
6019.9999999999691
 30
0.0
 11
7016.0000000000164
 21
6019.9999999999691
 31
0.0
  0
LINE
  5
A885
  8
0
 10
7016.0000000000164
 20
6019.9999999999691
 30
0.0
 11
7016.0000000000164
 21
8584.9999999999764
 31
0.0
  0
LINE
  5
A886
  8
0
 10
5250.0
 20
6000.0
 30
0.0
 11
11745.0
 21
6000.0
 31
0.0
  0
LINE
  5
A887
  8
0
 10
7104.0
 20
6000.0
 30
0.0
 11
7135.0788889064434
 21
8341.7055567207299
 31
0.0
  0
LINE
  5
A888
  8
0
  6
HIDDEN
 10
7050.9963323068368
 20
6000.0
 30
0.0
 11
7067.5000000000146
 21
7402.8117537458647
 31
0.0
  0
LINE
  5
A889
  8
0
 10
9915.0
 20
8737.0
 30
0.0
 11
9915.0
 21
8790.0
 31
0.0
  0
LINE
  5
A88A
  8
0
 10
7000.0
 20
8790.0
 30
0.0
 11
7000.0
 21
8740.0
 31
0.0
  0
DIMENSION
  5
A88B
  8
0
  2
*D16
 10
5750.0
 20
6000.0
 30
0.0
 11
5667.4999999999991
 21
7250.0000000000027
 31
0.0
  1
H
 13
6650.0
 23
8500.0
 33
0.0
 14
5850.0
 24
6000.0
 34
0.0
 50
90.0
1001
ACAD
1000
DSTYLE
1002
{
1070
    41
1040
1.0
1002
}
  0
LINE
  5
A88C
  8
0
 10
7535.0512101187351
 20
8748.0
 30
0.0
 11
9915.0
 21
8748.0
 31
0.0
  0
LINE
  5
A88D
  8
0
 10
7535.0512101187351
 20
8737.0000000000073
 30
0.0
 11
9915.0
 21
8737.0
 31
0.0
  0
DIMENSION
  5
A88E
  8
0
  2
*D18
 10
5750.0
 20
9100.0
 30
0.0
 11
5667.4999999999991
 21
8800.0000000000018
 31
0.0
  1
HR=600以上
 13
6650.0
 23
8500.0
 33
0.0
 14
6650.0
 24
9100.0
 34
0.0
 50
90.0
1001
ACAD
1000
DSTYLE
1002
{
1070
    41
1040
1.0
1002
}
  0
LINE
  5
A88F
  8
0
 10
7136.0
 20
8790.0
 30
0.0
 11
7136.0
 21
8551.3994675897648
 31
0.0
  0
LINE
  5
A890
  8
0
  6
HIDDEN
 10
7136.0
 20
8740.0
 30
0.0
 11
7000.0
 21
8740.0
 31
0.0
  0
LINE
  5
A891
  8
0
 10
7067.5000000000146
 20
7402.8117537458647
 30
0.0
 11
7082.0825563458202
 21
8342.3290429862245
 31
0.0
  0
DIMENSION
  5
A892
  8
0
  2
*D20
 10
8006.0
 20
8585.0000000000055
 30
0.0
 11
7923.4999999999973
 21
7302.5000000000027
 31
0.0
  1
DH
 13
7256.0
 23
6020.0
 33
0.0
 14
7256.0
 24
8585.0000000000055
 34
0.0
 50
90.0
1001
ACAD
1000
DSTYLE
1002
{
1070
    41
1040
1.0
1002
}
  0
DIMENSION
  5
A893
  8
0
  2
*D22
 10
7110.0
 20
9675.0000000000109
 30
0.0
 11
7055.0
 21
9757.5000000000091
 31
0.0
 13
7000.0
 23
9525.0000000000109
 33
0.0
 14
7110.0
 24
9300.0000000000091
 34
0.0
1001
ACAD
1000
DSTYLE
1002
{
1070
    41
1040
1.0
1002
}
  0
DIMENSION
  5
A894
  8
0
  2
*D24
 10
9915.0
 20
9900.0000000000109
 30
0.0
 11
8457.5000000000018
 21
9982.5000000000073
 31
0.0
  1
DH+350
 13
7000.0
 23
9750.0000000000091
 33
0.0
 14
9915.0
 24
9300.0000000000091
 34
0.0
1001
ACAD
1000
DSTYLE
1002
{
1070
    41
1040
1.0
1002
}
  0
LINE
  5
A895
  8
0
 10
8200.0
 20
8790.0
 30
0.0
 11
8200.0
 21
9035.549999999972
 31
0.0
  0
LINE
  5
A896
  8
0
 10
8200.0
 20
9100.0000000000036
 30
0.0
 11
8240.0
 21
9100.0000000000036
 31
0.0
  0
LINE
  5
A897
  8
0
 10
8240.0
 20
9100.0000000000036
 30
0.0
 11
8240.0
 21
9070.3499999999749
 31
0.0
  0
LINE
  5
A898
  8
0
 10
9400.0
 20
8790.0
 30
0.0
 11
9400.0
 21
9035.549999999972
 31
0.0
  0
LINE
  5
A899
  8
0
 10
9400.0
 20
9100.0000000000036
 30
0.0
 11
9440.0
 21
9100.0000000000036
 31
0.0
  0
LINE
  5
A89A
  8
0
 10
9440.0
 20
9100.0000000000036
 30
0.0
 11
9440.0
 21
9070.3499999999749
 31
0.0
  0
TEXT
  5
A89B
  8
0
 10
7303.9685702960824
 20
9419.6666218300961
 30
0.0
 40
105.0
  1
巻取ドラム
 41
0.8
  7
横文字
 72
     1
 11
7541.9685702960824
 21
9419.6666218300961
 31
0.0
  0
INSERT
  5
A89C
  8
0
  2
*U34
 10
0.0
 20
0.0
 30
0.0
  0
LINE
  5
A89D
  8
0
 10
4750.0
 20
2335.0000000000218
 30
0.0
 11
4575.0
 21
2335.0000000000218
 31
0.0
  0
LINE
  5
A89E
  8
0
 10
4750.0
 20
2285.0000000000209
 30
0.0
 11
4575.0
 21
2285.0000000000209
 31
0.0
  0
LINE
  5
A89F
  8
0
  6
PHANTOM2
 10
4625.0000000000146
 20
2285.0000000000209
 30
0.0
 11
4625.0000000000146
 21
2085.0000000000218
 31
0.0
  0
LINE
  5
A8A0
  8
0
  6
PHANTOM2
 10
4675.0
 20
2335.0000000000218
 30
0.0
 11
4674.9999999999864
 21
3389.7190997647349
 31
0.0
  0
LINE
  5
A8A1
  8
0
  6
PHANTOM2
 10
4700.0000000000164
 20
2335.0000000000218
 30
0.0
 11
4700.0000000000164
 21
3389.7190997647349
 31
0.0
  0
LINE
  5
A8A2
  8
0
 10
9424.9999999999745
 20
2335.0000000000218
 30
0.0
 11
9249.9999999999727
 21
2335.0000000000218
 31
0.0
  0
LINE
  5
A8A3
  8
0
 10
9424.9999999999745
 20
2285.0000000000209
 30
0.0
 11
9249.9999999999727
 21
2285.0000000000209
 31
0.0
  0
LINE
  5
A8A4
  8
0
  6
PHANTOM2
 10
9374.9999999999836
 20
2285.0000000000209
 30
0.0
 11
9374.9999999999836
 21
2085.0000000000218
 31
0.0
  0
LINE
  5
A8A5
  8
0
  6
PHANTOM2
 10
9299.9999999999836
 20
2335.0000000000218
 30
0.0
 11
9299.9999999999836
 21
3389.7190997647349
 31
0.0
  0
LINE
  5
A8A6
  8
0
  6
PHANTOM2
 10
9324.9999999999854
 20
2335.0000000000218
 30
0.0
 11
9324.9999999999854
 21
3389.7190997647349
 31
0.0
  0
DIMENSION
  5
A8A7
  8
0
  2
*D26
 10
9275.0
 20
2750.0000000000209
 30
0.0
 11
7000.0
 21
2832.5000000000218
 31
0.0
  1
DW
 13
4725.0
 23
3250.0000000000209
 33
0.0
 14
9275.0
 24
3250.0000000000209
 34
0.0
1001
ACAD
1000
DSTYLE
1002
{
1070
    41
1040
1.0
1002
}
  0
LINE
  5
A8A8
  8
0
 10
7092.9992387806551
 20
6000.0
 30
0.0
 11
7124.0678853672152
 21
8341.8349595305499
 31
0.0
  0
ARC
  5
A8A9
  8
0
 10
7535.0512101187351
 20
8337.0000000000055
 30
0.0
 40
400.0
 50
90.0
 51
136.16332645385739
  0
ARC
  5
A8AA
  8
0
 10
7535.0394454128527
 20
8337.0
 30
0.0
 40
411.0
 50
90.0
 51
134.07337670955101
  0
ARC
  5
A8AB
  8
0
 10
7535.0512101187351
 20
8337.0
 30
0.0
 40
453.0
 50
90.0
 51
127.65718113864931
  0
LINE
  5
A8AC
  8
0
 10
7136.0
 20
8740.0
 30
0.0
 11
7322.1696014629697
 21
8740.0
 31
0.0
  0
TEXT
  5
A8AD
  8
0
 10
8643.0866657858842
 20
8428.9259607988297
 30
0.0
 40
105.0
  1
水平レール
 41
0.8
  7
横文字
 72
     1
 11
8878.2866657858867
 21
8428.9259607988297
 31
0.0
  0
INSERT
  5
A8AE
  8
0
  2
*U35
 10
0.0
 20
0.0
 30
0.0
  0
LINE
  5
A8AF
  8
0
 10
9915.0
 20
8790.0
 30
0.0
 11
7535.0512101187351
 21
8790.0
 31
0.0
  0
DIMENSION
  5
A8B0
  8
0
  2
*D28
 10
4600.0
 20
4275.0000000000209
 30
0.0
 11
4675.0
 21
4357.5000000000209
 31
0.0
  1
150以上
 13
4750.0
 23
3850.0000000000209
 33
0.0
 14
4600.0
 24
3850.0000000000209
 34
0.0
1001
ACAD
1000
DSTYLE
1002
{
1070
    41
1040
1.0
1002
}
  0
DIMENSION
  5
A8B1
  8
0
  2
*D30
 10
9400.0
 20
4275.0000000000209
 30
0.0
 11
9325.0
 21
4357.5000000000209
 31
0.0
  1
150以上
 13
9250.0
 23
3850.0000000000209
 33
0.0
 14
9400.0
 24
3850.0000000000209
 34
0.0
1001
ACAD
1000
DSTYLE
1002
{
1070
    41
1040
1.0
1002
}
  0
LINE
  5
A8B2
  8
0
 10
7000.0
 20
9015.0000000000127
 30
0.0
 11
7000.0
 21
8845.0000000000127
 31
0.0
  0
LINE
  5
A8B3
  8
0
 10
7000.0
 20
8845.0000000000127
 30
0.0
 11
7190.0
 21
8845.0000000000127
 31
0.0
  0
LINE
  5
A8B4
  8
0
 10
7210.0
 20
8865.0000000000146
 30
0.0
 11
7210.0
 21
8912.4999999999982
 31
0.0
  0
LINE
  5
A8B5
  8
0
 10
7190.0
 20
9015.0000000000127
 30
0.0
 11
7000.0
 21
9015.0000000000127
 31
0.0
  0
LINE
  5
A8B6
  8
0
 10
7190.0
 20
9015.0000000000127
 30
0.0
 11
7210.0
 21
8995.0000000000127
 31
0.0
  0
LINE
  5
A8B7
  8
0
 10
7210.0
 20
8865.0000000000146
 30
0.0
 11
7190.0
 21
8845.0000000000127
 31
0.0
  0
LINE
  5
A8B8
  8
0
 10
7003.1999999999962
 20
9015.0000000000127
 30
0.0
 11
7003.1999999999962
 21
8845.0000000000127
 31
0.0
  0
LINE
  5
A8B9
  8
0
 10
7187.0373286141257
 20
8947.5000000000036
 30
0.0
 11
7210.0
 21
8947.5000000000036
 31
0.0
  0
LINE
  5
A8BA
  8
0
 10
7210.0
 20
8912.4999999999982
 30
0.0
 11
7187.037328614113
 21
8912.4999999999982
 31
0.0
  0
LINE
  5
A8BB
  8
0
 10
7210.0
 20
8947.5000000000036
 30
0.0
 11
7210.0
 21
8995.0000000000127
 31
0.0
  0
CIRCLE
  5
A8BC
  8
0
 10
7110.0
 20
8930.0000000000127
 30
0.0
 40
79.0
  0
LINE
  5
A8BD
  8
0
  6
CENTER2
 10
7110.0
 20
9030.0000000000127
 30
0.0
 11
7110.0
 21
8830.0000000000164
 31
0.0
  0
LINE
  5
A8BE
  8
0
  6
CENTER2
 10
7009.0
 20
8930.0
 30
0.0
 11
7210.0
 21
8930.0
 31
0.0
  0
LINE
  5
A8BF
  8
0
 10
7535.0512101187351
 20
8790.0
 30
0.0
 11
7000.0
 21
8790.0
 31
0.0
  0
DIMENSION
  5
A8C0
  8
0
  2
*D32
 10
11055.0
 20
10125.000000000009
 30
0.0
 11
9027.5000000000018
 21
10207.5
 31
0.0
  1
L
 13
7000.0
 23
9975.0000000000091
 33
0.0
 14
11055.0
 24
9300.0000000000091
 34
0.0
1001
ACAD
1000
DSTYLE
1002
{
1070
    41
1040
1.0
1002
}
  0
CIRCLE
  5
A8C1
  8
0
 10
7034.199999999998
 20
9046.5999999999967
 30
0.0
 40
4.1500000000000004
  0
ARC
  5
A8C2
  8
0
 10
7034.3000000000011
 20
9046.4999999999727
 30
0.0
 40
9.5
 50
270.0
 51
54.032634234836493
  0
LINE
  5
A8C3
  8
0
 10
7005.0
 20
9079.4999999999727
 30
0.0
 11
7039.8795815549965
 21
9054.1888405929712
 31
0.0
  0
LINE
  5
A8C4
  8
0
 10
7002.0
 20
9036.9999999999745
 30
0.0
 11
7002.0
 21
9022.4999999999727
 31
0.0
  0
LINE
  5
A8C5
  8
0
 10
7000.0
 20
9036.9999999999745
 30
0.0
 11
7034.3000000000011
 21
9036.9999999999745
 31
0.0
  0
LINE
  5
A8C6
  8
0
 10
7002.0
 20
9079.4999999999727
 30
0.0
 11
7005.0
 21
9079.4999999999727
 31
0.0
  0
LINE
  5
A8C7
  8
0
 10
7002.0
 20
9079.4999999999727
 30
0.0
 11
7000.0
 21
9079.4999999999727
 31
0.0
  0
LINE
  5
A8C8
  8
0
 10
7000.0
 20
9022.4999999999727
 30
0.0
 11
7002.0
 21
9022.4999999999727
 31
0.0
  0
LINE
  5
A8C9
  8
0
 10
7000.0
 20
9079.4999999999727
 30
0.0
 11
7000.0
 21
9022.4999999999727
 31
0.0
  0
ARC
  5
A8CA
  8
0
 10
7372.8922227930016
 20
8080.6055555549738
 30
0.0
 40
202.944444444
 50
77.911817005054786
 51
102.0881860662665
  0
LINE
  5
A8CB
  8
0
 10
7415.3922227930007
 20
8261.5499999999738
 30
0.0
 11
7415.3922227930007
 21
8279.0499999999738
 31
0.0
  0
LINE
  5
A8CC
  8
0
 10
7330.3922227929997
 20
8261.5499999999738
 30
0.0
 11
7330.3922227929997
 21
8279.0499999999738
 31
0.0
  0
LINE
  5
A8CD
  8
0
 10
7415.3922227930007
 20
8261.5499999999738
 30
0.0
 11
7330.3922227929997
 21
8261.5499999999738
 31
0.0
  0
LINE
  5
A8CE
  8
0
 10
7024.5
 20
9036.9999999999745
 30
0.0
 11
7024.5
 21
9032.0499999999756
 31
0.0
  0
LINE
  5
A8CF
  8
0
 10
7353.2709186980073
 20
9002.7279641399709
 30
0.0
 11
7354.3559904600097
 21
9003.2492582159757
 31
0.0
  0
ARC
  5
A8D0
  8
0
 10
7354.570042781007
 20
9000.0238419879734
 30
0.0
 40
3.0
 50
115.66072996322001
 51
195.24306894694101
  0
LINE
  5
A8D1
  8
0
 10
7351.6735794740098
 20
8999.2350710969768
 30
0.0
 11
7351.6737285440031
 21
8999.234592338973
 31
0.0
  0
LINE
  5
A8D2
  8
0
 10
7346.5273926740019
 20
9010.4407265939753
 30
0.0
 11
7345.4593396150012
 21
9009.9276087039761
 31
0.0
  0
ARC
  5
A8D3
  8
0
 10
7345.2282685900136
 20
9013.1448487459711
 30
0.0
 40
3.0
 50
295.6607268931902
 51
17.294842161074818
  0
LINE
  5
A8D4
  8
0
 10
7348.0884949440069
 20
9014.049999999972
 30
0.0
 11
7348.0926312920064
 21
9014.0367155029744
 31
0.0
  0
ARC
  5
A8D5
  8
0
 10
7271.032216147999
 20
8996.0499999999738
 30
0.0
 40
2.0
 50
30.158408684831791
 51
90.0
  0
ARC
  5
A8D6
  8
0
 10
7287.2554325300016
 20
8983.8306588999749
 30
0.0
 40
14.0
 50
18.567162355950838
 51
31.583953386490109
  0
LINE
  5
A8D7
  8
0
 10
7210.5075285540079
 20
8539.5353227689775
 30
0.0
 11
7206.0636269200049
 21
8508.6904461319718
 31
0.0
  0
ARC
  5
A8D8
  8
0
 10
7159.9892028930053
 20
8607.8939269989714
 30
0.0
 40
59.5
 50
273.80165999222572
 51
351.80166132304117
  0
ARC
  5
A8D9
  8
0
 10
7159.9892028930053
 20
8607.8939269989714
 30
0.0
 40
85.0
 50
273.80165999222572
 51
306.46511444988448
  0
LINE
  5
A8DA
  8
0
 10
7089.4522064270132
 20
8518.0193593419735
 30
0.0
 11
7165.6249438350051
 21
8523.0809655839766
 31
0.0
  0
ARC
  5
A8DB
  8
0
 10
7096.4911981850018
 20
8531.2652113359709
 30
0.0
 40
15.0
 50
125.5899942217029
 51
242.01332883332881
  0
LINE
  5
A8DC
  8
0
 10
7087.7614841440072
 20
8543.4632477669747
 30
0.0
 11
7163.934221552001
 21
8548.5248540079792
 31
0.0
  0
LINE
  5
A8DD
  8
0
  6
CENTER2
 10
7290.98660638601
 20
9009.7285313749744
 30
0.0
 11
7212.6320522680016
 21
8466.6238816779733
 31
0.0
  0
ARC
  5
A8DE
  8
0
 10
7159.9892028930053
 20
8607.8939269989714
 30
0.0
 40
85.0
 50
306.46511444988448
 51
347.5738563727632
  0
LINE
  5
A8DF
  8
0
 10
7300.5267473650038
 20
8988.2884837669717
 30
0.0
 11
7230.8081362120129
 21
8505.1254395709766
 31
0.0
  0
LINE
  5
A8E0
  8
0
 10
7275.7822382040031
 20
8991.8534895699686
 30
0.0
 11
7218.8811346750026
 21
8599.4092130439767
 31
0.0
  0
CIRCLE
  5
A8E1
  8
0
 10
7287.6832332260092
 20
8986.7999999999738
 30
0.0
 40
4.3499999999999979
  0
ARC
  5
A8E2
  8
0
 10
7219.3349419700098
 20
8513.1482703609727
 30
0.0
 40
14.0
 50
198.56715928579391
 51
325.03616028889837
  0
ARC
  5
A8E3
  8
0
 10
7345.2282685900136
 20
9013.1448487459711
 30
0.0
 40
2.0
 50
295.6607268931902
 51
17.294842161074818
  0
ARC
  5
A8E4
  8
0
 10
7354.570042781007
 20
9000.0238419879734
 30
0.0
 40
2.0
 50
115.66072996322001
 51
193.7996522098081
  0
LINE
  5
A8E5
  8
0
 10
7347.1378437250087
 20
9013.7394265839757
 30
0.0
 11
7347.0411415490098
 21
9014.049999999972
 31
0.0
  0
LINE
  5
A8E6
  8
0
 10
7345.0262982530121
 20
9010.8289827549743
 30
0.0
 11
7346.0943513130051
 21
9011.3421006439748
 31
0.0
  0
LINE
  5
A8E7
  8
0
 10
7353.7039600590069
 20
9001.8265900889746
 30
0.0
 11
7354.789031822017
 21
9002.3478841659762
 31
0.0
  0
ARC
  5
A8E8
  8
0
 10
7354.6403873620138
 20
9002.8252779489703
 30
0.0
 40
0.5
 50
287.29484062595492
 51
107.2948436962202
  0
ARC
  5
A8E9
  8
0
 10
7345.1749427130117
 20
9010.3515889709743
 30
0.0
 40
0.5
 50
107.2948436962202
 51
287.29484062595492
  0
ARC
  5
A8EA
  8
0
 10
7348.1478319050084
 20
9000.8037132989684
 30
0.0
 40
0.5
 50
107.2948436962202
 51
287.29484062595492
  0
ARC
  5
A8EB
  8
0
 10
7347.8505429860088
 20
9001.7585008659735
 30
0.0
 40
0.5
 50
107.2948436962202
 51
287.29484062595492
  0
ARC
  5
A8EC
  8
0
 10
7347.553254066006
 20
9002.7132884329767
 30
0.0
 40
0.5
 50
107.2948436962202
 51
287.29484062595492
  0
ARC
  5
A8ED
  8
0
 10
7347.2559651470083
 20
9003.6680760009767
 30
0.0
 40
0.5
 50
107.2948436962202
 51
287.29484062595492
  0
ARC
  5
A8EE
  8
0
 10
7346.9586762280069
 20
9004.6228635679727
 30
0.0
 40
0.5
 50
107.2948436962202
 51
287.29484062595492
  0
ARC
  5
A8EF
  8
0
 10
7346.9586762280069
 20
9004.6228635679727
 30
0.0
 40
0.5
 50
107.2948436962202
 51
287.29484062595492
  0
ARC
  5
A8F0
  8
0
 10
7346.6613873090091
 20
9005.5776511349759
 30
0.0
 40
0.5
 50
107.2948436962202
 51
287.29484062595492
  0
ARC
  5
A8F1
  8
0
 10
7346.3640983900132
 20
9006.5324387019718
 30
0.0
 40
0.5
 50
107.2948436962202
 51
287.29484062595492
  0
ARC
  5
A8F2
  8
0
 10
7346.0668094710109
 20
9007.4872262689787
 30
0.0
 40
0.5
 50
107.2948436962202
 51
287.29484062595492
  0
ARC
  5
A8F3
  8
0
 10
7345.7695205510099
 20
9008.4420138369715
 30
0.0
 40
0.5
 50
107.2948436962202
 51
287.29484062595492
  0
ARC
  5
A8F4
  8
0
 10
7345.4722316320131
 20
9009.3968014039729
 30
0.0
 40
0.5
 50
107.2948436962202
 51
287.29484062595492
  0
ARC
  5
A8F5
  8
0
 10
7354.3430984430024
 20
9003.7800655159735
 30
0.0
 40
0.5
 50
287.29484062595492
 51
107.2948436962202
  0
ARC
  5
A8F6
  8
0
 10
7354.0458095240019
 20
9004.7348530839736
 30
0.0
 40
0.5
 50
287.29484062595492
 51
107.2948436962202
  0
ARC
  5
A8F7
  8
0
 10
7353.7485206040128
 20
9005.6896406509768
 30
0.0
 40
0.5
 50
287.29484062595492
 51
107.2948436962202
  0
ARC
  5
A8F8
  8
0
 10
7353.4512316850032
 20
9006.6444282179727
 30
0.0
 40
0.5
 50
287.29484062595492
 51
107.2948436962202
  0
ARC
  5
A8F9
  8
0
 10
7353.1539427660018
 20
9007.599215784976
 30
0.0
 40
0.5
 50
287.29484062595492
 51
107.2948436962202
  0
ARC
  5
A8FA
  8
0
 10
7352.856653847005
 20
9008.554003352976
 30
0.0
 40
0.5
 50
287.29484062595492
 51
107.2948436962202
  0
ARC
  5
A8FB
  8
0
 10
7352.5593649280054
 20
9009.5087909199701
 30
0.0
 40
0.5
 50
287.29484062595492
 51
107.2948436962202
  0
ARC
  5
A8FC
  8
0
 10
7352.262076009004
 20
9010.463578486977
 30
0.0
 40
0.5
 50
287.29484062595492
 51
107.2948436962202
  0
ARC
  5
A8FD
  8
0
 10
7351.9647870890058
 20
9011.4183660539729
 30
0.0
 40
0.5
 50
287.29484062595492
 51
107.2948436962202
  0
ARC
  5
A8FE
  8
0
 10
7351.6674981700053
 20
9012.3731536219675
 30
0.0
 40
0.5
 50
287.29484062595492
 51
107.2948436962202
  0
LINE
  5
A8FF
  8
0
 10
7345.3235871730003
 20
9009.8741951879747
 30
0.0
 11
7351.518853711008
 21
9012.8505474049743
 31
0.0
  0
LINE
  5
A900
  8
0
 10
7345.6208760920126
 20
9008.9194076199728
 30
0.0
 11
7351.8161426300048
 21
9011.8957598379748
 31
0.0
  0
LINE
  5
A901
  8
0
 10
7345.9181650110113
 20
9007.9646200529769
 30
0.0
 11
7352.1134315490062
 21
9010.9409722709788
 31
0.0
  0
LINE
  5
A902
  8
0
 10
7346.21545393001
 20
9007.0098324859755
 30
0.0
 11
7352.410720468004
 21
9009.986184702977
 31
0.0
  0
LINE
  5
A903
  8
0
 10
7346.5127428490068
 20
9006.0550449189759
 30
0.0
 11
7352.7080093870018
 21
9009.0313971359719
 31
0.0
  0
LINE
  5
A904
  8
0
 10
7346.8100317690114
 20
9005.1002573509759
 30
0.0
 11
7353.005298306015
 21
9008.0766095689778
 31
0.0
  0
LINE
  5
A905
  8
0
 10
7347.1073206880101
 20
9004.1454697839708
 30
0.0
 11
7353.3025872260041
 21
9007.1218220019709
 31
0.0
  0
LINE
  5
A906
  8
0
 10
7347.4046096070078
 20
9003.1906822169785
 30
0.0
 11
7353.5998761450028
 21
9006.167034434975
 31
0.0
  0
LINE
  5
A907
  8
0
 10
7347.7018985260083
 20
9002.2358946499735
 30
0.0
 11
7353.897165064016
 21
9005.2122468669695
 31
0.0
  0
LINE
  5
A908
  8
0
 10
7347.9991874450061
 20
9001.2811070819735
 30
0.0
 11
7354.1944539830001
 21
9004.2574592999736
 31
0.0
  0
LINE
  5
A909
  8
0
 10
7348.296476364002
 20
9000.3263195149702
 30
0.0
 11
7354.4917429020134
 21
9003.3026717329776
 31
0.0
  0
LINE
  5
A90A
  8
0
 10
7351.9358687410131
 20
9001.4595045959704
 30
0.0
 11
7348.296476364002
 21
9000.3263195149702
 31
0.0
  0
LINE
  5
A90B
  8
0
 10
7347.8643276410157
 20
9011.7126501989787
 30
0.0
 11
7351.518853711008
 21
9012.8505474049743
 31
0.0
  0
CIRCLE
  5
A90C
  8
0
 10
7346.1832332260092
 20
9018.549999999972
 30
0.0
 40
1.5
  0
CIRCLE
  5
A90D
  8
0
 10
7353.0722183400057
 20
8996.4249999999738
 30
0.0
 40
2.0
  0
CIRCLE
  5
A90E
  8
0
 10
7372.8922227930016
 20
8988.7999999999738
 30
0.0
 40
3.25
  0
ARC
  5
A90F
  8
0
 10
7342.0027060830053
 20
8995.5999763459786
 30
0.0
 40
2.0
 50
223.95837100297879
 51
301.75947909140388
  0
ARC
  5
A910
  8
0
 10
7352.7521836990063
 20
8997.5499999999738
 30
0.0
 40
2.0
 50
90.0
 51
121.7594821617262
  0
ARC
  5
A911
  8
0
 10
7374.5233806520127
 20
8997.5499999999738
 30
0.0
 40
2.0
 50
10.619655457291911
 51
90.0
  0
ARC
  5
A912
  8
0
 10
7376.7733806520127
 20
8985.5499999999738
 30
0.0
 40
2.0
 50
270.0
 51
10.619655457291911
  0
ARC
  5
A913
  8
0
 10
7329.0322876220016
 20
8985.5499999999738
 30
0.0
 40
2.0
 50
223.99491167509299
 51
270.0
  0
LINE
  5
A914
  8
0
 10
7351.699474470006
 20
8999.2505302929712
 30
0.0
 11
7343.055415313007
 21
8993.8994460529739
 31
0.0
  0
LINE
  5
A915
  8
0
 10
7352.7521836990063
 20
8999.5499999999738
 30
0.0
 11
7374.5233806520127
 21
8999.5499999999738
 31
0.0
  0
LINE
  5
A916
  8
0
 10
7378.7391250260116
 20
8985.9185770699787
 30
0.0
 11
7376.4891250260107
 21
8997.9185770699787
 31
0.0
  0
LINE
  5
A917
  8
0
 10
7329.0322876220016
 20
8983.5499999999738
 30
0.0
 11
7376.7733806520127
 21
8983.5499999999738
 31
0.0
  0
LINE
  5
A918
  8
0
 10
7328.7435446360041
 20
9006.4689363159705
 30
0.0
 11
7340.5630174930102
 21
8994.2117052049725
 31
0.0
  0
LINE
  5
A919
  8
0
 10
7314.1832332260092
 20
8998.0499999999738
 30
0.0
 11
7327.5934847010039
 21
8984.1608109719746
 31
0.0
  0
ARC
  5
A91A
  8
0
 10
7287.6832332260092
 20
8986.7999999999738
 30
0.0
 40
7.75
 50
210.15840868483181
 51
329.84158824487338
  0
ARC
  5
A91B
  8
0
 10
7304.334250305008
 20
8996.0499999999738
 30
0.0
 40
2.0
 50
90.0
 51
149.84159131516819
  0
LINE
  5
A91C
  8
0
 10
7302.6049709120134
 20
8997.0547849419745
 30
0.0
 11
7294.384190876006
 21
8982.9064583489744
 31
0.0
  0
LINE
  5
A91D
  8
0
 10
7272.7614955410099
 20
8997.0547849419745
 30
0.0
 11
7280.9822755770138
 21
8982.9064583489744
 31
0.0
  0
CIRCLE
  5
A91E
  8
0
 10
7287.6832332260092
 20
8986.7999999999738
 30
0.0
 40
4.1500000000000004
  0
CIRCLE
  5
A91F
  8
0
 10
7287.6832332260092
 20
8986.7999999999738
 30
0.0
 40
4.1500000000000004
  0
LINE
  5
A920
  8
0
 10
7304.334250305008
 20
8998.0499999999738
 30
0.0
 11
7325.1832332260101
 21
8998.0499999999738
 31
0.0
  0
LINE
  5
A921
  8
0
 10
7249.1832332260092
 20
8998.0499999999738
 30
0.0
 11
7271.032216147999
 21
8998.0499999999738
 31
0.0
  0
ARC
  5
A922
  8
0
 10
7249.1832332260092
 20
9008.049999999972
 30
0.0
 40
10.0
 50
180.0
 51
270.0
  0
ARC
  5
A923
  8
0
 10
7325.1832332260101
 20
9001.0499999999738
 30
0.0
 40
3.0
 50
270.0
 51
0.0
  0
ARC
  5
A924
  8
0
 10
7331.1832332260101
 20
9011.049999999972
 30
0.0
 40
3.0
 50
90.0
 51
180.0
  0
ARC
  5
A925
  8
0
 10
7371.1832332260092
 20
9017.049999999972
 30
0.0
 40
3.0
 50
270.0
 51
0.0
  0
LINE
  5
A926
  8
0
 10
7328.1832332260101
 20
9011.049999999972
 30
0.0
 11
7328.1832332260101
 21
9001.0499999999738
 31
0.0
  0
LINE
  5
A927
  8
0
 10
7374.1832332260092
 20
9020.049999999972
 30
0.0
 11
7239.1832332260092
 21
9020.049999999972
 31
0.0
  0
LINE
  5
A928
  8
0
 10
7371.1832332260092
 20
9014.049999999972
 30
0.0
 11
7331.1832332260101
 21
9014.049999999972
 31
0.0
  0
LINE
  5
A929
  8
0
 10
7374.1832332260092
 20
9046.049999999972
 30
0.0
 11
7364.1832332260092
 21
9043.049999999972
 31
0.0
  0
LINE
  5
A92A
  8
0
 10
7239.1832332260092
 20
9046.049999999972
 30
0.0
 11
7249.1832332260092
 21
9043.049999999972
 31
0.0
  0
LINE
  5
A92B
  8
0
 10
7249.1832332260092
 20
9043.049999999972
 30
0.0
 11
7364.1832332260092
 21
9043.049999999972
 31
0.0
  0
LINE
  5
A92C
  8
0
 10
7239.1832332260092
 20
9046.049999999972
 30
0.0
 11
7239.1832332260092
 21
9008.049999999972
 31
0.0
  0
LINE
  5
A92D
  8
0
 10
7374.1832332260092
 20
9046.049999999972
 30
0.0
 11
7374.1832332260092
 21
9017.049999999972
 31
0.0
  0
LINE
  5
A92E
  8
0
 10
7086.3000000000029
 20
9030.049999999972
 30
0.0
 11
7101.699999999998
 21
9030.049999999972
 31
0.0
  0
LINE
  5
A92F
  8
0
 10
7101.699999999998
 20
9032.0499999999756
 30
0.0
 11
7101.699999999998
 21
9030.049999999972
 31
0.0
  0
LINE
  5
A930
  8
0
 10
7086.3000000000029
 20
9032.0499999999756
 30
0.0
 11
7101.699999999998
 21
9032.0499999999756
 31
0.0
  0
LINE
  5
A931
  8
0
 10
7086.3000000000029
 20
9030.049999999972
 30
0.0
 11
7086.3000000000029
 21
9032.0499999999756
 31
0.0
  0
ARC
  5
A932
  8
0
 10
7094.0
 20
9033.6392066369754
 30
0.0
 40
10.089206638
 50
248.19745111857679
 51
291.8025458101443
  0
ARC
  5
A933
  8
0
 10
7088.3763883749916
 20
9026.3501488049696
 30
0.0
 40
2.8001488060000002
 50
227.924975695944
 51
312.0750212328561
  0
ARC
  5
A934
  8
0
 10
7099.6236116249929
 20
9026.3501488049696
 30
0.0
 40
2.8001488060000002
 50
227.924975695944
 51
312.0750212328561
  0
LINE
  5
A935
  8
0
 10
7090.2527767489973
 20
9030.049999999972
 30
0.0
 11
7090.2527767489973
 21
9024.2716878359715
 31
0.0
  0
LINE
  5
A936
  8
0
 10
7086.5
 20
9030.049999999972
 30
0.0
 11
7086.5
 21
9024.2716878359715
 31
0.0
  0
LINE
  5
A937
  8
0
 10
7099.6236116249929
 20
9023.5499999999774
 30
0.0
 11
7088.3763883749916
 21
9023.5499999999774
 31
0.0
  0
LINE
  5
A938
  8
0
 10
7097.7472232500004
 20
9030.049999999972
 30
0.0
 11
7097.7472232500004
 21
9024.2716878359715
 31
0.0
  0
LINE
  5
A939
  8
0
 10
7101.5
 20
9030.049999999972
 30
0.0
 11
7101.5
 21
9024.2716878359715
 31
0.0
  0
LINE
  5
A93A
  8
0
 10
7067.5000000000146
 20
8545.9999999969732
 30
0.0
 11
7127.5803778020063
 21
8545.9999999969732
 31
0.0
  0
LINE
  5
A93B
  8
0
 10
7142.5000000000164
 20
8521.4351594399686
 30
0.0
 11
7142.5000000000164
 21
8445.9999999969732
 31
0.0
  0
LINE
  5
A93C
  8
0
 10
7092.5000000000146
 20
8395.9999999969732
 30
0.0
 11
7067.5000000000146
 21
8395.9999999969732
 31
0.0
  0
LINE
  5
A93D
  8
0
 10
7142.5000000000164
 20
8445.9999999969732
 30
0.0
 11
7092.5000000000146
 21
8395.9999999969732
 31
0.0
  0
LINE
  5
A93E
  8
0
 10
7070.7000000000116
 20
8545.9999999969732
 30
0.0
 11
7070.7000000000116
 21
8395.9999999969732
 31
0.0
  0
LINE
  5
A93F
  8
0
 10
7374.1832332260092
 20
9039.049999999972
 30
0.0
 11
10835.100971690999
 21
9039.049999999972
 31
0.0
  0
LINE
  5
A940
  8
0
 10
7374.1832332260092
 20
9035.5499999999665
 30
0.0
 11
10832.988902725991
 21
9035.549999999972
 31
0.0
  0
LINE
  5
A941
  8
0
 10
7356.6832332260092
 20
9070.3499999999749
 30
0.0
 11
10878.5
 21
9070.3499999999749
 31
0.0
  0
LINE
  5
A942
  8
0
 10
7354.6832332260092
 20
9054.4990744159713
 30
0.0
 11
7349.8679730900021
 21
9054.4990744159713
 31
0.0
  0
LINE
  5
A943
  8
0
 10
7354.6832332260092
 20
9054.4990744159713
 30
0.0
 11
7354.6832332260092
 21
9066.9990744159713
 31
0.0
  0
LINE
  5
A944
  8
0
 10
7349.266566560007
 20
9057.6217604579724
 30
0.0
 11
7349.266566560007
 21
9063.8671325419673
 31
0.0
  0
LINE
  5
A945
  8
0
 10
7354.6832332260092
 20
9066.9990744159713
 30
0.0
 11
7349.8679730900021
 21
9066.9990744159713
 31
0.0
  0
ARC
  5
A946
  8
0
 10
7357.6742387580007
 20
9057.6217604579724
 30
0.0
 40
8.4076721980000002
 50
158.19745572501699
 51
201.80254427498281
  0
LINE
  5
A947
  8
0
 10
7358.349833226006
 20
9054.3326642309767
 30
0.0
 11
7356.6832332260092
 21
9054.3326642309767
 31
0.0
  0
LINE
  5
A948
  8
0
 10
7356.6832332260092
 20
9054.3326642309767
 30
0.0
 11
7356.6832332260092
 21
9067.1654842309745
 31
0.0
  0
LINE
  5
A949
  8
0
 10
7356.6832332260092
 20
9067.1654842309745
 30
0.0
 11
7358.349833226006
 21
9067.1654842309745
 31
0.0
  0
LINE
  5
A94A
  8
0
 10
7358.349833226006
 20
9054.3326642309767
 30
0.0
 11
7358.349833226006
 21
9067.1654842309745
 31
0.0
  0
LINE
  5
A94B
  8
0
 10
7354.6832332260092
 20
9060.7444464999717
 30
0.0
 11
7349.8679730900021
 21
9060.7444464999717
 31
0.0
  0
ARC
  5
A94C
  8
0
 10
7357.6742387580007
 20
9063.8671325419673
 30
0.0
 40
8.4076721980000002
 50
158.19745572501699
 51
201.80254427498281
  0
LINE
  5
A94D
  8
0
 10
7358.3400944550094
 20
9054.499324230972
 30
0.0
 11
7363.1551619810043
 21
9054.499324230972
 31
0.0
  0
LINE
  5
A94E
  8
0
 10
7358.3400944550094
 20
9054.499324230972
 30
0.0
 11
7358.3400944550094
 21
9066.9988242309682
 31
0.0
  0
LINE
  5
A94F
  8
0
 10
7363.756544455011
 20
9057.6218853659739
 30
0.0
 11
7363.756544455011
 21
9063.8670076349736
 31
0.0
  0
LINE
  5
A950
  8
0
 10
7358.3400944550094
 20
9066.9988242309682
 30
0.0
 11
7363.1551619810043
 21
9066.9988242309682
 31
0.0
  0
ARC
  5
A951
  8
0
 10
7355.3492085640028
 20
9057.6218853659739
 30
0.0
 40
8.4073358910000007
 50
338.19745265430868
 51
21.802547345691291
  0
LINE
  5
A952
  8
0
 10
7358.3400944550094
 20
9060.7444464999717
 30
0.0
 11
7363.1551619810043
 21
9060.7444464999717
 31
0.0
  0
ARC
  5
A953
  8
0
 10
7355.3492085640028
 20
9063.8670076349736
 30
0.0
 40
8.4073358910000007
 50
338.19745265430868
 51
21.802547345691291
  0
LINE
  5
A954
  8
0
 10
7259.1832332260101
 20
9043.049999999972
 30
0.0
 11
7259.1832332260101
 21
9062.049999999972
 31
0.0
  0
LINE
  5
A955
  8
0
 10
7284.6832332260092
 20
9058.5499999999738
 30
0.0
 11
7284.6832332260092
 21
9062.049999999972
 31
0.0
  0
ARC
  5
A956
  8
0
 10
7287.1832332260092
 20
9058.5499999999738
 30
0.0
 40
2.5
 50
180.0
 51
0.0
  0
LINE
  5
A957
  8
0
 10
7356.6832332260092
 20
9043.049999999972
 30
0.0
 11
7356.6832332260092
 21
9073.0499999999702
 31
0.0
  0
LINE
  5
A958
  8
0
 10
7342.6832332260092
 20
9073.0499999999702
 30
0.0
 11
7356.6832332260092
 21
9073.0499999999702
 31
0.0
  0
LINE
  5
A959
  8
0
 10
7342.6832332260092
 20
9073.0499999999702
 30
0.0
 11
7289.6832332260092
 21
9058.5499999999738
 31
0.0
  0
LINE
  5
A95A
  8
0
 10
7284.6832332260092
 20
9062.049999999972
 30
0.0
 11
7259.1832332260101
 21
9062.049999999972
 31
0.0
  0
LINE
  5
A95B
  8
0
 10
7284.6832332260092
 20
9060.0499999999738
 30
0.0
 11
7259.1832332260101
 21
9060.0499999999738
 31
0.0
  0
LINE
  5
A95C
  8
0
 10
7354.6832332260092
 20
9043.049999999972
 30
0.0
 11
7354.6832332260092
 21
9073.0499999999702
 31
0.0
  0
LINE
  5
A95D
  8
0
 10
7315.1832332260101
 20
9056.7499999999727
 30
0.0
 11
7349.3118834980123
 21
9056.7499999999727
 31
0.0
  0
LINE
  5
A95E
  8
0
 10
7315.1832332260101
 20
9064.7499999999727
 30
0.0
 11
7349.3130488400056
 21
9064.7499999999727
 31
0.0
  0
LINE
  5
A95F
  8
0
 10
7315.1832332260101
 20
9064.7499999999727
 30
0.0
 11
7315.1832332260101
 21
9056.7499999999727
 31
0.0
  0
LINE
  5
A960
  8
0
 10
7363.7100471150052
 20
9064.7499999999727
 30
0.0
 11
7390.1832332260101
 21
9064.7499999999727
 31
0.0
  0
LINE
  5
A961
  8
0
 10
7363.7112126720167
 20
9056.7499999999727
 30
0.0
 11
7390.1832332260101
 21
9056.7499999999727
 31
0.0
  0
LINE
  5
A962
  8
0
 10
7390.1832332260101
 20
9064.7499999999727
 30
0.0
 11
7390.1832332260101
 21
9056.7499999999727
 31
0.0
  0
LINE
  5
A963
  8
0
 10
7390.1832332260101
 20
9064.7499999999727
 30
0.0
 11
7398.1832332260101
 21
9063.1499999999705
 31
0.0
  0
LINE
  5
A964
  8
0
 10
7410.6832332260092
 20
9063.1499999999705
 30
0.0
 11
7410.6832332260092
 21
9058.3499999999749
 31
0.0
  0
LINE
  5
A965
  8
0
 10
7410.6832332260092
 20
9063.1499999999705
 30
0.0
 11
7398.1832332260101
 21
9063.1499999999705
 31
0.0
  0
LINE
  5
A966
  8
0
 10
7398.1832332260101
 20
9058.3499999999749
 30
0.0
 11
7390.1832332260101
 21
9056.7499999999727
 31
0.0
  0
LINE
  5
A967
  8
0
 10
7398.1832332260101
 20
9058.3499999999749
 30
0.0
 11
7398.1832332260101
 21
9063.1499999999705
 31
0.0
  0
LINE
  5
A968
  8
0
 10
7410.6832332260092
 20
9058.3499999999749
 30
0.0
 11
7398.1832332260101
 21
9058.3499999999749
 31
0.0
  0
LINE
  5
A969
  8
0
 10
7107.0
 20
9039.049999999972
 30
0.0
 11
7239.1832332260092
 21
9039.049999999972
 31
0.0
  0
LINE
  5
A96A
  8
0
 10
7024.5
 20
9035.549999999972
 30
0.0
 11
7239.1832332260092
 21
9035.549999999972
 31
0.0
  0
LINE
  5
A96B
  8
0
 10
7081.5
 20
9070.3499999999749
 30
0.0
 11
7332.8142677087744
 21
9070.3499999999749
 31
0.0
  0
LINE
  5
A96C
  8
0
 10
7107.0
 20
9035.549999999972
 30
0.0
 11
7024.5
 21
9035.549999999972
 31
0.0
  0
LINE
  5
A96D
  8
0
 10
7098.0
 20
9018.2499999999727
 30
0.0
 11
7090.0
 21
9018.2499999999727
 31
0.0
  0
LINE
  5
A96E
  8
0
 10
7096.8000000000011
 20
9017.049999999972
 30
0.0
 11
7091.1999999999971
 21
9017.049999999972
 31
0.0
  0
LINE
  5
A96F
  8
0
 10
7098.0
 20
9018.2499999999727
 30
0.0
 11
7096.8000000000011
 21
9017.049999999972
 31
0.0
  0
LINE
  5
A970
  8
0
 10
7090.0
 20
9018.2499999999727
 30
0.0
 11
7091.1999999999971
 21
9017.049999999972
 31
0.0
  0
LINE
  5
A971
  8
0
 10
7090.0
 20
9023.5499999999774
 30
0.0
 11
7090.0
 21
9018.2499999999727
 31
0.0
  0
LINE
  5
A972
  8
0
 10
7098.0
 20
9023.5499999999774
 30
0.0
 11
7098.0
 21
9018.2499999999727
 31
0.0
  0
LINE
  5
A973
  8
0
 10
7107.0
 20
9047.549999999972
 30
0.0
 11
7107.0
 21
9032.0499999999756
 31
0.0
  0
LINE
  5
A974
  8
0
 10
7107.0
 20
9032.0499999999756
 30
0.0
 11
7024.5
 21
9032.0499999999756
 31
0.0
  0
LINE
  5
A975
  8
0
 10
7040.6800816939931
 20
9053.5387894969772
 30
0.0
 11
7107.0
 21
9047.549999999972
 31
0.0
  0
LINE
  5
A976
  8
0
 10
7076.1994736699999
 20
9069.549999999972
 30
0.0
 11
7027.6994736700008
 21
9069.549999999972
 31
0.0
  0
LINE
  5
A977
  8
0
 10
7027.6994736700008
 20
9069.549999999972
 30
0.0
 11
7027.6994736700008
 21
9066.8499999999749
 31
0.0
  0
LINE
  5
A978
  8
0
 10
7076.1994736699999
 20
9053.5499999999702
 30
0.0
 11
7076.1994736699999
 21
9056.5499999999702
 31
0.0
  0
LINE
  5
A979
  8
0
 10
7076.1994736699999
 20
9066.549999999972
 30
0.0
 11
7076.1994736699999
 21
9069.549999999972
 31
0.0
  0
LINE
  5
A97A
  8
0
 10
7071.6644736699973
 20
9057.9104999999763
 30
0.0
 11
7076.1994736699999
 21
9056.5499999999702
 31
0.0
  0
LINE
  5
A97B
  8
0
 10
7071.6811250460023
 20
9065.1944954119772
 30
0.0
 11
7076.1994736699999
 21
9066.549999999972
 31
0.0
  0
LINE
  5
A97C
  8
0
 10
7032.0328070029946
 20
9065.2499999999745
 30
0.0
 11
7030.6344736699984
 21
9065.6694999999745
 31
0.0
  0
LINE
  5
A97D
  8
0
 10
7062.949473669999
 20
9072.5499999999738
 30
0.0
 11
7040.9494736699999
 21
9072.5499999999738
 31
0.0
  0
LINE
  5
A97E
  8
0
 10
7040.9494736699999
 20
9072.5499999999738
 30
0.0
 11
7040.9494736699999
 21
9069.549999999972
 31
0.0
  0
LINE
  5
A97F
  8
0
 10
7062.949473669999
 20
9069.549999999972
 30
0.0
 11
7062.949473669999
 21
9072.5499999999738
 31
0.0
  0
LINE
  5
A980
  8
0
 10
7057.4494736700008
 20
9072.5499999999738
 30
0.0
 11
7057.4494736700008
 21
9069.549999999972
 31
0.0
  0
LINE
  5
A981
  8
0
 10
7046.4494736699999
 20
9069.549999999972
 30
0.0
 11
7046.4494736699999
 21
9072.5499999999738
 31
0.0
  0
LINE
  5
A982
  8
0
 10
7061.449473669999
 20
9053.5499999999702
 30
0.0
 11
7061.449473669999
 21
9051.6618518509713
 31
0.0
  0
LINE
  5
A983
  8
0
 10
7107.0
 20
9035.549999999972
 30
0.0
 11
7081.5505263300001
 21
9035.549999999972
 31
0.0
  0
LINE
  5
A984
  8
0
 10
7058.9644736699984
 20
9064.2499999999727
 30
0.0
 11
7058.9644736699984
 21
9063.2499999999727
 31
0.0
  0
LINE
  5
A985
  8
0
 10
7058.9644736699984
 20
9063.2499999999727
 30
0.0
 11
7036.7644736700031
 21
9063.2499999999727
 31
0.0
  0
LINE
  5
A986
  8
0
 10
7036.7644736700031
 20
9063.2499999999727
 30
0.0
 11
7036.7644736700031
 21
9064.2499999999727
 31
0.0
  0
LINE
  5
A987
  8
0
 10
7036.7644736700031
 20
9059.8499999999749
 30
0.0
 11
7058.9644736699984
 21
9059.8499999999749
 31
0.0
  0
LINE
  5
A988
  8
0
 10
7058.9644736699984
 20
9059.8499999999749
 30
0.0
 11
7058.9644736699984
 21
9058.8499999999767
 31
0.0
  0
LINE
  5
A989
  8
0
 10
7036.7644736700031
 20
9058.8499999999767
 30
0.0
 11
7036.7644736700031
 21
9059.8499999999749
 31
0.0
  0
LINE
  5
A98A
  8
0
 10
7037.6294736699929
 20
9062.8099999999777
 30
0.0
 11
7045.3994736699979
 21
9062.8099999999777
 31
0.0
  0
LINE
  5
A98B
  8
0
 10
7045.3994736699979
 20
9062.8099999999777
 30
0.0
 11
7045.3994736699979
 21
9060.2899999999718
 31
0.0
  0
LINE
  5
A98C
  8
0
 10
7045.3994736699979
 20
9060.2899999999718
 30
0.0
 11
7037.6294736699929
 21
9060.2899999999718
 31
0.0
  0
LINE
  5
A98D
  8
0
 10
7037.6294736699929
 20
9060.2899999999718
 30
0.0
 11
7037.6294736699929
 21
9062.8099999999777
 31
0.0
  0
LINE
  5
A98E
  8
0
 10
7039.6944736699952
 20
9066.8499999999749
 30
0.0
 11
7043.3344736699928
 21
9066.8499999999749
 31
0.0
  0
LINE
  5
A98F
  8
0
 10
7043.3344736699928
 20
9066.8499999999749
 30
0.0
 11
7043.3344736699928
 21
9065.2499999999745
 31
0.0
  0
LINE
  5
A990
  8
0
 10
7043.3344736699928
 20
9063.2499999999727
 30
0.0
 11
7043.3344736699928
 21
9062.8099999999777
 31
0.0
  0
LINE
  5
A991
  8
0
 10
7043.3344736699928
 20
9060.2899999999718
 30
0.0
 11
7043.3344736699928
 21
9059.8499999999749
 31
0.0
  0
LINE
  5
A992
  8
0
 10
7043.3344736699928
 20
9057.8499999999749
 30
0.0
 11
7043.3344736699928
 21
9056.2499999999727
 31
0.0
  0
LINE
  5
A993
  8
0
 10
7043.3344736699928
 20
9056.2499999999727
 30
0.0
 11
7039.6944736699952
 21
9056.2499999999727
 31
0.0
  0
LINE
  5
A994
  8
0
 10
7039.6944736699952
 20
9056.2499999999727
 30
0.0
 11
7039.6944736699952
 21
9057.8499999999749
 31
0.0
  0
LINE
  5
A995
  8
0
 10
7039.6944736699952
 20
9059.8499999999749
 30
0.0
 11
7039.6944736699952
 21
9060.2899999999718
 31
0.0
  0
LINE
  5
A996
  8
0
 10
7039.6944736699952
 20
9062.8099999999777
 30
0.0
 11
7039.6944736699952
 21
9063.2499999999727
 31
0.0
  0
LINE
  5
A997
  8
0
 10
7039.6944736699952
 20
9065.2499999999745
 30
0.0
 11
7039.6944736699952
 21
9066.8499999999749
 31
0.0
  0
LINE
  5
A998
  8
0
 10
7024.6369525859927
 20
9065.2499999999745
 30
0.0
 11
7046.2644736700031
 21
9065.2499999999745
 31
0.0
  0
LINE
  5
A999
  8
0
 10
7046.2644736700031
 20
9065.2499999999745
 30
0.0
 11
7046.2644736700031
 21
9064.2499999999727
 31
0.0
  0
LINE
  5
A99A
  8
0
 10
7034.8343876129948
 20
9057.8499999999749
 30
0.0
 11
7046.2644736700031
 21
9057.8499999999749
 31
0.0
  0
LINE
  5
A99B
  8
0
 10
7046.2644736700031
 20
9057.8499999999749
 30
0.0
 11
7046.2644736700031
 21
9058.8499999999767
 31
0.0
  0
LINE
  5
A99C
  8
0
 10
7027.9993500809924
 20
9062.8099999999777
 30
0.0
 11
7032.6994736699999
 21
9062.8099999999777
 31
0.0
  0
LINE
  5
A99D
  8
0
 10
7032.6994736699999
 20
9064.2499999999727
 30
0.0
 11
7032.6994736699999
 21
9059.3992487209762
 31
0.0
  0
LINE
  5
A99E
  8
0
 10
7032.6994736699999
 20
9060.2899999999718
 30
0.0
 11
7031.4719901179924
 21
9060.2899999999718
 31
0.0
  0
LINE
  5
A99F
  8
0
 10
7026.9944736699972
 20
9066.8499999999749
 30
0.0
 11
7030.6344736699984
 21
9066.8499999999749
 31
0.0
  0
LINE
  5
A9A0
  8
0
 10
7030.6344736699984
 20
9066.8499999999749
 30
0.0
 11
7030.6344736699984
 21
9065.2499999999745
 31
0.0
  0
LINE
  5
A9A1
  8
0
 10
7030.6344736699984
 20
9063.2499999999727
 30
0.0
 11
7030.6344736699984
 21
9062.8099999999777
 31
0.0
  0
LINE
  5
A9A2
  8
0
 10
7067.5000000000146
 20
8395.9999999969732
 30
0.0
 11
7067.5000000000146
 21
8545.9999999969732
 31
0.0
  0
LINE
  5
A9A3
  8
0
 10
7026.9944736699972
 20
9065.2499999999745
 30
0.0
 11
7026.9944736699972
 21
9066.8499999999749
 31
0.0
  0
LINE
  5
A9A4
  8
0
 10
7084.364473670008
 20
9064.2499999999727
 30
0.0
 11
7084.364473670008
 21
9063.2499999999727
 31
0.0
  0
LINE
  5
A9A5
  8
0
 10
7084.364473670008
 20
9063.2499999999727
 30
0.0
 11
7062.1644736699982
 21
9063.2499999999727
 31
0.0
  0
LINE
  5
A9A6
  8
0
 10
7062.1644736699982
 20
9063.2499999999727
 30
0.0
 11
7062.1644736699982
 21
9064.2499999999727
 31
0.0
  0
LINE
  5
A9A7
  8
0
 10
7062.1644736699982
 20
9059.8499999999749
 30
0.0
 11
7084.364473670008
 21
9059.8499999999749
 31
0.0
  0
LINE
  5
A9A8
  8
0
 10
7084.364473670008
 20
9059.8499999999749
 30
0.0
 11
7084.364473670008
 21
9058.8499999999767
 31
0.0
  0
LINE
  5
A9A9
  8
0
 10
7062.1644736699982
 20
9058.8499999999767
 30
0.0
 11
7062.1644736699982
 21
9059.8499999999749
 31
0.0
  0
LINE
  5
A9AA
  8
0
 10
7063.0294736700034
 20
9062.8099999999777
 30
0.0
 11
7070.7994736700057
 21
9062.8099999999777
 31
0.0
  0
LINE
  5
A9AB
  8
0
 10
7070.7994736700057
 20
9062.8099999999777
 30
0.0
 11
7070.7994736700057
 21
9060.2899999999718
 31
0.0
  0
LINE
  5
A9AC
  8
0
 10
7070.7994736700057
 20
9060.2899999999718
 30
0.0
 11
7063.0294736700034
 21
9060.2899999999718
 31
0.0
  0
LINE
  5
A9AD
  8
0
 10
7063.0294736700034
 20
9060.2899999999718
 30
0.0
 11
7063.0294736700034
 21
9062.8099999999777
 31
0.0
  0
LINE
  5
A9AE
  8
0
 10
7065.0944736700039
 20
9066.8499999999749
 30
0.0
 11
7068.7344736700043
 21
9066.8499999999749
 31
0.0
  0
LINE
  5
A9AF
  8
0
 10
7068.7344736700043
 20
9066.8499999999749
 30
0.0
 11
7068.7344736700043
 21
9065.2499999999745
 31
0.0
  0
LINE
  5
A9B0
  8
0
 10
7068.7344736700043
 20
9063.2499999999727
 30
0.0
 11
7068.7344736700043
 21
9062.8099999999777
 31
0.0
  0
LINE
  5
A9B1
  8
0
 10
7068.7344736700043
 20
9060.2899999999718
 30
0.0
 11
7068.7344736700043
 21
9059.8499999999749
 31
0.0
  0
LINE
  5
A9B2
  8
0
 10
7068.7344736700043
 20
9057.8499999999749
 30
0.0
 11
7068.7344736700043
 21
9056.2499999999727
 31
0.0
  0
LINE
  5
A9B3
  8
0
 10
7068.7344736700043
 20
9056.2499999999727
 30
0.0
 11
7065.0944736700039
 21
9056.2499999999727
 31
0.0
  0
LINE
  5
A9B4
  8
0
 10
7065.0944736700039
 20
9056.2499999999727
 30
0.0
 11
7065.0944736700039
 21
9057.8499999999749
 31
0.0
  0
LINE
  5
A9B5
  8
0
 10
7065.0944736700039
 20
9059.8499999999749
 30
0.0
 11
7065.0944736700039
 21
9060.2899999999718
 31
0.0
  0
LINE
  5
A9B6
  8
0
 10
7065.0944736700039
 20
9062.8099999999777
 30
0.0
 11
7065.0944736700039
 21
9063.2499999999727
 31
0.0
  0
LINE
  5
A9B7
  8
0
 10
7065.0944736700039
 20
9065.2499999999745
 30
0.0
 11
7065.0944736700039
 21
9066.8499999999749
 31
0.0
  0
LINE
  5
A9B8
  8
0
 10
7049.4644736699984
 20
9065.2499999999745
 30
0.0
 11
7071.6644736699973
 21
9065.2499999999745
 31
0.0
  0
LINE
  5
A9B9
  8
0
 10
7071.6644736699973
 20
9065.2499999999745
 30
0.0
 11
7071.6644736699973
 21
9064.2499999999727
 31
0.0
  0
LINE
  5
A9BA
  8
0
 10
7049.4644736699984
 20
9064.2499999999727
 30
0.0
 11
7049.4644736699984
 21
9065.2499999999745
 31
0.0
  0
LINE
  5
A9BB
  8
0
 10
7049.4644736699984
 20
9057.8499999999749
 30
0.0
 11
7071.6644736699973
 21
9057.8499999999749
 31
0.0
  0
LINE
  5
A9BC
  8
0
 10
7071.6644736699973
 20
9057.8499999999749
 30
0.0
 11
7071.6644736699973
 21
9058.8499999999767
 31
0.0
  0
LINE
  5
A9BD
  8
0
 10
7049.4644736699984
 20
9058.8499999999767
 30
0.0
 11
7049.4644736699984
 21
9057.8499999999749
 31
0.0
  0
LINE
  5
A9BE
  8
0
 10
7050.3294736700036
 20
9062.8099999999777
 30
0.0
 11
7058.099473669994
 21
9062.8099999999777
 31
0.0
  0
LINE
  5
A9BF
  8
0
 10
7058.099473669994
 20
9062.8099999999777
 30
0.0
 11
7058.099473669994
 21
9060.2899999999718
 31
0.0
  0
LINE
  5
A9C0
  8
0
 10
7058.099473669994
 20
9060.2899999999718
 30
0.0
 11
7050.3294736700036
 21
9060.2899999999718
 31
0.0
  0
LINE
  5
A9C1
  8
0
 10
7050.3294736700036
 20
9060.2899999999718
 30
0.0
 11
7050.3294736700036
 21
9062.8099999999777
 31
0.0
  0
LINE
  5
A9C2
  8
0
 10
7052.3944736700068
 20
9066.8499999999749
 30
0.0
 11
7056.0344736700063
 21
9066.8499999999749
 31
0.0
  0
LINE
  5
A9C3
  8
0
 10
7056.0344736700063
 20
9066.8499999999749
 30
0.0
 11
7056.0344736700063
 21
9065.2499999999745
 31
0.0
  0
LINE
  5
A9C4
  8
0
 10
7056.0344736700063
 20
9063.2499999999727
 30
0.0
 11
7056.0344736700063
 21
9062.8099999999777
 31
0.0
  0
LINE
  5
A9C5
  8
0
 10
7056.0344736700063
 20
9060.2899999999718
 30
0.0
 11
7056.0344736700063
 21
9059.8499999999749
 31
0.0
  0
LINE
  5
A9C6
  8
0
 10
7056.0344736700063
 20
9057.8499999999749
 30
0.0
 11
7056.0344736700063
 21
9056.2499999999727
 31
0.0
  0
LINE
  5
A9C7
  8
0
 10
7056.0344736700063
 20
9056.2499999999727
 30
0.0
 11
7052.3944736700068
 21
9056.2499999999727
 31
0.0
  0
LINE
  5
A9C8
  8
0
 10
7052.3944736700068
 20
9056.2499999999727
 30
0.0
 11
7052.3944736700068
 21
9057.8499999999749
 31
0.0
  0
LINE
  5
A9C9
  8
0
 10
7052.3944736700068
 20
9059.8499999999749
 30
0.0
 11
7052.3944736700068
 21
9060.2899999999718
 31
0.0
  0
LINE
  5
A9CA
  8
0
 10
7052.3944736700068
 20
9062.8099999999777
 30
0.0
 11
7052.3944736700068
 21
9063.2499999999727
 31
0.0
  0
LINE
  5
A9CB
  8
0
 10
7052.3944736700068
 20
9065.2499999999745
 30
0.0
 11
7052.3944736700068
 21
9066.8499999999749
 31
0.0
  0
LINE
  5
A9CC
  8
0
 10
7109.7644736700022
 20
9064.2499999999727
 30
0.0
 11
7109.7644736700022
 21
9063.2499999999727
 31
0.0
  0
LINE
  5
A9CD
  8
0
 10
7109.7644736700022
 20
9063.2499999999727
 30
0.0
 11
7087.5644736700051
 21
9063.2499999999727
 31
0.0
  0
LINE
  5
A9CE
  8
0
 10
7087.5644736700051
 20
9063.2499999999727
 30
0.0
 11
7087.5644736700051
 21
9064.2499999999727
 31
0.0
  0
LINE
  5
A9CF
  8
0
 10
7087.5644736700051
 20
9059.8499999999749
 30
0.0
 11
7109.7644736700022
 21
9059.8499999999749
 31
0.0
  0
LINE
  5
A9D0
  8
0
 10
7109.7644736700022
 20
9059.8499999999749
 30
0.0
 11
7109.7644736700022
 21
9058.8499999999767
 31
0.0
  0
LINE
  5
A9D1
  8
0
 10
7087.5644736700051
 20
9058.8499999999767
 30
0.0
 11
7087.5644736700051
 21
9059.8499999999749
 31
0.0
  0
LINE
  5
A9D2
  8
0
 10
7088.4294736699967
 20
9062.8099999999777
 30
0.0
 11
7096.1994736700008
 21
9062.8099999999777
 31
0.0
  0
LINE
  5
A9D3
  8
0
 10
7096.1994736700008
 20
9062.8099999999777
 30
0.0
 11
7096.1994736700008
 21
9060.2899999999718
 31
0.0
  0
LINE
  5
A9D4
  8
0
 10
7096.1994736700008
 20
9060.2899999999718
 30
0.0
 11
7088.4294736699967
 21
9060.2899999999718
 31
0.0
  0
LINE
  5
A9D5
  8
0
 10
7088.4294736699967
 20
9060.2899999999718
 30
0.0
 11
7088.4294736699967
 21
9062.8099999999777
 31
0.0
  0
LINE
  5
A9D6
  8
0
 10
7090.4944736699972
 20
9066.8499999999749
 30
0.0
 11
7094.1344736699966
 21
9066.8499999999749
 31
0.0
  0
LINE
  5
A9D7
  8
0
 10
7094.1344736699966
 20
9066.8499999999749
 30
0.0
 11
7094.1344736699966
 21
9065.2499999999745
 31
0.0
  0
LINE
  5
A9D8
  8
0
 10
7094.1344736699966
 20
9063.2499999999727
 30
0.0
 11
7094.1344736699966
 21
9062.8099999999777
 31
0.0
  0
LINE
  5
A9D9
  8
0
 10
7094.1344736699966
 20
9060.2899999999718
 30
0.0
 11
7094.1344736699966
 21
9059.8499999999749
 31
0.0
  0
LINE
  5
A9DA
  8
0
 10
7094.1344736699966
 20
9057.8499999999749
 30
0.0
 11
7094.1344736699966
 21
9056.2499999999727
 31
0.0
  0
LINE
  5
A9DB
  8
0
 10
7094.1344736699966
 20
9056.2499999999727
 30
0.0
 11
7090.4944736699972
 21
9056.2499999999727
 31
0.0
  0
LINE
  5
A9DC
  8
0
 10
7090.4944736699972
 20
9056.2499999999727
 30
0.0
 11
7090.4944736699972
 21
9057.8499999999749
 31
0.0
  0
LINE
  5
A9DD
  8
0
 10
7090.4944736699972
 20
9059.8499999999749
 30
0.0
 11
7090.4944736699972
 21
9060.2899999999718
 31
0.0
  0
LINE
  5
A9DE
  8
0
 10
7090.4944736699972
 20
9062.8099999999777
 30
0.0
 11
7090.4944736699972
 21
9063.2499999999727
 31
0.0
  0
LINE
  5
A9DF
  8
0
 10
7090.4944736699972
 20
9065.2499999999745
 30
0.0
 11
7090.4944736699972
 21
9066.8499999999749
 31
0.0
  0
LINE
  5
A9E0
  8
0
 10
7074.864473670008
 20
9065.2499999999745
 30
0.0
 11
7097.0644736700051
 21
9065.2499999999745
 31
0.0
  0
LINE
  5
A9E1
  8
0
 10
7097.0644736700051
 20
9065.2499999999745
 30
0.0
 11
7097.0644736700051
 21
9064.2499999999727
 31
0.0
  0
LINE
  5
A9E2
  8
0
 10
7074.864473670008
 20
9064.2499999999727
 30
0.0
 11
7074.864473670008
 21
9065.2499999999745
 31
0.0
  0
LINE
  5
A9E3
  8
0
 10
7074.864473670008
 20
9057.8499999999749
 30
0.0
 11
7097.0644736700051
 21
9057.8499999999749
 31
0.0
  0
LINE
  5
A9E4
  8
0
 10
7097.0644736700051
 20
9057.8499999999749
 30
0.0
 11
7097.0644736700051
 21
9058.8499999999767
 31
0.0
  0
LINE
  5
A9E5
  8
0
 10
7074.864473670008
 20
9058.8499999999767
 30
0.0
 11
7074.864473670008
 21
9057.8499999999749
 31
0.0
  0
LINE
  5
A9E6
  8
0
 10
7075.7294736699987
 20
9062.8099999999777
 30
0.0
 11
7083.4994736700019
 21
9062.8099999999777
 31
0.0
  0
LINE
  5
A9E7
  8
0
 10
7083.4994736700019
 20
9062.8099999999777
 30
0.0
 11
7083.4994736700019
 21
9060.2899999999718
 31
0.0
  0
LINE
  5
A9E8
  8
0
 10
7083.4994736700019
 20
9060.2899999999718
 30
0.0
 11
7075.7294736699987
 21
9060.2899999999718
 31
0.0
  0
LINE
  5
A9E9
  8
0
 10
7075.7294736699987
 20
9060.2899999999718
 30
0.0
 11
7075.7294736699987
 21
9062.8099999999777
 31
0.0
  0
LINE
  5
A9EA
  8
0
 10
7077.7944736700001
 20
9066.8499999999749
 30
0.0
 11
7081.4344736700004
 21
9066.8499999999749
 31
0.0
  0
LINE
  5
A9EB
  8
0
 10
7081.4344736700004
 20
9066.8499999999749
 30
0.0
 11
7081.4344736700004
 21
9065.2499999999745
 31
0.0
  0
LINE
  5
A9EC
  8
0
 10
7081.4344736700004
 20
9063.2499999999727
 30
0.0
 11
7081.4344736700004
 21
9062.8099999999777
 31
0.0
  0
LINE
  5
A9ED
  8
0
 10
7081.4344736700004
 20
9060.2899999999718
 30
0.0
 11
7081.4344736700004
 21
9059.8499999999749
 31
0.0
  0
LINE
  5
A9EE
  8
0
 10
7081.4344736700004
 20
9057.8499999999749
 30
0.0
 11
7081.4344736700004
 21
9056.2499999999727
 31
0.0
  0
LINE
  5
A9EF
  8
0
 10
7081.4344736700004
 20
9056.2499999999727
 30
0.0
 11
7077.7944736700001
 21
9056.2499999999727
 31
0.0
  0
LINE
  5
A9F0
  8
0
 10
7077.7944736700001
 20
9056.2499999999727
 30
0.0
 11
7077.7944736700001
 21
9057.8499999999749
 31
0.0
  0
LINE
  5
A9F1
  8
0
 10
7077.7944736700001
 20
9059.8499999999749
 30
0.0
 11
7077.7944736700001
 21
9060.2899999999718
 31
0.0
  0
LINE
  5
A9F2
  8
0
 10
7077.7944736700001
 20
9062.8099999999777
 30
0.0
 11
7077.7944736700001
 21
9063.2499999999727
 31
0.0
  0
LINE
  5
A9F3
  8
0
 10
7077.7944736700001
 20
9065.2499999999745
 30
0.0
 11
7077.7944736700001
 21
9066.8499999999749
 31
0.0
  0
LINE
  5
A9F4
  8
0
 10
7092.3144736700051
 20
9053.7499999999727
 30
0.0
 11
7092.3144736700051
 21
9069.3499999999749
 31
0.0
  0
LINE
  5
A9F5
  8
0
 10
7135.1644736699982
 20
9064.2499999999727
 30
0.0
 11
7135.1644736699982
 21
9063.2499999999727
 31
0.0
  0
LINE
  5
A9F6
  8
0
 10
7135.1644736699982
 20
9063.2499999999727
 30
0.0
 11
7112.9644736700002
 21
9063.2499999999727
 31
0.0
  0
LINE
  5
A9F7
  8
0
 10
7112.9644736700002
 20
9063.2499999999727
 30
0.0
 11
7112.9644736700002
 21
9064.2499999999727
 31
0.0
  0
LINE
  5
A9F8
  8
0
 10
7112.9644736700002
 20
9059.8499999999749
 30
0.0
 11
7135.1644736699982
 21
9059.8499999999749
 31
0.0
  0
LINE
  5
A9F9
  8
0
 10
7135.1644736699982
 20
9059.8499999999749
 30
0.0
 11
7135.1644736699982
 21
9058.8499999999767
 31
0.0
  0
LINE
  5
A9FA
  8
0
 10
7112.9644736700002
 20
9058.8499999999767
 30
0.0
 11
7112.9644736700002
 21
9059.8499999999749
 31
0.0
  0
LINE
  5
A9FB
  8
0
 10
7113.8294736700054
 20
9062.8099999999777
 30
0.0
 11
7121.599473669994
 21
9062.8099999999777
 31
0.0
  0
LINE
  5
A9FC
  8
0
 10
7121.599473669994
 20
9062.8099999999777
 30
0.0
 11
7121.599473669994
 21
9060.2899999999718
 31
0.0
  0
LINE
  5
A9FD
  8
0
 10
7121.599473669994
 20
9060.2899999999718
 30
0.0
 11
7113.8294736700054
 21
9060.2899999999718
 31
0.0
  0
LINE
  5
A9FE
  8
0
 10
7113.8294736700054
 20
9060.2899999999718
 30
0.0
 11
7113.8294736700054
 21
9062.8099999999777
 31
0.0
  0
LINE
  5
A9FF
  8
0
 10
7115.8944736700078
 20
9066.8499999999749
 30
0.0
 11
7119.5344736700072
 21
9066.8499999999749
 31
0.0
  0
LINE
  5
AA00
  8
0
 10
7119.5344736700072
 20
9066.8499999999749
 30
0.0
 11
7119.5344736700072
 21
9065.2499999999745
 31
0.0
  0
LINE
  5
AA01
  8
0
 10
7119.5344736700072
 20
9063.2499999999727
 30
0.0
 11
7119.5344736700072
 21
9062.8099999999777
 31
0.0
  0
LINE
  5
AA02
  8
0
 10
7119.5344736700072
 20
9060.2899999999718
 30
0.0
 11
7119.5344736700072
 21
9059.8499999999749
 31
0.0
  0
LINE
  5
AA03
  8
0
 10
7119.5344736700072
 20
9057.8499999999749
 30
0.0
 11
7119.5344736700072
 21
9056.2499999999727
 31
0.0
  0
LINE
  5
AA04
  8
0
 10
7119.5344736700072
 20
9056.2499999999727
 30
0.0
 11
7115.8944736700078
 21
9056.2499999999727
 31
0.0
  0
LINE
  5
AA05
  8
0
 10
7115.8944736700078
 20
9056.2499999999727
 30
0.0
 11
7115.8944736700078
 21
9057.8499999999749
 31
0.0
  0
LINE
  5
AA06
  8
0
 10
7115.8944736700078
 20
9059.8499999999749
 30
0.0
 11
7115.8944736700078
 21
9060.2899999999718
 31
0.0
  0
LINE
  5
AA07
  8
0
 10
7115.8944736700078
 20
9062.8099999999777
 30
0.0
 11
7115.8944736700078
 21
9063.2499999999727
 31
0.0
  0
LINE
  5
AA08
  8
0
 10
7115.8944736700078
 20
9065.2499999999745
 30
0.0
 11
7115.8944736700078
 21
9066.8499999999749
 31
0.0
  0
LINE
  5
AA09
  8
0
 10
7100.2644736700022
 20
9065.2499999999745
 30
0.0
 11
7122.4644736700002
 21
9065.2499999999745
 31
0.0
  0
LINE
  5
AA0A
  8
0
 10
7122.4644736700002
 20
9065.2499999999745
 30
0.0
 11
7122.4644736700002
 21
9064.2499999999727
 31
0.0
  0
LINE
  5
AA0B
  8
0
 10
7100.2644736700022
 20
9064.2499999999727
 30
0.0
 11
7100.2644736700022
 21
9065.2499999999745
 31
0.0
  0
LINE
  5
AA0C
  8
0
 10
7100.2644736700022
 20
9057.8499999999749
 30
0.0
 11
7122.4644736700002
 21
9057.8499999999749
 31
0.0
  0
LINE
  5
AA0D
  8
0
 10
7122.4644736700002
 20
9057.8499999999749
 30
0.0
 11
7122.4644736700002
 21
9058.8499999999767
 31
0.0
  0
LINE
  5
AA0E
  8
0
 10
7100.2644736700022
 20
9058.8499999999767
 30
0.0
 11
7100.2644736700022
 21
9057.8499999999749
 31
0.0
  0
LINE
  5
AA0F
  8
0
 10
7101.1294736699911
 20
9062.8099999999777
 30
0.0
 11
7108.899473669997
 21
9062.8099999999777
 31
0.0
  0
LINE
  5
AA10
  8
0
 10
7108.899473669997
 20
9062.8099999999777
 30
0.0
 11
7108.899473669997
 21
9060.2899999999718
 31
0.0
  0
LINE
  5
AA11
  8
0
 10
7108.899473669997
 20
9060.2899999999718
 30
0.0
 11
7101.1294736699911
 21
9060.2899999999718
 31
0.0
  0
LINE
  5
AA12
  8
0
 10
7101.1294736699911
 20
9060.2899999999718
 30
0.0
 11
7101.1294736699911
 21
9062.8099999999777
 31
0.0
  0
LINE
  5
AA13
  8
0
 10
7103.1944736699952
 20
9066.8499999999749
 30
0.0
 11
7106.8344736699937
 21
9066.8499999999749
 31
0.0
  0
LINE
  5
AA14
  8
0
 10
7106.8344736699937
 20
9066.8499999999749
 30
0.0
 11
7106.8344736699937
 21
9065.2499999999745
 31
0.0
  0
LINE
  5
AA15
  8
0
 10
7106.8344736699937
 20
9063.2499999999727
 30
0.0
 11
7106.8344736699937
 21
9062.8099999999777
 31
0.0
  0
LINE
  5
AA16
  8
0
 10
7106.8344736699937
 20
9060.2899999999718
 30
0.0
 11
7106.8344736699937
 21
9059.8499999999749
 31
0.0
  0
LINE
  5
AA17
  8
0
 10
7106.8344736699937
 20
9057.8499999999749
 30
0.0
 11
7106.8344736699937
 21
9056.2499999999727
 31
0.0
  0
LINE
  5
AA18
  8
0
 10
7106.8344736699937
 20
9056.2499999999727
 30
0.0
 11
7103.1944736699952
 21
9056.2499999999727
 31
0.0
  0
LINE
  5
AA19
  8
0
 10
7103.1944736699952
 20
9056.2499999999727
 30
0.0
 11
7103.1944736699952
 21
9057.8499999999749
 31
0.0
  0
LINE
  5
AA1A
  8
0
 10
7103.1944736699952
 20
9059.8499999999749
 30
0.0
 11
7103.1944736699952
 21
9060.2899999999718
 31
0.0
  0
LINE
  5
AA1B
  8
0
 10
7103.1944736699952
 20
9062.8099999999777
 30
0.0
 11
7103.1944736699952
 21
9063.2499999999727
 31
0.0
  0
LINE
  5
AA1C
  8
0
 10
7103.1944736699952
 20
9065.2499999999745
 30
0.0
 11
7103.1944736699952
 21
9066.8499999999749
 31
0.0
  0
LINE
  5
AA1D
  8
0
 10
7138.3644736700089
 20
9063.2499999999727
 30
0.0
 11
7138.3644736700089
 21
9064.2499999999727
 31
0.0
  0
LINE
  5
AA1E
  8
0
 10
7138.3644736700089
 20
9058.8499999999767
 30
0.0
 11
7138.3644736700089
 21
9059.8499999999749
 31
0.0
  0
LINE
  5
AA1F
  8
0
 10
7139.2294736699987
 20
9060.2899999999718
 30
0.0
 11
7139.2294736699987
 21
9062.8099999999777
 31
0.0
  0
LINE
  5
AA20
  8
0
 10
7125.6644736699973
 20
9064.2499999999727
 30
0.0
 11
7125.6644736699973
 21
9065.2499999999745
 31
0.0
  0
LINE
  5
AA21
  8
0
 10
7125.6644736699973
 20
9058.8499999999767
 30
0.0
 11
7125.6644736699973
 21
9057.8499999999749
 31
0.0
  0
LINE
  5
AA22
  8
0
 10
7126.5294736700007
 20
9062.8099999999777
 30
0.0
 11
7134.2994736700057
 21
9062.8099999999777
 31
0.0
  0
LINE
  5
AA23
  8
0
 10
7134.2994736700057
 20
9062.8099999999777
 30
0.0
 11
7134.2994736700057
 21
9060.2899999999718
 31
0.0
  0
LINE
  5
AA24
  8
0
 10
7134.2994736700057
 20
9060.2899999999718
 30
0.0
 11
7126.5294736700007
 21
9060.2899999999718
 31
0.0
  0
LINE
  5
AA25
  8
0
 10
7126.5294736700007
 20
9060.2899999999718
 30
0.0
 11
7126.5294736700007
 21
9062.8099999999777
 31
0.0
  0
LINE
  5
AA26
  8
0
 10
7128.5944736700048
 20
9066.8499999999749
 30
0.0
 11
7132.2344736700034
 21
9066.8499999999749
 31
0.0
  0
LINE
  5
AA27
  8
0
 10
7132.2344736700034
 20
9066.8499999999749
 30
0.0
 11
7132.2344736700034
 21
9065.2499999999745
 31
0.0
  0
LINE
  5
AA28
  8
0
 10
7132.2344736700034
 20
9063.2499999999727
 30
0.0
 11
7132.2344736700034
 21
9062.8099999999777
 31
0.0
  0
LINE
  5
AA29
  8
0
 10
7132.2344736700034
 20
9060.2899999999718
 30
0.0
 11
7132.2344736700034
 21
9059.8499999999749
 31
0.0
  0
LINE
  5
AA2A
  8
0
 10
7132.2344736700034
 20
9057.8499999999749
 30
0.0
 11
7132.2344736700034
 21
9056.2499999999727
 31
0.0
  0
LINE
  5
AA2B
  8
0
 10
7132.2344736700034
 20
9056.2499999999727
 30
0.0
 11
7128.5944736700048
 21
9056.2499999999727
 31
0.0
  0
LINE
  5
AA2C
  8
0
 10
7128.5944736700048
 20
9056.2499999999727
 30
0.0
 11
7128.5944736700048
 21
9057.8499999999749
 31
0.0
  0
LINE
  5
AA2D
  8
0
 10
7128.5944736700048
 20
9059.8499999999749
 30
0.0
 11
7128.5944736700048
 21
9060.2899999999718
 31
0.0
  0
LINE
  5
AA2E
  8
0
 10
7128.5944736700048
 20
9062.8099999999777
 30
0.0
 11
7128.5944736700048
 21
9063.2499999999727
 31
0.0
  0
LINE
  5
AA2F
  8
0
 10
7128.5944736700048
 20
9065.2499999999745
 30
0.0
 11
7128.5944736700048
 21
9066.8499999999749
 31
0.0
  0
LINE
  5
AA30
  8
0
 10
7027.393016107002
 20
9063.2499999999727
 30
0.0
 11
7032.6994736699999
 21
9063.2499999999727
 31
0.0
  0
LINE
  5
AA31
  8
0
 10
7032.0783240919991
 20
9059.8499999999749
 30
0.0
 11
7032.6994736699999
 21
9059.8499999999749
 31
0.0
  0
LINE
  5
AA32
  8
0
 10
7046.2644736700031
 20
9065.049999999972
 30
0.0
 11
7049.4644736699984
 21
9065.049999999972
 31
0.0
  0
LINE
  5
AA33
  8
0
 10
7046.2644736700031
 20
9058.0499999999702
 30
0.0
 11
7049.4644736699984
 21
9058.0499999999702
 31
0.0
  0
LINE
  5
AA34
  8
0
 10
7071.1994736700008
 20
9059.8499999999749
 30
0.0
 11
7071.1994736700008
 21
9063.2499999999727
 31
0.0
  0
LINE
  5
AA35
  8
0
 10
7081.5
 20
9070.3499999999749
 30
0.0
 11
7081.5
 21
9065.2499999999745
 31
0.0
  0
LINE
  5
AA36
  8
0
 10
7081.5
 20
9057.8499999999749
 30
0.0
 11
7081.5
 21
9049.8526887860007
 31
0.0
  0
LINE
  5
AA37
  8
0
 10
7026.014984345994
 20
9064.2499999999727
 30
0.0
 11
7185.9644736699993
 21
9064.2499999999727
 31
0.0
  0
LINE
  5
AA38
  8
0
 10
7033.4563558529917
 20
9058.8499999999767
 30
0.0
 11
7185.9644736699993
 21
9058.8499999999767
 31
0.0
  0
LINE
  5
AA39
  8
0
 10
7160.564473670006
 20
9064.2499999999727
 30
0.0
 11
7160.564473670006
 21
9063.2499999999727
 31
0.0
  0
LINE
  5
AA3A
  8
0
 10
7160.564473670006
 20
9063.2499999999727
 30
0.0
 11
7138.3644736700089
 21
9063.2499999999727
 31
0.0
  0
LINE
  5
AA3B
  8
0
 10
7138.3644736700089
 20
9059.8499999999749
 30
0.0
 11
7160.564473670006
 21
9059.8499999999749
 31
0.0
  0
LINE
  5
AA3C
  8
0
 10
7160.564473670006
 20
9059.8499999999749
 30
0.0
 11
7160.564473670006
 21
9058.8499999999767
 31
0.0
  0
LINE
  5
AA3D
  8
0
 10
7139.2294736699987
 20
9062.8099999999777
 30
0.0
 11
7146.9994736700028
 21
9062.8099999999777
 31
0.0
  0
LINE
  5
AA3E
  8
0
 10
7146.9994736700028
 20
9062.8099999999777
 30
0.0
 11
7146.9994736700028
 21
9060.2899999999718
 31
0.0
  0
LINE
  5
AA3F
  8
0
 10
7146.9994736700028
 20
9060.2899999999718
 30
0.0
 11
7139.2294736699987
 21
9060.2899999999718
 31
0.0
  0
LINE
  5
AA40
  8
0
 10
7141.294473670001
 20
9066.8499999999749
 30
0.0
 11
7144.9344736700023
 21
9066.8499999999749
 31
0.0
  0
LINE
  5
AA41
  8
0
 10
7144.9344736700023
 20
9066.8499999999749
 30
0.0
 11
7144.9344736700023
 21
9065.2499999999745
 31
0.0
  0
LINE
  5
AA42
  8
0
 10
7144.9344736700023
 20
9063.2499999999727
 30
0.0
 11
7144.9344736700023
 21
9062.8099999999777
 31
0.0
  0
LINE
  5
AA43
  8
0
 10
7144.9344736700023
 20
9060.2899999999718
 30
0.0
 11
7144.9344736700023
 21
9059.8499999999749
 31
0.0
  0
LINE
  5
AA44
  8
0
 10
7144.9344736700023
 20
9057.8499999999749
 30
0.0
 11
7144.9344736700023
 21
9056.2499999999727
 31
0.0
  0
LINE
  5
AA45
  8
0
 10
7144.9344736700023
 20
9056.2499999999727
 30
0.0
 11
7141.294473670001
 21
9056.2499999999727
 31
0.0
  0
LINE
  5
AA46
  8
0
 10
7141.294473670001
 20
9056.2499999999727
 30
0.0
 11
7141.294473670001
 21
9057.8499999999749
 31
0.0
  0
LINE
  5
AA47
  8
0
 10
7141.294473670001
 20
9059.8499999999749
 30
0.0
 11
7141.294473670001
 21
9060.2899999999718
 31
0.0
  0
LINE
  5
AA48
  8
0
 10
7141.294473670001
 20
9062.8099999999777
 30
0.0
 11
7141.294473670001
 21
9063.2499999999727
 31
0.0
  0
LINE
  5
AA49
  8
0
 10
7141.294473670001
 20
9065.2499999999745
 30
0.0
 11
7141.294473670001
 21
9066.8499999999749
 31
0.0
  0
LINE
  5
AA4A
  8
0
 10
7125.6644736699973
 20
9065.2499999999745
 30
0.0
 11
7147.8644736700089
 21
9065.2499999999745
 31
0.0
  0
LINE
  5
AA4B
  8
0
 10
7147.8644736700089
 20
9065.2499999999745
 30
0.0
 11
7147.8644736700089
 21
9064.2499999999727
 31
0.0
  0
LINE
  5
AA4C
  8
0
 10
7125.6644736699973
 20
9057.8499999999749
 30
0.0
 11
7147.8644736700089
 21
9057.8499999999749
 31
0.0
  0
LINE
  5
AA4D
  8
0
 10
7147.8644736700089
 20
9057.8499999999749
 30
0.0
 11
7147.8644736700089
 21
9058.8499999999767
 31
0.0
  0
LINE
  5
AA4E
  8
0
 10
7185.9644736699993
 20
9063.2499999999727
 30
0.0
 11
7163.7644736700031
 21
9063.2499999999727
 31
0.0
  0
LINE
  5
AA4F
  8
0
 10
7163.7644736700031
 20
9063.2499999999727
 30
0.0
 11
7163.7644736700031
 21
9064.2499999999727
 31
0.0
  0
LINE
  5
AA50
  8
0
 10
7163.7644736700031
 20
9059.8499999999749
 30
0.0
 11
7185.9644736699993
 21
9059.8499999999749
 31
0.0
  0
LINE
  5
AA51
  8
0
 10
7163.7644736700031
 20
9058.8499999999767
 30
0.0
 11
7163.7644736700031
 21
9059.8499999999749
 31
0.0
  0
LINE
  5
AA52
  8
0
 10
7164.6294736699929
 20
9062.8099999999777
 30
0.0
 11
7172.399473669996
 21
9062.8099999999777
 31
0.0
  0
LINE
  5
AA53
  8
0
 10
7172.399473669996
 20
9060.2899999999718
 30
0.0
 11
7164.6294736699929
 21
9060.2899999999718
 31
0.0
  0
LINE
  5
AA54
  8
0
 10
7164.6294736699929
 20
9060.2899999999718
 30
0.0
 11
7164.6294736699929
 21
9062.8099999999777
 31
0.0
  0
LINE
  5
AA55
  8
0
 10
7166.6944736699961
 20
9066.8499999999749
 30
0.0
 11
7170.3344736699928
 21
9066.8499999999749
 31
0.0
  0
LINE
  5
AA56
  8
0
 10
7170.3344736699928
 20
9056.2499999999727
 30
0.0
 11
7166.6944736699961
 21
9056.2499999999727
 31
0.0
  0
LINE
  5
AA57
  8
0
 10
7166.6944736699961
 20
9056.2499999999727
 30
0.0
 11
7166.6944736699961
 21
9057.8499999999749
 31
0.0
  0
LINE
  5
AA58
  8
0
 10
7166.6944736699961
 20
9059.8499999999749
 30
0.0
 11
7166.6944736699961
 21
9060.2899999999718
 31
0.0
  0
LINE
  5
AA59
  8
0
 10
7166.6944736699961
 20
9062.8099999999777
 30
0.0
 11
7166.6944736699961
 21
9063.2499999999727
 31
0.0
  0
LINE
  5
AA5A
  8
0
 10
7166.6944736699961
 20
9065.2499999999745
 30
0.0
 11
7166.6944736699961
 21
9066.8499999999749
 31
0.0
  0
LINE
  5
AA5B
  8
0
 10
7151.064473670006
 20
9065.2499999999745
 30
0.0
 11
7173.2644736700022
 21
9065.2499999999745
 31
0.0
  0
LINE
  5
AA5C
  8
0
 10
7151.064473670006
 20
9064.2499999999727
 30
0.0
 11
7151.064473670006
 21
9065.2499999999745
 31
0.0
  0
LINE
  5
AA5D
  8
0
 10
7151.064473670006
 20
9057.8499999999749
 30
0.0
 11
7173.2644736700022
 21
9057.8499999999749
 31
0.0
  0
LINE
  5
AA5E
  8
0
 10
7151.064473670006
 20
9058.8499999999767
 30
0.0
 11
7151.064473670006
 21
9057.8499999999749
 31
0.0
  0
LINE
  5
AA5F
  8
0
 10
7151.9294736699958
 20
9062.8099999999777
 30
0.0
 11
7159.699473669999
 21
9062.8099999999777
 31
0.0
  0
LINE
  5
AA60
  8
0
 10
7159.699473669999
 20
9062.8099999999777
 30
0.0
 11
7159.699473669999
 21
9060.2899999999718
 31
0.0
  0
LINE
  5
AA61
  8
0
 10
7159.699473669999
 20
9060.2899999999718
 30
0.0
 11
7151.9294736699958
 21
9060.2899999999718
 31
0.0
  0
LINE
  5
AA62
  8
0
 10
7151.9294736699958
 20
9060.2899999999718
 30
0.0
 11
7151.9294736699958
 21
9062.8099999999777
 31
0.0
  0
LINE
  5
AA63
  8
0
 10
7153.9944736699981
 20
9066.8499999999749
 30
0.0
 11
7157.6344736699984
 21
9066.8499999999749
 31
0.0
  0
LINE
  5
AA64
  8
0
 10
7157.6344736699984
 20
9066.8499999999749
 30
0.0
 11
7157.6344736699984
 21
9065.2499999999745
 31
0.0
  0
LINE
  5
AA65
  8
0
 10
7157.6344736699984
 20
9063.2499999999727
 30
0.0
 11
7157.6344736699984
 21
9062.8099999999777
 31
0.0
  0
LINE
  5
AA66
  8
0
 10
7157.6344736699984
 20
9060.2899999999718
 30
0.0
 11
7157.6344736699984
 21
9059.8499999999749
 31
0.0
  0
LINE
  5
AA67
  8
0
 10
7157.6344736699984
 20
9057.8499999999749
 30
0.0
 11
7157.6344736699984
 21
9056.2499999999727
 31
0.0
  0
LINE
  5
AA68
  8
0
 10
7157.6344736699984
 20
9056.2499999999727
 30
0.0
 11
7153.9944736699981
 21
9056.2499999999727
 31
0.0
  0
LINE
  5
AA69
  8
0
 10
7153.9944736699981
 20
9056.2499999999727
 30
0.0
 11
7153.9944736699981
 21
9057.8499999999749
 31
0.0
  0
LINE
  5
AA6A
  8
0
 10
7153.9944736699981
 20
9059.8499999999749
 30
0.0
 11
7153.9944736699981
 21
9060.2899999999718
 31
0.0
  0
LINE
  5
AA6B
  8
0
 10
7153.9944736699981
 20
9062.8099999999777
 30
0.0
 11
7153.9944736699981
 21
9063.2499999999727
 31
0.0
  0
LINE
  5
AA6C
  8
0
 10
7153.9944736699981
 20
9065.2499999999745
 30
0.0
 11
7153.9944736699981
 21
9066.8499999999749
 31
0.0
  0
LINE
  5
AA6D
  8
0
 10
7172.399473669996
 20
9062.8099999999777
 30
0.0
 11
7172.399473669996
 21
9060.2899999999718
 31
0.0
  0
LINE
  5
AA6E
  8
0
 10
7170.3344736699928
 20
9066.8499999999749
 30
0.0
 11
7170.3344736699928
 21
9065.2499999999745
 31
0.0
  0
LINE
  5
AA6F
  8
0
 10
7173.2644736700022
 20
9065.2499999999745
 30
0.0
 11
7173.2644736700022
 21
9064.2499999999727
 31
0.0
  0
LINE
  5
AA70
  8
0
 10
7173.2644736700022
 20
9057.8499999999749
 30
0.0
 11
7173.2644736700022
 21
9058.8499999999767
 31
0.0
  0
LINE
  5
AA71
  8
0
 10
7170.3344736699928
 20
9056.2499999999727
 30
0.0
 11
7170.3344736699928
 21
9057.8499999999749
 31
0.0
  0
LINE
  5
AA72
  8
0
 10
7170.3344736699928
 20
9059.8499999999749
 30
0.0
 11
7170.3344736699928
 21
9060.2899999999718
 31
0.0
  0
LINE
  5
AA73
  8
0
 10
7170.3344736699928
 20
9062.8099999999777
 30
0.0
 11
7170.3344736699928
 21
9063.2499999999727
 31
0.0
  0
LINE
  5
AA74
  8
0
 10
7185.9644736699993
 20
9064.2499999999727
 30
0.0
 11
7185.9644736699993
 21
9063.2499999999727
 31
0.0
  0
LINE
  5
AA75
  8
0
 10
7185.9644736699993
 20
9059.8499999999749
 30
0.0
 11
7185.9644736699993
 21
9058.8499999999767
 31
0.0
  0
LINE
  5
AA76
  8
0
 10
7179.3944736700078
 20
9066.8499999999749
 30
0.0
 11
7183.0344736700072
 21
9066.8499999999749
 31
0.0
  0
LINE
  5
AA77
  8
0
 10
7183.0344736700072
 20
9056.2499999999727
 30
0.0
 11
7179.3944736700078
 21
9056.2499999999727
 31
0.0
  0
LINE
  5
AA78
  8
0
 10
7179.3944736700078
 20
9056.2499999999727
 30
0.0
 11
7179.3944736700078
 21
9057.8499999999749
 31
0.0
  0
LINE
  5
AA79
  8
0
 10
7179.3944736700078
 20
9059.8499999999749
 30
0.0
 11
7179.3944736700078
 21
9060.2899999999718
 31
0.0
  0
LINE
  5
AA7A
  8
0
 10
7179.3944736700078
 20
9062.8099999999777
 30
0.0
 11
7179.3944736700078
 21
9063.2499999999727
 31
0.0
  0
LINE
  5
AA7B
  8
0
 10
7179.3944736700078
 20
9065.2499999999745
 30
0.0
 11
7179.3944736700078
 21
9066.8499999999749
 31
0.0
  0
LINE
  5
AA7C
  8
0
 10
7183.0344736700072
 20
9066.8499999999749
 30
0.0
 11
7183.0344736700072
 21
9065.2499999999745
 31
0.0
  0
LINE
  5
AA7D
  8
0
 10
7183.0344736700072
 20
9056.2499999999727
 30
0.0
 11
7183.0344736700072
 21
9057.8499999999749
 31
0.0
  0
LINE
  5
AA7E
  8
0
 10
7183.0344736700072
 20
9059.8499999999749
 30
0.0
 11
7183.0344736700072
 21
9060.2899999999718
 31
0.0
  0
LINE
  5
AA7F
  8
0
 10
7183.0344736700072
 20
9062.8099999999777
 30
0.0
 11
7183.0344736700072
 21
9063.2499999999727
 31
0.0
  0
LINE
  5
AA80
  8
0
 10
7176.4644736699993
 20
9064.2499999999727
 30
0.0
 11
7176.4644736699993
 21
9065.2499999999745
 31
0.0
  0
LINE
  5
AA81
  8
0
 10
7176.4644736699993
 20
9065.2499999999745
 30
0.0
 11
7185.9644736699993
 21
9065.2499999999745
 31
0.0
  0
LINE
  5
AA82
  8
0
 10
7176.4644736699993
 20
9058.8499999999767
 30
0.0
 11
7176.4644736699993
 21
9057.8499999999749
 31
0.0
  0
LINE
  5
AA83
  8
0
 10
7176.4644736699993
 20
9057.8499999999749
 30
0.0
 11
7185.9644736699993
 21
9057.8499999999749
 31
0.0
  0
LINE
  5
AA84
  8
0
 10
7177.3294736700054
 20
9062.8099999999777
 30
0.0
 11
7185.099473669994
 21
9062.8099999999777
 31
0.0
  0
LINE
  5
AA85
  8
0
 10
7185.099473669994
 20
9060.2899999999718
 30
0.0
 11
7177.3294736700054
 21
9060.2899999999718
 31
0.0
  0
LINE
  5
AA86
  8
0
 10
7177.3294736700054
 20
9060.2899999999718
 30
0.0
 11
7177.3294736700054
 21
9062.8099999999777
 31
0.0
  0
LINE
  5
AA87
  8
0
 10
7185.099473669994
 20
9062.8099999999777
 30
0.0
 11
7185.099473669994
 21
9060.2899999999718
 31
0.0
  0
LINE
  5
AA88
  8
0
 10
10776.0
 20
8883.5683897679792
 30
0.0
 11
11031.0
 21
8883.5683897679792
 31
0.0
  0
LINE
  5
AA89
  8
0
 10
11031.0
 20
9035.5683897679792
 30
0.0
 11
11031.0
 21
8883.5683897679792
 31
0.0
  0
LINE
  5
AA8A
  8
0
 10
10776.0
 20
9035.5683897679792
 30
0.0
 11
10776.0
 21
8883.5683897679792
 31
0.0
  0
LINE
  5
AA8B
  8
0
 10
10850.5
 20
9064.5683897679755
 30
0.0
 11
10956.5
 21
9064.5683897679755
 31
0.0
  0
LINE
  5
AA8C
  8
0
 10
10833.0
 20
9035.5683897679792
 30
0.0
 11
10850.5
 21
9064.5683897679755
 31
0.0
  0
LINE
  5
AA8D
  8
0
 10
10956.5
 20
9064.5683897679755
 30
0.0
 11
10974.0
 21
9035.5683897679792
 31
0.0
  0
LINE
  5
AA8E
  8
0
 10
11029.0
 20
9035.5683897679792
 30
0.0
 11
11029.0
 21
8883.5683897679792
 31
0.0
  0
LINE
  5
AA8F
  8
0
 10
10779.0
 20
9035.5683897679792
 30
0.0
 11
10779.0
 21
8883.5683897679792
 31
0.0
  0
LINE
  5
AA90
  8
0
 10
10788.0
 20
9033.5683897679755
 30
0.0
 11
11020.0
 21
9033.5683897679755
 31
0.0
  0
ARC
  5
AA91
  8
0
 10
10788.0
 20
9024.5683897679755
 30
0.0
 40
9.0
 50
90.0
 51
180.0
  0
ARC
  5
AA92
  8
0
 10
11020.0
 20
9024.5683897679755
 30
0.0
 40
9.0
 50
0.0
 51
90.0
  0
LINE
  5
AA93
  8
0
 10
10974.0
 20
9035.5683897679792
 30
0.0
 11
10974.0
 21
9033.5683897679755
 31
0.0
  0
LINE
  5
AA94
  8
0
 10
10833.0
 20
9035.5683897679792
 30
0.0
 11
10833.0
 21
9033.5683897679755
 31
0.0
  0
LINE
  5
AA95
  8
0
 10
10776.0
 20
9035.5683897679792
 30
0.0
 11
10833.0
 21
9035.5683897679792
 31
0.0
  0
LINE
  5
AA96
  8
0
 10
10974.0
 20
9035.5683897679792
 30
0.0
 11
11031.0
 21
9035.5683897679792
 31
0.0
  0
LINE
  5
AA97
  8
0
 10
11055.0
 20
9010.5683897679755
 30
0.0
 11
11055.0
 21
8937.5683897679792
 31
0.0
  0
LINE
  5
AA98
  8
0
 10
11031.0
 20
9012.5683897679755
 30
0.0
 11
11055.0
 21
9010.5683897679755
 31
0.0
  0
LINE
  5
AA99
  8
0
 10
11031.0
 20
8935.5683897679792
 30
0.0
 11
11055.0
 21
8937.5683897679792
 31
0.0
  0
LINE
  5
AA9A
  8
0
 10
10696.0
 20
9021.5683897679755
 30
0.0
 11
10696.0
 21
8910.3968168929714
 31
0.0
  0
LINE
  5
AA9B
  8
0
 10
10776.0
 20
8896.5683897679792
 30
0.0
 11
10709.828427125
 21
8896.5683897679792
 31
0.0
  0
LINE
  5
AA9C
  8
0
 10
10776.0
 20
9023.5683897679774
 30
0.0
 11
10698.0
 21
9023.5683897679774
 31
0.0
  0
LINE
  5
AA9D
  8
0
 10
10776.0
 20
8909.5683897679792
 30
0.0
 11
10696.17964055799
 21
8909.5683897679792
 31
0.0
  0
LINE
  5
AA9E
  8
0
 10
10696.585786436999
 20
8908.9826033309746
 30
0.0
 11
10708.41421356199
 21
8897.1541762059715
 31
0.0
  0
ARC
  5
AA9F
  8
0
 10
10698.0
 20
9021.5683897679755
 30
0.0
 40
2.0
 50
90.0
 51
180.0
  0
ARC
  5
AAA0
  8
0
 10
10698.0
 20
8910.3968168929714
 30
0.0
 40
2.0
 50
180.0
 51
224.99999769688981
  0
ARC
  5
AAA1
  8
0
 10
10709.828427125
 20
8898.5683897679774
 30
0.0
 40
2.0
 50
224.99999769688981
 51
270.0
  0
LINE
  5
AAA2
  8
0
 10
10878.5
 20
9070.3499999999749
 30
0.0
 11
10878.5
 21
9064.5683897679755
 31
0.0
  0
LINE
  5
AAA3
  8
0
  6
CENTER2
 10
7015.8344736699937
 20
9061.5499999999738
 30
0.0
 11
10848.678557898
 21
9061.5499999999738
 31
0.0
  0
LINE
  5
AAA4
  8
0
 10
7378.8922227930016
 20
8988.7999999999738
 30
0.0
 11
7366.8922227930007
 21
8988.7999999999738
 31
0.0
  0
LINE
  5
AAA5
  8
0
 10
7372.8922227930016
 20
8994.7999999999738
 30
0.0
 11
7372.8922227930016
 21
8982.7999999999738
 31
0.0
  0
LINE
  5
AAA6
  8
0
 10
7375.3922227930016
 20
8283.5346011129732
 30
0.0
 11
7375.3922227930016
 21
8988.7999999999738
 31
0.0
  0
LINE
  5
AAA7
  8
0
 10
7370.3922227930016
 20
8283.5346011129732
 30
0.0
 11
7370.3922227930016
 21
8988.7999999999738
 31
0.0
  0
LINE
  5
AAA8
  8
0
 10
9850.0
 20
8785.0000000010023
 30
0.0
 11
9880.0
 21
8785.0000000010023
 31
0.0
  0
LINE
  5
AAA9
  8
0
 10
9880.0
 20
8785.0000000010023
 30
0.0
 11
9880.0
 21
8755.0000000010041
 31
0.0
  0
LINE
  5
AAAA
  8
0
 10
9880.0
 20
8755.0000000010041
 30
0.0
 11
9850.0
 21
8755.0000000010041
 31
0.0
  0
LINE
  5
AAAB
  8
0
 10
9850.0
 20
8755.0000000010041
 30
0.0
 11
9850.0
 21
8785.0000000010023
 31
0.0
  0
LINE
  5
AAAC
  8
0
 10
9852.3000000000029
 20
8755.0000000010041
 30
0.0
 11
9852.3000000000029
 21
8785.0000000010023
 31
0.0
  0
CIRCLE
  5
AAAD
  8
0
 10
9865.0
 20
8770.0000000010023
 30
0.0
 40
3.5
  0
LINE
  5
AAAE
  8
0
 10
6994.99999999997
 20
9030.0
 30
0.0
 11
7004.99999999997
 21
9030.0
 31
0.0
  0
LINE
  5
AAAF
  8
0
 10
6994.99999999997
 20
9068.0
 30
0.0
 11
7004.99999999997
 21
9068.0
 31
0.0
  0
ARC
  5
AAB0
  8
0
 10
7535.0512101187351
 20
8337.0
 30
0.0
 40
453.0
 50
132.4504862280445
 51
152.45378502409619
  0
ARC
  5
AAB1
  8
0
 10
7535.0394454128527
 20
8337.0
 30
0.0
 40
411.0
 50
140.2780764287219
 51
148.04154104426431
  0
ARC
  5
AAB2
  8
0
 10
7535.0512101187351
 20
8337.0
 30
0.0
 40
453.0
 50
172.516375500713
 51
179.3259631019319
  0
ARC
  5
AAB3
  8
0
 10
7535.0394454128527
 20
8337.0
 30
0.0
 40
411.0
 50
153.038740484139
 51
179.3259631019319
  0
ARC
  5
AAB4
  8
0
 10
7535.0512101187351
 20
8337.0000000000055
 30
0.0
 40
400.0
 50
151.81585581956901
 51
179.3259631019319
  0
TEXT
  5
AAB5
  8
0
 10
7518.4788885788957
 20
8328.0932613552977
 30
0.0
 40
105.0
  1
手動切換えロープ
 41
0.8
  7
横文字
 72
     1
 11
7909.8788885788963
 21
8328.0932613552977
 31
0.0
  0
INSERT
  5
AAB6
  8
0
  2
*U36
 10
0.0
 20
0.0
 30
0.0
  0
LINE
  5
AAB7
  8
0
  6
PHANTOM2
 10
6903.5
 20
969.00000000002171
 30
0.0
 11
7156.5
 21
969.00000000002171
 31
0.0
  0
LINE
  5
AAB8
  8
0
  6
PHANTOM2
 10
6918.2603986449967
 20
945.00000000002171
 30
0.0
 11
6987.7396013550024
 21
945.00000000002171
 31
0.0
  0
LINE
  5
AAB9
  8
0
  6
PHANTOM2
 10
6903.5
 20
1224.0000000000221
 30
0.0
 11
6903.5
 21
969.00000000002171
 31
0.0
  0
LINE
  5
AABA
  8
0
  6
PHANTOM2
 10
7156.5
 20
1224.0000000000221
 30
0.0
 11
7156.5
 21
969.00000000002171
 31
0.0
  0
LINE
  5
AABB
  8
0
  6
PHANTOM2
 10
6913.5
 20
969.00000000002171
 30
0.0
 11
6915.270761370004
 21
947.75086356002407
 31
0.0
  0
LINE
  5
AABC
  8
0
  6
PHANTOM2
 10
6992.4999999999991
 20
969.00000000002171
 30
0.0
 11
6990.7292386299951
 21
947.75086356002407
 31
0.0
  0
ARC
  5
AABD
  8
0
  6
PHANTOM2
 10
6987.7396013550024
 20
948.00000000002183
 30
0.0
 40
3.0
 50
270.0
 51
355.23635976324272
  0
ARC
  5
AABE
  8
0
  6
PHANTOM2
 10
6918.2603986449967
 20
948.00000000002183
 30
0.0
 40
3.0
 50
184.76364023675731
 51
270.0
  0
LINE
  5
AABF
  8
0
  6
PHANTOM2
 10
6935.8999999999933
 20
1293.0000000000221
 30
0.0
 11
6935.8999999999933
 21
1224.0000000000221
 31
0.0
  0
LINE
  5
AAC0
  8
0
  6
PHANTOM2
 10
7127.8999999999942
 20
1293.0000000000221
 30
0.0
 11
7127.8999999999942
 21
1224.0000000000221
 31
0.0
  0
ARC
  5
AAC1
  8
0
  6
PHANTOM2
 10
7116.8999999999942
 20
1293.0000000000221
 30
0.0
 40
11.0
 50
0.0
 51
90.0
  0
ARC
  5
AAC2
  8
0
  6
PHANTOM2
 10
6946.8999999999942
 20
1293.0000000000221
 30
0.0
 40
11.0
 50
90.0
 51
180.0
  0
LINE
  5
AAC3
  8
0
  6
PHANTOM2
 10
7049.0
 20
1120.4500000000189
 30
0.0
 11
7011.0
 21
1120.4500000000189
 31
0.0
  0
LINE
  5
AAC4
  8
0
  6
PHANTOM2
 10
7049.0
 20
2218.9999999999859
 30
0.0
 11
7049.0
 21
1120.4500000000189
 31
0.0
  0
LINE
  5
AAC5
  8
0
  6
PHANTOM2
 10
7011.0
 20
2218.9999999999859
 30
0.0
 11
7011.0
 21
1120.4500000000189
 31
0.0
  0
LINE
  5
AAC6
  8
0
  6
PHANTOM2
 10
7116.8999999999942
 20
1304.0000000000221
 30
0.0
 11
7049.0
 21
1304.0000000000221
 31
0.0
  0
LINE
  5
AAC7
  8
0
  6
PHANTOM2
 10
7011.0
 20
1304.0000000000221
 30
0.0
 11
6946.8999999999942
 21
1304.0000000000221
 31
0.0
  0
LINE
  5
AAC8
  8
0
  6
PHANTOM2
 10
6903.5
 20
1224.0000000000221
 30
0.0
 11
7011.0
 21
1224.0000000000221
 31
0.0
  0
LINE
  5
AAC9
  8
0
  6
PHANTOM2
 10
7049.0
 20
1224.0000000000221
 30
0.0
 11
7156.5
 21
1224.0000000000221
 31
0.0
  0
LINE
  5
AACA
  8
0
 10
8200.0
 20
9070.3499999999749
 30
0.0
 11
8200.0
 21
9100.0000000000036
 31
0.0
  0
LINE
  5
AACB
  8
0
 10
8240.0
 20
9035.549999999972
 30
0.0
 11
8240.0
 21
8790.0
 31
0.0
  0
LINE
  5
AACC
  8
0
 10
9400.0
 20
9070.3499999999749
 30
0.0
 11
9400.0
 21
9100.0000000000036
 31
0.0
  0
LINE
  5
AACD
  8
0
 10
9440.0
 20
9035.549999999972
 30
0.0
 11
9440.0
 21
8790.0
 31
0.0
  0
LINE
  5
AACE
  8
0
 10
7040.6676918895419
 20
9053.5499999999702
 30
0.0
 11
7076.1994736699999
 21
9053.5499999999702
 31
0.0
  0
LINE
  5
AACF
  8
0
 10
9333.2499999999964
 20
3314.250000000015
 30
0.0
 11
9329.2751262658421
 21
3310.2751262658639
 31
0.0
  0
LINE
  5
AAD0
  8
0
 10
9295.0
 20
3309.2500000000159
 30
0.0
 11
9326.8002525317006
 21
3309.2500000000159
 31
0.0
  0
ARC
  5
AAD1
  8
0
 10
9326.8002525317006
 20
3312.750000000015
 30
0.0
 40
3.5
 50
269.9999984650417
 51
314.99999923268319
  0
ARC
  5
AAD2
  8
0
 10
9326.8002525317006
 20
3357.2500000000159
 30
0.0
 40
3.5
 50
45.00000076731677
 51
90.000001534958287
  0
LINE
  5
AAD3
  8
0
 10
9333.2499999999964
 20
3355.750000000015
 30
0.0
 11
9329.2751262658421
 21
3359.724873734172
 31
0.0
  0
LINE
  5
AAD4
  8
0
 10
9295.0
 20
3360.7500000000159
 30
0.0
 11
9326.8002525317006
 21
3360.7500000000159
 31
0.0
  0
ARC
  5
AAD5
  8
0
 10
9341.0
 20
3323.000000000015
 30
0.0
 40
3.0
 50
279.5940682271567
 51
0.0
  0
ARC
  5
AAD6
  8
0
 10
9341.0
 20
3347.000000000015
 30
0.0
 40
3.0
 50
0.0
 51
80.405931772843275
  0
LINE
  5
AAD7
  8
0
 10
9282.0
 20
3343.0000000000159
 30
0.0
 11
9283.0
 21
3343.0000000000159
 31
0.0
  0
LINE
  5
AAD8
  8
0
 10
9282.0
 20
3327.000000000015
 30
0.0
 11
9283.0
 21
3327.000000000015
 31
0.0
  0
LINE
  5
AAD9
  8
0
 10
9282.0
 20
3343.0000000000159
 30
0.0
 11
9282.0
 21
3327.000000000015
 31
0.0
  0
LINE
  5
AADA
  8
0
 10
9344.0
 20
3323.000000000015
 30
0.0
 11
9344.0
 21
3347.000000000015
 31
0.0
  0
LINE
  5
AADB
  8
0
 10
9283.0
 20
3325.8161542299931
 30
0.0
 11
9283.0
 21
3344.183845770036
 31
0.0
  0
LINE
  5
AADC
  8
0
 10
9253.0
 20
3356.0000000000141
 30
0.0
 11
9253.0
 21
3370.000000000015
 31
0.0
  0
LINE
  5
AADD
  8
0
 10
9253.0
 20
3314.0000000000141
 30
0.0
 11
9253.0
 21
3300.0000000000159
 31
0.0
  0
ARC
  5
AADE
  8
0
 10
9340.0
 20
3315.750000000015
 30
0.0
 40
1.5
 50
269.9999984650417
 51
0.0
  0
ARC
  5
AADF
  8
0
 10
9340.0
 20
3354.250000000015
 30
0.0
 40
1.5
 50
0.0
 51
90.000001534958287
  0
LINE
  5
AAE0
  8
0
 10
9341.5000000000018
 20
3354.250000000015
 30
0.0
 11
9341.5000000000018
 21
3315.750000000015
 31
0.0
  0
ARC
  5
AAE1
  8
0
 10
9278.4999999999982
 20
3323.6902249187328
 30
0.0
 40
1.5
 50
97.746158250920075
 51
180.00000307033341
  0
LINE
  5
AAE2
  8
0
 10
9277.0
 20
3356.0000000000141
 30
0.0
 11
9277.0
 21
3314.0000000000141
 31
0.0
  0
ARC
  5
AAE3
  8
0
 10
9278.4999999999982
 20
3346.309775081304
 30
0.0
 40
1.5
 50
180.00000307033341
 51
262.25384174907992
  0
LINE
  5
AAE4
  8
0
 10
9277.0
 20
3315.750000000015
 30
0.0
 11
9277.0
 21
3314.0000000000141
 31
0.0
  0
ARC
  5
AAE5
  8
0
 10
9278.4999999999982
 20
3315.750000000015
 30
0.0
 40
1.5
 50
180.00000307033341
 51
269.9999984650417
  0
ARC
  5
AAE6
  8
0
 10
9278.4999999999982
 20
3354.250000000015
 30
0.0
 40
1.5
 50
90.000001534958287
 51
180.00000307033341
  0
CIRCLE
  5
AAE7
  8
0
 10
9288.75
 20
3307.7500000000159
 30
0.0
 40
3.25
  0
CIRCLE
  5
AAE8
  8
0
 10
9288.75
 20
3362.2500000000159
 30
0.0
 40
3.25
  0
LINE
  5
AAE9
  8
0
 10
9295.0
 20
3300.0000000000159
 30
0.0
 11
9277.0
 21
3300.0000000000159
 31
0.0
  0
LINE
  5
AAEA
  8
0
 10
9295.0
 20
3300.0000000000159
 30
0.0
 11
9295.0
 21
3314.250000000015
 31
0.0
  0
LINE
  5
AAEB
  8
0
 10
9295.0
 20
3370.000000000015
 30
0.0
 11
9295.0
 21
3355.750000000015
 31
0.0
  0
LINE
  5
AAEC
  8
0
 10
9253.0
 20
3314.0000000000141
 30
0.0
 11
9277.0
 21
3314.0000000000141
 31
0.0
  0
LINE
  5
AAED
  8
0
 10
9277.0
 20
3300.0000000000159
 30
0.0
 11
9253.0
 21
3300.0000000000159
 31
0.0
  0
LINE
  5
AAEE
  8
0
 10
9253.0
 20
3356.0000000000141
 30
0.0
 11
9277.0
 21
3356.0000000000141
 31
0.0
  0
LINE
  5
AAEF
  8
0
 10
9295.0
 20
3370.000000000015
 30
0.0
 11
9253.0
 21
3370.000000000015
 31
0.0
  0
LINE
  5
AAF0
  8
0
 10
9277.0
 20
3341.1000000000208
 30
0.0
 11
9277.0
 21
3328.900000000016
 31
0.0
  0
ARC
  5
AAF1
  8
0
 10
9306.0
 20
3335.0000000000159
 30
0.0
 40
6.0
 50
277.74615658319181
 51
82.253844819517738
  0
LINE
  5
AAF2
  8
0
 10
9278.2978233063786
 20
3325.176537330226
 30
0.0
 11
9306.8087067744782
 21
3329.0547503540452
 31
0.0
  0
LINE
  5
AAF3
  8
0
 10
9278.2978233063786
 20
3344.8234626698099
 30
0.0
 11
9306.8087067744782
 21
3340.9452496459871
 31
0.0
  0
LINE
  5
AAF4
  8
0
 10
9278.4999999999982
 20
3314.250000000015
 30
0.0
 11
9340.0
 21
3314.250000000015
 31
0.0
  0
LINE
  5
AAF5
  8
0
 10
9278.4999999999982
 20
3355.750000000015
 30
0.0
 11
9340.0
 21
3355.750000000015
 31
0.0
  0
LINE
  5
AAF6
  8
0
 10
4666.75
 20
3314.2500000000209
 30
0.0
 11
4670.724873734157
 21
3310.2751262658639
 31
0.0
  0
LINE
  5
AAF7
  8
0
 10
4705.0
 20
3309.2500000000218
 30
0.0
 11
4673.1997474683012
 21
3309.2500000000218
 31
0.0
  0
ARC
  5
AAF8
  8
0
 10
4673.1997474683012
 20
3312.7500000000209
 30
0.0
 40
3.5
 50
225.00000076731681
 51
270.0000015349583
  0
ARC
  5
AAF9
  8
0
 10
4673.1997474683012
 20
3357.2500000000209
 30
0.0
 40
3.5
 50
89.999998465041699
 51
134.99999923268319
  0
LINE
  5
AAFA
  8
0
 10
4666.75
 20
3355.7500000000218
 30
0.0
 11
4670.724873734157
 21
3359.724873734172
 31
0.0
  0
LINE
  5
AAFB
  8
0
 10
4705.0
 20
3360.7500000000218
 30
0.0
 11
4673.1997474683012
 21
3360.7500000000218
 31
0.0
  0
ARC
  5
AAFC
  8
0
 10
4659.0
 20
3323.0000000000218
 30
0.0
 40
3.0
 50
180.0
 51
260.40593177284319
  0
ARC
  5
AAFD
  8
0
 10
4659.0
 20
3347.0000000000209
 30
0.0
 40
3.0
 50
99.594068227156711
 51
180.0
  0
LINE
  5
AAFE
  8
0
 10
4718.0
 20
3343.0000000000209
 30
0.0
 11
4717.0
 21
3343.0000000000209
 31
0.0
  0
LINE
  5
AAFF
  8
0
 10
4718.0
 20
3327.0000000000218
 30
0.0
 11
4717.0
 21
3327.0000000000218
 31
0.0
  0
LINE
  5
AB00
  8
0
 10
4718.0
 20
3343.0000000000209
 30
0.0
 11
4718.0
 21
3327.0000000000218
 31
0.0
  0
LINE
  5
AB01
  8
0
 10
4656.0
 20
3323.0000000000218
 30
0.0
 11
4656.0
 21
3347.0000000000209
 31
0.0
  0
LINE
  5
AB02
  8
0
 10
4717.0
 20
3325.8161542299999
 30
0.0
 11
4717.0
 21
3344.1838457700428
 31
0.0
  0
LINE
  5
AB03
  8
0
 10
4747.0
 20
3356.0000000000218
 30
0.0
 11
4747.0
 21
3370.0000000000218
 31
0.0
  0
LINE
  5
AB04
  8
0
 10
4747.0
 20
3314.0000000000209
 30
0.0
 11
4747.0
 21
3300.0000000000218
 31
0.0
  0
ARC
  5
AB05
  8
0
 10
4660.0
 20
3315.7500000000209
 30
0.0
 40
1.5
 50
180.0
 51
270.0000015349583
  0
ARC
  5
AB06
  8
0
 10
4660.0
 20
3354.2500000000218
 30
0.0
 40
1.5
 50
89.999998465041699
 51
180.0
  0
LINE
  5
AB07
  8
0
 10
4658.5
 20
3354.2500000000218
 30
0.0
 11
4658.5
 21
3315.7500000000209
 31
0.0
  0
ARC
  5
AB08
  8
0
 10
4721.5
 20
3323.690224918741
 30
0.0
 40
1.5
 50
359.99999692966651
 51
82.253841749079953
  0
LINE
  5
AB09
  8
0
 10
4723.0
 20
3356.0000000000218
 30
0.0
 11
4723.0
 21
3314.0000000000209
 31
0.0
  0
ARC
  5
AB0A
  8
0
 10
4721.5
 20
3346.309775081304
 30
0.0
 40
1.5
 50
277.74615825092008
 51
359.99999692966651
  0
LINE
  5
AB0B
  8
0
 10
4723.0
 20
3315.7500000000209
 30
0.0
 11
4723.0
 21
3314.0000000000209
 31
0.0
  0
ARC
  5
AB0C
  8
0
 10
4721.5
 20
3315.7500000000209
 30
0.0
 40
1.5
 50
270.0000015349583
 51
359.99999692966651
  0
ARC
  5
AB0D
  8
0
 10
4721.5
 20
3354.2500000000218
 30
0.0
 40
1.5
 50
359.99999692966651
 51
89.999998465041699
  0
CIRCLE
  5
AB0E
  8
0
 10
4711.25
 20
3307.7500000000218
 30
0.0
 40
3.25
  0
CIRCLE
  5
AB0F
  8
0
 10
4711.25
 20
3362.2500000000218
 30
0.0
 40
3.25
  0
LINE
  5
AB10
  8
0
 10
4705.0
 20
3300.0000000000218
 30
0.0
 11
4723.0
 21
3300.0000000000218
 31
0.0
  0
LINE
  5
AB11
  8
0
 10
4705.0
 20
3300.0000000000218
 30
0.0
 11
4705.0
 21
3314.2500000000209
 31
0.0
  0
LINE
  5
AB12
  8
0
 10
4705.0
 20
3370.0000000000218
 30
0.0
 11
4705.0
 21
3355.7500000000218
 31
0.0
  0
LINE
  5
AB13
  8
0
 10
4747.0
 20
3314.0000000000209
 30
0.0
 11
4723.0
 21
3314.0000000000209
 31
0.0
  0
LINE
  5
AB14
  8
0
 10
4723.0
 20
3300.0000000000218
 30
0.0
 11
4747.0
 21
3300.0000000000218
 31
0.0
  0
LINE
  5
AB15
  8
0
 10
4747.0
 20
3356.0000000000218
 30
0.0
 11
4723.0
 21
3356.0000000000218
 31
0.0
  0
LINE
  5
AB16
  8
0
 10
4705.0
 20
3370.0000000000218
 30
0.0
 11
4747.0
 21
3370.0000000000218
 31
0.0
  0
LINE
  5
AB17
  8
0
 10
4723.0
 20
3341.1000000000208
 30
0.0
 11
4723.0
 21
3328.900000000016
 31
0.0
  0
ARC
  5
AB18
  8
0
 10
4694.0
 20
3335.0000000000218
 30
0.0
 40
6.0
 50
97.74615518048229
 51
262.25384341680819
  0
LINE
  5
AB19
  8
0
 10
4721.7021766936068
 20
3325.1765373302328
 30
0.0
 11
4693.19129322552
 21
3329.0547503540452
 31
0.0
  0
LINE
  5
AB1A
  8
0
 10
4721.7021766936068
 20
3344.8234626698099
 30
0.0
 11
4693.19129322552
 21
3340.945249645994
 31
0.0
  0
LINE
  5
AB1B
  8
0
 10
4721.5
 20
3314.2500000000209
 30
0.0
 11
4660.0
 21
3314.2500000000209
 31
0.0
  0
LINE
  5
AB1C
  8
0
 10
4721.5
 20
3355.7500000000218
 30
0.0
 11
4660.0
 21
3355.7500000000218
 31
0.0
  0
LINE
  5
AB1D
  8
0
  6
CENTER2
 10
4718.0
 20
3335.0000000000218
 30
0.0
 11
9282.0
 21
3335.0000000000159
 31
0.0
  0
TEXT
  5
AB1E
  8
0
 10
8367.2047612756323
 20
3123.5185434277519
 30
0.0
 40
105.0
  1
光軸
 41
0.8
  7
横文字
 72
     1
 11
8456.8047612756327
 21
3123.5185434277519
 31
0.0
  0
INSERT
  5
AB1F
  8
0
  2
*U37
 10
0.0
 20
0.0
 30
0.0
  0
DIMENSION
  5
AB20
  8
0
  2
*D5
 10
4323.0
 20
3335.0000000000159
 30
0.0
 11
4240.4999999999991
 21
3367.5000000000218
 31
0.0
 70
   128
 13
4423.0
 23
3500.0000000000209
 33
0.0
 14
4723.0
 24
3335.0000000000159
 34
0.0
 50
90.0
1001
ACAD
1000
DSTYLE
1002
{
1070
    41
1040
1.0
1002
}
  0
LINE
  5
AB21
  8
0
  6
PHANTOM2
 10
10250.0
 20
3650.0
 30
0.0
 11
9250.0
 21
3650.0
 31
0.0
  0
LINE
  5
AB22
  8
0
  6
PHANTOM2
 10
9250.0
 20
3650.0
 30
0.0
 11
9250.0
 21
3500.0
 31
0.0
  0
LINE
  5
AB23
  8
0
  6
PHANTOM2
 10
9250.0
 20
3500.0
 30
0.0
 11
10250.0
 21
3500.0
 31
0.0
  0
LINE
  5
AB24
  8
0
  6
PHANTOM2
 10
3750.0
 20
3500.0000000000209
 30
0.0
 11
4750.0
 21
3500.0000000000209
 31
0.0
  0
LINE
  5
AB25
  8
0
  6
PHANTOM2
 10
4750.0
 20
3500.0000000000209
 30
0.0
 11
4750.0
 21
3650.0
 31
0.0
  0
LINE
  5
AB26
  8
0
  6
PHANTOM2
 10
4750.0
 20
3650.0
 30
0.0
 11
3750.0
 21
3650.0
 31
0.0
  0
LINE
  5
AB27
  8
0
  6
PHANTOM2
 10
6850.0
 20
10650.000000000009
 30
0.0
 11
6850.0
 21
8500.0
 31
0.0
  0
LINE
  5
AB28
  8
0
  6
PHANTOM2
 10
6850.0
 20
8500.0
 30
0.0
 11
7000.0
 21
8500.0
 31
0.0
  0
LINE
  5
AB29
  8
0
  6
PHANTOM2
 10
7000.0
 20
8500.0
 30
0.0
 11
7000.0
 21
9100.0
 31
0.0
  0
LINE
  5
AB2A
  8
0
  6
PHANTOM2
 10
7000.0
 20
9100.0
 30
0.0
 11
11745.0
 21
9100.0
 31
0.0
  0
LINE
  5
AB2B
  8
0
  6
PHANTOM2
 10
11745.0
 20
9250.0
 30
0.0
 11
7000.0
 21
9250.0
 31
0.0
  0
LINE
  5
AB2C
  8
0
  6
PHANTOM2
 10
7000.0
 20
9250.0
 30
0.0
 11
7000.0
 21
10650.000000000009
 31
0.0
  0
TEXT
  5
AB2D
  8
0
 10
10979.999999999971
 20
47.5
 30
0.0
 40
105.0
  1
スタンダード
 11
10979.999999999971
 21
100.0
 31
0.0
 73
     2
  0
TEXT
  5
AB2E
  8
0
 10
10229.999999999971
 20
47.5
 30
0.0
 40
105.0
  1
納まり　  :
 11
10229.999999999971
 21
100.0
 31
0.0
 73
     2
  0
TEXT
  5
AB2F
  8
0
 10
6552.9957445612663
 20
7427.0875098650658
 30
0.0
 40
105.0
  1
パネル
 41
0.8
  7
文字
 72
     1
 11
6692.9957445612672
 21
7427.0875098650658
 31
0.0
  0
INSERT
  5
AB30
  8
0
  2
*U38
 10
0.0
 20
0.0
 30
0.0
  0
DIMENSION
  5
AB31
  8
0
  2
*D7
 10
11140.0
 20
10350.000000000009
 30
0.0
 11
9085.0
 21
10432.5
 31
0.0
  1
奥行寸法D
 13
7000.0
 23
10200.0
 33
0.0
 14
11140.0
 24
10200.0
 34
0.0
1001
ACAD
1000
DSTYLE
1002
{
1070
    76
1070
     1
1070
     7
1000
NONE
1070
     5
1000

1070
   173
1070
     1
1070
     6
1000
ORIGIN
1070
    41
1040
1.0
1002
}
  0
DIMENSION
  5
AB32
  8
0
  2
*D8
 10
5975.0
 20
8930.0
 30
0.0
 11
5892.4999999999991
 21
8715.0000000000018
 31
0.0
 13
6650.0
 23
8500.0
 33
0.0
 14
6650.0
 24
8930.0
 34
0.0
 50
90.0
1001
ACAD
1000
DSTYLE
1002
{
1070
    41
1040
1.0
1002
}
  0
DIMENSION
  5
AB33
  8
0
  2
*D10
 10
5975.0
 20
8400.0
 30
0.0
 11
5892.4999999999991
 21
8450.0000000000018
 31
0.0
  1
Y
 13
6650.0
 23
8500.0
 33
0.0
 14
6650.0
 24
8400.0
 34
0.0
 50
90.0
1001
ACAD
1000
DSTYLE
1002
{
1070
    41
1040
1.0
1002
}
  0
DIMENSION
  5
AB34
  8
0
  2
*D12
 10
5975.0
 20
6000.0
 30
0.0
 11
5892.4999999999991
 21
7200.0000000000009
 31
0.0
  1
有効開口高=H-Y
 13
6650.0
 23
8400.0
 33
0.0
 14
6125.0
 24
6000.0
 34
0.0
 50
90.0
1001
ACAD
1000
DSTYLE
1002
{
1070
    41
1040
1.0
1002
}
  0
TEXT
  5
AB35
  8
0
 10
13410.0
 20
10647.5
 30
0.0
 40
105.0
  1
パネル
 41
0.8
  7
文字
 72
     1
 11
13550.0
 21
10700.0
 31
0.0
 73
     2
  0
TEXT
  5
AB36
  8
0
 10
13064.0
 20
10447.5
 30
0.0
 40
105.0
  1
Y
 41
0.8
  7
文字
 72
     1
 11
13100.0
 21
10500.0
 31
0.0
 73
     2
  0
LINE
  5
AB37
  8
0
 10
14800.0
 20
10800.0
 30
0.0
 11
13800.0
 21
10800.0
 31
0.0
  0
LINE
  5
AB38
  8
0
 10
12900.0
 20
11000.0
 30
0.0
 11
12900.0
 21
10400.0
 31
0.0
  0
LINE
  5
AB39
  8
0
 10
14800.0
 20
10600.0
 30
0.0
 11
12900.0
 21
10600.0
 31
0.0
  0
LINE
  5
AB3A
  8
0
 10
12900.0
 20
10400.0
 30
0.0
 11
14800.0
 21
10400.0
 31
0.0
  0
LINE
  5
AB3B
  8
0
 10
13300.0
 20
11000.0
 30
0.0
 11
13300.0
 21
10400.0
 31
0.0
  0
LINE
  5
AB3C
  8
0
 10
13800.0
 20
11000.0
 30
0.0
 11
13800.0
 21
10400.0
 31
0.0
  0
TEXT
  5
AB3D
  8
0
 10
13510.0
 20
10447.5
 30
0.0
 40
105.0
  1
0
 41
0.8
  7
文字
 72
     1
 11
13550.0
 21
10500.0
 31
0.0
 73
     2
  0
TEXT
  5
AB3E
  8
0
 10
13359.6
 20
10847.5
 30
0.0
 40
105.0
  1
スチール
 41
0.8
  7
文字
 72
     1
 11
13550.0
 21
10900.0
 31
0.0
 73
     2
  0
TEXT
  5
AB3F
  8
0
 10
13960.4
 20
10647.5
 30
0.0
 40
105.0
  1
標準
 41
0.8
  7
文字
 72
     1
 11
14050.0
 21
10700.0
 31
0.0
 73
     2
  0
LINE
  5
AB40
  8
0
 10
14300.0
 20
10800.0
 30
0.0
 11
14300.0
 21
10400.0
 31
0.0
  0
TEXT
  5
AB41
  8
0
 10
14371.200000000001
 20
10647.5
 30
0.0
 40
105.0
  1
ワイド1
 41
0.8
  7
文字
 72
     1
 11
14550.0
 21
10700.0
 31
0.0
 73
     2
  0
LINE
  5
AB42
  8
0
 10
14800.0
 20
11000.0
 30
0.0
 11
14800.0
 21
10400.0
 31
0.0
  0
TEXT
  5
AB43
  8
0
 10
13840.4
 20
10847.5
 30
0.0
 40
105.0
  1
アルミパネル・FRPパネル
 41
0.6
  7
文字
 72
     1
 11
14300.0
 21
10900.0
 31
0.0
 73
     2
  0
LINE
  5
AB44
  8
0
 10
14800.0
 20
11000.0
 30
0.0
 11
12900.0
 21
11000.0
 31
0.0
  0
TEXT
  5
AB45
  8
0
 10
14010.0
 20
10447.5
 30
0.0
 40
105.0
  1
0
 41
0.8
  7
文字
 72
     1
 11
14050.0
 21
10500.0
 31
0.0
 73
     2
  0
TEXT
  5
AB46
  8
0
 10
14470.0
 20
10447.5
 30
0.0
 40
105.0
  1
70
 41
0.8
  7
文字
 72
     1
 11
14550.0
 21
10500.0
 31
0.0
 73
     2
  0
LINE
  5
AB47
  8
0
 10
12900.0
 20
11000.0
 30
0.0
 11
13300.0
 21
10600.0
 31
0.0
  0
TEXT
  5
AB48
  8
0
 10
12900.0
 20
11047.5
 30
0.0
 40
105.0
  1
有効開口高=H-Y
 41
0.8
  7
文字
 11
12900.0
 21
11100.0
 31
0.0
 73
     2
  0
LINE
  5
AB49
  8
0
 10
12900.0
 20
10000.0
 30
0.0
 11
12900.0
 21
9400.0
 31
0.0
  0
LINE
  5
AB4A
  8
0
 10
15000.0
 20
10000.0
 30
0.0
 11
12900.0
 21
10000.0
 31
0.0
  0
TEXT
  5
AB4B
  8
0
 10
13160.4
 20
9847.5000000000018
 30
0.0
 40
105.0
  1
型式
 41
0.8
  7
文字
 72
     1
 11
13250.0
 21
9900.0
 31
0.0
 73
     2
  0
LINE
  5
AB4C
  8
0
 10
13600.0
 20
10000.0
 30
0.0
 11
13600.0
 21
9400.0
 31
0.0
  0
LINE
  5
AB4D
  8
0
 10
14300.0
 20
10000.0
 30
0.0
 11
14300.0
 21
9400.0
 31
0.0
  0
TEXT
  5
AB4E
  8
0
 10
13810.4
 20
9847.5000000000018
 30
0.0
 40
105.0
  1
D寸法
 41
0.8
  7
文字
 72
     1
 11
13950.0
 21
9900.0
 31
0.0
 73
     2
  0
TEXT
  5
AB4F
  8
0
 10
14518.4
 20
9847.5000000000018
 30
0.0
 40
105.0
  1
L寸法
 41
0.8
  7
文字
 72
     1
 11
14650.0
 21
9900.0
 31
0.0
 73
     2
  0
TEXT
  5
AB50
  8
0
 10
12959.6
 20
9647.5
 30
0.0
 40
105.0
  1
DH2400用
 41
0.8
  7
文字
 72
     1
 11
13250.0
 21
9700.0
 31
0.0
 73
     2
  0
TEXT
  5
AB51
  8
0
 10
13694.4
 20
9647.5
 30
0.0
 40
105.0
  1
3518以上
 41
0.8
  7
文字
 72
     1
 11
13950.0
 21
9700.0
 31
0.0
 73
     2
  0
TEXT
  5
AB52
  8
0
 10
14490.0
 20
9647.5
 30
0.0
 40
105.0
  1
3433
 41
0.8
  7
文字
 72
     1
 11
14650.0
 21
9700.0
 31
0.0
 73
     2
  0
TEXT
  5
AB53
  8
0
 10
12959.6
 20
9447.5000000000018
 30
0.0
 40
105.0
  1
DH3000用
 41
0.8
  7
文字
 72
     1
 11
13250.0
 21
9500.0
 31
0.0
 73
     2
  0
TEXT
  5
AB54
  8
0
 10
13694.4
 20
9447.5000000000018
 30
0.0
 40
105.0
  1
4140以上
 41
0.8
  7
文字
 72
     1
 11
13950.0
 21
9500.0
 31
0.0
 73
     2
  0
TEXT
  5
AB55
  8
0
 10
14490.0
 20
9447.5000000000018
 30
0.0
 40
105.0
  1
4055
 41
0.8
  7
文字
 72
     1
 11
14650.0
 21
9500.0
 31
0.0
 73
     2
  0
LINE
  5
AB56
  8
0
 10
15000.0
 20
10000.0
 30
0.0
 11
15000.0
 21
9400.0
 31
0.0
  0
LINE
  5
AB57
  8
0
 10
15000.0
 20
9800.0
 30
0.0
 11
12900.0
 21
9800.0
 31
0.0
  0
LINE
  5
AB58
  8
0
 10
15000.0
 20
9600.0
 30
0.0
 11
12900.0
 21
9600.0
 31
0.0
  0
LINE
  5
AB59
  8
0
 10
15000.0
 20
9400.0
 30
0.0
 11
12900.0
 21
9400.0
 31
0.0
  0
TEXT
  5
AB5A
  8
0
 10
14431.200000000001
 20
11047.5
 30
0.0
 40
105.0
  1
（mm）
 41
0.8
  7
文字
 72
     2
 11
14800.0
 21
11100.0
 31
0.0
 73
     2
  0
TEXT
  5
AB5B
  8
0
 10
14631.200000000001
 20
10047.5
 30
0.0
 40
105.0
  1
（mm）
 41
0.8
  7
文字
 72
     2
 11
15000.0
 21
10100.0
 31
0.0
 73
     2
  0
ENDSEC
  0
EOF
