  0
SECTION
  2
HEADER
  9
$ACADVER
  1
AC1009
  9
$INSBASE
 10
0.0
 20
0.0
 30
0.0
  9
$EXTMIN
 10
-0.4998397926137841
 20
-0.3584016095373954
 30
-0.0015258207003583
  9
$EXTMAX
 10
16380.499916067931
 20
11745.35845630145
 30
0.0000000349246037
  9
$LIMMIN
 10
0.0
 20
0.0
  9
$LIMMAX
 10
420.0
 20
297.0
  9
$ORTHOMODE
 70
     0
  9
$REGENMODE
 70
     1
  9
$FILLMODE
 70
     1
  9
$QTEXTMODE
 70
     0
  9
$MIRRTEXT
 70
     1
  9
$DRAGMODE
 70
     2
  9
$LTSCALE
 40
7.5
  9
$OSMODE
 70
  3071
  9
$ATTMODE
 70
     1
  9
$TEXTSIZE
 40
105.0
  9
$TRACEWID
 40
1.0
  9
$TEXTSTYLE
  7
文字
  9
$CLAYER
  8
0
  9
$CELTYPE
  6
BYLAYER
  9
$CECOLOR
 62
   256
  9
$DIMSCALE
 40
30.0
  9
$DIMASZ
 40
2.0
  9
$DIMEXO
 40
5.0
  9
$DIMDLI
 40
7.5
  9
$DIMRND
 40
0.0
  9
$DIMDLE
 40
0.0
  9
$DIMEXE
 40
1.0
  9
$DIMTP
 40
0.0
  9
$DIMTM
 40
0.0
  9
$DIMTXT
 40
3.5
  9
$DIMCEN
 40
1.0
  9
$DIMTSZ
 40
0.0
  9
$DIMTOL
 70
     0
  9
$DIMLIM
 70
     0
  9
$DIMTIH
 70
     0
  9
$DIMTOH
 70
     0
  9
$DIMSE1
 70
     0
  9
$DIMSE2
 70
     0
  9
$DIMTAD
 70
     1
  9
$DIMZIN
 70
     8
  9
$DIMBLK
  1
ORIGIN
  9
$DIMASO
 70
     1
  9
$DIMSHO
 70
     1
  9
$DIMPOST
  1

  9
$DIMAPOST
  1

  9
$DIMALT
 70
     0
  9
$DIMALTD
 70
     3
  9
$DIMALTF
 40
0.03937007874016
  9
$DIMLFAC
 40
1.0
  9
$DIMTOFL
 70
     1
  9
$DIMTVP
 40
0.0
  9
$DIMTIX
 70
     1
  9
$DIMSOXD
 70
     0
  9
$DIMSAH
 70
     0
  9
$DIMBLK1
  1

  9
$DIMBLK2
  1

  9
$DIMSTYLE
  2
寸法線30
  9
$DIMCLRD
 70
   256
  9
$DIMCLRE
 70
   256
  9
$DIMCLRT
 70
   256
  9
$DIMTFAC
 40
1.0
  9
$DIMGAP
 40
1.0
  9
$LUNITS
 70
     2
  9
$LUPREC
 70
     4
  9
$SKETCHINC
 40
1.0
  9
$FILLETRAD
 40
0.0
  9
$AUNITS
 70
     0
  9
$AUPREC
 70
     0
  9
$MENU
  1
.
  9
$ELEVATION
 40
0.0
  9
$PELEVATION
 40
0.0
  9
$THICKNESS
 40
0.0
  9
$LIMCHECK
 70
     0
  9
$BLIPMODE
 70
     0
  9
$CHAMFERA
 40
10.0
  9
$CHAMFERB
 40
10.0
  9
$SKPOLY
 70
     0
  9
$TDCREATE
 40
2452654.657629028
  9
$TDUPDATE
 40
2456778.705311609
  9
$TDINDWG
 40
0.8006799537
  9
$TDUSRTIMER
 40
0.8006781366
  9
$USRTIMER
 70
     1
  9
$ANGBASE
 50
0.0
  9
$ANGDIR
 70
     0
  9
$PDMODE
 70
     0
  9
$PDSIZE
 40
0.0
  9
$PLINEWID
 40
0.0
  9
$COORDS
 70
     2
  9
$SPLFRAME
 70
     0
  9
$SPLINETYPE
 70
     6
  9
$SPLINESEGS
 70
     8
  9
$ATTDIA
 70
     0
  9
$ATTREQ
 70
     1
  9
$HANDLING
 70
     1
  9
$HANDSEED
  5
A0DC
  9
$SURFTAB1
 70
     6
  9
$SURFTAB2
 70
     6
  9
$SURFTYPE
 70
     6
  9
$SURFU
 70
     6
  9
$SURFV
 70
     6
  9
$UCSNAME
  2

  9
$UCSORG
 10
0.0
 20
0.0
 30
0.0
  9
$UCSXDIR
 10
1.0
 20
0.0
 30
0.0
  9
$UCSYDIR
 10
0.0
 20
1.0
 30
0.0
  9
$PUCSNAME
  2

  9
$PUCSORG
 10
0.0
 20
0.0
 30
0.0
  9
$PUCSXDIR
 10
1.0
 20
0.0
 30
0.0
  9
$PUCSYDIR
 10
0.0
 20
1.0
 30
0.0
  9
$USERI1
 70
     0
  9
$USERI2
 70
     0
  9
$USERI3
 70
     0
  9
$USERI4
 70
     0
  9
$USERI5
 70
     0
  9
$USERR1
 40
0.0
  9
$USERR2
 40
0.0
  9
$USERR3
 40
0.0
  9
$USERR4
 40
0.0
  9
$USERR5
 40
0.0
  9
$WORLDVIEW
 70
     1
  9
$SHADEDGE
 70
     3
  9
$SHADEDIF
 70
    70
  9
$TILEMODE
 70
     1
  9
$MAXACTVP
 70
    64
  9
$PLIMCHECK
 70
     0
  9
$PEXTMIN
 10
1.0000000000000000E+020
 20
1.0000000000000000E+020
 30
1.0000000000000000E+020
  9
$PEXTMAX
 10
-1.0000000000000000E+020
 20
-1.0000000000000000E+020
 30
-1.0000000000000000E+020
  9
$PLIMMIN
 10
0.0
 20
0.0
  9
$PLIMMAX
 10
420.0
 20
297.0
  9
$UNITMODE
 70
     0
  9
$VISRETAIN
 70
     1
  9
$PLINEGEN
 70
     0
  9
$PSLTSCALE
 70
     1
  0
ENDSEC
  0
SECTION
  2
TABLES
  0
TABLE
  2
VPORT
 70
     1
  0
VPORT
  2
*ACTIVE
 70
     0
 10
0.0
 20
0.0
 11
1.0
 21
1.0
 12
8190.0000381376594
 22
5872.5000273459573
 13
0.0
 23
0.0
 14
10.0
 24
10.0
 15
10.0
 25
10.0
 16
0.0
 26
0.0
 36
1.0
 17
0.0
 27
0.0
 37
0.0
 40
11826.443434254021
 41
1.7981651376146781
 42
50.0
 43
0.0
 44
0.0
 50
0.0
 51
0.0
 71
     0
 72
   100
 73
     1
 74
     3
 75
     0
 76
     0
 77
     0
 78
     0
  0
ENDTAB
  0
TABLE
  2
LTYPE
 70
     4
  0
LTYPE
  2
CONTINUOUS
 70
     0
  3
Solid line
 72
    65
 73
     0
 40
0.0
  0
LTYPE
  2
HIDDEN
 70
     0
  3
Hidden __ __ __ __ __ __ __ __ __ __ __ __ __ _
 72
    65
 73
     2
 40
9.5249999999999986
 49
6.3499999999999979
 49
-3.174999999999998
  0
LTYPE
  2
CENTER2
 70
     0
  3
Center (.5x) ___ _ ___ _ ___ _ ___ _ ___ _ ___
 72
    65
 73
     4
 40
28.574999999999999
 49
19.050000000000001
 49
-3.174999999999998
 49
3.174999999999998
 49
-3.174999999999998
  0
LTYPE
  2
PHANTOM2
 70
     0
  3
Phantom (.5x) ___ _ _ ___ _ _ ___ _ _ ___ _ _
 72
    65
 73
     6
 40
31.75
 49
15.875
 49
-3.174999999999998
 49
3.174999999999998
 49
-3.174999999999998
 49
3.174999999999998
 49
-3.174999999999998
  0
ENDTAB
  0
TABLE
  2
LAYER
 70
     2
  0
LAYER
  2
0
 70
     0
 62
     7
  6
CONTINUOUS
  0
LAYER
  2
DEFPOINTS
 70
     0
 62
     7
  6
CONTINUOUS
  0
ENDTAB
  0
TABLE
  2
STYLE
 70
     4
  0
STYLE
  2
STANDARD
 70
     0
 40
0.0
 41
1.0
 50
0.0
 71
     0
 42
105.0
  3
romans.shx
  4
bigfont.shx
  0
STYLE
  2
文字
 70
     0
 40
0.0
 41
0.8
 50
0.0
 71
     0
 42
105.0
  3
romans.shx
  4
extfont.shx
  0
STYLE
  2
横文字
 70
     0
 40
0.0
 41
0.8
 50
0.0
 71
     0
 42
105.0
  3
romans.shx
  4
extfont.shx
  0
ENDTAB
  0
TABLE
  2
VIEW
 70
     0
  0
ENDTAB
  0
TABLE
  2
UCS
 70
     0
  0
ENDTAB
  0
TABLE
  2
APPID
 70
    81
  0
APPID
  2
ACAD
 70
     0
  0
APPID
  2
ACADANNOTATIVE
 70
     0
  0
APPID
  2
ADE
 70
     0
  0
APPID
  2
DCO15
 70
     0
  0
APPID
  2
SETH_MM
 70
     0
  0
APPID
  2
ACAD_PSEXT
 70
     0
  0
APPID
  2
ACAD_EXEMPT_FROM_CAD_STANDARDS
 70
     0
  0
APPID
  2
ACAD_MLEADERVER
 70
     0
  0
APPID
  2
AUTOESSSHUTTERLINE1
 70
     0
  0
APPID
  2
AUTOESSSHUTTERLINE2
 70
     0
  0
APPID
  2
AUTOESSSHUTTERPT
 70
     0
  0
APPID
  2
MAKICIRCLE
 70
     0
  0
APPID
  2
ACAD_DSTYLE_DIMJAG
 70
     0
  0
APPID
  2
ACAD_DSTYLE_DIMTALN
 70
     0
  0
APPID
  2
SETW_MM
 70
     0
  0
APPID
  2
PARADIMLINE
 70
     0
  0
APPID
  2
PARABASEPT
 70
     0
  0
APPID
  2
MIRRORCHK_L
 70
     0
  0
APPID
  2
MIRRORCHK_R
 70
     0
  0
APPID
  2
LINKSPLIT1
 70
     0
  0
APPID
  2
LINKSPLIT2
 70
     0
  0
APPID
  2
LINKSPLIT3
 70
     0
  0
APPID
  2
LINKSPLIT4
 70
     0
  0
APPID
  2
TBANLLINE
 70
     0
  0
APPID
  2
TBANRLINE
 70
     0
  0
APPID
  2
TBANHLINE
 70
     0
  0
APPID
  2
ARCLINEA1
 70
     0
  0
APPID
  2
ARCLINEA2
 70
     0
  0
APPID
  2
ARCLINEB1
 70
     0
  0
APPID
  2
ARCLINEB2
 70
     0
  0
APPID
  2
ODPDW
 70
     0
  0
APPID
  2
ODPDH
 70
     0
  0
APPID
  2
ODWLINE1
 70
     0
  0
APPID
  2
ODWLINE2
 70
     0
  0
APPID
  2
ODSY
 70
     0
  0
APPID
  2
EDWDW
 70
     0
  0
APPID
  2
EDWDH
 70
     0
  0
APPID
  2
LINKSPLIT11
 70
     0
  0
APPID
  2
LINKSPLIT12
 70
     0
  0
APPID
  2
LINKSPLIT13
 70
     0
  0
APPID
  2
LINKSPLIT14
 70
     0
  0
APPID
  2
AUTOESSDOORPTH1
 70
     0
  0
APPID
  2
AUTOESSDOORPTH2
 70
     0
  0
APPID
  2
AUTOESSDOORPTV1
 70
     0
  0
APPID
  2
AUTOESSDOORPTV2
 70
     0
  0
APPID
  2
TBANPT1
 70
     0
  0
APPID
  2
TBANPT2
 70
     0
  0
APPID
  2
SETDH_MM
 70
     0
  0
APPID
  2
SETV1_MM
 70
     0
  0
APPID
  2
SETV2_MM
 70
     0
  0
APPID
  2
KAIKOUDIM
 70
     0
  0
APPID
  2
TBANK
 70
     0
  0
APPID
  2
TBANR
 70
     0
  0
APPID
  2
TBANO
 70
     0
  0
APPID
  2
TBANHATA1
 70
     0
  0
APPID
  2
TBANHATA2
 70
     0
  0
APPID
  2
TBANMEN
 70
     0
  0
APPID
  2
TBANW
 70
     0
  0
APPID
  2
TBANH
 70
     0
  0
APPID
  2
ARCLINEA3
 70
     0
  0
APPID
  2
ARCLINEB3
 70
     0
  0
APPID
  2
WORKNAME_UE
 70
     0
  0
APPID
  2
WORKNAME
 70
     0
  0
APPID
  2
SD1
 70
     0
  0
APPID
  2
SD2
 70
     0
  0
APPID
  2
DELETEOBJ
 70
     0
  0
APPID
  2
TBANTEXT
 70
     0
  0
APPID
  2
MAKITEXT
 70
     0
  0
APPID
  2
N_01
 70
     0
  0
APPID
  2
N_02
 70
     0
  0
APPID
  2
N_03
 70
     0
  0
APPID
  2
N_04
 70
     0
  0
APPID
  2
N_05
 70
     0
  0
APPID
  2
N_06
 70
     0
  0
APPID
  2
N_07
 70
     0
  0
APPID
  2
N_08
 70
     0
  0
APPID
  2
N_09
 70
     0
  0
APPID
  2
N_10
 70
     0
  0
APPID
  2
N_11
 70
     0
  0
APPID
  2
N_12
 70
     0
  0
APPID
  2
N_13
 70
     0
  0
ENDTAB
  0
TABLE
  2
DIMSTYLE
 70
     3
  0
DIMSTYLE
  2
STANDARD
 70
     0
  3

  4

  5

  6

  7

 40
30.0
 41
1.0
 42
5.0
 43
7.5
 44
1.0
 45
0.0
 46
0.0
 47
0.0
 48
0.0
140
3.5
141
2.5
142
0.0
143
25.399999999999999
144
1.0
145
0.0
146
1.0
147
1.0
 71
     0
 72
     0
 73
     0
 74
     0
 75
     0
 76
     0
 77
     1
 78
     8
170
     0
171
     2
172
     1
173
     0
174
     1
175
     0
176
     0
177
     0
178
     0
  0
DIMSTYLE
  2
寸法線30
 70
     0
  3

  4

  5

  6

  7

 40
30.0
 41
2.0
 42
5.0
 43
7.5
 44
1.0
 45
0.0
 46
0.0
 47
0.0
 48
0.0
140
3.5
141
1.0
142
0.0
143
0.03937007874016
144
1.0
145
0.0
146
1.0
147
1.0
 71
     0
 72
     0
 73
     0
 74
     0
 75
     0
 76
     0
 77
     1
 78
     8
170
     0
171
     3
172
     1
173
     0
174
     1
175
     0
176
   256
177
   256
178
   256
  0
ENDTAB
  0
ENDSEC
  0
SECTION
  2
BLOCKS
  0
BLOCK
  8
0
  2
$MODEL_SPACE
 70
     0
 10
0.0
 20
0.0
 30
0.0
  3
$MODEL_SPACE
  1

  0
ENDBLK
  5
9FD6
  8
0
  0
BLOCK
 67
     1
  8
0
  2
$PAPER_SPACE
 70
     0
 10
0.0
 20
0.0
 30
0.0
  3
$PAPER_SPACE
  1

  0
ENDBLK
  5
9FD2
 67
     1
  8
0
  0
BLOCK
  8
0
  2
_ORIGIN
 70
     0
 10
0.0
 20
0.0
 30
0.0
  3
_ORIGIN
  1

  0
CIRCLE
  5
A7
  8
0
  6
BYBLOCK
 62
     0
 10
0.0
 20
0.0
 30
0.0
 40
0.5
  0
LINE
  5
A8
  8
0
  6
BYBLOCK
 62
     0
 10
0.0
 20
0.0
 30
0.0
 11
-1.0
 21
0.0
 31
0.0
  0
ENDBLK
  5
AA
  8
0
  0
BLOCK
  8
0
  2
_OPEN30
 70
     0
 10
0.0
 20
0.0
 30
0.0
  3
_OPEN30
  1

  0
LINE
  5
AC
  8
0
  6
BYBLOCK
 62
     0
 10
-1.0
 20
0.26794919
 30
0.0
 11
0.0
 21
0.0
 31
0.0
  0
LINE
  5
AD
  8
0
  6
BYBLOCK
 62
     0
 10
0.0
 20
0.0
 30
0.0
 11
-1.0
 21
-0.26794919
 31
0.0
  0
LINE
  5
AE
  8
0
  6
BYBLOCK
 62
     0
 10
0.0
 20
0.0
 30
0.0
 11
-1.0
 21
0.0
 31
0.0
  0
ENDBLK
  5
B0
  8
0
  0
BLOCK
  8
0
  2
*D4
 70
     1
 10
0.0
 20
0.0
 30
0.0
  3
*D4
  1

  0
LINE
  5
9DFC
  8
0
 10
4750.0
 20
4000.0000000000209
 30
0.0
 11
4750.0
 21
4530.0000000000209
 31
0.0
  0
LINE
  5
9DFD
  8
0
 10
9250.0
 20
4000.0000000000209
 30
0.0
 11
9250.0
 21
4530.0000000000209
 31
0.0
  0
LINE
  5
9DFE
  8
0
 10
4780.0
 20
4500.0000000000209
 30
0.0
 11
9220.0
 21
4500.0000000000209
 31
0.0
  0
INSERT
  5
9DFF
  8
0
  2
_ORIGIN
 10
4750.0
 20
4500.0000000000209
 30
0.0
 41
30.0
 42
30.0
 43
30.0
 50
180.0
  0
INSERT
  5
9E00
  8
0
  2
_ORIGIN
 10
9250.0
 20
4500.0000000000209
 30
0.0
 41
30.0
 42
30.0
 43
30.0
  0
INSERT
  5
9E01
  8
0
  2
*U5
 10
0.0
 20
0.0
 30
0.0
  0
POINT
  5
9E02
  8
DEFPOINTS
 62
     0
 10
4750.0
 20
3850.0000000000209
 30
0.0
  0
POINT
  5
9E03
  8
DEFPOINTS
 62
     0
 10
9250.0
 20
3850.0000000000209
 30
0.0
  0
POINT
  5
9E04
  8
DEFPOINTS
 62
     0
 10
9250.0
 20
4500.0000000000209
 30
0.0
  0
ENDBLK
  5
9D4C
  8
0
  0
BLOCK
  8
0
  2
*U5
 70
     1
 10
0.0
 20
0.0
 30
0.0
  3
*U5
  1

  0
TEXT
  5
9F33
  8
0
 10
6952.0
 20
4530.0000000000209
 30
0.0
 40
105.0
  1
W
 41
0.8
  7
文字
  0
ENDBLK
  5
9F35
  8
0
  0
BLOCK
  8
0
  2
*D6
 70
     1
 10
0.0
 20
0.0
 30
0.0
  3
*D6
  1

  0
LINE
  5
9E05
  8
0
 10
6500.0
 20
8800.0
 30
0.0
 11
5720.0000000000009
 21
8800.0
 31
0.0
  0
LINE
  5
9E06
  8
0
 10
5700.0
 20
6000.0
 30
0.0
 11
5720.0
 21
6000.0
 31
0.0
  0
LINE
  5
9E07
  8
0
 10
5750.0
 20
8770.0
 30
0.0
 11
5750.0
 21
6030.0
 31
0.0
  0
INSERT
  5
9E08
  8
0
  2
_ORIGIN
 10
5750.0
 20
8800.0
 30
0.0
 41
30.0
 42
30.0
 43
30.0
 50
90.0
  0
INSERT
  5
9E09
  8
0
  2
_ORIGIN
 10
5750.0
 20
6000.0
 30
0.0
 41
30.0
 42
30.0
 43
30.0
 50
270.0
  0
INSERT
  5
9E0A
  8
0
  2
*U7
 10
0.0
 20
0.0
 30
0.0
  0
POINT
  5
9E0B
  8
DEFPOINTS
 62
     0
 10
6650.0
 20
8800.0
 30
0.0
  0
POINT
  5
9E0C
  8
DEFPOINTS
 62
     0
 10
5850.0
 20
6000.0
 30
0.0
  0
POINT
  5
9E0D
  8
DEFPOINTS
 62
     0
 10
5750.0
 20
6000.0
 30
0.0
  0
ENDBLK
  5
9D58
  8
0
  0
BLOCK
  8
0
  2
*U7
 70
     1
 10
0.0
 20
0.0
 30
0.0
  3
*U7
  1

  0
TEXT
  5
9F37
  8
0
 10
5719.9999999999973
 20
7356.0000000000027
 30
0.0
 40
105.0
  1
H
 50
90.0
 41
0.8
  7
文字
  0
ENDBLK
  5
9F39
  8
0
  0
BLOCK
  8
0
  2
*D8
 70
     1
 10
0.0
 20
0.0
 30
0.0
  3
*D8
  1

  0
LINE
  5
9E0E
  8
0
 10
6500.0
 20
8800.0
 30
0.0
 11
5720.0
 21
8800.0
 31
0.0
  0
LINE
  5
9E0F
  8
0
 10
6500.0
 20
9420.0
 30
0.0
 11
5720.0
 21
9420.0
 31
0.0
  0
LINE
  5
9E10
  8
0
 10
5750.0
 20
8770.0
 30
0.0
 11
5750.0
 21
8740.0
 31
0.0
  0
LINE
  5
9E11
  8
0
 10
5750.0
 20
9450.0
 30
0.0
 11
5750.0
 21
9480.0
 31
0.0
  0
LINE
  5
9E12
  8
0
 10
5750.0
 20
8800.0
 30
0.0
 11
5750.0
 21
9420.0
 31
0.0
  0
INSERT
  5
9E13
  8
0
  2
_ORIGIN
 10
5750.0
 20
8800.0
 30
0.0
 41
30.0
 42
30.0
 43
30.0
 50
90.0
  0
INSERT
  5
9E14
  8
0
  2
_ORIGIN
 10
5750.0
 20
9420.0
 30
0.0
 41
30.0
 42
30.0
 43
30.0
 50
270.0
  0
INSERT
  5
9E15
  8
0
  2
*U9
 10
0.0
 20
0.0
 30
0.0
  0
POINT
  5
9E16
  8
DEFPOINTS
 62
     0
 10
6650.0
 20
8800.0
 30
0.0
  0
POINT
  5
9E17
  8
DEFPOINTS
 62
     0
 10
6650.0
 20
9420.0
 30
0.0
  0
POINT
  5
9E18
  8
DEFPOINTS
 62
     0
 10
5750.0
 20
9420.0
 30
0.0
  0
ENDBLK
  5
9D64
  8
0
  0
BLOCK
  8
0
  2
*U9
 70
     1
 10
0.0
 20
0.0
 30
0.0
  3
*U9
  1

  0
TEXT
  5
9F3B
  8
0
 10
5719.9999999999973
 20
8754.4000000000033
 30
0.0
 40
105.0
  1
HR=620以上
 50
90.0
 41
0.8
  7
文字
  0
ENDBLK
  5
9F3D
  8
0
  0
BLOCK
  8
0
  2
*D10
 70
     1
 10
0.0
 20
0.0
 30
0.0
  3
*D10
  1

  0
LINE
  5
9E19
  8
0
 10
6500.0
 20
8800.0
 30
0.0
 11
5945.0
 21
8800.0
 31
0.0
  0
LINE
  5
9E1A
  8
0
 10
6500.0
 20
9230.0
 30
0.0
 11
5945.0
 21
9230.0
 31
0.0
  0
LINE
  5
9E1B
  8
0
 10
5975.0
 20
8830.0
 30
0.0
 11
5975.0
 21
9200.0
 31
0.0
  0
INSERT
  5
9E1C
  8
0
  2
*U11
 10
0.0
 20
0.0
 30
0.0
  0
INSERT
  5
9E1D
  8
0
  2
_ORIGIN
 10
5975.0
 20
8800.0
 30
0.0
 41
30.0
 42
30.0
 43
30.0
 50
270.0
  0
INSERT
  5
9E1E
  8
0
  2
_ORIGIN
 10
5975.0
 20
9230.0
 30
0.0
 41
30.0
 42
30.0
 43
30.0
 50
90.0
  0
POINT
  5
9E1F
  8
DEFPOINTS
 62
     0
 10
6650.0
 20
8800.0
 30
0.0
  0
POINT
  5
9E20
  8
DEFPOINTS
 62
     0
 10
6650.0
 20
9230.0
 30
0.0
  0
POINT
  5
9E21
  8
DEFPOINTS
 62
     0
 10
5975.0
 20
9230.0
 30
0.0
  0
ENDBLK
  5
9D72
  8
0
  0
BLOCK
  8
0
  2
*U11
 70
     1
 10
0.0
 20
0.0
 30
0.0
  3
*U11
  1

  0
TEXT
  5
9F3F
  8
0
 10
5945.0
 20
8850.0000000000055
 30
0.0
 40
105.0
  1
430
 50
90.0
 41
0.8
  7
文字
  0
ENDBLK
  5
9F41
  8
0
  0
BLOCK
  8
0
  2
*D12
 70
     1
 10
0.0
 20
0.0
 30
0.0
  3
*D12
  1

  0
LINE
  5
9E22
  8
0
 10
7400.0
 20
6020.0
 30
0.0
 11
8029.9999999999973
 21
6020.0
 31
0.0
  0
LINE
  5
9E23
  8
0
 10
7400.0
 20
8840.0
 30
0.0
 11
8030.0
 21
8840.0
 31
0.0
  0
LINE
  5
9E24
  8
0
 10
7999.9999999999973
 20
6050.0
 30
0.0
 11
8000.0
 21
8810.0
 31
0.0
  0
INSERT
  5
9E25
  8
0
  2
_ORIGIN
 10
7999.9999999999973
 20
6020.0
 30
0.0
 41
30.0
 42
30.0
 43
30.0
 50
270.0
  0
INSERT
  5
9E26
  8
0
  2
_ORIGIN
 10
8000.0
 20
8840.0
 30
0.0
 41
30.0
 42
30.0
 43
30.0
 50
90.0
  0
INSERT
  5
9E27
  8
0
  2
*U13
 10
0.0
 20
0.0
 30
0.0
  0
POINT
  5
9E28
  8
DEFPOINTS
 62
     0
 10
7250.0
 20
6020.0
 30
0.0
  0
POINT
  5
9E29
  8
DEFPOINTS
 62
     0
 10
7250.0
 20
8840.0
 30
0.0
  0
POINT
  5
9E2A
  8
DEFPOINTS
 62
     0
 10
8000.0
 20
8840.0
 30
0.0
  0
ENDBLK
  5
9D7E
  8
0
  0
BLOCK
  8
0
  2
*U13
 70
     1
 10
0.0
 20
0.0
 30
0.0
  3
*U13
  1

  0
TEXT
  5
9F43
  8
0
 10
7969.9999999999973
 20
7344.0000000000018
 30
0.0
 40
105.0
  1
DH
 50
90.0
 41
0.8
  7
文字
  0
ENDBLK
  5
9F45
  8
0
  0
BLOCK
  8
0
  2
*D14
 70
     1
 10
0.0
 20
0.0
 30
0.0
  3
*D14
  1

  0
LINE
  5
9E2B
  8
0
 10
7000.0
 20
10085.000000000009
 30
0.0
 11
7000.0
 21
10115.0
 31
0.0
  0
LINE
  5
9E2C
  8
0
 10
7110.0
 20
9860.0
 30
0.0
 11
7110.0
 21
10115.0
 31
0.0
  0
LINE
  5
9E2D
  8
0
 10
6970.0
 20
10085.000000000009
 30
0.0
 11
6940.0
 21
10085.000000000009
 31
0.0
  0
LINE
  5
9E2E
  8
0
 10
7140.0
 20
10085.000000000009
 30
0.0
 11
7170.0
 21
10085.000000000009
 31
0.0
  0
LINE
  5
9E2F
  8
0
 10
7000.0
 20
10085.000000000009
 30
0.0
 11
7110.0
 21
10085.000000000009
 31
0.0
  0
INSERT
  5
9E30
  8
0
  2
_ORIGIN
 10
7000.0
 20
10085.000000000009
 30
0.0
 41
30.0
 42
30.0
 43
30.0
  0
INSERT
  5
9E31
  8
0
  2
_ORIGIN
 10
7110.0
 20
10085.000000000009
 30
0.0
 41
30.0
 42
30.0
 43
30.0
 50
180.0
  0
INSERT
  5
9E32
  8
0
  2
*U15
 10
0.0
 20
0.0
 30
0.0
  0
POINT
  5
9E33
  8
DEFPOINTS
 62
     0
 10
7000.0
 20
9935.0000000000091
 30
0.0
  0
POINT
  5
9E34
  8
DEFPOINTS
 62
     0
 10
7110.0
 20
9710.0
 30
0.0
  0
POINT
  5
9E35
  8
DEFPOINTS
 62
     0
 10
7110.0
 20
10085.000000000009
 30
0.0
  0
ENDBLK
  5
9D8A
  8
0
  0
BLOCK
  8
0
  2
*U15
 70
     1
 10
0.0
 20
0.0
 30
0.0
  3
*U15
  1

  0
TEXT
  5
9F47
  8
0
 10
6929.0
 20
10115.0
 30
0.0
 40
105.0
  1
110
 41
0.8
  7
文字
  0
ENDBLK
  5
9F49
  8
0
  0
BLOCK
  8
0
  2
*D16
 70
     1
 10
0.0
 20
0.0
 30
0.0
  3
*D16
  1

  0
LINE
  5
9E36
  8
0
 10
7000.0
 20
10310.000000000009
 30
0.0
 11
7000.0
 21
10340.0
 31
0.0
  0
LINE
  5
9E37
  8
0
 10
10170.0
 20
9860.0000000000091
 30
0.0
 11
10170.0
 21
10340.0
 31
0.0
  0
LINE
  5
9E38
  8
0
 10
7030.0
 20
10310.000000000009
 30
0.0
 11
10140.0
 21
10310.000000000009
 31
0.0
  0
INSERT
  5
9E39
  8
0
  2
_ORIGIN
 10
7000.0
 20
10310.000000000009
 30
0.0
 41
30.0
 42
30.0
 43
30.0
 50
180.0
  0
INSERT
  5
9E3A
  8
0
  2
_ORIGIN
 10
10170.0
 20
10310.000000000009
 30
0.0
 41
30.0
 42
30.0
 43
30.0
  0
INSERT
  5
9E3B
  8
0
  2
*U17
 10
0.0
 20
0.0
 30
0.0
  0
POINT
  5
9E3C
  8
DEFPOINTS
 62
     0
 10
7000.0
 20
10160.0
 30
0.0
  0
POINT
  5
9E3D
  8
DEFPOINTS
 62
     0
 10
10170.0
 20
9710.0000000000091
 30
0.0
  0
POINT
  5
9E3E
  8
DEFPOINTS
 62
     0
 10
10170.0
 20
10310.000000000009
 30
0.0
  0
ENDBLK
  5
9D98
  8
0
  0
BLOCK
  8
0
  2
*U17
 70
     1
 10
0.0
 20
0.0
 30
0.0
  3
*U17
  1

  0
TEXT
  5
9F4B
  8
0
 10
8325.0
 20
10340.0
 30
0.0
 40
105.0
  1
DH+350
 41
0.8
  7
文字
  0
ENDBLK
  5
9F4D
  8
0
  0
BLOCK
  8
0
  2
*D18
 70
     1
 10
0.0
 20
0.0
 30
0.0
  3
*D18
  1

  0
LINE
  5
9E3F
  8
0
 10
4725.0
 20
3100.0000000000209
 30
0.0
 11
4725.0
 21
2720.0000000000218
 31
0.0
  0
LINE
  5
9E40
  8
0
 10
9275.0
 20
3100.0000000000209
 30
0.0
 11
9275.0
 21
2720.0000000000218
 31
0.0
  0
LINE
  5
9E41
  8
0
 10
4755.0
 20
2750.0000000000209
 30
0.0
 11
9245.0
 21
2750.0000000000209
 31
0.0
  0
INSERT
  5
9E42
  8
0
  2
_ORIGIN
 10
4725.0
 20
2750.0000000000209
 30
0.0
 41
30.0
 42
30.0
 43
30.0
 50
180.0
  0
INSERT
  5
9E43
  8
0
  2
_ORIGIN
 10
9275.0
 20
2750.0000000000209
 30
0.0
 41
30.0
 42
30.0
 43
30.0
  0
INSERT
  5
9E44
  8
0
  2
*U19
 10
0.0
 20
0.0
 30
0.0
  0
POINT
  5
9E45
  8
DEFPOINTS
 62
     0
 10
4725.0
 20
3250.0000000000209
 30
0.0
  0
POINT
  5
9E46
  8
DEFPOINTS
 62
     0
 10
9275.0
 20
3250.0000000000209
 30
0.0
  0
POINT
  5
9E47
  8
DEFPOINTS
 62
     0
 10
9275.0
 20
2750.0000000000209
 30
0.0
  0
ENDBLK
  5
9DA4
  8
0
  0
BLOCK
  8
0
  2
*U19
 70
     1
 10
0.0
 20
0.0
 30
0.0
  3
*U19
  1

  0
TEXT
  5
9F4F
  8
0
 10
6906.0
 20
2780.0000000000218
 30
0.0
 40
105.0
  1
DW
 41
0.8
  7
文字
  0
ENDBLK
  5
9F51
  8
0
  0
BLOCK
  8
0
  2
*D20
 70
     1
 10
0.0
 20
0.0
 30
0.0
  3
*D20
  1

  0
LINE
  5
9E48
  8
0
 10
4750.0
 20
4000.0000000000209
 30
0.0
 11
4750.0
 21
4305.0000000000209
 31
0.0
  0
LINE
  5
9E49
  8
0
 10
4600.0
 20
4000.0000000000209
 30
0.0
 11
4600.0
 21
4305.0000000000209
 31
0.0
  0
LINE
  5
9E4A
  8
0
 10
4780.0
 20
4275.0000000000209
 30
0.0
 11
4810.0
 21
4275.0000000000209
 31
0.0
  0
LINE
  5
9E4B
  8
0
 10
4570.0
 20
4275.0000000000209
 30
0.0
 11
4540.0
 21
4275.0000000000209
 31
0.0
  0
LINE
  5
9E4C
  8
0
 10
4750.0
 20
4275.0000000000209
 30
0.0
 11
4600.0
 21
4275.0000000000209
 31
0.0
  0
INSERT
  5
9E4D
  8
0
  2
_ORIGIN
 10
4750.0
 20
4275.0000000000209
 30
0.0
 41
30.0
 42
30.0
 43
30.0
 50
180.0
  0
INSERT
  5
9E4E
  8
0
  2
_ORIGIN
 10
4600.0
 20
4275.0000000000209
 30
0.0
 41
30.0
 42
30.0
 43
30.0
  0
INSERT
  5
9E4F
  8
0
  2
*U21
 10
0.0
 20
0.0
 30
0.0
  0
POINT
  5
9E50
  8
DEFPOINTS
 62
     0
 10
4750.0
 20
3850.0000000000209
 30
0.0
  0
POINT
  5
9E51
  8
DEFPOINTS
 62
     0
 10
4600.0
 20
3850.0000000000209
 30
0.0
  0
POINT
  5
9E52
  8
DEFPOINTS
 62
     0
 10
4600.0
 20
4275.0000000000209
 30
0.0
  0
ENDBLK
  5
9DB0
  8
0
  0
BLOCK
  8
0
  2
*U21
 70
     1
 10
0.0
 20
0.0
 30
0.0
  3
*U21
  1

  0
TEXT
  5
9F53
  8
0
 10
4453.3999999999996
 20
4305.0000000000209
 30
0.0
 40
105.0
  1
150以上
 41
0.8
  7
文字
  0
ENDBLK
  5
9F55
  8
0
  0
BLOCK
  8
0
  2
*D22
 70
     1
 10
0.0
 20
0.0
 30
0.0
  3
*D22
  1

  0
LINE
  5
9E53
  8
0
 10
9250.0
 20
4000.0000000000209
 30
0.0
 11
9250.0
 21
4305.0000000000209
 31
0.0
  0
LINE
  5
9E54
  8
0
 10
9400.0
 20
4000.0000000000209
 30
0.0
 11
9400.0
 21
4305.0000000000209
 31
0.0
  0
LINE
  5
9E55
  8
0
 10
9220.0
 20
4275.0000000000209
 30
0.0
 11
9190.0
 21
4275.0000000000209
 31
0.0
  0
LINE
  5
9E56
  8
0
 10
9430.0
 20
4275.0000000000209
 30
0.0
 11
9460.0
 21
4275.0000000000209
 31
0.0
  0
LINE
  5
9E57
  8
0
 10
9250.0
 20
4275.0000000000209
 30
0.0
 11
9400.0
 21
4275.0000000000209
 31
0.0
  0
INSERT
  5
9E58
  8
0
  2
_ORIGIN
 10
9250.0
 20
4275.0000000000209
 30
0.0
 41
30.0
 42
30.0
 43
30.0
  0
INSERT
  5
9E59
  8
0
  2
_ORIGIN
 10
9400.0
 20
4275.0000000000209
 30
0.0
 41
30.0
 42
30.0
 43
30.0
 50
180.0
  0
INSERT
  5
9E5A
  8
0
  2
*U23
 10
0.0
 20
0.0
 30
0.0
  0
POINT
  5
9E5B
  8
DEFPOINTS
 62
     0
 10
9250.0
 20
3850.0000000000209
 30
0.0
  0
POINT
  5
9E5C
  8
DEFPOINTS
 62
     0
 10
9400.0
 20
3850.0000000000209
 30
0.0
  0
POINT
  5
9E5D
  8
DEFPOINTS
 62
     0
 10
9400.0
 20
4275.0000000000209
 30
0.0
  0
ENDBLK
  5
9DBE
  8
0
  0
BLOCK
  8
0
  2
*U23
 70
     1
 10
0.0
 20
0.0
 30
0.0
  3
*U23
  1

  0
TEXT
  5
9F57
  8
0
 10
9103.3999999999978
 20
4305.0000000000209
 30
0.0
 40
105.0
  1
150以上
 41
0.8
  7
文字
  0
ENDBLK
  5
9F59
  8
0
  0
BLOCK
  8
0
  2
*D24
 70
     1
 10
0.0
 20
0.0
 30
0.0
  3
*D24
  1

  0
LINE
  5
9E5E
  8
0
 10
7000.0
 20
10535.0
 30
0.0
 11
7000.0
 21
10565.000000000009
 31
0.0
  0
LINE
  5
9E5F
  8
0
 10
11020.0
 20
9860.0000000000091
 30
0.0
 11
11020.0
 21
10565.000000000009
 31
0.0
  0
LINE
  5
9E60
  8
0
 10
7030.0
 20
10535.0
 30
0.0
 11
10990.0
 21
10535.0
 31
0.0
  0
INSERT
  5
9E61
  8
0
  2
_ORIGIN
 10
7000.0
 20
10535.0
 30
0.0
 41
30.0
 42
30.0
 43
30.0
 50
180.0
  0
INSERT
  5
9E62
  8
0
  2
_ORIGIN
 10
11020.0
 20
10535.0
 30
0.0
 41
30.0
 42
30.0
 43
30.0
  0
INSERT
  5
9E63
  8
0
  2
*U25
 10
0.0
 20
0.0
 30
0.0
  0
POINT
  5
9E64
  8
DEFPOINTS
 62
     0
 10
7000.0
 20
10385.000000000009
 30
0.0
  0
POINT
  5
9E65
  8
DEFPOINTS
 62
     0
 10
11020.0
 20
9710.0000000000091
 30
0.0
  0
POINT
  5
9E66
  8
DEFPOINTS
 62
     0
 10
11020.0
 20
10535.0
 30
0.0
  0
ENDBLK
  5
9DCC
  8
0
  0
BLOCK
  8
0
  2
*U25
 70
     1
 10
0.0
 20
0.0
 30
0.0
  3
*U25
  1

  0
TEXT
  5
9F5B
  8
0
 10
8710.0
 20
10565.000000000009
 30
0.0
 40
105.0
  1
DH+1200
 41
0.8
  7
文字
  0
ENDBLK
  5
9F5D
  8
0
  0
BLOCK
  8
0
  2
*D26
 70
     1
 10
0.0
 20
0.0
 30
0.0
  3
*D26
  1

  0
LINE
  5
9E67
  8
0
 10
4273.0
 20
3500.0000000000359
 30
0.0
 11
4293.0
 21
3500.0000000000359
 31
0.0
  0
LINE
  5
9E68
  8
0
 10
4573.0
 20
3335.0
 30
0.0
 11
4293.0
 21
3335.0
 31
0.0
  0
LINE
  5
9E69
  8
0
 10
4323.0
 20
3470.0000000000368
 30
0.0
 11
4323.0
 21
3365.0
 31
0.0
  0
INSERT
  5
9E6A
  8
0
  2
*U27
 10
0.0
 20
0.0
 30
0.0
  0
INSERT
  5
9E6B
  8
0
  2
_ORIGIN
 10
4323.0
 20
3500.0000000000359
 30
0.0
 41
30.0
 42
30.0
 43
30.0
 50
90.0
  0
INSERT
  5
9E6C
  8
0
  2
_ORIGIN
 10
4323.0
 20
3335.0
 30
0.0
 41
30.0
 42
30.0
 43
30.0
 50
270.0
  0
POINT
  5
9E6D
  8
DEFPOINTS
 62
     0
 10
4423.0
 20
3500.0000000000359
 30
0.0
  0
POINT
  5
9E6E
  8
DEFPOINTS
 62
     0
 10
4723.0
 20
3335.0
 30
0.0
  0
POINT
  5
9E6F
  8
DEFPOINTS
 62
     0
 10
4323.0
 20
3335.0
 30
0.0
  0
ENDBLK
  5
9DD8
  8
0
  0
BLOCK
  8
0
  2
*U27
 70
     1
 10
0.0
 20
0.0
 30
0.0
  3
*U27
  1

  0
TEXT
  5
9F5F
  8
0
 10
4293.0
 20
3241.5000000000359
 30
0.0
 40
105.0
  1
165
 50
90.0
 41
0.8
  7
文字
  0
ENDBLK
  5
9F61
  8
0
  0
BLOCK
  8
0
  2
*D28
 70
     1
 10
0.0
 20
0.0
 30
0.0
  3
*D28
  1

  0
LINE
  5
9E70
  8
0
 10
6500.0
 20
8800.0
 30
0.0
 11
5945.0
 21
8800.0
 31
0.0
  0
LINE
  5
9E71
  8
0
 10
6500.0
 20
8700.0
 30
0.0
 11
5945.0
 21
8700.0
 31
0.0
  0
LINE
  5
9E72
  8
0
 10
5975.0
 20
8830.0
 30
0.0
 11
5975.0
 21
8860.0
 31
0.0
  0
LINE
  5
9E73
  8
0
 10
5975.0
 20
8670.0
 30
0.0
 11
5975.0
 21
8640.0
 31
0.0
  0
LINE
  5
9E74
  8
0
 10
5975.0
 20
8800.0
 30
0.0
 11
5975.0
 21
8700.0
 31
0.0
  0
INSERT
  5
9E75
  8
0
  2
_ORIGIN
 10
5975.0
 20
8800.0
 30
0.0
 41
30.0
 42
30.0
 43
30.0
 50
270.0
  0
INSERT
  5
9E76
  8
0
  2
_ORIGIN
 10
5975.0
 20
8700.0
 30
0.0
 41
30.0
 42
30.0
 43
30.0
 50
90.0
  0
INSERT
  5
9E77
  8
0
  2
*U29
 10
0.0
 20
0.0
 30
0.0
  0
POINT
  5
9E78
  8
DEFPOINTS
 62
     0
 10
6650.0
 20
8800.0
 30
0.0
  0
POINT
  5
9E79
  8
DEFPOINTS
 62
     0
 10
6650.0
 20
8700.0
 30
0.0
  0
POINT
  5
9E7A
  8
DEFPOINTS
 62
     0
 10
5975.0
 20
8700.0
 30
0.0
  0
ENDBLK
  5
9DE4
  8
0
  0
BLOCK
  8
0
  2
*U29
 70
     1
 10
0.0
 20
0.0
 30
0.0
  3
*U29
  1

  0
TEXT
  5
9F63
  8
0
 10
5944.9999999999991
 20
8714.0000000000018
 30
0.0
 40
105.0
  1
Y
 50
90.0
 41
0.8
  7
文字
  0
ENDBLK
  5
9F65
  8
0
  0
BLOCK
  8
0
  2
*D30
 70
     1
 10
0.0
 20
0.0
 30
0.0
  3
*D30
  1

  0
LINE
  5
9E7B
  8
0
 10
6500.0
 20
8700.0
 30
0.0
 11
5945.0000000000009
 21
8700.0
 31
0.0
  0
LINE
  5
9E7C
  8
0
 10
5975.0
 20
5999.9999999999918
 30
0.0
 11
5945.0
 21
5999.9999999999918
 31
0.0
  0
LINE
  5
9E7D
  8
0
 10
5975.0000000000009
 20
8670.0
 30
0.0
 11
5975.0
 21
6029.9999999999927
 31
0.0
  0
INSERT
  5
9E7E
  8
0
  2
_ORIGIN
 10
5975.0000000000009
 20
8700.0
 30
0.0
 41
30.0
 42
30.0
 43
30.0
 50
90.0
  0
INSERT
  5
9E7F
  8
0
  2
_ORIGIN
 10
5975.0
 20
5999.9999999999918
 30
0.0
 41
30.0
 42
30.0
 43
30.0
 50
270.0
  0
INSERT
  5
9E80
  8
0
  2
*U31
 10
0.0
 20
0.0
 30
0.0
  0
POINT
  5
9E81
  8
DEFPOINTS
 62
     0
 10
6650.0
 20
8700.0
 30
0.0
  0
POINT
  5
9E82
  8
DEFPOINTS
 62
     0
 10
6125.0
 20
5999.9999999999918
 30
0.0
  0
POINT
  5
9E83
  8
DEFPOINTS
 62
     0
 10
5975.0
 20
5999.9999999999918
 30
0.0
  0
ENDBLK
  5
9DF2
  8
0
  0
BLOCK
  8
0
  2
*U31
 70
     1
 10
0.0
 20
0.0
 30
0.0
  3
*U31
  1

  0
TEXT
  5
9F67
  8
0
 10
5944.9999999999991
 20
6915.9999999999964
 30
0.0
 40
105.0
  1
有効開口高=H-Y
 50
90.0
 41
0.8
  7
文字
  0
ENDBLK
  5
9F69
  8
0
  0
BLOCK
  8
0
  2
*U32
 70
     1
 10
0.0
 20
0.0
 30
0.0
  3
*U32
  1

  0
INSERT
  5
9F06
  8
0
  2
_OPEN30
 10
7135.0
 20
9255.0
 30
0.0
 41
60.0
 42
60.0
 43
60.0
 50
255.00000000000659
  0
POLYLINE
  5
9F07
  8
0
 66
     1
 10
0.0
 20
0.0
 30
0.0
  0
VERTEX
  5
A08C
  8
0
 10
7150.5291427061447
 20
9312.9555495773438
 30
0.0
  0
VERTEX
  5
A08D
  8
0
 10
7251.4685702960851
 20
9689.6666218300961
 30
0.0
  0
VERTEX
  5
A08E
  8
0
 10
7832.4685702960851
 20
9689.6666218300961
 30
0.0
  0
SEQEND
  5
A08F
  8
0
  0
ENDBLK
  5
9F0D
  8
0
  0
BLOCK
  8
0
  2
*U33
 70
     1
 10
0.0
 20
0.0
 30
0.0
  3
*U33
  1

  0
INSERT
  5
9F0F
  8
0
  2
_OPEN30
 10
8500.0
 20
9037.0000000000091
 30
0.0
 41
60.0
 42
60.0
 43
60.0
 50
105.0000000000003
  0
POLYLINE
  5
9F10
  8
0
 66
     1
 10
0.0
 20
0.0
 30
0.0
  0
VERTEX
  5
A090
  8
0
 10
8515.5291427061493
 20
8979.0444504226598
 30
0.0
  0
VERTEX
  5
A091
  8
0
 10
8590.586665785886
 20
8698.9259607988297
 30
0.0
  0
VERTEX
  5
A092
  8
0
 10
9165.9866657858784
 20
8698.9259607988297
 30
0.0
  0
SEQEND
  5
A093
  8
0
  0
ENDBLK
  5
9F16
  8
0
  0
BLOCK
  8
0
  2
*U34
 70
     1
 10
0.0
 20
0.0
 30
0.0
  3
*U34
  1

  0
INSERT
  5
9F18
  8
0
  2
_OPEN30
 10
10987.50204478456
 20
9178.3645347582278
 30
0.0
 41
60.0
 42
60.0
 43
60.0
 50
119.9999999999999
  0
POLYLINE
  5
9F19
  8
0
 66
     1
 10
0.0
 20
0.0
 30
0.0
  0
VERTEX
  5
A094
  8
0
 10
11017.50204478456
 20
9126.4030105311595
 30
0.0
  0
VERTEX
  5
A095
  8
0
 10
11112.50204478456
 20
8961.8581838121154
 30
0.0
  0
VERTEX
  5
A096
  8
0
 10
11503.10204478456
 20
8961.8581838121154
 30
0.0
  0
SEQEND
  5
A097
  8
0
  0
ENDBLK
  5
9F1F
  8
0
  0
BLOCK
  8
0
  2
*U35
 70
     1
 10
0.0
 20
0.0
 30
0.0
  3
*U35
  1

  0
INSERT
  5
9F21
  8
0
  2
_OPEN30
 10
8250.0000000000418
 20
3335.0
 30
0.0
 41
60.0
 42
60.0
 43
60.0
 50
104.9999999999999
  0
POLYLINE
  5
9F22
  8
0
 66
     1
 10
0.0
 20
0.0
 30
0.0
  0
VERTEX
  5
A098
  8
0
 10
8265.5291427061966
 20
3277.0444504226562
 30
0.0
  0
VERTEX
  5
A099
  8
0
 10
8314.7047612756724
 20
3093.5185434277391
 30
0.0
  0
VERTEX
  5
A09A
  8
0
 10
8598.9047612756804
 20
3093.5185434277391
 30
0.0
  0
SEQEND
  5
A09B
  8
0
  0
ENDBLK
  5
9F28
  8
0
  0
BLOCK
  8
0
  2
*U36
 70
     1
 10
0.0
 20
0.0
 30
0.0
  3
*U36
  1

  0
INSERT
  5
9F2A
  8
0
  2
_OPEN30
 10
7016.0000000000164
 20
7171.0475088412213
 30
0.0
 41
60.0
 42
60.0
 43
60.0
 50
300.00000000000148
  0
POLYLINE
  5
9F2B
  8
0
 66
     1
 10
0.0
 20
0.0
 30
0.0
  0
VERTEX
  5
A09C
  8
0
 10
6986.0000000000136
 20
7223.009033068286
 30
0.0
  0
VERTEX
  5
A09D
  8
0
 10
6885.4957445612672
 20
7397.0875098650658
 30
0.0
  0
VERTEX
  5
A09E
  8
0
 10
6500.4957445612672
 20
7397.0875098650658
 30
0.0
  0
SEQEND
  5
A09F
  8
0
  0
ENDBLK
  5
9F31
  8
0
  0
ENDSEC
  0
SECTION
  2
ENTITIES
  0
LINE
  5
6011
  8
0
 10
16380.0
 20
0.0
 30
0.0
 11
0.0
 21
0.0
 31
0.0
  0
LINE
  5
6012
  8
0
 10
0.0
 20
11745.0
 30
0.0
 11
16380.0
 21
11745.0
 31
0.0
  0
LINE
  5
6013
  8
0
 10
0.0
 20
11745.0
 30
0.0
 11
0.0
 21
0.0
 31
0.0
  0
LINE
  5
6014
  8
0
 10
16380.0
 20
11745.0
 30
0.0
 11
16380.0
 21
0.0
 31
0.0
  0
LINE
  5
9BEA
  8
0
 10
10130.0
 20
400.0
 30
0.0
 11
10130.0
 21
0.0
 31
0.0
  0
TEXT
  5
9BEB
  8
0
 10
10979.999999999971
 20
247.5
 30
0.0
 40
105.0
  1
オーバードア（電動トロリー式　H006型）
 11
10979.999999999971
 21
300.0
 31
0.0
 73
     2
  0
TEXT
  5
9BEC
  8
0
 10
10229.999999999971
 20
247.5
 30
0.0
 40
105.0
  1
製品名称  :
 11
10229.999999999971
 21
300.0
 31
0.0
 73
     2
  0
LINE
  5
9BED
  8
0
 10
10130.0
 20
200.0
 30
0.0
 11
13880.0
 21
200.0
 31
0.0
  0
LINE
  5
9BEE
  8
0
 10
13880.0
 20
400.0
 30
0.0
 11
13880.0
 21
0.0
 31
0.0
  0
TEXT
  5
9BEF
  8
0
 10
13998.33333333333
 20
112.5
 30
0.0
 40
175.0
  1
東洋シヤッター株式会社
 72
     1
 11
15130.0
 21
200.0
 31
0.0
 73
     2
  0
LINE
  5
9BF0
  8
0
 10
10130.0
 20
400.0
 30
0.0
 11
16380.0
 21
400.0
 31
0.0
  0
TEXT
  5
9BF1
  8
0
 10
12979.999999999971
 20
47.5
 30
0.0
 40
105.0
  1
縮尺:1/30
 11
12979.999999999971
 21
100.0
 31
0.0
 73
     2
  0
LINE
  5
9BF2
  8
0
 10
4724.9999999999927
 20
3432.5
 30
0.0
 11
9274.9999999999836
 21
3432.5
 31
0.0
  0
LINE
  5
9BF3
  8
0
 10
9274.9999999999836
 20
3432.5
 30
0.0
 11
9274.9999999999836
 21
3484.0
 31
0.0
  0
LINE
  5
9BF4
  8
0
 10
9274.9999999999836
 20
3484.0
 30
0.0
 11
4724.9999999999927
 21
3484.0
 31
0.0
  0
LINE
  5
9BF5
  8
0
 10
4724.9999999999927
 20
3484.0
 30
0.0
 11
4724.9999999999927
 21
3432.5
 31
0.0
  0
ARC
  5
9BF6
  8
0
 10
9327.2999999999884
 20
3497.6999999999971
 30
0.0
 40
2.299999999999998
 50
90.0
 51
180.0
  0
LINE
  5
9BF7
  8
0
 10
9364.9999999999836
 20
3497.6999999999971
 30
0.0
 11
9364.9999999999836
 21
3500.0
 31
0.0
  0
LINE
  5
9BF8
  8
0
 10
9327.2999999999884
 20
3497.6999999999971
 30
0.0
 11
9364.9999999999836
 21
3497.6999999999971
 31
0.0
  0
LINE
  5
9BF9
  8
0
 10
9327.2999999999884
 20
3384.0
 30
0.0
 11
9327.2999999999884
 21
3497.6999999999971
 31
0.0
  0
LINE
  5
9BFA
  8
0
 10
9324.9999999999854
 20
3384.0
 30
0.0
 11
9327.2999999999884
 21
3384.0
 31
0.0
  0
LINE
  5
9BFB
  8
0
 10
9324.9999999999854
 20
3497.6999999999971
 30
0.0
 11
9324.9999999999854
 21
3384.0
 31
0.0
  0
LINE
  5
9BFC
  8
0
 10
9364.9999999999836
 20
3500.0
 30
0.0
 11
9327.2999999999884
 21
3500.0
 31
0.0
  0
ARC
  5
9BFD
  8
0
 10
9312.4999999999836
 20
3386.4999999999409
 30
0.0
 40
5.7499999999704414
 50
180.0
 51
0.0
  0
ARC
  5
9BFE
  8
0
 10
9312.4999999999836
 20
3421.5
 30
0.0
 40
5.7499999999704414
 50
0.0
 51
180.0
  0
LINE
  5
9BFF
  8
0
 10
9306.7500000000127
 20
3386.4999999999409
 30
0.0
 11
9306.7500000000127
 21
3421.5
 31
0.0
  0
LINE
  5
9C00
  8
0
 10
9318.2500000000127
 20
3421.5
 30
0.0
 11
9318.2500000000127
 21
3386.4999999999409
 31
0.0
  0
ARC
  5
9C01
  8
0
 10
9318.9999999999836
 20
3389.7190997647272
 30
0.0
 40
4.0
 50
329.99999999989421
 51
0.0
  0
ARC
  5
9C02
  8
0
 10
9318.9999999999836
 20
3389.7190997647349
 30
0.0
 40
6.0
 50
329.99999999989421
 51
0.0
  0
ARC
  5
9C03
  8
0
 10
9319.9999999999836
 20
3425.5
 30
0.0
 40
3.0
 50
0.0
 51
90.0
  0
ARC
  5
9C04
  8
0
 10
9319.9999999999836
 20
3425.5
 30
0.0
 40
5.0
 50
0.0
 51
90.0
  0
LINE
  5
9C05
  8
0
 10
9301.5529946162005
 20
3387.5
 30
0.0
 11
9304.4397459621396
 21
3382.5
 31
0.0
  0
LINE
  5
9C06
  8
0
 10
9303.2850454237632
 20
3388.4999999999932
 30
0.0
 11
9301.5529946162005
 21
3387.5
 31
0.0
  0
LINE
  5
9C07
  8
0
 10
9306.1717967697186
 20
3383.4999999999932
 30
0.0
 11
9303.2850454237632
 21
3388.4999999999932
 31
0.0
  0
LINE
  5
9C08
  8
0
 10
9322.4641016151327
 20
3387.7190997647281
 30
0.0
 11
9320.0282032302348
 21
3383.5000000000141
 31
0.0
  0
LINE
  5
9C09
  8
0
 10
9324.1961524226917
 20
3386.719099764734
 30
0.0
 11
9321.7602540377848
 21
3382.5
 31
0.0
  0
ARC
  5
9C0A
  8
0
 10
9313.0999999999913
 20
3387.5
 30
0.0
 40
8.0
 50
210.0000000001059
 51
329.99999999989421
  0
ARC
  5
9C0B
  8
0
 10
9313.0999999999913
 20
3387.5
 30
0.0
 40
10.0
 50
210.0000000001059
 51
329.99999999989421
  0
LINE
  5
9C0C
  8
0
 10
9322.9999999999836
 20
3425.5
 30
0.0
 11
9322.9999999999836
 21
3389.7190997647272
 31
0.0
  0
LINE
  5
9C0D
  8
0
 10
9299.9999999999836
 20
3428.5
 30
0.0
 11
9319.9999999999836
 21
3428.5
 31
0.0
  0
LINE
  5
9C0E
  8
0
 10
9299.9999999999836
 20
3430.5
 30
0.0
 11
9299.9999999999836
 21
3428.5
 31
0.0
  0
LINE
  5
9C0F
  8
0
 10
9319.9999999999836
 20
3430.5
 30
0.0
 11
9299.9999999999836
 21
3430.5
 31
0.0
  0
LINE
  5
9C10
  8
0
 10
9324.9999999999854
 20
3389.7190997647349
 30
0.0
 11
9324.9999999999854
 21
3425.5
 31
0.0
  0
LINE
  5
9C11
  8
0
 10
9265.6999999999971
 20
3382.5
 30
0.0
 11
9267.9999999999836
 21
3382.5
 31
0.0
  0
LINE
  5
9C12
  8
0
 10
9201.9999999999836
 20
3382.5
 30
0.0
 11
9204.2999999999865
 21
3382.5
 31
0.0
  0
LINE
  5
9C13
  8
0
 10
9178.2500000000127
 20
3397.5
 30
0.0
 11
9306.7500000000127
 21
3397.5
 31
0.0
  0
LINE
  5
9C14
  8
0
 10
9178.2500000000127
 20
3410.5000000000009
 30
0.0
 11
9178.2500000000127
 21
3397.5
 31
0.0
  0
LINE
  5
9C15
  8
0
 10
9306.7500000000127
 20
3410.5000000000009
 30
0.0
 11
9178.2500000000127
 21
3410.5000000000009
 31
0.0
  0
LINE
  5
9C16
  8
0
 10
9265.6999999999971
 20
3430.1999999999971
 30
0.0
 11
9265.6999999999971
 21
3382.5
 31
0.0
  0
LINE
  5
9C17
  8
0
 10
9204.2999999999865
 20
3430.1999999999971
 30
0.0
 11
9265.6999999999971
 21
3430.1999999999971
 31
0.0
  0
LINE
  5
9C18
  8
0
 10
9204.2999999999865
 20
3382.5
 30
0.0
 11
9204.2999999999865
 21
3430.1999999999971
 31
0.0
  0
LINE
  5
9C19
  8
0
 10
9201.9999999999836
 20
3432.5
 30
0.0
 11
9201.9999999999836
 21
3382.5
 31
0.0
  0
LINE
  5
9C1A
  8
0
 10
9267.9999999999836
 20
3432.5
 30
0.0
 11
9201.9999999999836
 21
3432.5
 31
0.0
  0
LINE
  5
9C1B
  8
0
 10
9267.9999999999836
 20
3382.5
 30
0.0
 11
9267.9999999999836
 21
3432.5
 31
0.0
  0
LINE
  5
9C1C
  8
0
  6
PHANTOM2
 10
9374.9999999999836
 20
3499.9999999999859
 30
0.0
 11
9374.9999999999836
 21
2250.0000000000209
 31
0.0
  0
LINE
  5
9C1D
  8
0
  6
PHANTOM2
 10
9374.9999999999836
 20
2000.0000000000221
 30
0.0
 11
9299.9999999999836
 21
2000.0000000000221
 31
0.0
  0
LINE
  5
9C1E
  8
0
  6
PHANTOM2
 10
9299.9999999999836
 20
2000.0000000000221
 30
0.0
 11
9299.9999999999836
 21
2200.0000000000209
 31
0.0
  0
LINE
  5
9C1F
  8
0
  6
PHANTOM2
 10
9324.9999999999854
 20
2000.0000000000221
 30
0.0
 11
9324.9999999999854
 21
2200.0000000000209
 31
0.0
  0
ARC
  5
9C20
  8
0
 10
4672.6999999999971
 20
3497.6999999999971
 30
0.0
 40
2.299999999999998
 50
0.0
 51
90.0
  0
LINE
  5
9C21
  8
0
 10
4634.9999999999927
 20
3497.6999999999971
 30
0.0
 11
4634.9999999999927
 21
3500.0
 31
0.0
  0
LINE
  5
9C22
  8
0
 10
4672.6999999999971
 20
3497.6999999999971
 30
0.0
 11
4634.9999999999927
 21
3497.6999999999971
 31
0.0
  0
LINE
  5
9C23
  8
0
 10
4672.6999999999971
 20
3384.0
 30
0.0
 11
4672.6999999999971
 21
3497.6999999999971
 31
0.0
  0
LINE
  5
9C24
  8
0
 10
4674.9999999999918
 20
3384.0
 30
0.0
 11
4672.6999999999971
 21
3384.0
 31
0.0
  0
LINE
  5
9C25
  8
0
 10
4674.9999999999918
 20
3497.6999999999971
 30
0.0
 11
4674.9999999999918
 21
3384.0
 31
0.0
  0
LINE
  5
9C26
  8
0
 10
4634.9999999999927
 20
3500.0
 30
0.0
 11
4672.6999999999971
 21
3500.0
 31
0.0
  0
ARC
  5
9C27
  8
0
 10
4687.4999999999918
 20
3386.4999999999409
 30
0.0
 40
5.7499999999704414
 50
180.0
 51
0.0
  0
ARC
  5
9C28
  8
0
 10
4687.4999999999918
 20
3421.5
 30
0.0
 40
5.7499999999704414
 50
0.0
 51
180.0
  0
LINE
  5
9C29
  8
0
 10
4693.2499999999618
 20
3386.4999999999409
 30
0.0
 11
4693.2499999999618
 21
3421.5
 31
0.0
  0
LINE
  5
9C2A
  8
0
 10
4681.7499999999636
 20
3421.5
 30
0.0
 11
4681.7499999999636
 21
3386.4999999999409
 31
0.0
  0
ARC
  5
9C2B
  8
0
 10
4680.9999999999918
 20
3389.7190997647272
 30
0.0
 40
4.0
 50
180.0
 51
210.0000000001059
  0
ARC
  5
9C2C
  8
0
 10
4680.9999999999918
 20
3389.7190997647349
 30
0.0
 40
6.0
 50
180.0
 51
210.0000000001059
  0
ARC
  5
9C2D
  8
0
 10
4679.9999999999909
 20
3425.5
 30
0.0
 40
3.0
 50
90.0
 51
180.0
  0
ARC
  5
9C2E
  8
0
 10
4679.9999999999909
 20
3425.5
 30
0.0
 40
5.0
 50
90.0
 51
180.0
  0
LINE
  5
9C2F
  8
0
 10
4698.4470053837858
 20
3387.5
 30
0.0
 11
4695.5602540378386
 21
3382.5
 31
0.0
  0
LINE
  5
9C30
  8
0
 10
4696.7149545762222
 20
3388.4999999999932
 30
0.0
 11
4698.4470053837858
 21
3387.5
 31
0.0
  0
LINE
  5
9C31
  8
0
 10
4693.8282032302741
 20
3383.4999999999932
 30
0.0
 11
4696.7149545762222
 21
3388.4999999999932
 31
0.0
  0
LINE
  5
9C32
  8
0
 10
4677.5358983848564
 20
3387.7190997647281
 30
0.0
 11
4679.9717967697507
 21
3383.5000000000141
 31
0.0
  0
LINE
  5
9C33
  8
0
 10
4675.8038475772837
 20
3386.719099764734
 30
0.0
 11
4678.2397459621943
 21
3382.5
 31
0.0
  0
ARC
  5
9C34
  8
0
 10
4686.8999999999942
 20
3387.5
 30
0.0
 40
8.0
 50
210.0000000001059
 51
329.99999999989421
  0
ARC
  5
9C35
  8
0
 10
4686.8999999999942
 20
3387.5
 30
0.0
 40
10.0
 50
210.0000000001059
 51
329.99999999989421
  0
LINE
  5
9C36
  8
0
 10
4676.9999999999909
 20
3425.5
 30
0.0
 11
4676.9999999999909
 21
3389.7190997647272
 31
0.0
  0
LINE
  5
9C37
  8
0
 10
4699.9999999999927
 20
3428.5
 30
0.0
 11
4679.9999999999909
 21
3428.5
 31
0.0
  0
LINE
  5
9C38
  8
0
 10
4699.9999999999927
 20
3430.5
 30
0.0
 11
4699.9999999999927
 21
3428.5
 31
0.0
  0
LINE
  5
9C39
  8
0
 10
4679.9999999999909
 20
3430.5
 30
0.0
 11
4699.9999999999927
 21
3430.5
 31
0.0
  0
LINE
  5
9C3A
  8
0
 10
4674.9999999999918
 20
3389.7190997647349
 30
0.0
 11
4674.9999999999918
 21
3425.5
 31
0.0
  0
LINE
  5
9C3B
  8
0
 10
4734.2999999999929
 20
3382.5
 30
0.0
 11
4731.9999999999927
 21
3382.5
 31
0.0
  0
LINE
  5
9C3C
  8
0
 10
4797.9999999999918
 20
3382.5
 30
0.0
 11
4795.6999999999971
 21
3382.5
 31
0.0
  0
LINE
  5
9C3D
  8
0
 10
4821.7499999999636
 20
3397.5
 30
0.0
 11
4693.2499999999618
 21
3397.5
 31
0.0
  0
LINE
  5
9C3E
  8
0
 10
4821.7499999999636
 20
3410.5000000000009
 30
0.0
 11
4821.7499999999636
 21
3397.5
 31
0.0
  0
LINE
  5
9C3F
  8
0
 10
4693.2499999999618
 20
3410.5000000000009
 30
0.0
 11
4821.7499999999636
 21
3410.5000000000009
 31
0.0
  0
LINE
  5
9C40
  8
0
 10
4734.2999999999929
 20
3430.1999999999971
 30
0.0
 11
4734.2999999999929
 21
3382.5
 31
0.0
  0
LINE
  5
9C41
  8
0
 10
4795.6999999999971
 20
3430.1999999999971
 30
0.0
 11
4734.2999999999929
 21
3430.1999999999971
 31
0.0
  0
LINE
  5
9C42
  8
0
 10
4795.6999999999971
 20
3382.5
 30
0.0
 11
4795.6999999999971
 21
3430.1999999999971
 31
0.0
  0
LINE
  5
9C43
  8
0
 10
4797.9999999999918
 20
3432.5
 30
0.0
 11
4797.9999999999918
 21
3382.5
 31
0.0
  0
LINE
  5
9C44
  8
0
 10
4731.9999999999927
 20
3432.5
 30
0.0
 11
4797.9999999999918
 21
3432.5
 31
0.0
  0
LINE
  5
9C45
  8
0
 10
4731.9999999999927
 20
3382.5
 30
0.0
 11
4731.9999999999927
 21
3432.5
 31
0.0
  0
LINE
  5
9C46
  8
0
  6
PHANTOM2
 10
4625.0000000000064
 20
3499.9999999999859
 30
0.0
 11
4625.0000000000064
 21
2250.0000000000209
 31
0.0
  0
LINE
  5
9C47
  8
0
  6
PHANTOM2
 10
4625.0000000000064
 20
2000.0000000000221
 30
0.0
 11
4700.0000000000064
 21
2000.0000000000221
 31
0.0
  0
LINE
  5
9C48
  8
0
  6
PHANTOM2
 10
4700.0000000000064
 20
2000.0000000000221
 30
0.0
 11
4700.0000000000064
 21
2200.0000000000209
 31
0.0
  0
LINE
  5
9C49
  8
0
  6
PHANTOM2
 10
4675.0000000000064
 20
2000.0000000000221
 30
0.0
 11
4675.0000000000064
 21
2200.0000000000209
 31
0.0
  0
DIMENSION
  5
9C4A
  8
0
  2
*D4
 10
9250.0
 20
4500.0000000000209
 30
0.0
 11
7000.0
 21
4582.50000000002
 31
0.0
  1
W
 13
4750.0
 23
3850.0000000000209
 33
0.0
 14
9250.0
 24
3850.0000000000209
 34
0.0
1001
ACAD
1000
DSTYLE
1002
{
1070
    41
1040
1.0
1002
}
  0
LINE
  5
9C4B
  8
0
 10
7016.0000000000164
 20
8839.9999999999709
 30
0.0
 11
7067.5000000000146
 21
8839.9999999999709
 31
0.0
  0
LINE
  5
9C4C
  8
0
 10
7067.5000000000146
 20
8839.9999999999709
 30
0.0
 11
7067.5000000000146
 21
6019.9999999999691
 31
0.0
  0
LINE
  5
9C4D
  8
0
 10
7067.5000000000146
 20
6019.9999999999691
 30
0.0
 11
7016.0000000000164
 21
6019.9999999999691
 31
0.0
  0
LINE
  5
9C4E
  8
0
 10
7016.0000000000164
 20
6019.9999999999691
 30
0.0
 11
7016.0000000000164
 21
8839.9999999999709
 31
0.0
  0
LINE
  5
9C4F
  8
0
 10
5250.0
 20
6000.0
 30
0.0
 11
11745.0
 21
6000.0
 31
0.0
  0
LINE
  5
9C50
  8
0
 10
7104.0
 20
6000.0
 30
0.0
 11
7135.0788889064434
 21
8641.7055567207281
 31
0.0
  0
LINE
  5
9C51
  8
0
  6
HIDDEN
 10
7050.9963323068368
 20
6000.0
 30
0.0
 11
7067.5000000000146
 21
7402.8117537458647
 31
0.0
  0
LINE
  5
9C52
  8
0
 10
10170.0
 20
9037.0
 30
0.0
 11
10170.0
 21
9090.0
 31
0.0
  0
LINE
  5
9C53
  8
0
 10
7000.0
 20
9090.0
 30
0.0
 11
7000.0
 21
9040.0
 31
0.0
  0
DIMENSION
  5
9C54
  8
0
  2
*D6
 10
5750.0
 20
6000.0
 30
0.0
 11
5667.4999999999991
 21
7400.0000000000027
 31
0.0
  1
H
 13
6650.0
 23
8800.0
 33
0.0
 14
5850.0
 24
6000.0
 34
0.0
 50
90.0
1001
ACAD
1000
DSTYLE
1002
{
1070
    41
1040
1.0
1002
}
  0
LINE
  5
9C55
  8
0
 10
7535.0394454128527
 20
9048.0
 30
0.0
 11
10170.0
 21
9048.0
 31
0.0
  0
LINE
  5
9C56
  8
0
 10
7535.0394454128527
 20
9037.0000000000091
 30
0.0
 11
10170.0
 21
9037.0
 31
0.0
  0
DIMENSION
  5
9C57
  8
0
  2
*D8
 10
5750.0
 20
9420.0
 30
0.0
 11
5667.4999999999991
 21
9110.0
 31
0.0
  1
HR=620以上
 13
6650.0
 23
8800.0
 33
0.0
 14
6650.0
 24
9420.0
 34
0.0
 50
90.0
1001
ACAD
1000
DSTYLE
1002
{
1070
    41
1040
1.0
1002
}
  0
DIMENSION
  5
9C58
  8
0
  2
*D10
 10
5975.0
 20
9230.0
 30
0.0
 11
5892.5
 21
8970.0000000000055
 31
0.0
 70
   128
 13
6650.0
 23
8800.0
 33
0.0
 14
6650.0
 24
9230.0
 34
0.0
 50
90.0
1001
ACAD
1000
DSTYLE
1002
{
1070
    41
1040
1.0
1002
}
  0
LINE
  5
9C59
  8
0
 10
7136.0
 20
9090.0
 30
0.0
 11
7136.0
 21
8924.0
 31
0.0
  0
LINE
  5
9C5A
  8
0
  6
HIDDEN
 10
7136.0
 20
9040.0
 30
0.0
 11
7000.0
 21
9040.0
 31
0.0
  0
LINE
  5
9C5B
  8
0
 10
7067.5000000000146
 20
7402.8117537458647
 30
0.0
 11
7082.0825563458202
 21
8642.3290429862245
 31
0.0
  0
DIMENSION
  5
9C5C
  8
0
  2
*D12
 10
8000.0
 20
8840.0
 30
0.0
 11
7917.5
 21
7430.0000000000027
 31
0.0
  1
DH
 13
7250.0
 23
6020.0
 33
0.0
 14
7250.0
 24
8840.0
 34
0.0
 50
90.0
1001
ACAD
1000
DSTYLE
1002
{
1070
    41
1040
1.0
1002
}
  0
DIMENSION
  5
9C5D
  8
0
  2
*D14
 10
7110.0
 20
10085.000000000009
 30
0.0
 11
7055.0
 21
10167.5
 31
0.0
 13
7000.0
 23
9935.0000000000091
 33
0.0
 14
7110.0
 24
9710.0
 34
0.0
1001
ACAD
1000
DSTYLE
1002
{
1070
    41
1040
1.0
1002
}
  0
DIMENSION
  5
9C5E
  8
0
  2
*D16
 10
10170.0
 20
10310.000000000009
 30
0.0
 11
8585.0
 21
10392.5
 31
0.0
  1
DH+350
 13
7000.0
 23
10160.0
 33
0.0
 14
10170.0
 24
9710.0000000000091
 34
0.0
1001
ACAD
1000
DSTYLE
1002
{
1070
    41
1040
1.0
1002
}
  0
LINE
  5
9C5F
  8
0
 10
8200.0
 20
9090.0
 30
0.0
 11
8200.0
 21
9330.0
 31
0.0
  0
LINE
  5
9C60
  8
0
 10
8200.0
 20
9330.0
 30
0.0
 11
8240.0
 21
9330.0
 31
0.0
  0
LINE
  5
9C61
  8
0
 10
8240.0
 20
9330.0
 30
0.0
 11
8240.0
 21
9090.0
 31
0.0
  0
LINE
  5
9C62
  8
0
 10
9400.0
 20
9090.0
 30
0.0
 11
9400.0
 21
9330.0
 31
0.0
  0
LINE
  5
9C63
  8
0
 10
9400.0
 20
9330.0
 30
0.0
 11
9440.0
 21
9330.0
 31
0.0
  0
LINE
  5
9C64
  8
0
 10
9440.0
 20
9330.0
 30
0.0
 11
9440.0
 21
9090.0
 31
0.0
  0
TEXT
  5
9C65
  8
0
 10
7303.9685702960824
 20
9719.6666218300961
 30
0.0
 40
105.0
  1
巻取ドラム
 41
0.8
  7
横文字
 72
     1
 11
7541.9685702960824
 21
9719.6666218300961
 31
0.0
  0
INSERT
  5
9C66
  8
0
  2
*U32
 10
0.0
 20
0.0
 30
0.0
  0
LINE
  5
9C67
  8
0
 10
4750.0
 20
2250.0000000000209
 30
0.0
 11
4575.0
 21
2250.0000000000209
 31
0.0
  0
LINE
  5
9C68
  8
0
 10
4750.0
 20
2200.0000000000209
 30
0.0
 11
4575.0
 21
2200.0000000000209
 31
0.0
  0
LINE
  5
9C69
  8
0
  6
PHANTOM2
 10
4625.0000000000064
 20
2200.0000000000209
 30
0.0
 11
4625.0000000000064
 21
2000.0000000000221
 31
0.0
  0
LINE
  5
9C6A
  8
0
  6
PHANTOM2
 10
4675.0
 20
2250.0000000000209
 30
0.0
 11
4674.9999999999918
 21
3389.7190997647349
 31
0.0
  0
LINE
  5
9C6B
  8
0
  6
PHANTOM2
 10
4700.0000000000064
 20
2250.0000000000209
 30
0.0
 11
4700.0000000000064
 21
3389.7190997647349
 31
0.0
  0
LINE
  5
9C6C
  8
0
 10
9424.9999999999745
 20
2250.0000000000209
 30
0.0
 11
9249.9999999999727
 21
2250.0000000000209
 31
0.0
  0
LINE
  5
9C6D
  8
0
 10
9424.9999999999745
 20
2200.0000000000209
 30
0.0
 11
9249.9999999999727
 21
2200.0000000000209
 31
0.0
  0
LINE
  5
9C6E
  8
0
  6
PHANTOM2
 10
9374.9999999999836
 20
2200.0000000000209
 30
0.0
 11
9374.9999999999836
 21
2000.0000000000221
 31
0.0
  0
LINE
  5
9C6F
  8
0
  6
PHANTOM2
 10
9299.9999999999836
 20
2250.0000000000209
 30
0.0
 11
9299.9999999999836
 21
3389.7190997647349
 31
0.0
  0
LINE
  5
9C70
  8
0
  6
PHANTOM2
 10
9324.9999999999854
 20
2250.0000000000209
 30
0.0
 11
9324.9999999999854
 21
3389.7190997647349
 31
0.0
  0
DIMENSION
  5
9C71
  8
0
  2
*D18
 10
9275.0
 20
2750.0000000000209
 30
0.0
 11
7000.0
 21
2832.5000000000218
 31
0.0
  1
DW
 13
4725.0
 23
3250.0000000000209
 33
0.0
 14
9275.0
 24
3250.0000000000209
 34
0.0
1001
ACAD
1000
DSTYLE
1002
{
1070
    41
1040
1.0
1002
}
  0
LINE
  5
9C72
  8
0
 10
7092.9992387806551
 20
6000.0
 30
0.0
 11
7124.0678853672152
 21
8641.8349595305463
 31
0.0
  0
ARC
  5
9C73
  8
0
 10
7535.0512101187351
 20
8637.0000000000055
 30
0.0
 40
400.0
 50
90.0
 51
179.3259631019319
  0
ARC
  5
9C74
  8
0
 10
7535.0394454128527
 20
8637.0
 30
0.0
 40
411.0
 50
90.0
 51
179.3259631019319
  0
ARC
  5
9C75
  8
0
 10
7535.0512101187351
 20
8637.0
 30
0.0
 40
453.0
 50
90.0
 51
179.3259631019319
  0
LINE
  5
9C76
  8
0
 10
7136.0
 20
9040.0
 30
0.0
 11
7328.1696014629697
 21
9040.0
 31
0.0
  0
TEXT
  5
9C77
  8
0
 10
8643.0866657858842
 20
8728.9259607988297
 30
0.0
 40
105.0
  1
水平レール
 41
0.8
  7
横文字
 72
     1
 11
8878.2866657858867
 21
8728.9259607988297
 31
0.0
  0
INSERT
  5
9C78
  8
0
  2
*U33
 10
0.0
 20
0.0
 30
0.0
  0
LINE
  5
9C79
  8
0
 10
10170.0
 20
9090.0
 30
0.0
 11
7535.0394454128527
 21
9090.0
 31
0.0
  0
DIMENSION
  5
9C7A
  8
0
  2
*D20
 10
4600.0
 20
4275.0000000000209
 30
0.0
 11
4675.0
 21
4357.5000000000209
 31
0.0
  1
150以上
 13
4750.0
 23
3850.0000000000209
 33
0.0
 14
4600.0
 24
3850.0000000000209
 34
0.0
1001
ACAD
1000
DSTYLE
1002
{
1070
    41
1040
1.0
1002
}
  0
DIMENSION
  5
9C7B
  8
0
  2
*D22
 10
9400.0
 20
4275.0000000000209
 30
0.0
 11
9325.0
 21
4357.5000000000209
 31
0.0
  1
150以上
 13
9250.0
 23
3850.0000000000209
 33
0.0
 14
9400.0
 24
3850.0000000000209
 34
0.0
1001
ACAD
1000
DSTYLE
1002
{
1070
    41
1040
1.0
1002
}
  0
LINE
  5
9C7C
  8
0
 10
7000.0
 20
9315.0000000000127
 30
0.0
 11
7000.0
 21
9145.0000000000127
 31
0.0
  0
LINE
  5
9C7D
  8
0
 10
7000.0
 20
9145.0000000000127
 30
0.0
 11
7190.0
 21
9145.0000000000127
 31
0.0
  0
LINE
  5
9C7E
  8
0
 10
7210.0
 20
9165.0000000000127
 30
0.0
 11
7210.0
 21
9212.5
 31
0.0
  0
LINE
  5
9C7F
  8
0
 10
7190.0
 20
9315.0000000000127
 30
0.0
 11
7000.0
 21
9315.0000000000127
 31
0.0
  0
LINE
  5
9C80
  8
0
 10
7190.0
 20
9315.0000000000127
 30
0.0
 11
7210.0
 21
9295.0000000000146
 31
0.0
  0
LINE
  5
9C81
  8
0
 10
7210.0
 20
9165.0000000000127
 30
0.0
 11
7190.0
 21
9145.0000000000127
 31
0.0
  0
LINE
  5
9C82
  8
0
 10
7003.1999999999962
 20
9315.0000000000127
 30
0.0
 11
7003.1999999999962
 21
9145.0000000000127
 31
0.0
  0
LINE
  5
9C83
  8
0
 10
7187.0373286141257
 20
9247.5
 30
0.0
 11
7210.0
 21
9247.5
 31
0.0
  0
LINE
  5
9C84
  8
0
 10
7210.0
 20
9212.5
 30
0.0
 11
7187.037328614113
 21
9212.5
 31
0.0
  0
LINE
  5
9C85
  8
0
 10
7210.0
 20
9247.5
 30
0.0
 11
7210.0
 21
9295.0000000000146
 31
0.0
  0
CIRCLE
  5
9C86
  8
0
 10
7110.0
 20
9230.0000000000164
 30
0.0
 40
79.0
  0
LINE
  5
9C87
  8
0
  6
CENTER2
 10
7110.0
 20
9330.0000000000164
 30
0.0
 11
7110.0
 21
9130.0000000000127
 31
0.0
  0
LINE
  5
9C88
  8
0
  6
CENTER2
 10
7009.0
 20
9230.0
 30
0.0
 11
7210.0
 21
9230.0
 31
0.0
  0
LINE
  5
9C89
  8
0
 10
7535.0394454128527
 20
9090.0
 30
0.0
 11
7000.0
 21
9090.0
 31
0.0
  0
LINE
  5
9C8A
  8
0
  6
CENTER2
 10
10975.000000005
 20
9210.00000000002
 30
0.0
 11
10855.000000005
 21
9210.00000000002
 31
0.0
  0
LINE
  5
9C8B
  8
0
  6
CENTER2
 10
10915.000000004969
 20
9270.00000000002
 30
0.0
 11
10915.00000000502
 21
9150.0000000000182
 31
0.0
  0
CIRCLE
  5
9C8C
  8
0
 10
10915.000000005
 20
9210.00000000002
 30
0.0
 40
52.0
  0
LINE
  5
9C8D
  8
0
 10
11015.000000005
 20
9140.0
 30
0.0
 11
11020.000000005
 21
9145.0
 31
0.0
  0
LINE
  5
9C8E
  8
0
 10
10810.000000005
 20
9145.0
 30
0.0
 11
10815.000000005
 21
9140.0
 31
0.0
  0
LINE
  5
9C8F
  8
0
 10
10810.000000005
 20
9330.0
 30
0.0
 11
10810.000000005
 21
9145.0
 31
0.0
  0
LINE
  5
9C90
  8
0
 10
11020.000000005
 20
9330.0
 30
0.0
 11
10810.000000005
 21
9330.0
 31
0.0
  0
LINE
  5
9C91
  8
0
 10
11020.000000005
 20
9145.0
 30
0.0
 11
11020.000000005
 21
9330.0
 31
0.0
  0
LINE
  5
9C92
  8
0
 10
10815.000000005
 20
9140.0
 30
0.0
 11
11015.000000005
 21
9140.0
 31
0.0
  0
LINE
  5
9C93
  8
0
 10
7000.0
 20
9330.0
 30
0.0
 11
10681.949114884999
 21
9330.0
 31
0.0
  0
LINE
  5
9C94
  8
0
 10
10790.000000005
 20
9410.0
 30
0.0
 11
10840.475954508
 21
9382.0368535020025
 31
0.0
  0
ARC
  5
9C95
  8
0
 10
10660.000000005
 20
9365.0
 30
0.0
 40
20.0
 50
121.58734191154539
 51
238.41265808845461
  0
LINE
  5
9C96
  8
0
 10
10649.52404550199
 20
9347.9631464980048
 30
0.0
 11
10700.000000005
 21
9320.0
 31
0.0
  0
LINE
  5
9C97
  8
0
 10
10700.000000005
 20
9410.0
 30
0.0
 11
10790.000000005
 21
9410.0
 31
0.0
  0
ARC
  5
9C98
  8
0
 10
10830.000000005
 20
9365.0
 30
0.0
 40
20.0
 50
301.58734191154542
 51
58.412658088454577
  0
LINE
  5
9C99
  8
0
 10
10700.000000005
 20
9410.0
 30
0.0
 11
10649.52404550199
 21
9382.0368535020025
 31
0.0
  0
LINE
  5
9C9A
  8
0
 10
10790.000000005
 20
9320.0
 30
0.0
 11
10700.000000005
 21
9320.0
 31
0.0
  0
LINE
  5
9C9B
  8
0
 10
10817.076327684999
 20
9395.0
 30
0.0
 11
11020.000000005
 21
9395.0
 31
0.0
  0
LINE
  5
9C9C
  8
0
 10
7352.9826110340073
 20
9315.0
 30
0.0
 11
7352.9826110340073
 21
9305.0
 31
0.0
  0
LINE
  5
9C9D
  8
0
 10
7120.0
 20
9400.0
 30
0.0
 11
7000.0
 21
9400.0
 31
0.0
  0
LINE
  5
9C9E
  8
0
 10
7000.0
 20
9400.0
 30
0.0
 11
7000.0
 21
9330.0
 31
0.0
  0
LINE
  5
9C9F
  8
0
 10
7402.9826110340073
 20
9330.0
 30
0.0
 11
7402.9826110340073
 21
9300.0
 31
0.0
  0
LINE
  5
9CA0
  8
0
 10
7402.9826110340073
 20
9300.0
 30
0.0
 11
7372.9826110340073
 21
9300.0
 31
0.0
  0
CIRCLE
  5
9CA1
  8
0
 10
10745.000000005
 20
9365.0
 30
0.0
 40
25.0
  0
LINE
  5
9CA2
  8
0
 10
7402.9826110340073
 20
9320.0
 30
0.0
 11
7252.9826110340064
 21
9320.0
 31
0.0
  0
LINE
  5
9CA3
  8
0
 10
7402.9826110340073
 20
9305.0
 30
0.0
 11
7452.9826110340064
 21
9305.0
 31
0.0
  0
LINE
  5
9CA4
  8
0
 10
7352.9826110340073
 20
9305.0
 30
0.0
 11
7372.9826110340073
 21
9305.0
 31
0.0
  0
LINE
  5
9CA5
  8
0
 10
7252.9826110340064
 20
9330.0
 30
0.0
 11
7252.9826110340064
 21
9275.0
 31
0.0
  0
LINE
  5
9CA6
  8
0
 10
7252.9826110340064
 20
9275.0
 30
0.0
 11
7332.9826110340082
 21
9275.0
 31
0.0
  0
LINE
  5
9CA7
  8
0
 10
7332.9826110340082
 20
9275.0
 30
0.0
 11
7332.9826110340082
 21
9320.0
 31
0.0
  0
LINE
  5
9CA8
  8
0
 10
7372.9826110340073
 20
9300.0
 30
0.0
 11
7372.9826110340073
 21
9320.0
 31
0.0
  0
LINE
  5
9CA9
  8
0
 10
7372.9826110340073
 20
9315.0
 30
0.0
 11
7352.9826110340073
 21
9315.0
 31
0.0
  0
LINE
  5
9CAA
  8
0
 10
11020.000000005
 20
9330.0
 30
0.0
 11
10808.050885125
 21
9330.0
 31
0.0
  0
LINE
  5
9CAB
  8
0
 10
7452.9826110340064
 20
9315.0
 30
0.0
 11
7402.9826110340073
 21
9315.0
 31
0.0
  0
LINE
  5
9CAC
  8
0
 10
7452.9826110340064
 20
9305.0
 30
0.0
 11
7452.9826110340064
 21
9315.0
 31
0.0
  0
LINE
  5
9CAD
  8
0
 10
10840.475954508
 20
9347.9631464980048
 30
0.0
 11
10790.000000005
 21
9320.0
 31
0.0
  0
LINE
  5
9CAE
  8
0
 10
7302.0045384780096
 20
9290.8373752999978
 30
0.0
 11
7282.2141334060143
 21
8913.213951013
 31
0.0
  0
LINE
  5
9CAF
  8
0
 10
7333.9606835900058
 20
9289.1626247000022
 30
0.0
 11
7314.1702785180096
 21
8911.5392004140031
 31
0.0
  0
LINE
  5
9CB0
  8
0
 10
7179.2195152880013
 20
8820.4771803189997
 30
0.0
 11
7093.3373752990155
 21
8824.9780725560049
 31
0.0
  0
LINE
  5
9CB1
  8
0
 10
7091.6626247000104
 20
8793.0219274440024
 30
0.0
 11
7177.5447646890098
 21
8788.5210352069989
 31
0.0
  0
LINE
  5
9CB2
  8
0
 10
7120.0
 20
9330.0
 30
0.0
 11
7120.0
 21
9400.0
 31
0.0
  0
ARC
  5
9CB3
  8
0
 10
7092.5000000000146
 20
8809.0
 30
0.0
 40
16.0
 50
86.999999999578236
 51
266.99999999957822
  0
ARC
  5
9CB4
  8
0
 10
7184.3484390000076
 20
8918.342874725
 30
0.0
 40
130.0
 50
266.99999999957822
 51
356.99999999999437
  0
ARC
  5
9CB5
  8
0
 10
7184.3484390000076
 20
8918.342874725
 30
0.0
 40
98.0
 50
266.99999999957822
 51
356.99999999999437
  0
ARC
  5
9CB6
  8
0
 10
7317.9826110340082
 20
9290.0
 30
0.0
 40
16.0
 50
356.99999999999437
 51
176.9999999999944
  0
LINE
  5
9CB7
  8
0
 10
7067.5000000000146
 20
8774.0
 30
0.0
 11
7092.5000000000146
 21
8774.0
 31
0.0
  0
LINE
  5
9CB8
  8
0
 10
7142.5000000000164
 20
8924.0
 30
0.0
 11
7067.5000000000146
 21
8924.0
 31
0.0
  0
LINE
  5
9CB9
  8
0
 10
7142.5000000000164
 20
8863.080842696414
 30
0.0
 11
7142.5000000000164
 21
8924.0
 31
0.0
  0
LINE
  5
9CBA
  8
0
 10
7067.5000000000146
 20
8924.0
 30
0.0
 11
7067.5000000000146
 21
8774.0
 31
0.0
  0
LINE
  5
9CBB
  8
0
 10
10672.923672325
 20
9395.0
 30
0.0
 11
7120.0
 21
9395.0
 31
0.0
  0
LINE
  5
9CBC
  8
0
 10
7092.5000000000146
 20
8774.0
 30
0.0
 11
7110.5329743250022
 21
8792.0329743260008
 31
0.0
  0
LINE
  5
9CBD
  8
0
  6
CENTER2
 10
7117.5000000000146
 20
8809.0
 30
0.0
 11
7067.5000000000146
 21
8809.0
 31
0.0
  0
LINE
  5
9CBE
  8
0
  6
CENTER2
 10
7092.5000000000146
 20
8834.0
 30
0.0
 11
7092.5000000000146
 21
8784.0
 31
0.0
  0
LINE
  5
9CBF
  8
0
  6
CENTER2
 10
7342.9826110340064
 20
9290.0
 30
0.0
 11
7292.9826110340045
 21
9290.0
 31
0.0
  0
LINE
  5
9CC0
  8
0
  6
CENTER2
 10
7317.9826110340082
 20
9315.0
 30
0.0
 11
7317.9826110340082
 21
9265.0
 31
0.0
  0
LINE
  5
9CC1
  8
0
  6
CENTER2
 10
10710.000000005
 20
9364.9999999999527
 30
0.0
 11
10780.000000005
 21
9364.9999999999527
 31
0.0
  0
LINE
  5
9CC2
  8
0
  6
CENTER2
 10
10745.00000000496
 20
9329.9999999999454
 30
0.0
 11
10745.00000000505
 21
9399.9999999999472
 31
0.0
  0
LINE
  5
9CC3
  8
0
 10
11020.000000005
 20
9395.0
 30
0.0
 11
11020.000000005
 21
9330.0
 31
0.0
  0
DIMENSION
  5
9CC4
  8
0
  2
*D24
 10
11020.0
 20
10535.0
 30
0.0
 11
9010.0
 21
10617.500000000009
 31
0.0
  1
DH+1200
 13
7000.0
 23
10385.000000000009
 33
0.0
 14
11020.0
 24
9710.0000000000091
 34
0.0
1001
ACAD
1000
DSTYLE
1002
{
1070
    41
1040
1.0
1002
}
  0
TEXT
  5
9CC5
  8
0
 10
11165.00204478456
 20
8991.8581838121172
 30
0.0
 40
105.0
  1
開閉機
 41
0.8
  7
横文字
 72
     1
 11
11307.802044784559
 21
8991.8581838121172
 31
0.0
  0
INSERT
  5
9CC6
  8
0
  2
*U34
 10
0.0
 20
0.0
 30
0.0
  0
LINE
  5
9CC7
  8
0
  6
HIDDEN
 10
10945.283294862311
 20
9252.2720008112665
 30
0.0
 11
10759.559276378701
 21
9385.3230773131017
 31
0.0
  0
LINE
  5
9CC8
  8
0
  6
HIDDEN
 10
10875.69714917226
 20
9175.9517119899156
 30
0.0
 11
10726.1043986431
 21
9348.6306307643754
 31
0.0
  0
LINE
  5
9CC9
  8
0
  6
PHANTOM2
 10
6962.0
 20
1650.0000000000221
 30
0.0
 11
6962.0
 21
1150.0000000000221
 31
0.0
  0
LINE
  5
9CCA
  8
0
  6
PHANTOM2
 10
6962.0
 20
1150.0000000000221
 30
0.0
 11
7112.0
 21
1150.0000000000221
 31
0.0
  0
LINE
  5
9CCB
  8
0
  6
PHANTOM2
 10
7112.0
 20
1150.0000000000221
 30
0.0
 11
7112.0
 21
1650.0000000000221
 31
0.0
  0
LINE
  5
9CCC
  8
0
  6
PHANTOM2
 10
6948.1999999999989
 20
1192.5000000000221
 30
0.0
 11
6962.0
 21
1192.5000000000221
 31
0.0
  0
LINE
  5
9CCD
  8
0
  6
PHANTOM2
 10
6948.1999999999989
 20
1317.5000000000221
 30
0.0
 11
6962.0
 21
1317.5000000000221
 31
0.0
  0
LINE
  5
9CCE
  8
0
  6
PHANTOM2
 10
7398.2000000000089
 20
1317.5000000000221
 30
0.0
 11
7398.2000000000089
 21
1192.5000000000221
 31
0.0
  0
LINE
  5
9CCF
  8
0
  6
PHANTOM2
 10
6916.6000000000058
 20
1307.000000000058
 30
0.0
 11
6916.6000000000058
 21
1203.000000000058
 31
0.0
  0
LINE
  5
9CD0
  8
0
  6
PHANTOM2
 10
6916.6000000000058
 20
1203.000000000058
 30
0.0
 11
6923.8000000000029
 21
1203.000000000058
 31
0.0
  0
LINE
  5
9CD1
  8
0
  6
PHANTOM2
 10
6923.8000000000029
 20
1203.000000000058
 30
0.0
 11
6923.8000000000029
 21
1307.000000000058
 31
0.0
  0
LINE
  5
9CD2
  8
0
  6
PHANTOM2
 10
6923.8000000000029
 20
1307.000000000058
 30
0.0
 11
6916.6000000000058
 21
1307.000000000058
 31
0.0
  0
LINE
  5
9CD3
  8
0
  6
PHANTOM2
 10
6948.2000000000098
 20
1286.500000000058
 30
0.0
 11
6923.8000000000029
 21
1286.500000000058
 31
0.0
  0
LINE
  5
9CD4
  8
0
  6
PHANTOM2
 10
6948.2000000000098
 20
1223.500000000058
 30
0.0
 11
6923.8000000000029
 21
1223.500000000058
 31
0.0
  0
LINE
  5
9CD5
  8
0
  6
PHANTOM2
 10
7348.2000000000098
 20
1317.5000000000221
 30
0.0
 11
7348.2000000000098
 21
1192.5000000000221
 31
0.0
  0
LINE
  5
9CD6
  8
0
  6
CENTER2
 10
6848.2000000000098
 20
1255.0000000000221
 30
0.0
 11
7498.2000000000098
 21
1255.0000000000221
 31
0.0
  0
LINE
  5
9CD7
  8
0
  6
PHANTOM2
 10
6948.1999999999989
 20
1317.5000000000221
 30
0.0
 11
6948.1999999999989
 21
1192.5000000000221
 31
0.0
  0
LINE
  5
9CD8
  8
0
  6
PHANTOM2
 10
7112.0
 20
1192.5000000000221
 30
0.0
 11
7398.2000000000089
 21
1192.5000000000221
 31
0.0
  0
LINE
  5
9CD9
  8
0
  6
PHANTOM2
 10
7112.0
 20
1317.5000000000221
 30
0.0
 11
7398.2000000000089
 21
1317.5000000000221
 31
0.0
  0
LINE
  5
9CDA
  8
0
  6
PHANTOM2
 10
6850.0
 20
10835.000000000009
 30
0.0
 11
6850.0
 21
8800.0
 31
0.0
  0
LINE
  5
9CDB
  8
0
  6
PHANTOM2
 10
6850.0
 20
8800.0
 30
0.0
 11
7000.0
 21
8800.0
 31
0.0
  0
LINE
  5
9CDC
  8
0
  6
PHANTOM2
 10
7000.0
 20
8800.0
 30
0.0
 11
7000.0
 21
9420.0000000000073
 31
0.0
  0
LINE
  5
9CDD
  8
0
  6
PHANTOM2
 10
11745.0
 20
9570.0000000000091
 30
0.0
 11
7000.0
 21
9570.0000000000091
 31
0.0
  0
LINE
  5
9CDE
  8
0
  6
PHANTOM2
 10
7000.0
 20
9570.0000000000091
 30
0.0
 11
7000.0
 21
10835.000000000009
 31
0.0
  0
LINE
  5
9CDF
  8
0
  6
PHANTOM2
 10
7000.0
 20
9420.0000000000073
 30
0.0
 11
11745.0
 21
9420.0000000000073
 31
0.0
  0
LINE
  5
9CE0
  8
0
  6
PHANTOM2
 10
10250.0
 20
3650.0
 30
0.0
 11
9250.0
 21
3650.0
 31
0.0
  0
LINE
  5
9CE1
  8
0
  6
PHANTOM2
 10
9250.0
 20
3650.0
 30
0.0
 11
9250.0
 21
3500.0
 31
0.0
  0
LINE
  5
9CE2
  8
0
  6
PHANTOM2
 10
9250.0
 20
3500.0
 30
0.0
 11
10250.0
 21
3500.0
 31
0.0
  0
LINE
  5
9CE3
  8
0
  6
PHANTOM2
 10
3750.0
 20
3650.0
 30
0.0
 11
4750.0
 21
3650.0
 31
0.0
  0
LINE
  5
9CE4
  8
0
  6
PHANTOM2
 10
4750.0
 20
3650.0
 30
0.0
 11
4750.0
 21
3500.0
 31
0.0
  0
LINE
  5
9CE5
  8
0
  6
PHANTOM2
 10
4750.0
 20
3500.0
 30
0.0
 11
3750.0
 21
3500.0
 31
0.0
  0
LINE
  5
9CE6
  8
0
 10
10855.499532005009
 20
9071.0
 30
0.0
 11
10974.499532005009
 21
9071.0
 31
0.0
  0
LINE
  5
9CE7
  8
0
 10
10853.999532005
 20
9072.5000000000018
 30
0.0
 11
10853.999532005
 21
9084.0
 31
0.0
  0
LINE
  5
9CE8
  8
0
 10
10975.999532005
 20
9072.5000000000018
 30
0.0
 11
10975.999532005
 21
9084.0
 31
0.0
  0
LINE
  5
9CE9
  8
0
 10
10854.99961115206
 20
9084.0
 30
0.0
 11
10853.999532005
 21
9084.0
 31
0.0
  0
LINE
  5
9CEA
  8
0
 10
10975.999532005
 20
9084.0
 30
0.0
 11
10974.999532005
 21
9084.0
 31
0.0
  0
ARC
  5
9CEB
  8
0
 10
10974.499532005009
 20
9072.5000000000018
 30
0.0
 40
1.5
 50
270.00000255881957
 51
359.99999795311089
  0
ARC
  5
9CEC
  8
0
 10
10855.499532005009
 20
9072.5000000000018
 30
0.0
 40
1.5
 50
180.00000102344441
 51
270.00000255881957
  0
LINE
  5
9CED
  8
0
 10
10974.999996563831
 20
9140.0
 30
0.0
 11
10974.99961115206
 21
9084.0
 31
0.0
  0
LINE
  5
9CEE
  8
0
 10
10854.99999656382
 20
9140.0
 30
0.0
 11
10854.99961115206
 21
9084.0
 31
0.0
  0
LINE
  5
9CEF
  8
0
 10
9282.5000000000455
 20
3365.0000000000291
 30
0.0
 11
9282.5000000000455
 21
3307.3000000000252
 31
0.0
  0
LINE
  5
9CF0
  8
0
 10
9284.8000000000466
 20
3305.0000000000291
 30
0.0
 11
9345.2000000000407
 21
3305.0000000000291
 31
0.0
  0
LINE
  5
9CF1
  8
0
 10
9347.5000000000437
 20
3307.3000000000252
 30
0.0
 11
9347.5000000000437
 21
3365.0000000000291
 31
0.0
  0
LINE
  5
9CF2
  8
0
 10
9347.5000000000437
 20
3365.0000000000291
 30
0.0
 11
9345.2000000000407
 21
3365.0000000000291
 31
0.0
  0
LINE
  5
9CF3
  8
0
 10
9345.2000000000407
 20
3365.0000000000291
 30
0.0
 11
9345.2000000000407
 21
3307.3000000000252
 31
0.0
  0
LINE
  5
9CF4
  8
0
 10
9345.2000000000407
 20
3307.3000000000252
 30
0.0
 11
9284.8000000000466
 21
3307.3000000000252
 31
0.0
  0
LINE
  5
9CF5
  8
0
 10
9284.8000000000466
 20
3307.3000000000252
 30
0.0
 11
9284.8000000000466
 21
3365.0000000000291
 31
0.0
  0
LINE
  5
9CF6
  8
0
 10
9284.8000000000466
 20
3365.0000000000291
 30
0.0
 11
9282.5000000000455
 21
3365.0000000000291
 31
0.0
  0
ARC
  5
9CF7
  8
0
 10
9284.8000000000466
 20
3307.3000000000252
 30
0.0
 40
2.299999999999998
 50
180.0
 51
270.0
  0
ARC
  5
9CF8
  8
0
 10
9345.2000000000407
 20
3307.3000000000252
 30
0.0
 40
2.299999999999998
 50
270.0
 51
0.0
  0
LINE
  5
9CF9
  8
0
 10
9347.5000000000437
 20
3365.0000000000291
 30
0.0
 11
9372.4999999999836
 21
3365.0000000000209
 31
0.0
  0
LINE
  5
9CFA
  8
0
 10
9377.4999999999836
 20
3360.0000000000218
 30
0.0
 11
9377.4999999999836
 21
3315.0000000000291
 31
0.0
  0
LINE
  5
9CFB
  8
0
 10
9372.4999999999836
 20
3365.0000000000209
 30
0.0
 11
9377.4999999999836
 21
3360.0000000000218
 31
0.0
  0
LINE
  5
9CFC
  8
0
 10
9372.4999999999836
 20
3310.0000000000291
 30
0.0
 11
9347.4999999999836
 21
3310.0000000000291
 31
0.0
  0
LINE
  5
9CFD
  8
0
 10
9377.4999999999836
 20
3315.0000000000291
 30
0.0
 11
9372.4999999999836
 21
3310.0000000000291
 31
0.0
  0
CIRCLE
  5
9CFE
  8
0
 10
9364.9999999999836
 20
3335.0
 30
0.0
 40
6.0
  0
LINE
  5
9CFF
  8
0
 10
9282.5000000000455
 20
3365.0000000000291
 30
0.0
 11
9257.5000000001055
 21
3365.0000000000209
 31
0.0
  0
LINE
  5
9D00
  8
0
 10
9252.5000000001
 20
3360.0000000000218
 30
0.0
 11
9252.5000000001
 21
3315.0000000000291
 31
0.0
  0
LINE
  5
9D01
  8
0
 10
9257.5000000001055
 20
3365.0000000000209
 30
0.0
 11
9252.5000000001
 21
3360.0000000000218
 31
0.0
  0
LINE
  5
9D02
  8
0
 10
9257.5000000001055
 20
3310.0000000000291
 30
0.0
 11
9282.5000000001037
 21
3310.0000000000291
 31
0.0
  0
LINE
  5
9D03
  8
0
 10
9252.5000000001
 20
3315.0000000000291
 30
0.0
 11
9257.5000000001055
 21
3310.0000000000291
 31
0.0
  0
CIRCLE
  5
9D04
  8
0
 10
9265.0000000001
 20
3335.0
 30
0.0
 40
6.0
  0
LINE
  5
9D05
  8
0
 10
9332.4999999999873
 20
3328.0
 30
0.0
 11
9332.4999999999873
 21
3342.0
 31
0.0
  0
ARC
  5
9D06
  8
0
 10
9330.4999999999836
 20
3342.0
 30
0.0
 40
2.0
 50
0.0
 51
90.0
  0
LINE
  5
9D07
  8
0
 10
9330.4999999999836
 20
3344.0
 30
0.0
 11
9299.4999999999836
 21
3344.0
 31
0.0
  0
ARC
  5
9D08
  8
0
 10
9299.4999999999836
 20
3342.0
 30
0.0
 40
2.0
 50
90.0
 51
180.0
  0
LINE
  5
9D09
  8
0
 10
9297.4999999999836
 20
3342.0
 30
0.0
 11
9297.4999999999836
 21
3328.0
 31
0.0
  0
ARC
  5
9D0A
  8
0
 10
9299.4999999999836
 20
3328.0
 30
0.0
 40
2.0
 50
180.0
 51
270.0
  0
LINE
  5
9D0B
  8
0
 10
9299.4999999999836
 20
3326.0
 30
0.0
 11
9330.4999999999836
 21
3326.0
 31
0.0
  0
ARC
  5
9D0C
  8
0
 10
9330.4999999999836
 20
3328.0
 30
0.0
 40
2.0
 50
270.0
 51
0.0
  0
LINE
  5
9D0D
  8
0
  6
CENTER2
 10
9297.4999999999836
 20
3335.0
 30
0.0
 11
4702.5000000001019
 21
3335.0
 31
0.0
  0
LINE
  5
9D0E
  8
0
 10
4717.5000000000491
 20
3365.0000000000291
 30
0.0
 11
4717.5000000000491
 21
3307.3000000000252
 31
0.0
  0
LINE
  5
9D0F
  8
0
 10
4715.2000000000553
 20
3305.0000000000291
 30
0.0
 11
4654.8000000000538
 21
3305.0000000000291
 31
0.0
  0
LINE
  5
9D10
  8
0
 10
4652.50000000005
 20
3307.3000000000252
 30
0.0
 11
4652.50000000005
 21
3365.0000000000291
 31
0.0
  0
LINE
  5
9D11
  8
0
 10
4652.50000000005
 20
3365.0000000000291
 30
0.0
 11
4654.8000000000538
 21
3365.0000000000291
 31
0.0
  0
LINE
  5
9D12
  8
0
 10
4654.8000000000538
 20
3365.0000000000291
 30
0.0
 11
4654.8000000000538
 21
3307.3000000000252
 31
0.0
  0
LINE
  5
9D13
  8
0
 10
4654.8000000000538
 20
3307.3000000000252
 30
0.0
 11
4715.2000000000553
 21
3307.3000000000252
 31
0.0
  0
LINE
  5
9D14
  8
0
 10
4715.2000000000553
 20
3307.3000000000252
 30
0.0
 11
4715.2000000000553
 21
3365.0000000000291
 31
0.0
  0
LINE
  5
9D15
  8
0
 10
4715.2000000000553
 20
3365.0000000000291
 30
0.0
 11
4717.5000000000491
 21
3365.0000000000291
 31
0.0
  0
ARC
  5
9D16
  8
0
 10
4715.2000000000553
 20
3307.3000000000252
 30
0.0
 40
2.299999999999998
 50
270.0
 51
0.0
  0
ARC
  5
9D17
  8
0
 10
4654.8000000000538
 20
3307.3000000000252
 30
0.0
 40
2.299999999999998
 50
180.0
 51
270.0
  0
LINE
  5
9D18
  8
0
 10
4652.50000000005
 20
3365.0000000000291
 30
0.0
 11
4627.5000000001019
 21
3365.0000000000209
 31
0.0
  0
LINE
  5
9D19
  8
0
 10
4622.5000000001
 20
3360.0000000000218
 30
0.0
 11
4622.5000000001
 21
3315.0000000000291
 31
0.0
  0
LINE
  5
9D1A
  8
0
 10
4627.5000000001019
 20
3365.0000000000209
 30
0.0
 11
4622.5000000001
 21
3360.0000000000218
 31
0.0
  0
LINE
  5
9D1B
  8
0
 10
4627.5000000001019
 20
3310.0000000000291
 30
0.0
 11
4652.500000000101
 21
3310.0000000000291
 31
0.0
  0
LINE
  5
9D1C
  8
0
 10
4622.5000000001
 20
3315.0000000000291
 30
0.0
 11
4627.5000000001019
 21
3310.0000000000291
 31
0.0
  0
CIRCLE
  5
9D1D
  8
0
 10
4635.000000000101
 20
3335.0
 30
0.0
 40
6.0
  0
LINE
  5
9D1E
  8
0
 10
4717.5000000000491
 20
3365.0000000000291
 30
0.0
 11
4742.5
 21
3365.0000000000209
 31
0.0
  0
LINE
  5
9D1F
  8
0
 10
4747.5
 20
3360.0000000000218
 30
0.0
 11
4747.5
 21
3315.0000000000291
 31
0.0
  0
LINE
  5
9D20
  8
0
 10
4742.5
 20
3365.0000000000209
 30
0.0
 11
4747.5
 21
3360.0000000000218
 31
0.0
  0
LINE
  5
9D21
  8
0
 10
4742.5
 20
3310.0000000000291
 30
0.0
 11
4717.5
 21
3310.0000000000291
 31
0.0
  0
LINE
  5
9D22
  8
0
 10
4747.5
 20
3315.0000000000291
 30
0.0
 11
4742.5
 21
3310.0000000000291
 31
0.0
  0
CIRCLE
  5
9D23
  8
0
 10
4735.0
 20
3335.0
 30
0.0
 40
6.0
  0
LINE
  5
9D24
  8
0
 10
4667.5000000001019
 20
3328.0
 30
0.0
 11
4667.5000000001019
 21
3342.0
 31
0.0
  0
ARC
  5
9D25
  8
0
 10
4669.500000000101
 20
3342.0
 30
0.0
 40
2.0
 50
90.0
 51
180.0
  0
LINE
  5
9D26
  8
0
 10
4669.500000000101
 20
3344.0
 30
0.0
 11
4700.5000000001019
 21
3344.0
 31
0.0
  0
ARC
  5
9D27
  8
0
 10
4700.5000000001019
 20
3342.0
 30
0.0
 40
2.0
 50
0.0
 51
90.0
  0
LINE
  5
9D28
  8
0
 10
4702.5000000001019
 20
3342.0
 30
0.0
 11
4702.5000000001019
 21
3328.0
 31
0.0
  0
ARC
  5
9D29
  8
0
 10
4700.5000000001019
 20
3328.0
 30
0.0
 40
2.0
 50
270.0
 51
0.0
  0
LINE
  5
9D2A
  8
0
 10
4700.5000000001019
 20
3326.0
 30
0.0
 11
4669.500000000101
 21
3326.0
 31
0.0
  0
ARC
  5
9D2B
  8
0
 10
4669.500000000101
 20
3328.0
 30
0.0
 40
2.0
 50
180.0
 51
270.0
  0
TEXT
  5
9D2C
  8
0
 10
8367.2047612756778
 20
3123.5185434277369
 30
0.0
 40
105.0
  1
光軸
 41
0.8
  7
横文字
 72
     1
 11
8456.8047612756782
 21
3123.5185434277369
 31
0.0
  0
INSERT
  5
9D2D
  8
0
  2
*U35
 10
0.0
 20
0.0
 30
0.0
  0
DIMENSION
  5
9D2E
  8
0
  2
*D26
 10
4323.0
 20
3335.0
 30
0.0
 11
4240.4999999999991
 21
3367.5000000000368
 31
0.0
 70
   128
 13
4423.0
 23
3500.0000000000359
 33
0.0
 14
4723.0
 24
3335.0
 34
0.0
 50
90.0
1001
ACAD
1000
DSTYLE
1002
{
1070
    41
1040
1.0
1002
}
  0
TEXT
  5
9D2F
  8
0
 10
10979.999999999971
 20
47.5
 30
0.0
 40
105.0
  1
スタンダード
 11
10979.999999999971
 21
100.0
 31
0.0
 73
     2
  0
TEXT
  5
9D30
  8
0
 10
10229.999999999971
 20
47.5
 30
0.0
 40
105.0
  1
納まり　  :
 11
10229.999999999971
 21
100.0
 31
0.0
 73
     2
  0
TEXT
  5
9D31
  8
0
 10
6552.9957445612663
 20
7427.0875098650658
 30
0.0
 40
105.0
  1
パネル
 41
0.8
  7
文字
 72
     1
 11
6692.9957445612672
 21
7427.0875098650658
 31
0.0
  0
INSERT
  5
9D32
  8
0
  2
*U36
 10
0.0
 20
0.0
 30
0.0
  0
DIMENSION
  5
9D33
  8
0
  2
*D28
 10
5975.0
 20
8700.0
 30
0.0
 11
5892.4999999999991
 21
8750.0000000000018
 31
0.0
  1
Y
 13
6650.0
 23
8800.0
 33
0.0
 14
6650.0
 24
8700.0
 34
0.0
 50
90.0
1001
ACAD
1000
DSTYLE
1002
{
1070
    41
1040
1.0
1002
}
  0
DIMENSION
  5
9D34
  8
0
  2
*D30
 10
5975.0
 20
5999.9999999999918
 30
0.0
 11
5892.4999999999991
 21
7349.9999999999973
 31
0.0
  1
有効開口高=H-Y
 13
6650.0
 23
8700.0
 33
0.0
 14
6125.0
 24
5999.9999999999918
 34
0.0
 50
90.0
1001
ACAD
1000
DSTYLE
1002
{
1070
    41
1040
1.0
1002
}
  0
TEXT
  5
9D35
  8
0
 10
13410.0
 20
10647.5
 30
0.0
 40
105.0
  1
パネル
 41
0.8
  7
文字
 72
     1
 11
13550.0
 21
10700.0
 31
0.0
 73
     2
  0
TEXT
  5
9D36
  8
0
 10
13064.0
 20
10447.5
 30
0.0
 40
105.0
  1
Y
 41
0.8
  7
文字
 72
     1
 11
13100.0
 21
10500.0
 31
0.0
 73
     2
  0
LINE
  5
9D37
  8
0
 10
14800.0
 20
10800.0
 30
0.0
 11
13800.0
 21
10800.0
 31
0.0
  0
LINE
  5
9D38
  8
0
 10
12900.0
 20
11000.0
 30
0.0
 11
12900.0
 21
10400.0
 31
0.0
  0
LINE
  5
9D39
  8
0
 10
14800.0
 20
10600.0
 30
0.0
 11
12900.0
 21
10600.0
 31
0.0
  0
LINE
  5
9D3A
  8
0
 10
12900.0
 20
10400.0
 30
0.0
 11
14800.0
 21
10400.0
 31
0.0
  0
LINE
  5
9D3B
  8
0
 10
13300.0
 20
11000.0
 30
0.0
 11
13300.0
 21
10400.0
 31
0.0
  0
LINE
  5
9D3C
  8
0
 10
13800.0
 20
11000.0
 30
0.0
 11
13800.0
 21
10400.0
 31
0.0
  0
TEXT
  5
9D3D
  8
0
 10
13510.0
 20
10447.5
 30
0.0
 40
105.0
  1
0
 41
0.8
  7
文字
 72
     1
 11
13550.0
 21
10500.0
 31
0.0
 73
     2
  0
TEXT
  5
9D3E
  8
0
 10
13359.6
 20
10847.5
 30
0.0
 40
105.0
  1
スチール
 41
0.8
  7
文字
 72
     1
 11
13550.0
 21
10900.0
 31
0.0
 73
     2
  0
TEXT
  5
9D3F
  8
0
 10
13960.4
 20
10647.5
 30
0.0
 40
105.0
  1
標準
 41
0.8
  7
文字
 72
     1
 11
14050.0
 21
10700.0
 31
0.0
 73
     2
  0
LINE
  5
9D40
  8
0
 10
14300.0
 20
10800.0
 30
0.0
 11
14300.0
 21
10400.0
 31
0.0
  0
TEXT
  5
9D41
  8
0
 10
14371.200000000001
 20
10647.5
 30
0.0
 40
105.0
  1
ワイド1
 41
0.8
  7
文字
 72
     1
 11
14550.0
 21
10700.0
 31
0.0
 73
     2
  0
LINE
  5
9D42
  8
0
 10
14800.0
 20
11000.0
 30
0.0
 11
14800.0
 21
10400.0
 31
0.0
  0
TEXT
  5
9D43
  8
0
 10
13840.4
 20
10847.5
 30
0.0
 40
105.0
  1
アルミパネル・FRPパネル
 41
0.6
  7
文字
 72
     1
 11
14300.0
 21
10900.0
 31
0.0
 73
     2
  0
LINE
  5
9D44
  8
0
 10
14800.0
 20
11000.0
 30
0.0
 11
12900.0
 21
11000.0
 31
0.0
  0
TEXT
  5
9D45
  8
0
 10
14010.0
 20
10447.5
 30
0.0
 40
105.0
  1
0
 41
0.8
  7
文字
 72
     1
 11
14050.0
 21
10500.0
 31
0.0
 73
     2
  0
TEXT
  5
9D46
  8
0
 10
14470.0
 20
10447.5
 30
0.0
 40
105.0
  1
70
 41
0.8
  7
文字
 72
     1
 11
14550.0
 21
10500.0
 31
0.0
 73
     2
  0
LINE
  5
9D47
  8
0
 10
12900.0
 20
11000.0
 30
0.0
 11
13300.0
 21
10600.0
 31
0.0
  0
TEXT
  5
9D48
  8
0
 10
12900.0
 20
11047.5
 30
0.0
 40
105.0
  1
有効開口高=H-Y
 41
0.8
  7
文字
 11
12900.0
 21
11100.0
 31
0.0
 73
     2
  0
TEXT
  5
9D49
  8
0
 10
14431.200000000001
 20
11047.5
 30
0.0
 40
105.0
  1
（mm）
 41
0.8
  7
文字
 72
     2
 11
14800.0
 21
11100.0
 31
0.0
 73
     2
  0
ENDSEC
  0
EOF
