  0
SECTION
  2
HEADER
  9
$ACADVER
  1
AC1009
  9
$INSBASE
 10
0.0
 20
0.0
 30
0.0
  9
$EXTMIN
 10
-0.4998397926137841
 20
-0.3584016095373954
 30
-0.0015258207003583
  9
$EXTMAX
 10
16380.499916067931
 20
11745.35845630145
 30
0.0000000349246037
  9
$LIMMIN
 10
0.0
 20
0.0
  9
$LIMMAX
 10
420.0
 20
297.0
  9
$ORTHOMODE
 70
     0
  9
$REGENMODE
 70
     1
  9
$FILLMODE
 70
     1
  9
$QTEXTMODE
 70
     0
  9
$MIRRTEXT
 70
     1
  9
$DRAGMODE
 70
     2
  9
$LTSCALE
 40
7.5
  9
$OSMODE
 70
  3071
  9
$ATTMODE
 70
     1
  9
$TEXTSIZE
 40
105.0
  9
$TRACEWID
 40
1.0
  9
$TEXTSTYLE
  7
文字
  9
$CLAYER
  8
0
  9
$CELTYPE
  6
BYLAYER
  9
$CECOLOR
 62
   256
  9
$DIMSCALE
 40
30.0
  9
$DIMASZ
 40
2.0
  9
$DIMEXO
 40
5.0
  9
$DIMDLI
 40
7.5
  9
$DIMRND
 40
0.0
  9
$DIMDLE
 40
0.0
  9
$DIMEXE
 40
1.0
  9
$DIMTP
 40
0.0
  9
$DIMTM
 40
0.0
  9
$DIMTXT
 40
3.5
  9
$DIMCEN
 40
1.0
  9
$DIMTSZ
 40
0.0
  9
$DIMTOL
 70
     0
  9
$DIMLIM
 70
     0
  9
$DIMTIH
 70
     0
  9
$DIMTOH
 70
     0
  9
$DIMSE1
 70
     0
  9
$DIMSE2
 70
     0
  9
$DIMTAD
 70
     1
  9
$DIMZIN
 70
     8
  9
$DIMBLK
  1
ORIGIN
  9
$DIMASO
 70
     1
  9
$DIMSHO
 70
     1
  9
$DIMPOST
  1

  9
$DIMAPOST
  1

  9
$DIMALT
 70
     0
  9
$DIMALTD
 70
     3
  9
$DIMALTF
 40
0.03937007874016
  9
$DIMLFAC
 40
1.0
  9
$DIMTOFL
 70
     1
  9
$DIMTVP
 40
0.0
  9
$DIMTIX
 70
     1
  9
$DIMSOXD
 70
     0
  9
$DIMSAH
 70
     0
  9
$DIMBLK1
  1

  9
$DIMBLK2
  1

  9
$DIMSTYLE
  2
寸法線30
  9
$DIMCLRD
 70
   256
  9
$DIMCLRE
 70
   256
  9
$DIMCLRT
 70
   256
  9
$DIMTFAC
 40
1.0
  9
$DIMGAP
 40
1.0
  9
$LUNITS
 70
     2
  9
$LUPREC
 70
     4
  9
$SKETCHINC
 40
1.0
  9
$FILLETRAD
 40
0.0
  9
$AUNITS
 70
     0
  9
$AUPREC
 70
     0
  9
$MENU
  1
.
  9
$ELEVATION
 40
0.0
  9
$PELEVATION
 40
0.0
  9
$THICKNESS
 40
0.0
  9
$LIMCHECK
 70
     0
  9
$BLIPMODE
 70
     0
  9
$CHAMFERA
 40
10.0
  9
$CHAMFERB
 40
10.0
  9
$SKPOLY
 70
     0
  9
$TDCREATE
 40
2452654.657629028
  9
$TDUPDATE
 40
2456778.7054149648
  9
$TDINDWG
 40
0.8019610069000001
  9
$TDUSRTIMER
 40
0.8019592014
  9
$USRTIMER
 70
     1
  9
$ANGBASE
 50
0.0
  9
$ANGDIR
 70
     0
  9
$PDMODE
 70
     0
  9
$PDSIZE
 40
0.0
  9
$PLINEWID
 40
0.0
  9
$COORDS
 70
     2
  9
$SPLFRAME
 70
     0
  9
$SPLINETYPE
 70
     6
  9
$SPLINESEGS
 70
     8
  9
$ATTDIA
 70
     0
  9
$ATTREQ
 70
     1
  9
$HANDLING
 70
     1
  9
$HANDSEED
  5
B86B
  9
$SURFTAB1
 70
     6
  9
$SURFTAB2
 70
     6
  9
$SURFTYPE
 70
     6
  9
$SURFU
 70
     6
  9
$SURFV
 70
     6
  9
$UCSNAME
  2

  9
$UCSORG
 10
0.0
 20
0.0
 30
0.0
  9
$UCSXDIR
 10
1.0
 20
0.0
 30
0.0
  9
$UCSYDIR
 10
0.0
 20
1.0
 30
0.0
  9
$PUCSNAME
  2

  9
$PUCSORG
 10
0.0
 20
0.0
 30
0.0
  9
$PUCSXDIR
 10
1.0
 20
0.0
 30
0.0
  9
$PUCSYDIR
 10
0.0
 20
1.0
 30
0.0
  9
$USERI1
 70
     0
  9
$USERI2
 70
     0
  9
$USERI3
 70
     0
  9
$USERI4
 70
     0
  9
$USERI5
 70
     0
  9
$USERR1
 40
0.0
  9
$USERR2
 40
0.0
  9
$USERR3
 40
0.0
  9
$USERR4
 40
0.0
  9
$USERR5
 40
0.0
  9
$WORLDVIEW
 70
     1
  9
$SHADEDGE
 70
     3
  9
$SHADEDIF
 70
    70
  9
$TILEMODE
 70
     1
  9
$MAXACTVP
 70
    64
  9
$PLIMCHECK
 70
     0
  9
$PEXTMIN
 10
1.0000000000000000E+020
 20
1.0000000000000000E+020
 30
1.0000000000000000E+020
  9
$PEXTMAX
 10
-1.0000000000000000E+020
 20
-1.0000000000000000E+020
 30
-1.0000000000000000E+020
  9
$PLIMMIN
 10
0.0
 20
0.0
  9
$PLIMMAX
 10
420.0
 20
297.0
  9
$UNITMODE
 70
     0
  9
$VISRETAIN
 70
     1
  9
$PLINEGEN
 70
     0
  9
$PSLTSCALE
 70
     1
  0
ENDSEC
  0
SECTION
  2
TABLES
  0
TABLE
  2
VPORT
 70
     1
  0
VPORT
  2
*ACTIVE
 70
     0
 10
0.0
 20
0.0
 11
1.0
 21
1.0
 12
8190.0000381376594
 22
5872.5000273459573
 13
0.0
 23
0.0
 14
10.0
 24
10.0
 15
10.0
 25
10.0
 16
0.0
 26
0.0
 36
1.0
 17
0.0
 27
0.0
 37
0.0
 40
11826.443434254021
 41
1.7981651376146781
 42
50.0
 43
0.0
 44
0.0
 50
0.0
 51
0.0
 71
     0
 72
   100
 73
     1
 74
     3
 75
     0
 76
     0
 77
     0
 78
     0
  0
ENDTAB
  0
TABLE
  2
LTYPE
 70
     4
  0
LTYPE
  2
CONTINUOUS
 70
     0
  3
Solid line
 72
    65
 73
     0
 40
0.0
  0
LTYPE
  2
HIDDEN
 70
     0
  3
Hidden __ __ __ __ __ __ __ __ __ __ __ __ __ _
 72
    65
 73
     2
 40
9.5249999999999986
 49
6.3499999999999979
 49
-3.174999999999998
  0
LTYPE
  2
CENTER2
 70
     0
  3
Center (.5x) ___ _ ___ _ ___ _ ___ _ ___ _ ___
 72
    65
 73
     4
 40
28.574999999999999
 49
19.050000000000001
 49
-3.174999999999998
 49
3.174999999999998
 49
-3.174999999999998
  0
LTYPE
  2
PHANTOM2
 70
     0
  3
Phantom (.5x) ___ _ _ ___ _ _ ___ _ _ ___ _ _
 72
    65
 73
     6
 40
31.75
 49
15.875
 49
-3.174999999999998
 49
3.174999999999998
 49
-3.174999999999998
 49
3.174999999999998
 49
-3.174999999999998
  0
ENDTAB
  0
TABLE
  2
LAYER
 70
     2
  0
LAYER
  2
0
 70
     0
 62
     7
  6
CONTINUOUS
  0
LAYER
  2
DEFPOINTS
 70
     0
 62
     7
  6
CONTINUOUS
  0
ENDTAB
  0
TABLE
  2
STYLE
 70
     4
  0
STYLE
  2
STANDARD
 70
     0
 40
0.0
 41
1.0
 50
0.0
 71
     0
 42
105.0
  3
romans.shx
  4
bigfont.shx
  0
STYLE
  2
文字
 70
     0
 40
0.0
 41
0.8
 50
0.0
 71
     0
 42
105.0
  3
romans.shx
  4
extfont.shx
  0
STYLE
  2
横文字
 70
     0
 40
0.0
 41
0.8
 50
0.0
 71
     0
 42
105.0
  3
romans.shx
  4
extfont.shx
  0
ENDTAB
  0
TABLE
  2
VIEW
 70
     0
  0
ENDTAB
  0
TABLE
  2
UCS
 70
     0
  0
ENDTAB
  0
TABLE
  2
APPID
 70
    81
  0
APPID
  2
ACAD
 70
     0
  0
APPID
  2
ACADANNOTATIVE
 70
     0
  0
APPID
  2
ADE
 70
     0
  0
APPID
  2
DCO15
 70
     0
  0
APPID
  2
SETH_MM
 70
     0
  0
APPID
  2
ACAD_PSEXT
 70
     0
  0
APPID
  2
ACAD_EXEMPT_FROM_CAD_STANDARDS
 70
     0
  0
APPID
  2
ACAD_MLEADERVER
 70
     0
  0
APPID
  2
AUTOESSSHUTTERLINE1
 70
     0
  0
APPID
  2
AUTOESSSHUTTERLINE2
 70
     0
  0
APPID
  2
AUTOESSSHUTTERPT
 70
     0
  0
APPID
  2
MAKICIRCLE
 70
     0
  0
APPID
  2
ACAD_DSTYLE_DIMJAG
 70
     0
  0
APPID
  2
ACAD_DSTYLE_DIMTALN
 70
     0
  0
APPID
  2
SETW_MM
 70
     0
  0
APPID
  2
PARADIMLINE
 70
     0
  0
APPID
  2
PARABASEPT
 70
     0
  0
APPID
  2
MIRRORCHK_L
 70
     0
  0
APPID
  2
MIRRORCHK_R
 70
     0
  0
APPID
  2
LINKSPLIT1
 70
     0
  0
APPID
  2
LINKSPLIT2
 70
     0
  0
APPID
  2
LINKSPLIT3
 70
     0
  0
APPID
  2
LINKSPLIT4
 70
     0
  0
APPID
  2
TBANLLINE
 70
     0
  0
APPID
  2
TBANRLINE
 70
     0
  0
APPID
  2
TBANHLINE
 70
     0
  0
APPID
  2
ARCLINEA1
 70
     0
  0
APPID
  2
ARCLINEA2
 70
     0
  0
APPID
  2
ARCLINEB1
 70
     0
  0
APPID
  2
ARCLINEB2
 70
     0
  0
APPID
  2
ODPDW
 70
     0
  0
APPID
  2
ODPDH
 70
     0
  0
APPID
  2
ODWLINE1
 70
     0
  0
APPID
  2
ODWLINE2
 70
     0
  0
APPID
  2
ODSY
 70
     0
  0
APPID
  2
EDWDW
 70
     0
  0
APPID
  2
EDWDH
 70
     0
  0
APPID
  2
LINKSPLIT11
 70
     0
  0
APPID
  2
LINKSPLIT12
 70
     0
  0
APPID
  2
LINKSPLIT13
 70
     0
  0
APPID
  2
LINKSPLIT14
 70
     0
  0
APPID
  2
AUTOESSDOORPTH1
 70
     0
  0
APPID
  2
AUTOESSDOORPTH2
 70
     0
  0
APPID
  2
AUTOESSDOORPTV1
 70
     0
  0
APPID
  2
AUTOESSDOORPTV2
 70
     0
  0
APPID
  2
TBANPT1
 70
     0
  0
APPID
  2
TBANPT2
 70
     0
  0
APPID
  2
SETDH_MM
 70
     0
  0
APPID
  2
SETV1_MM
 70
     0
  0
APPID
  2
SETV2_MM
 70
     0
  0
APPID
  2
KAIKOUDIM
 70
     0
  0
APPID
  2
TBANK
 70
     0
  0
APPID
  2
TBANR
 70
     0
  0
APPID
  2
TBANO
 70
     0
  0
APPID
  2
TBANHATA1
 70
     0
  0
APPID
  2
TBANHATA2
 70
     0
  0
APPID
  2
TBANMEN
 70
     0
  0
APPID
  2
TBANW
 70
     0
  0
APPID
  2
TBANH
 70
     0
  0
APPID
  2
ARCLINEA3
 70
     0
  0
APPID
  2
ARCLINEB3
 70
     0
  0
APPID
  2
WORKNAME_UE
 70
     0
  0
APPID
  2
WORKNAME
 70
     0
  0
APPID
  2
SD1
 70
     0
  0
APPID
  2
SD2
 70
     0
  0
APPID
  2
DELETEOBJ
 70
     0
  0
APPID
  2
TBANTEXT
 70
     0
  0
APPID
  2
MAKITEXT
 70
     0
  0
APPID
  2
N_01
 70
     0
  0
APPID
  2
N_02
 70
     0
  0
APPID
  2
N_03
 70
     0
  0
APPID
  2
N_04
 70
     0
  0
APPID
  2
N_05
 70
     0
  0
APPID
  2
N_06
 70
     0
  0
APPID
  2
N_07
 70
     0
  0
APPID
  2
N_08
 70
     0
  0
APPID
  2
N_09
 70
     0
  0
APPID
  2
N_10
 70
     0
  0
APPID
  2
N_11
 70
     0
  0
APPID
  2
N_12
 70
     0
  0
APPID
  2
N_13
 70
     0
  0
ENDTAB
  0
TABLE
  2
DIMSTYLE
 70
     3
  0
DIMSTYLE
  2
STANDARD
 70
     0
  3

  4

  5

  6

  7

 40
30.0
 41
1.0
 42
5.0
 43
7.5
 44
1.0
 45
0.0
 46
0.0
 47
0.0
 48
0.0
140
3.5
141
2.5
142
0.0
143
25.399999999999999
144
1.0
145
0.0
146
1.0
147
1.0
 71
     0
 72
     0
 73
     0
 74
     0
 75
     0
 76
     0
 77
     1
 78
     8
170
     0
171
     2
172
     1
173
     0
174
     1
175
     0
176
     0
177
     0
178
     0
  0
DIMSTYLE
  2
寸法線30
 70
     0
  3

  4

  5

  6

  7

 40
30.0
 41
2.0
 42
5.0
 43
7.5
 44
1.0
 45
0.0
 46
0.0
 47
0.0
 48
0.0
140
3.5
141
1.0
142
0.0
143
0.03937007874016
144
1.0
145
0.0
146
1.0
147
1.0
 71
     0
 72
     0
 73
     0
 74
     0
 75
     0
 76
     0
 77
     1
 78
     8
170
     0
171
     3
172
     1
173
     0
174
     1
175
     0
176
   256
177
   256
178
   256
  0
ENDTAB
  0
ENDSEC
  0
SECTION
  2
BLOCKS
  0
BLOCK
  8
0
  2
$MODEL_SPACE
 70
     0
 10
0.0
 20
0.0
 30
0.0
  3
$MODEL_SPACE
  1

  0
ENDBLK
  5
B759
  8
0
  0
BLOCK
 67
     1
  8
0
  2
$PAPER_SPACE
 70
     0
 10
0.0
 20
0.0
 30
0.0
  3
$PAPER_SPACE
  1

  0
ENDBLK
  5
B755
 67
     1
  8
0
  0
BLOCK
  8
0
  2
_ORIGIN
 70
     0
 10
0.0
 20
0.0
 30
0.0
  3
_ORIGIN
  1

  0
CIRCLE
  5
A7
  8
0
  6
BYBLOCK
 62
     0
 10
0.0
 20
0.0
 30
0.0
 40
0.5
  0
LINE
  5
A8
  8
0
  6
BYBLOCK
 62
     0
 10
0.0
 20
0.0
 30
0.0
 11
-1.0
 21
0.0
 31
0.0
  0
ENDBLK
  5
AA
  8
0
  0
BLOCK
  8
0
  2
_OPEN30
 70
     0
 10
0.0
 20
0.0
 30
0.0
  3
_OPEN30
  1

  0
LINE
  5
AC
  8
0
  6
BYBLOCK
 62
     0
 10
-1.0
 20
0.26794919
 30
0.0
 11
0.0
 21
0.0
 31
0.0
  0
LINE
  5
AD
  8
0
  6
BYBLOCK
 62
     0
 10
0.0
 20
0.0
 30
0.0
 11
-1.0
 21
-0.26794919
 31
0.0
  0
LINE
  5
AE
  8
0
  6
BYBLOCK
 62
     0
 10
0.0
 20
0.0
 30
0.0
 11
-1.0
 21
0.0
 31
0.0
  0
ENDBLK
  5
B0
  8
0
  0
BLOCK
  8
0
  2
_NONE
 70
     0
 10
0.0
 20
0.0
 30
0.0
  3
_NONE
  1

  0
ENDBLK
  5
A4DE
  8
0
  0
BLOCK
  8
0
  2
*D5
 70
     1
 10
0.0
 20
0.0
 30
0.0
  3
*D5
  1

  0
LINE
  5
B56D
  8
0
 10
4273.0
 20
3500.0000000000359
 30
0.0
 11
4293.0
 21
3500.0000000000359
 31
0.0
  0
LINE
  5
B56E
  8
0
 10
4573.0
 20
3300.0000000000359
 30
0.0
 11
4293.0
 21
3300.0000000000359
 31
0.0
  0
LINE
  5
B56F
  8
0
 10
4323.0
 20
3470.0000000000368
 30
0.0
 11
4323.0
 21
3330.0000000000368
 31
0.0
  0
INSERT
  5
B570
  8
0
  2
*U6
 10
0.0
 20
0.0
 30
0.0
  0
INSERT
  5
B571
  8
0
  2
_ORIGIN
 10
4323.0
 20
3500.0000000000359
 30
0.0
 41
30.0
 42
30.0
 43
30.0
 50
90.0
  0
INSERT
  5
B572
  8
0
  2
_ORIGIN
 10
4323.0
 20
3300.0000000000359
 30
0.0
 41
30.0
 42
30.0
 43
30.0
 50
270.0
  0
POINT
  5
B573
  8
DEFPOINTS
 62
     0
 10
4423.0
 20
3500.0000000000359
 30
0.0
  0
POINT
  5
B574
  8
DEFPOINTS
 62
     0
 10
4723.0
 20
3300.0000000000359
 30
0.0
  0
POINT
  5
B575
  8
DEFPOINTS
 62
     0
 10
4323.0
 20
3300.0000000000359
 30
0.0
  0
ENDBLK
  5
B4C1
  8
0
  0
BLOCK
  8
0
  2
*U6
 70
     1
 10
0.0
 20
0.0
 30
0.0
  3
*U6
  1

  0
TEXT
  5
B6B9
  8
0
 10
4293.0
 20
3247.5000000000359
 30
0.0
 40
105.0
  1
200
 50
90.0
 41
0.8
  7
文字
  0
ENDBLK
  5
B6BB
  8
0
  0
BLOCK
  8
0
  2
*D7
 70
     1
 10
0.0
 20
0.0
 30
0.0
  3
*D7
  1

  0
LINE
  5
B576
  8
0
 10
4750.0
 20
4000.0000000000209
 30
0.0
 11
4750.0
 21
4530.0000000000209
 31
0.0
  0
LINE
  5
B577
  8
0
 10
9250.0
 20
4000.0000000000209
 30
0.0
 11
9250.0
 21
4530.0000000000209
 31
0.0
  0
LINE
  5
B578
  8
0
 10
4780.0
 20
4500.0000000000209
 30
0.0
 11
9220.0
 21
4500.0000000000209
 31
0.0
  0
INSERT
  5
B579
  8
0
  2
_ORIGIN
 10
4750.0
 20
4500.0000000000209
 30
0.0
 41
30.0
 42
30.0
 43
30.0
 50
180.0
  0
INSERT
  5
B57A
  8
0
  2
_ORIGIN
 10
9250.0
 20
4500.0000000000209
 30
0.0
 41
30.0
 42
30.0
 43
30.0
  0
INSERT
  5
B57B
  8
0
  2
*U8
 10
0.0
 20
0.0
 30
0.0
  0
POINT
  5
B57C
  8
DEFPOINTS
 62
     0
 10
4750.0
 20
3850.0000000000209
 30
0.0
  0
POINT
  5
B57D
  8
DEFPOINTS
 62
     0
 10
9250.0
 20
3850.0000000000209
 30
0.0
  0
POINT
  5
B57E
  8
DEFPOINTS
 62
     0
 10
9250.0
 20
4500.0000000000209
 30
0.0
  0
ENDBLK
  5
B4CD
  8
0
  0
BLOCK
  8
0
  2
*U8
 70
     1
 10
0.0
 20
0.0
 30
0.0
  3
*U8
  1

  0
TEXT
  5
B6BD
  8
0
 10
6952.0
 20
4530.0000000000209
 30
0.0
 40
105.0
  1
W
 41
0.8
  7
文字
  0
ENDBLK
  5
B6BF
  8
0
  0
BLOCK
  8
0
  2
*D9
 70
     1
 10
0.0
 20
0.0
 30
0.0
  3
*D9
  1

  0
LINE
  5
B57F
  8
0
 10
6500.0
 20
8500.0
 30
0.0
 11
5720.0000000000009
 21
8500.0
 31
0.0
  0
LINE
  5
B580
  8
0
 10
5700.0
 20
6000.0
 30
0.0
 11
5720.0
 21
6000.0
 31
0.0
  0
LINE
  5
B581
  8
0
 10
5750.0
 20
8470.0
 30
0.0
 11
5750.0
 21
6030.0
 31
0.0
  0
INSERT
  5
B582
  8
0
  2
_ORIGIN
 10
5750.0
 20
8500.0
 30
0.0
 41
30.0
 42
30.0
 43
30.0
 50
90.0
  0
INSERT
  5
B583
  8
0
  2
_ORIGIN
 10
5750.0
 20
6000.0
 30
0.0
 41
30.0
 42
30.0
 43
30.0
 50
270.0
  0
INSERT
  5
B584
  8
0
  2
*U10
 10
0.0
 20
0.0
 30
0.0
  0
POINT
  5
B585
  8
DEFPOINTS
 62
     0
 10
6650.0
 20
8500.0
 30
0.0
  0
POINT
  5
B586
  8
DEFPOINTS
 62
     0
 10
5850.0
 20
6000.0
 30
0.0
  0
POINT
  5
B587
  8
DEFPOINTS
 62
     0
 10
5750.0
 20
6000.0
 30
0.0
  0
ENDBLK
  5
B4D9
  8
0
  0
BLOCK
  8
0
  2
*U10
 70
     1
 10
0.0
 20
0.0
 30
0.0
  3
*U10
  1

  0
TEXT
  5
B6C1
  8
0
 10
5719.9999999999973
 20
7206.0000000000027
 30
0.0
 40
105.0
  1
H
 50
90.0
 41
0.8
  7
文字
  0
ENDBLK
  5
B6C3
  8
0
  0
BLOCK
  8
0
  2
*D11
 70
     1
 10
0.0
 20
0.0
 30
0.0
  3
*D11
  1

  0
LINE
  5
B588
  8
0
 10
6500.0
 20
8500.0
 30
0.0
 11
5720.0
 21
8500.0
 31
0.0
  0
LINE
  5
B589
  8
0
 10
6500.0
 20
8800.0
 30
0.0
 11
5720.0
 21
8800.0
 31
0.0
  0
LINE
  5
B58A
  8
0
 10
5750.0
 20
8470.0
 30
0.0
 11
5750.0
 21
8440.0
 31
0.0
  0
LINE
  5
B58B
  8
0
 10
5750.0
 20
8830.0
 30
0.0
 11
5750.0
 21
8860.0
 31
0.0
  0
LINE
  5
B58C
  8
0
 10
5750.0
 20
8500.0
 30
0.0
 11
5750.0
 21
8800.0
 31
0.0
  0
INSERT
  5
B58D
  8
0
  2
_ORIGIN
 10
5750.0
 20
8500.0
 30
0.0
 41
30.0
 42
30.0
 43
30.0
 50
90.0
  0
INSERT
  5
B58E
  8
0
  2
_ORIGIN
 10
5750.0
 20
8800.0
 30
0.0
 41
30.0
 42
30.0
 43
30.0
 50
270.0
  0
INSERT
  5
B58F
  8
0
  2
*U12
 10
0.0
 20
0.0
 30
0.0
  0
POINT
  5
B590
  8
DEFPOINTS
 62
     0
 10
6650.0
 20
8500.0
 30
0.0
  0
POINT
  5
B591
  8
DEFPOINTS
 62
     0
 10
6650.0
 20
8800.0
 30
0.0
  0
POINT
  5
B592
  8
DEFPOINTS
 62
     0
 10
5750.0
 20
8800.0
 30
0.0
  0
ENDBLK
  5
B4E5
  8
0
  0
BLOCK
  8
0
  2
*U12
 70
     1
 10
0.0
 20
0.0
 30
0.0
  3
*U12
  1

  0
TEXT
  5
B6C5
  8
0
 10
5719.9999999999973
 20
8434.4000000000033
 30
0.0
 40
105.0
  1
300以上
 50
90.0
 41
0.8
  7
文字
  0
ENDBLK
  5
B6C7
  8
0
  0
BLOCK
  8
0
  2
*D13
 70
     1
 10
0.0
 20
0.0
 30
0.0
  3
*D13
  1

  0
LINE
  5
B593
  8
0
 10
7400.0
 20
6020.0
 30
0.0
 11
8029.9999999999973
 21
6020.0
 31
0.0
  0
LINE
  5
B594
  8
0
 10
7400.0
 20
8585.0000000000055
 30
0.0
 11
8030.0
 21
8585.0000000000055
 31
0.0
  0
LINE
  5
B595
  8
0
 10
7999.9999999999973
 20
6050.0
 30
0.0
 11
8000.0
 21
8555.0000000000055
 31
0.0
  0
INSERT
  5
B596
  8
0
  2
_ORIGIN
 10
7999.9999999999973
 20
6020.0
 30
0.0
 41
30.0
 42
30.0
 43
30.0
 50
270.0
  0
INSERT
  5
B597
  8
0
  2
_ORIGIN
 10
8000.0
 20
8585.0000000000055
 30
0.0
 41
30.0
 42
30.0
 43
30.0
 50
90.0
  0
INSERT
  5
B598
  8
0
  2
*U14
 10
0.0
 20
0.0
 30
0.0
  0
POINT
  5
B599
  8
DEFPOINTS
 62
     0
 10
7250.0
 20
6020.0
 30
0.0
  0
POINT
  5
B59A
  8
DEFPOINTS
 62
     0
 10
7250.0
 20
8585.0000000000055
 30
0.0
  0
POINT
  5
B59B
  8
DEFPOINTS
 62
     0
 10
8000.0
 20
8585.0000000000055
 30
0.0
  0
ENDBLK
  5
B4F3
  8
0
  0
BLOCK
  8
0
  2
*U14
 70
     1
 10
0.0
 20
0.0
 30
0.0
  3
*U14
  1

  0
TEXT
  5
B6C9
  8
0
 10
7969.9999999999973
 20
7216.5000000000027
 30
0.0
 40
105.0
  1
DH
 50
90.0
 41
0.8
  7
文字
  0
ENDBLK
  5
B6CB
  8
0
  0
BLOCK
  8
0
  2
*D15
 70
     1
 10
0.0
 20
0.0
 30
0.0
  3
*D15
  1

  0
LINE
  5
B59C
  8
0
 10
7000.0
 20
9375.0
 30
0.0
 11
7000.0
 21
9405.0
 31
0.0
  0
LINE
  5
B59D
  8
0
 10
10015.0
 20
9150.0
 30
0.0
 11
10015.0
 21
9405.0
 31
0.0
  0
LINE
  5
B59E
  8
0
 10
7030.0
 20
9375.0
 30
0.0
 11
9985.0
 21
9375.0
 31
0.0
  0
INSERT
  5
B59F
  8
0
  2
_ORIGIN
 10
7000.0
 20
9375.0
 30
0.0
 41
30.0
 42
30.0
 43
30.0
 50
180.0
  0
INSERT
  5
B5A0
  8
0
  2
_ORIGIN
 10
10015.0
 20
9375.0
 30
0.0
 41
30.0
 42
30.0
 43
30.0
  0
INSERT
  5
B5A1
  8
0
  2
*U16
 10
0.0
 20
0.0
 30
0.0
  0
POINT
  5
B5A2
  8
DEFPOINTS
 62
     0
 10
7000.0
 20
9225.0
 30
0.0
  0
POINT
  5
B5A3
  8
DEFPOINTS
 62
     0
 10
10015.0
 20
9000.0
 30
0.0
  0
POINT
  5
B5A4
  8
DEFPOINTS
 62
     0
 10
10015.0
 20
9375.0
 30
0.0
  0
ENDBLK
  5
B4FF
  8
0
  0
BLOCK
  8
0
  2
*U16
 70
     1
 10
0.0
 20
0.0
 30
0.0
  3
*U16
  1

  0
TEXT
  5
B6CD
  8
0
 10
8247.5
 20
9405.0
 30
0.0
 40
105.0
  1
DH+450
 41
0.8
  7
文字
  0
ENDBLK
  5
B6CF
  8
0
  0
BLOCK
  8
0
  2
*D17
 70
     1
 10
0.0
 20
0.0
 30
0.0
  3
*D17
  1

  0
LINE
  5
B5A5
  8
0
 10
4725.0
 20
3100.0000000000209
 30
0.0
 11
4725.0
 21
2720.0000000000218
 31
0.0
  0
LINE
  5
B5A6
  8
0
 10
9275.0
 20
3100.0000000000209
 30
0.0
 11
9275.0
 21
2720.0000000000218
 31
0.0
  0
LINE
  5
B5A7
  8
0
 10
4755.0
 20
2750.0000000000209
 30
0.0
 11
9245.0
 21
2750.0000000000209
 31
0.0
  0
INSERT
  5
B5A8
  8
0
  2
_ORIGIN
 10
4725.0
 20
2750.0000000000209
 30
0.0
 41
30.0
 42
30.0
 43
30.0
 50
180.0
  0
INSERT
  5
B5A9
  8
0
  2
_ORIGIN
 10
9275.0
 20
2750.0000000000209
 30
0.0
 41
30.0
 42
30.0
 43
30.0
  0
INSERT
  5
B5AA
  8
0
  2
*U18
 10
0.0
 20
0.0
 30
0.0
  0
POINT
  5
B5AB
  8
DEFPOINTS
 62
     0
 10
4725.0
 20
3250.0000000000209
 30
0.0
  0
POINT
  5
B5AC
  8
DEFPOINTS
 62
     0
 10
9275.0
 20
3250.0000000000209
 30
0.0
  0
POINT
  5
B5AD
  8
DEFPOINTS
 62
     0
 10
9275.0
 20
2750.0000000000209
 30
0.0
  0
ENDBLK
  5
B50B
  8
0
  0
BLOCK
  8
0
  2
*U18
 70
     1
 10
0.0
 20
0.0
 30
0.0
  3
*U18
  1

  0
TEXT
  5
B6D1
  8
0
 10
6906.0
 20
2780.0000000000218
 30
0.0
 40
105.0
  1
DW
 41
0.8
  7
文字
  0
ENDBLK
  5
B6D3
  8
0
  0
BLOCK
  8
0
  2
*D19
 70
     1
 10
0.0
 20
0.0
 30
0.0
  3
*D19
  1

  0
LINE
  5
B5AE
  8
0
 10
7000.0
 20
9600.0
 30
0.0
 11
7000.0
 21
9630.0
 31
0.0
  0
LINE
  5
B5AF
  8
0
 10
11055.0
 20
9150.0
 30
0.0
 11
11055.0
 21
9630.0
 31
0.0
  0
LINE
  5
B5B0
  8
0
 10
7030.0
 20
9600.0
 30
0.0
 11
11025.0
 21
9600.0
 31
0.0
  0
INSERT
  5
B5B1
  8
0
  2
_ORIGIN
 10
7000.0
 20
9600.0
 30
0.0
 41
30.0
 42
30.0
 43
30.0
 50
180.0
  0
INSERT
  5
B5B2
  8
0
  2
_ORIGIN
 10
11055.0
 20
9600.0
 30
0.0
 41
30.0
 42
30.0
 43
30.0
  0
INSERT
  5
B5B3
  8
0
  2
*U20
 10
0.0
 20
0.0
 30
0.0
  0
POINT
  5
B5B4
  8
DEFPOINTS
 62
     0
 10
7000.0
 20
9450.0
 30
0.0
  0
POINT
  5
B5B5
  8
DEFPOINTS
 62
     0
 10
11055.0
 20
9000.0
 30
0.0
  0
POINT
  5
B5B6
  8
DEFPOINTS
 62
     0
 10
11055.0
 20
9600.0
 30
0.0
  0
ENDBLK
  5
B517
  8
0
  0
BLOCK
  8
0
  2
*U20
 70
     1
 10
0.0
 20
0.0
 30
0.0
  3
*U20
  1

  0
TEXT
  5
B6D5
  8
0
 10
8987.5
 20
9630.0
 30
0.0
 40
105.0
  1
L
 41
0.8
  7
文字
  0
ENDBLK
  5
B6D7
  8
0
  0
BLOCK
  8
0
  2
*D21
 70
     1
 10
0.0
 20
0.0
 30
0.0
  3
*D21
  1

  0
LINE
  5
B5B7
  8
0
 10
4750.0
 20
4000.0000000000209
 30
0.0
 11
4750.0
 21
4305.0000000000209
 31
0.0
  0
LINE
  5
B5B8
  8
0
 10
4540.0
 20
4000.0000000000209
 30
0.0
 11
4540.0
 21
4305.0000000000209
 31
0.0
  0
LINE
  5
B5B9
  8
0
 10
4780.0
 20
4275.0000000000209
 30
0.0
 11
4810.0
 21
4275.0000000000209
 31
0.0
  0
LINE
  5
B5BA
  8
0
 10
4510.0
 20
4275.0000000000209
 30
0.0
 11
4480.0
 21
4275.0000000000209
 31
0.0
  0
LINE
  5
B5BB
  8
0
 10
4750.0
 20
4275.0000000000209
 30
0.0
 11
4540.0
 21
4275.0000000000209
 31
0.0
  0
INSERT
  5
B5BC
  8
0
  2
_ORIGIN
 10
4750.0
 20
4275.0000000000209
 30
0.0
 41
30.0
 42
30.0
 43
30.0
 50
180.0
  0
INSERT
  5
B5BD
  8
0
  2
_ORIGIN
 10
4540.0
 20
4275.0000000000209
 30
0.0
 41
30.0
 42
30.0
 43
30.0
  0
INSERT
  5
B5BE
  8
0
  2
*U22
 10
0.0
 20
0.0
 30
0.0
  0
POINT
  5
B5BF
  8
DEFPOINTS
 62
     0
 10
4750.0
 20
3850.0000000000209
 30
0.0
  0
POINT
  5
B5C0
  8
DEFPOINTS
 62
     0
 10
4540.0
 20
3850.0000000000209
 30
0.0
  0
POINT
  5
B5C1
  8
DEFPOINTS
 62
     0
 10
4540.0
 20
4275.0000000000209
 30
0.0
  0
ENDBLK
  5
B523
  8
0
  0
BLOCK
  8
0
  2
*U22
 70
     1
 10
0.0
 20
0.0
 30
0.0
  3
*U22
  1

  0
TEXT
  5
B6D9
  8
0
 10
4429.3999999999996
 20
4305.0000000000209
 30
0.0
 40
105.0
  1
210以上
 41
0.8
  7
文字
  0
ENDBLK
  5
B6DB
  8
0
  0
BLOCK
  8
0
  2
*D23
 70
     1
 10
0.0
 20
0.0
 30
0.0
  3
*D23
  1

  0
LINE
  5
B5C2
  8
0
 10
9250.0
 20
4000.0000000000209
 30
0.0
 11
9250.0
 21
4305.0000000000209
 31
0.0
  0
LINE
  5
B5C3
  8
0
 10
9460.0
 20
4000.0000000000209
 30
0.0
 11
9460.0
 21
4305.0000000000209
 31
0.0
  0
LINE
  5
B5C4
  8
0
 10
9220.0
 20
4275.0000000000209
 30
0.0
 11
9190.0
 21
4275.0000000000209
 31
0.0
  0
LINE
  5
B5C5
  8
0
 10
9490.0
 20
4275.0000000000209
 30
0.0
 11
9520.0
 21
4275.0000000000209
 31
0.0
  0
LINE
  5
B5C6
  8
0
 10
9250.0
 20
4275.0000000000209
 30
0.0
 11
9460.0
 21
4275.0000000000209
 31
0.0
  0
INSERT
  5
B5C7
  8
0
  2
_ORIGIN
 10
9250.0
 20
4275.0000000000209
 30
0.0
 41
30.0
 42
30.0
 43
30.0
  0
INSERT
  5
B5C8
  8
0
  2
_ORIGIN
 10
9460.0
 20
4275.0000000000209
 30
0.0
 41
30.0
 42
30.0
 43
30.0
 50
180.0
  0
INSERT
  5
B5C9
  8
0
  2
*U24
 10
0.0
 20
0.0
 30
0.0
  0
POINT
  5
B5CA
  8
DEFPOINTS
 62
     0
 10
9250.0
 20
3850.0000000000209
 30
0.0
  0
POINT
  5
B5CB
  8
DEFPOINTS
 62
     0
 10
9460.0
 20
3850.0000000000209
 30
0.0
  0
POINT
  5
B5CC
  8
DEFPOINTS
 62
     0
 10
9460.0
 20
4275.0000000000209
 30
0.0
  0
ENDBLK
  5
B531
  8
0
  0
BLOCK
  8
0
  2
*U24
 70
     1
 10
0.0
 20
0.0
 30
0.0
  3
*U24
  1

  0
TEXT
  5
B6DD
  8
0
 10
9139.3999999999996
 20
4305.0000000000209
 30
0.0
 40
105.0
  1
210以上
 41
0.8
  7
文字
  0
ENDBLK
  5
B6DF
  8
0
  0
BLOCK
  8
0
  2
*D25
 70
     1
 10
0.0
 20
0.0
 30
0.0
  3
*D25
  1

  0
LINE
  5
B696
  8
0
 10
7000.0
 20
10050.0
 30
0.0
 11
7000.0
 21
10080.0
 31
0.0
  0
LINE
  5
B697
  8
0
 10
7030.0
 20
10050.0
 30
0.0
 11
11315.0
 21
10050.0
 31
0.0
  0
INSERT
  5
B698
  8
0
  2
_ORIGIN
 10
7000.0
 20
10050.0
 30
0.0
 41
30.0
 42
30.0
 43
30.0
 50
180.0
  0
TEXT
  5
B6EC
  8
0
 10
9172.5000000000018
 20
9996.0
 30
0.0
 40
105.0
  1
奥行寸法D
  7
文字
  0
POINT
  5
B69A
  8
DEFPOINTS
 62
     0
 10
7000.0
 20
9900.0
 30
0.0
  0
POINT
  5
B69B
  8
DEFPOINTS
 62
     0
 10
11315.0
 20
9900.0
 30
0.0
  0
POINT
  5
B69C
  8
DEFPOINTS
 62
     0
 10
11315.0
 20
10050.0
 30
0.0
  0
ENDBLK
  5
B53F
  8
0
  0
BLOCK
  8
0
  2
*D26
 70
     1
 10
0.0
 20
0.0
 30
0.0
  3
*D26
  1

  0
LINE
  5
B5D4
  8
0
 10
6500.2137271591928
 20
8500.0
 30
0.0
 11
5945.2137271591928
 21
8500.0
 31
0.0
  0
LINE
  5
B5D5
  8
0
 10
6500.2137271591928
 20
8400.0
 30
0.0
 11
5945.2137271591928
 21
8400.0
 31
0.0
  0
LINE
  5
B5D6
  8
0
 10
5975.2137271591928
 20
8530.0
 30
0.0
 11
5975.2137271591928
 21
8560.0
 31
0.0
  0
LINE
  5
B5D7
  8
0
 10
5975.2137271591928
 20
8370.0
 30
0.0
 11
5975.2137271591928
 21
8340.0
 31
0.0
  0
LINE
  5
B5D8
  8
0
 10
5975.2137271591928
 20
8500.0
 30
0.0
 11
5975.2137271591928
 21
8400.0
 31
0.0
  0
INSERT
  5
B5D9
  8
0
  2
_ORIGIN
 10
5975.2137271591928
 20
8500.0
 30
0.0
 41
30.0
 42
30.0
 43
30.0
 50
270.0
  0
INSERT
  5
B5DA
  8
0
  2
_ORIGIN
 10
5975.2137271591928
 20
8400.0
 30
0.0
 41
30.0
 42
30.0
 43
30.0
 50
90.0
  0
INSERT
  5
B5DB
  8
0
  2
*U27
 10
0.0
 20
0.0
 30
0.0
  0
POINT
  5
B5DC
  8
DEFPOINTS
 62
     0
 10
6650.2137271591946
 20
8500.0
 30
0.0
  0
POINT
  5
B5DD
  8
DEFPOINTS
 62
     0
 10
6650.2137271591946
 20
8400.0
 30
0.0
  0
POINT
  5
B5DE
  8
DEFPOINTS
 62
     0
 10
5975.2137271591928
 20
8400.0
 30
0.0
  0
ENDBLK
  5
B549
  8
0
  0
BLOCK
  8
0
  2
*U27
 70
     1
 10
0.0
 20
0.0
 30
0.0
  3
*U27
  1

  0
TEXT
  5
B6E1
  8
0
 10
5945.2137271591919
 20
8414.0000000000018
 30
0.0
 40
105.0
  1
Y
 50
90.0
 41
0.8
  7
文字
  0
ENDBLK
  5
B6E3
  8
0
  0
BLOCK
  8
0
  2
*D28
 70
     1
 10
0.0
 20
0.0
 30
0.0
  3
*D28
  1

  0
LINE
  5
B5DF
  8
0
 10
6500.2137271591928
 20
8400.0
 30
0.0
 11
5945.2137271591937
 21
8400.0
 31
0.0
  0
LINE
  5
B5E0
  8
0
 10
5975.2137271591928
 20
6000.0
 30
0.0
 11
5945.2137271591928
 21
6000.0
 31
0.0
  0
LINE
  5
B5E1
  8
0
 10
5975.2137271591946
 20
8370.0
 30
0.0
 11
5975.2137271591928
 21
6030.0
 31
0.0
  0
INSERT
  5
B5E2
  8
0
  2
_ORIGIN
 10
5975.2137271591946
 20
8400.0
 30
0.0
 41
30.0
 42
30.0
 43
30.0
 50
90.0
  0
INSERT
  5
B5E3
  8
0
  2
_ORIGIN
 10
5975.2137271591928
 20
6000.0
 30
0.0
 41
30.0
 42
30.0
 43
30.0
 50
270.0
  0
INSERT
  5
B5E4
  8
0
  2
*U29
 10
0.0
 20
0.0
 30
0.0
  0
POINT
  5
B5E5
  8
DEFPOINTS
 62
     0
 10
6650.2137271591946
 20
8400.0
 30
0.0
  0
POINT
  5
B5E6
  8
DEFPOINTS
 62
     0
 10
6125.213727159191
 20
6000.0
 30
0.0
  0
POINT
  5
B5E7
  8
DEFPOINTS
 62
     0
 10
5975.2137271591928
 20
6000.0
 30
0.0
  0
ENDBLK
  5
B557
  8
0
  0
BLOCK
  8
0
  2
*U29
 70
     1
 10
0.0
 20
0.0
 30
0.0
  3
*U29
  1

  0
TEXT
  5
B6E5
  8
0
 10
5945.2137271591919
 20
6766.0000000000018
 30
0.0
 40
105.0
  1
有効開口高=H-Y
 50
90.0
 41
0.8
  7
文字
  0
ENDBLK
  5
B6E7
  8
0
  0
BLOCK
  8
0
  2
*D30
 70
     1
 10
0.0
 20
0.0
 30
0.0
  3
*D30
  1

  0
LINE
  5
B5E8
  8
0
 10
7000.0
 20
9825.0
 30
0.0
 11
7000.0
 21
9855.0
 31
0.0
  0
LINE
  5
B5E9
  8
0
 10
11205.0
 20
9150.0
 30
0.0
 11
11205.0
 21
9855.0
 31
0.0
  0
LINE
  5
B5EA
  8
0
 10
7030.0
 20
9825.0
 30
0.0
 11
11175.0
 21
9825.0
 31
0.0
  0
INSERT
  5
B5EB
  8
0
  2
_ORIGIN
 10
7000.0
 20
9825.0
 30
0.0
 41
30.0
 42
30.0
 43
30.0
 50
180.0
  0
INSERT
  5
B5EC
  8
0
  2
_ORIGIN
 10
11205.0
 20
9825.0
 30
0.0
 41
30.0
 42
30.0
 43
30.0
  0
INSERT
  5
B5ED
  8
0
  2
*U31
 10
0.0
 20
0.0
 30
0.0
  0
POINT
  5
B5EE
  8
DEFPOINTS
 62
     0
 10
7000.0
 20
9675.0
 30
0.0
  0
POINT
  5
B5EF
  8
DEFPOINTS
 62
     0
 10
11205.0
 20
9000.0
 30
0.0
  0
POINT
  5
B5F0
  8
DEFPOINTS
 62
     0
 10
11205.0
 20
9825.0
 30
0.0
  0
ENDBLK
  5
B563
  8
0
  0
BLOCK
  8
0
  2
*U31
 70
     1
 10
0.0
 20
0.0
 30
0.0
  3
*U31
  1

  0
TEXT
  5
B6E9
  8
0
 10
9020.5
 20
9855.0
 30
0.0
 40
105.0
  1
DL
 41
0.8
  7
文字
  0
ENDBLK
  5
B6EB
  8
0
  0
BLOCK
  8
0
  2
*U32
 70
     1
 10
0.0
 20
0.0
 30
0.0
  3
*U32
  1

  0
INSERT
  5
B673
  8
0
  2
_OPEN30
 10
8648.3903109415696
 20
8544.0000000000055
 30
0.0
 41
60.0
 42
60.0
 43
60.0
 50
105.0000000000006
  0
POLYLINE
  5
B674
  8
0
 66
     1
 10
0.0
 20
0.0
 30
0.0
  0
VERTEX
  5
B813
  8
0
 10
8663.9194536477207
 20
8486.0444504226616
 30
0.0
  0
VERTEX
  5
B814
  8
0
 10
8738.9769767274556
 20
8205.9259607988333
 30
0.0
  0
VERTEX
  5
B815
  8
0
 10
9314.3769767274644
 20
8205.9259607988333
 30
0.0
  0
SEQEND
  5
B816
  8
0
  0
ENDBLK
  5
B67A
  8
0
  0
BLOCK
  8
0
  2
*U33
 70
     1
 10
0.0
 20
0.0
 30
0.0
  3
*U33
  1

  0
INSERT
  5
B67C
  8
0
  2
_OPEN30
 10
7366.1048960297639
 20
8706.0121391380435
 30
0.0
 41
60.0
 42
60.0
 43
60.0
 50
254.99999999999929
  0
POLYLINE
  5
B67D
  8
0
 66
     1
 10
0.0
 20
0.0
 30
0.0
  0
VERTEX
  5
B817
  8
0
 10
7381.6340387359141
 20
8763.9676887153892
 30
0.0
  0
VERTEX
  5
B818
  8
0
 10
7456.691561815649
 20
9044.0861783392193
 30
0.0
  0
VERTEX
  5
B819
  8
0
 10
8155.2915618156421
 20
9044.0861783392193
 30
0.0
  0
SEQEND
  5
B81A
  8
0
  0
ENDBLK
  5
B683
  8
0
  0
BLOCK
  8
0
  2
*U34
 70
     1
 10
0.0
 20
0.0
 30
0.0
  3
*U34
  1

  0
INSERT
  5
B685
  8
0
  2
_OPEN30
 10
11155.000000000009
 20
8584.9999999999764
 30
0.0
 41
60.0
 42
60.0
 43
60.0
 50
105.00000000000099
  0
POLYLINE
  5
B686
  8
0
 66
     1
 10
0.0
 20
0.0
 30
0.0
  0
VERTEX
  5
B81B
  8
0
 10
11170.52914270616
 20
8527.0444504226343
 30
0.0
  0
VERTEX
  5
B81C
  8
0
 10
11258.52761804102
 20
8198.6296694843531
 30
0.0
  0
VERTEX
  5
B81D
  8
0
 10
11839.527618041029
 20
8198.6296694843531
 30
0.0
  0
SEQEND
  5
B81E
  8
0
  0
ENDBLK
  5
B68C
  8
0
  0
BLOCK
  8
0
  2
*U35
 70
     1
 10
0.0
 20
0.0
 30
0.0
  3
*U35
  1

  0
INSERT
  5
B68E
  8
0
  2
_OPEN30
 10
8250.0
 20
3300.0000000000441
 30
0.0
 41
60.0
 42
60.0
 43
60.0
 50
104.9999999999995
  0
POLYLINE
  5
B68F
  8
0
 66
     1
 10
0.0
 20
0.0
 30
0.0
  0
VERTEX
  5
B81F
  8
0
 10
8265.5291427061493
 20
3242.0444504226989
 30
0.0
  0
VERTEX
  5
B820
  8
0
 10
8314.7047612756287
 20
3058.5185434277751
 30
0.0
  0
VERTEX
  5
B821
  8
0
 10
8598.9047612756258
 20
3058.5185434277751
 30
0.0
  0
SEQEND
  5
B822
  8
0
  0
ENDBLK
  5
B695
  8
0
  0
BLOCK
  8
0
  2
*U36
 70
     1
 10
0.0
 20
0.0
 30
0.0
  3
*U36
  1

  0
INSERT
  5
B69E
  8
0
  2
_OPEN30
 10
7606.8153591070004
 20
8155.3689689836192
 30
0.0
 41
60.0
 42
60.0
 43
60.0
 50
120.00000000001511
  0
POLYLINE
  5
B69F
  8
0
 66
     1
 10
0.0
 20
0.0
 30
0.0
  0
VERTEX
  5
B823
  8
0
 10
7636.815359107014
 20
8103.407444756559
 30
0.0
  0
VERTEX
  5
B824
  8
0
 10
7697.4020248928846
 20
7998.4682613542991
 30
0.0
  0
VERTEX
  5
B825
  8
0
 10
8585.2020248928893
 20
7998.4682613542991
 30
0.0
  0
SEQEND
  5
B826
  8
0
  0
ENDBLK
  5
B6A5
  8
0
  0
BLOCK
  8
0
  2
*U37
 70
     1
 10
0.0
 20
0.0
 30
0.0
  3
*U37
  1

  0
INSERT
  5
B6A7
  8
0
  2
_OPEN30
 10
11365.0
 20
8669.9999999999782
 30
0.0
 41
60.0
 42
60.0
 43
60.0
 50
228.1850282262989
  0
POLYLINE
  5
B6A8
  8
0
 66
     1
 10
0.0
 20
0.0
 30
0.0
  0
VERTEX
  5
B827
  8
0
 10
11405.00363472396
 20
8714.7181082881561
 30
0.0
  0
VERTEX
  5
B828
  8
0
 10
11789.26406871194
 20
9144.2640687118928
 30
0.0
  0
VERTEX
  5
B829
  8
0
 10
12914.26406871194
 20
9144.2640687118928
 30
0.0
  0
SEQEND
  5
B82A
  8
0
  0
ENDBLK
  5
B6AE
  8
0
  0
BLOCK
  8
0
  2
*U38
 70
     1
 10
0.0
 20
0.0
 30
0.0
  3
*U38
  1

  0
INSERT
  5
B6B0
  8
0
  2
_OPEN30
 10
7016.0
 20
7171.0475088412213
 30
0.0
 41
60.0
 42
60.0
 43
60.0
 50
299.99999999999852
  0
POLYLINE
  5
B6B1
  8
0
 66
     1
 10
0.0
 20
0.0
 30
0.0
  0
VERTEX
  5
B82B
  8
0
 10
6986.0000000000009
 20
7223.0090330682879
 30
0.0
  0
VERTEX
  5
B82C
  8
0
 10
6885.4957445612672
 20
7397.0875098650658
 30
0.0
  0
VERTEX
  5
B82D
  8
0
 10
6500.4957445612672
 20
7397.0875098650658
 30
0.0
  0
SEQEND
  5
B82E
  8
0
  0
ENDBLK
  5
B6B7
  8
0
  0
ENDSEC
  0
SECTION
  2
ENTITIES
  0
LINE
  5
6011
  8
0
 10
16380.0
 20
0.0
 30
0.0
 11
0.0
 21
0.0
 31
0.0
  0
LINE
  5
6012
  8
0
 10
0.0
 20
11745.0
 30
0.0
 11
16380.0
 21
11745.0
 31
0.0
  0
LINE
  5
6013
  8
0
 10
0.0
 20
11745.0
 30
0.0
 11
0.0
 21
0.0
 31
0.0
  0
LINE
  5
6014
  8
0
 10
16380.0
 20
11745.0
 30
0.0
 11
16380.0
 21
0.0
 31
0.0
  0
LINE
  5
B129
  8
0
 10
10130.0
 20
400.0
 30
0.0
 11
10130.0
 21
0.0
 31
0.0
  0
TEXT
  5
B12A
  8
0
 10
10979.999999999971
 20
247.5
 30
0.0
 40
105.0
  1
オーバードア（電動トロリー式　LM1255R型）
 11
10979.999999999971
 21
300.0
 31
0.0
 73
     2
  0
TEXT
  5
B12B
  8
0
 10
10229.999999999971
 20
247.5
 30
0.0
 40
105.0
  1
製品名称  :
 11
10229.999999999971
 21
300.0
 31
0.0
 73
     2
  0
LINE
  5
B12C
  8
0
 10
10130.0
 20
200.0
 30
0.0
 11
13880.0
 21
200.0
 31
0.0
  0
LINE
  5
B12D
  8
0
 10
13880.0
 20
400.0
 30
0.0
 11
13880.0
 21
0.0
 31
0.0
  0
TEXT
  5
B12E
  8
0
 10
13998.33333333333
 20
112.5
 30
0.0
 40
175.0
  1
東洋シヤッター株式会社
 72
     1
 11
15130.0
 21
200.0
 31
0.0
 73
     2
  0
LINE
  5
B12F
  8
0
 10
10130.0
 20
400.0
 30
0.0
 11
16380.0
 21
400.0
 31
0.0
  0
TEXT
  5
B130
  8
0
 10
12979.999999999971
 20
47.5
 30
0.0
 40
105.0
  1
縮尺:1/30
 11
12979.999999999971
 21
100.0
 31
0.0
 73
     2
  0
LINE
  5
B131
  8
0
 10
4725.0
 20
3432.5
 30
0.0
 11
9275.0
 21
3432.5
 31
0.0
  0
LINE
  5
B132
  8
0
 10
9275.0
 20
3432.5
 30
0.0
 11
9275.0
 21
3484.0
 31
0.0
  0
LINE
  5
B133
  8
0
 10
9275.0
 20
3484.0
 30
0.0
 11
4725.0
 21
3484.0
 31
0.0
  0
LINE
  5
B134
  8
0
 10
4725.0
 20
3484.0
 30
0.0
 11
4725.0
 21
3432.5
 31
0.0
  0
ARC
  5
B135
  8
0
 10
9327.2999999999884
 20
3497.6999999999971
 30
0.0
 40
2.299999999999998
 50
90.0
 51
180.0
  0
LINE
  5
B136
  8
0
 10
9365.0
 20
3497.6999999999971
 30
0.0
 11
9365.0
 21
3500.0
 31
0.0
  0
LINE
  5
B137
  8
0
 10
9327.2999999999884
 20
3497.6999999999971
 30
0.0
 11
9365.0
 21
3497.6999999999971
 31
0.0
  0
LINE
  5
B138
  8
0
 10
9327.2999999999884
 20
3384.0
 30
0.0
 11
9327.2999999999884
 21
3497.6999999999971
 31
0.0
  0
LINE
  5
B139
  8
0
 10
9325.0
 20
3384.0
 30
0.0
 11
9327.2999999999884
 21
3384.0
 31
0.0
  0
LINE
  5
B13A
  8
0
 10
9325.0
 20
3497.6999999999971
 30
0.0
 11
9325.0
 21
3384.0
 31
0.0
  0
LINE
  5
B13B
  8
0
 10
9365.0
 20
3500.0
 30
0.0
 11
9327.2999999999884
 21
3500.0
 31
0.0
  0
ARC
  5
B13C
  8
0
 10
9312.5
 20
3386.4999999999409
 30
0.0
 40
5.7499999999704414
 50
180.0
 51
0.0
  0
ARC
  5
B13D
  8
0
 10
9312.5
 20
3421.5
 30
0.0
 40
5.7499999999704414
 50
0.0
 51
180.0
  0
LINE
  5
B13E
  8
0
 10
9306.7500000000273
 20
3386.4999999999409
 30
0.0
 11
9306.7500000000273
 21
3421.5
 31
0.0
  0
LINE
  5
B13F
  8
0
 10
9318.2500000000127
 20
3421.5
 30
0.0
 11
9318.2500000000127
 21
3386.4999999999409
 31
0.0
  0
ARC
  5
B140
  8
0
 10
9318.9999999999836
 20
3389.7190997647272
 30
0.0
 40
4.0
 50
329.99999999989421
 51
0.0
  0
ARC
  5
B141
  8
0
 10
9319.0
 20
3389.7190997647349
 30
0.0
 40
6.0
 50
329.99999999989421
 51
0.0
  0
ARC
  5
B142
  8
0
 10
9320.0
 20
3425.5
 30
0.0
 40
3.0
 50
0.0
 51
90.0
  0
ARC
  5
B143
  8
0
 10
9320.0
 20
3425.5
 30
0.0
 40
5.0
 50
0.0
 51
90.0
  0
LINE
  5
B144
  8
0
 10
9301.5529946162005
 20
3387.5
 30
0.0
 11
9304.4397459621541
 21
3382.5
 31
0.0
  0
LINE
  5
B145
  8
0
 10
9303.2850454237632
 20
3388.4999999999932
 30
0.0
 11
9301.5529946162005
 21
3387.5
 31
0.0
  0
LINE
  5
B146
  8
0
 10
9306.1717967697186
 20
3383.4999999999932
 30
0.0
 11
9303.2850454237632
 21
3388.4999999999932
 31
0.0
  0
LINE
  5
B147
  8
0
 10
9322.4641016151327
 20
3387.7190997647281
 30
0.0
 11
9320.0282032302348
 21
3383.5000000000141
 31
0.0
  0
LINE
  5
B148
  8
0
 10
9324.1961524226917
 20
3386.719099764734
 30
0.0
 11
9321.7602540378011
 21
3382.5
 31
0.0
  0
ARC
  5
B149
  8
0
 10
9313.0999999999913
 20
3387.5
 30
0.0
 40
8.0
 50
210.0000000001059
 51
329.99999999989421
  0
ARC
  5
B14A
  8
0
 10
9313.0999999999913
 20
3387.5
 30
0.0
 40
10.0
 50
210.0000000001059
 51
329.99999999989421
  0
LINE
  5
B14B
  8
0
 10
9323.0
 20
3425.5
 30
0.0
 11
9322.9999999999836
 21
3389.7190997647272
 31
0.0
  0
LINE
  5
B14C
  8
0
 10
9300.0
 20
3428.5
 30
0.0
 11
9320.0
 21
3428.5
 31
0.0
  0
LINE
  5
B14D
  8
0
 10
9300.0
 20
3430.5
 30
0.0
 11
9300.0
 21
3428.5
 31
0.0
  0
LINE
  5
B14E
  8
0
 10
9320.0
 20
3430.5
 30
0.0
 11
9300.0
 21
3430.5
 31
0.0
  0
LINE
  5
B14F
  8
0
 10
9325.0
 20
3389.7190997647349
 30
0.0
 11
9325.0
 21
3425.5
 31
0.0
  0
LINE
  5
B150
  8
0
 10
9265.6999999999971
 20
3382.5
 30
0.0
 11
9268.0
 21
3382.5
 31
0.0
  0
LINE
  5
B151
  8
0
 10
9202.0
 20
3382.5
 30
0.0
 11
9204.2999999999865
 21
3382.5
 31
0.0
  0
LINE
  5
B152
  8
0
 10
9178.2500000000127
 20
3397.5
 30
0.0
 11
9306.7500000000273
 21
3397.5
 31
0.0
  0
LINE
  5
B153
  8
0
 10
9178.2500000000127
 20
3410.5000000000009
 30
0.0
 11
9178.2500000000127
 21
3397.5
 31
0.0
  0
LINE
  5
B154
  8
0
 10
9306.7500000000273
 20
3410.5000000000009
 30
0.0
 11
9178.2500000000127
 21
3410.5000000000009
 31
0.0
  0
LINE
  5
B155
  8
0
 10
9265.6999999999971
 20
3430.1999999999971
 30
0.0
 11
9265.6999999999971
 21
3382.5
 31
0.0
  0
LINE
  5
B156
  8
0
 10
9204.2999999999865
 20
3430.1999999999971
 30
0.0
 11
9265.6999999999971
 21
3430.1999999999971
 31
0.0
  0
LINE
  5
B157
  8
0
 10
9204.2999999999865
 20
3382.5
 30
0.0
 11
9204.2999999999865
 21
3430.1999999999971
 31
0.0
  0
LINE
  5
B158
  8
0
 10
9202.0
 20
3432.5
 30
0.0
 11
9202.0
 21
3382.5
 31
0.0
  0
LINE
  5
B159
  8
0
 10
9268.0
 20
3432.5
 30
0.0
 11
9202.0
 21
3432.5
 31
0.0
  0
LINE
  5
B15A
  8
0
 10
9268.0
 20
3382.5
 30
0.0
 11
9268.0
 21
3432.5
 31
0.0
  0
LINE
  5
B15B
  8
0
  6
PHANTOM2
 10
9374.9999999999727
 20
3499.9999999999859
 30
0.0
 11
9374.9999999999836
 21
2235.0000000000218
 31
0.0
  0
LINE
  5
B15C
  8
0
  6
PHANTOM2
 10
9374.9999999999727
 20
1985.0000000000221
 30
0.0
 11
9299.9999999999745
 21
1985.0000000000221
 31
0.0
  0
LINE
  5
B15D
  8
0
  6
PHANTOM2
 10
9299.9999999999745
 20
1985.0000000000221
 30
0.0
 11
9299.9999999999836
 21
2185.0000000000209
 31
0.0
  0
LINE
  5
B15E
  8
0
  6
PHANTOM2
 10
9324.9999999999727
 20
1985.0000000000221
 30
0.0
 11
9324.9999999999854
 21
2185.0000000000209
 31
0.0
  0
ARC
  5
B15F
  8
0
 10
4672.6999999999971
 20
3497.6999999999971
 30
0.0
 40
2.299999999999998
 50
0.0
 51
90.0
  0
LINE
  5
B160
  8
0
 10
4635.0
 20
3497.6999999999971
 30
0.0
 11
4635.0
 21
3500.0
 31
0.0
  0
LINE
  5
B161
  8
0
 10
4672.6999999999971
 20
3497.6999999999971
 30
0.0
 11
4635.0
 21
3497.6999999999971
 31
0.0
  0
LINE
  5
B162
  8
0
 10
4672.6999999999971
 20
3384.0
 30
0.0
 11
4672.6999999999971
 21
3497.6999999999971
 31
0.0
  0
LINE
  5
B163
  8
0
 10
4675.0
 20
3384.0
 30
0.0
 11
4672.6999999999971
 21
3384.0
 31
0.0
  0
LINE
  5
B164
  8
0
 10
4675.0
 20
3497.6999999999971
 30
0.0
 11
4675.0
 21
3384.0
 31
0.0
  0
LINE
  5
B165
  8
0
 10
4635.0
 20
3500.0
 30
0.0
 11
4672.6999999999971
 21
3500.0
 31
0.0
  0
ARC
  5
B166
  8
0
 10
4687.5
 20
3386.4999999999409
 30
0.0
 40
5.7499999999704414
 50
180.0
 51
0.0
  0
ARC
  5
B167
  8
0
 10
4687.5
 20
3421.5
 30
0.0
 40
5.7499999999704414
 50
0.0
 51
180.0
  0
LINE
  5
B168
  8
0
 10
4693.2499999999691
 20
3386.4999999999409
 30
0.0
 11
4693.2499999999691
 21
3421.5
 31
0.0
  0
LINE
  5
B169
  8
0
 10
4681.74999999997
 20
3421.5
 30
0.0
 11
4681.74999999997
 21
3386.4999999999409
 31
0.0
  0
ARC
  5
B16A
  8
0
 10
4681.0
 20
3389.7190997647272
 30
0.0
 40
4.0
 50
180.0
 51
210.0000000001059
  0
ARC
  5
B16B
  8
0
 10
4681.0
 20
3389.7190997647349
 30
0.0
 40
6.0
 50
180.0
 51
210.0000000001059
  0
ARC
  5
B16C
  8
0
 10
4680.0
 20
3425.5
 30
0.0
 40
3.0
 50
90.0
 51
180.0
  0
ARC
  5
B16D
  8
0
 10
4680.0
 20
3425.5
 30
0.0
 40
5.0
 50
90.0
 51
180.0
  0
LINE
  5
B16E
  8
0
 10
4698.4470053837858
 20
3387.5
 30
0.0
 11
4695.5602540378459
 21
3382.5
 31
0.0
  0
LINE
  5
B16F
  8
0
 10
4696.7149545762222
 20
3388.4999999999932
 30
0.0
 11
4698.4470053837858
 21
3387.5
 31
0.0
  0
LINE
  5
B170
  8
0
 10
4693.8282032302823
 20
3383.4999999999932
 30
0.0
 11
4696.7149545762222
 21
3388.4999999999932
 31
0.0
  0
LINE
  5
B171
  8
0
 10
4677.5358983848564
 20
3387.7190997647281
 30
0.0
 11
4679.9717967697507
 21
3383.5000000000141
 31
0.0
  0
LINE
  5
B172
  8
0
 10
4675.8038475772764
 20
3386.719099764734
 30
0.0
 11
4678.2397459621998
 21
3382.5
 31
0.0
  0
ARC
  5
B173
  8
0
 10
4686.8999999999942
 20
3387.5
 30
0.0
 40
8.0
 50
210.0000000001059
 51
329.99999999989421
  0
ARC
  5
B174
  8
0
 10
4686.8999999999942
 20
3387.5
 30
0.0
 40
10.0
 50
210.0000000001059
 51
329.99999999989421
  0
LINE
  5
B175
  8
0
 10
4677.0
 20
3425.5
 30
0.0
 11
4677.0
 21
3389.7190997647272
 31
0.0
  0
LINE
  5
B176
  8
0
 10
4700.0
 20
3428.5
 30
0.0
 11
4680.0
 21
3428.5
 31
0.0
  0
LINE
  5
B177
  8
0
 10
4700.0
 20
3430.5
 30
0.0
 11
4700.0
 21
3428.5
 31
0.0
  0
LINE
  5
B178
  8
0
 10
4680.0
 20
3430.5
 30
0.0
 11
4700.0
 21
3430.5
 31
0.0
  0
LINE
  5
B179
  8
0
 10
4675.0
 20
3389.7190997647349
 30
0.0
 11
4675.0
 21
3425.5
 31
0.0
  0
LINE
  5
B17A
  8
0
 10
4734.2999999999893
 20
3382.5
 30
0.0
 11
4732.0
 21
3382.5
 31
0.0
  0
LINE
  5
B17B
  8
0
 10
4798.0
 20
3382.5
 30
0.0
 11
4795.6999999999971
 21
3382.5
 31
0.0
  0
LINE
  5
B17C
  8
0
 10
4821.74999999997
 20
3397.5
 30
0.0
 11
4693.2499999999691
 21
3397.5
 31
0.0
  0
LINE
  5
B17D
  8
0
 10
4821.74999999997
 20
3410.5000000000009
 30
0.0
 11
4821.74999999997
 21
3397.5
 31
0.0
  0
LINE
  5
B17E
  8
0
 10
4693.2499999999691
 20
3410.5000000000009
 30
0.0
 11
4821.74999999997
 21
3410.5000000000009
 31
0.0
  0
LINE
  5
B17F
  8
0
 10
4734.2999999999893
 20
3430.1999999999971
 30
0.0
 11
4734.2999999999893
 21
3382.5
 31
0.0
  0
LINE
  5
B180
  8
0
 10
4795.6999999999971
 20
3430.1999999999971
 30
0.0
 11
4734.2999999999893
 21
3430.1999999999971
 31
0.0
  0
LINE
  5
B181
  8
0
 10
4795.6999999999971
 20
3382.5
 30
0.0
 11
4795.6999999999971
 21
3430.1999999999971
 31
0.0
  0
LINE
  5
B182
  8
0
 10
4798.0
 20
3432.5
 30
0.0
 11
4798.0
 21
3382.5
 31
0.0
  0
LINE
  5
B183
  8
0
 10
4732.0
 20
3432.5
 30
0.0
 11
4798.0
 21
3432.5
 31
0.0
  0
LINE
  5
B184
  8
0
 10
4732.0
 20
3382.5
 30
0.0
 11
4732.0
 21
3432.5
 31
0.0
  0
LINE
  5
B185
  8
0
  6
PHANTOM2
 10
4625.0
 20
3499.9999999999859
 30
0.0
 11
4625.0000000000146
 21
2235.0000000000218
 31
0.0
  0
LINE
  5
B186
  8
0
  6
PHANTOM2
 10
4625.0
 20
1985.0000000000221
 30
0.0
 11
4700.0
 21
1985.0000000000221
 31
0.0
  0
LINE
  5
B187
  8
0
  6
PHANTOM2
 10
4700.0
 20
1985.0000000000221
 30
0.0
 11
4700.0
 21
2185.0000000000209
 31
0.0
  0
LINE
  5
B188
  8
0
  6
PHANTOM2
 10
4675.0
 20
1985.0000000000221
 30
0.0
 11
4675.0
 21
2185.0000000000209
 31
0.0
  0
DIMENSION
  5
B189
  8
0
  2
*D7
 10
9250.0
 20
4500.0000000000209
 30
0.0
 11
7000.0
 21
4582.50000000002
 31
0.0
  1
W
 13
4750.0
 23
3850.0000000000209
 33
0.0
 14
9250.0
 24
3850.0000000000209
 34
0.0
1001
ACAD
1000
DSTYLE
1002
{
1070
    41
1040
1.0
1002
}
  0
LINE
  5
B18A
  8
0
 10
5250.0
 20
6000.0
 30
0.0
 11
11745.0
 21
6000.0
 31
0.0
  0
DIMENSION
  5
B18B
  8
0
  2
*D9
 10
5750.0
 20
6000.0
 30
0.0
 11
5667.4999999999991
 21
7250.0000000000027
 31
0.0
  1
H
 13
6650.0
 23
8500.0
 33
0.0
 14
5850.0
 24
6000.0
 34
0.0
 50
90.0
1001
ACAD
1000
DSTYLE
1002
{
1070
    41
1040
1.0
1002
}
  0
DIMENSION
  5
B18C
  8
0
  2
*D11
 10
5750.0
 20
8800.0
 30
0.0
 11
5667.4999999999991
 21
8650.0000000000018
 31
0.0
  1
300以上
 13
6650.0
 23
8500.0
 33
0.0
 14
6650.0
 24
8800.0
 34
0.0
 50
90.0
1001
ACAD
1000
DSTYLE
1002
{
1070
    41
1040
1.0
1002
}
  0
DIMENSION
  5
B18D
  8
0
  2
*D13
 10
8000.0
 20
8585.0000000000055
 30
0.0
 11
7917.4999999999964
 21
7302.5000000000027
 31
0.0
  1
DH
 13
7250.0
 23
6020.0
 33
0.0
 14
7250.0
 24
8585.0000000000055
 34
0.0
 50
90.0
1001
ACAD
1000
DSTYLE
1002
{
1070
    41
1040
1.0
1002
}
  0
DIMENSION
  5
B18E
  8
0
  2
*D15
 10
10015.0
 20
9375.0
 30
0.0
 11
8507.5
 21
9457.5000000000018
 31
0.0
  1
DH+450
 13
7000.0
 23
9225.0
 33
0.0
 14
10015.0
 24
9000.0
 34
0.0
1001
ACAD
1000
DSTYLE
1002
{
1070
    41
1040
1.0
1002
}
  0
LINE
  5
B18F
  8
0
 10
7950.0
 20
8650.0000000000055
 30
0.0
 11
7950.0
 21
8735.5499999999665
 31
0.0
  0
LINE
  5
B190
  8
0
 10
7950.0
 20
8800.0
 30
0.0
 11
8050.0
 21
8800.0
 31
0.0
  0
LINE
  5
B191
  8
0
 10
8050.0
 20
8800.0
 30
0.0
 11
8050.0
 21
8770.3499999999694
 31
0.0
  0
LINE
  5
B192
  8
0
 10
4750.0
 20
2235.0000000000218
 30
0.0
 11
4575.0
 21
2235.0000000000218
 31
0.0
  0
LINE
  5
B193
  8
0
 10
4750.0
 20
2185.0000000000209
 30
0.0
 11
4575.0
 21
2185.0000000000209
 31
0.0
  0
LINE
  5
B194
  8
0
  6
PHANTOM2
 10
4625.0000000000146
 20
2185.0000000000209
 30
0.0
 11
4625.0
 21
1985.0000000000221
 31
0.0
  0
LINE
  5
B195
  8
0
  6
PHANTOM2
 10
4675.0
 20
2235.0000000000218
 30
0.0
 11
4675.0
 21
3389.7190997647349
 31
0.0
  0
LINE
  5
B196
  8
0
  6
PHANTOM2
 10
4700.0
 20
2235.0000000000218
 30
0.0
 11
4700.0
 21
3389.7190997647349
 31
0.0
  0
LINE
  5
B197
  8
0
 10
9424.9999999999745
 20
2235.0000000000218
 30
0.0
 11
9249.9999999999727
 21
2235.0000000000218
 31
0.0
  0
LINE
  5
B198
  8
0
 10
9424.9999999999745
 20
2185.0000000000209
 30
0.0
 11
9249.9999999999727
 21
2185.0000000000209
 31
0.0
  0
LINE
  5
B199
  8
0
  6
PHANTOM2
 10
9374.9999999999836
 20
2185.0000000000209
 30
0.0
 11
9374.9999999999727
 21
1985.0000000000221
 31
0.0
  0
LINE
  5
B19A
  8
0
  6
PHANTOM2
 10
9299.9999999999836
 20
2235.0000000000218
 30
0.0
 11
9299.9999999999745
 21
3389.7190997647349
 31
0.0
  0
LINE
  5
B19B
  8
0
  6
PHANTOM2
 10
9324.9999999999854
 20
2235.0000000000218
 30
0.0
 11
9325.0
 21
3389.7190997647349
 31
0.0
  0
DIMENSION
  5
B19C
  8
0
  2
*D17
 10
9275.0
 20
2750.0000000000209
 30
0.0
 11
7000.0
 21
2832.5000000000218
 31
0.0
  1
DW
 13
4725.0
 23
3250.0000000000209
 33
0.0
 14
9275.0
 24
3250.0000000000209
 34
0.0
1001
ACAD
1000
DSTYLE
1002
{
1070
    41
1040
1.0
1002
}
  0
TEXT
  5
B19D
  8
0
 10
8791.476976727452
 20
8235.9259607988351
 30
0.0
 40
105.0
  1
水平レール
 41
0.8
  7
横文字
 72
     1
 11
9026.6769767274527
 21
8235.9259607988351
 31
0.0
  0
INSERT
  5
B19E
  8
0
  2
*U32
 10
0.0
 20
0.0
 30
0.0
  0
LINE
  5
B19F
  8
0
 10
7016.0
 20
8584.9999999999764
 30
0.0
 11
7067.4999999999991
 21
8584.9999999999764
 31
0.0
  0
LINE
  5
B1A0
  8
0
 10
7067.4999999999991
 20
8584.9999999999764
 30
0.0
 11
7067.4999999999991
 21
6019.9999999999691
 31
0.0
  0
LINE
  5
B1A1
  8
0
 10
7067.4999999999991
 20
6019.9999999999691
 30
0.0
 11
7016.0
 21
6019.9999999999691
 31
0.0
  0
LINE
  5
B1A2
  8
0
 10
7016.0
 20
6019.9999999999691
 30
0.0
 11
7016.0
 21
8584.9999999999764
 31
0.0
  0
LINE
  5
B1A3
  8
0
 10
7104.0
 20
6000.0
 30
0.0
 11
7104.7623529412685
 21
6064.7999999999747
 31
0.0
  0
LINE
  5
B1A4
  8
0
  6
HIDDEN
 10
7050.9963323068223
 20
6000.0
 30
0.0
 11
7067.4999999999991
 21
7402.8117537458647
 31
0.0
  0
LINE
  5
B1A5
  8
0
 10
7067.4999999999991
 20
7402.8117537458647
 30
0.0
 11
7079.8119681102407
 21
8149.3290429862309
 31
0.0
  0
LINE
  5
B1A6
  8
0
 10
7092.9992387806551
 20
6000.0
 30
0.0
 11
7093.7615917219227
 21
6064.7999999999747
 31
0.0
  0
LINE
  5
B1A7
  8
0
 10
10015.0
 20
8544.0000000000055
 30
0.0
 11
10015.0
 21
8650.0000000000055
 31
0.0
  0
LINE
  5
B1A8
  8
0
 10
7325.1619968365703
 20
8608.0
 30
0.0
 11
7424.6336313831716
 21
8608.0
 31
0.0
  0
LINE
  5
B1A9
  8
0
 10
7325.1619968365703
 20
8597.0000000000055
 30
0.0
 11
7413.8767297183813
 21
8597.0000000000055
 31
0.0
  0
LINE
  5
B1AA
  8
0
 10
7532.7806218831547
 20
8555.0000000000055
 30
0.0
 11
10015.0
 21
8555.0000000000055
 31
0.0
  0
LINE
  5
B1AB
  8
0
 10
7532.7806218831547
 20
8544.0000000000164
 30
0.0
 11
10015.0
 21
8544.0000000000055
 31
0.0
  0
LINE
  5
B1AC
  8
0
 10
7005.0100990677893
 20
8517.4867584706953
 30
0.0
 11
7042.4968575384983
 21
8480.0000000000055
 31
0.0
  0
DIMENSION
  5
B1AD
  8
0
  2
*D19
 10
11055.0
 20
9600.0
 30
0.0
 11
9027.5000000000018
 21
9682.5
 31
0.0
  1
L
 13
7000.0
 23
9450.0
 33
0.0
 14
11055.0
 24
9000.0
 34
0.0
1001
ACAD
1000
DSTYLE
1002
{
1070
    41
1040
1.0
1002
}
  0
LINE
  5
B1AE
  8
0
 10
10015.0
 20
8650.0000000000055
 30
0.0
 11
7499.951636238342
 21
8650.0000000000055
 31
0.0
  0
LINE
  5
B1AF
  8
0
 10
9150.0
 20
8650.0000000000055
 30
0.0
 11
9150.0
 21
8735.5499999999665
 31
0.0
  0
LINE
  5
B1B0
  8
0
 10
9150.0
 20
8800.0
 30
0.0
 11
9250.0
 21
8800.0
 31
0.0
  0
LINE
  5
B1B1
  8
0
 10
9250.0
 20
8800.0
 30
0.0
 11
9250.0
 21
8770.3499999999694
 31
0.0
  0
TEXT
  5
B1B2
  8
0
 10
7509.1915618156372
 20
9074.0861783392156
 30
0.0
 40
105.0
  1
ワイヤシーブ
 41
0.8
  7
横文字
 72
     1
 11
7805.9915618156383
 21
9074.0861783392156
 31
0.0
  0
INSERT
  5
B1B3
  8
0
  2
*U33
 10
0.0
 20
0.0
 30
0.0
  0
LINE
  5
B1B4
  8
0
  6
PHANTOM2
 10
7081.4243993231803
 20
6139.7999999999747
 30
0.0
 11
7378.4999999999973
 21
8665.0000000000055
 31
0.0
  0
LINE
  5
B1B5
  8
0
  6
CENTER2
 10
4500.0
 20
795.00000000002183
 30
0.0
 11
9500.0
 21
795.00000000002183
 31
0.0
  0
LINE
  5
B1B6
  8
0
  6
PHANTOM2
 10
9325.0
 20
716.0000000000291
 30
0.0
 11
9325.0
 21
874.0000000000291
 31
0.0
  0
LINE
  5
B1B7
  8
0
  6
PHANTOM2
 10
9325.0
 20
716.0000000000291
 30
0.0
 11
9340.0
 21
730.00000000002183
 31
0.0
  0
LINE
  5
B1B8
  8
0
  6
PHANTOM2
 10
9340.0
 20
730.00000000002183
 30
0.0
 11
9420.0
 21
730.00000000002183
 31
0.0
  0
LINE
  5
B1B9
  8
0
  6
PHANTOM2
 10
9420.0
 20
730.00000000002183
 30
0.0
 11
9420.0
 21
860.00000000002183
 31
0.0
  0
LINE
  5
B1BA
  8
0
  6
PHANTOM2
 10
9420.0
 20
860.00000000002183
 30
0.0
 11
9340.0
 21
860.00000000002183
 31
0.0
  0
LINE
  5
B1BB
  8
0
  6
PHANTOM2
 10
9340.0
 20
860.00000000002183
 30
0.0
 11
9325.0
 21
874.0000000000291
 31
0.0
  0
LINE
  5
B1BC
  8
0
  6
PHANTOM2
 10
4675.0
 20
716.0000000000291
 30
0.0
 11
4675.0
 21
874.0000000000291
 31
0.0
  0
LINE
  5
B1BD
  8
0
  6
PHANTOM2
 10
4675.0
 20
716.0000000000291
 30
0.0
 11
4660.0
 21
730.00000000002183
 31
0.0
  0
LINE
  5
B1BE
  8
0
  6
PHANTOM2
 10
4660.0
 20
730.00000000002183
 30
0.0
 11
4580.0
 21
730.00000000002183
 31
0.0
  0
LINE
  5
B1BF
  8
0
  6
PHANTOM2
 10
4580.0
 20
730.00000000002183
 30
0.0
 11
4580.0
 21
860.00000000002183
 31
0.0
  0
LINE
  5
B1C0
  8
0
  6
PHANTOM2
 10
4580.0
 20
860.00000000002183
 30
0.0
 11
4660.0
 21
860.00000000002183
 31
0.0
  0
LINE
  5
B1C1
  8
0
  6
PHANTOM2
 10
4660.0
 20
860.00000000002183
 30
0.0
 11
4675.0
 21
874.0000000000291
 31
0.0
  0
LINE
  5
B1C2
  8
0
  6
PHANTOM2
 10
4552.0
 20
807.40000000005216
 30
0.0
 11
4580.0
 21
807.40000000005216
 31
0.0
  0
LINE
  5
B1C3
  8
0
  6
PHANTOM2
 10
9450.0
 20
805.40000000005239
 30
0.0
 11
9450.0
 21
784.60000000004925
 31
0.0
  0
LINE
  5
B1C4
  8
0
  6
PHANTOM2
 10
9448.0
 20
782.60000000004959
 30
0.0
 11
9420.0
 21
782.60000000004959
 31
0.0
  0
LINE
  5
B1C5
  8
0
  6
PHANTOM2
 10
4550.0
 20
784.60000000004925
 30
0.0
 11
4550.0
 21
805.40000000005239
 31
0.0
  0
LINE
  5
B1C6
  8
0
  6
PHANTOM2
 10
9448.0
 20
807.40000000005216
 30
0.0
 11
9450.0
 21
805.40000000005239
 31
0.0
  0
LINE
  5
B1C7
  8
0
  6
PHANTOM2
 10
9450.0
 20
784.60000000004925
 30
0.0
 11
9448.0
 21
782.60000000004959
 31
0.0
  0
LINE
  5
B1C8
  8
0
  6
PHANTOM2
 10
4552.0
 20
807.40000000005216
 30
0.0
 11
4550.0
 21
805.40000000005239
 31
0.0
  0
LINE
  5
B1C9
  8
0
  6
PHANTOM2
 10
4552.0
 20
782.60000000004959
 30
0.0
 11
4550.0
 21
784.60000000004925
 31
0.0
  0
LINE
  5
B1CA
  8
0
  6
PHANTOM2
 10
4675.0
 20
807.40000000005216
 30
0.0
 11
5262.3999999999951
 21
807.40000000005216
 31
0.0
  0
LINE
  5
B1CB
  8
0
  6
PHANTOM2
 10
4580.0
 20
782.60000000004959
 30
0.0
 11
4552.0
 21
782.60000000004959
 31
0.0
  0
LINE
  5
B1CC
  8
0
  6
PHANTOM2
 10
9420.0000000000146
 20
807.40000000005216
 30
0.0
 11
9448.0
 21
807.40000000005216
 31
0.0
  0
LINE
  5
B1CD
  8
0
  6
PHANTOM2
 10
9325.0
 20
782.60000000004959
 30
0.0
 11
8737.6000000000058
 21
782.60000000004959
 31
0.0
  0
LINE
  5
B1CE
  8
0
 10
8850.0
 20
895.00000000004366
 30
0.0
 11
8650.0
 21
695.00000000005082
 31
0.0
  0
LINE
  5
B1CF
  8
0
 10
5350.0
 20
895.00000000004366
 30
0.0
 11
5150.0
 21
695.00000000005082
 31
0.0
  0
LINE
  5
B1D0
  8
0
  6
PHANTOM2
 10
8762.3999999999942
 20
807.40000000005216
 30
0.0
 11
9325.0
 21
807.40000000005216
 31
0.0
  0
LINE
  5
B1D1
  8
0
  6
PHANTOM2
 10
5237.6000000000058
 20
782.60000000004959
 30
0.0
 11
4675.0
 21
782.60000000004959
 31
0.0
  0
TEXT
  5
B1D2
  8
0
 10
11311.02761804102
 20
8228.629669484355
 30
0.0
 40
105.0
  1
巻取ドラム
 41
0.8
  7
横文字
 72
     1
 11
11549.027618041029
 21
8228.629669484355
 31
0.0
  0
INSERT
  5
B1D3
  8
0
  2
*U34
 10
0.0
 20
0.0
 30
0.0
  0
DIMENSION
  5
B1D4
  8
0
  2
*D21
 10
4540.0
 20
4275.0000000000209
 30
0.0
 11
4645.0
 21
4357.5000000000209
 31
0.0
  1
210以上
 13
4750.0
 23
3850.0000000000209
 33
0.0
 14
4540.0
 24
3850.0000000000209
 34
0.0
1001
ACAD
1000
DSTYLE
1002
{
1070
    41
1040
1.0
1002
}
  0
DIMENSION
  5
B1D5
  8
0
  2
*D23
 10
9460.0
 20
4275.0000000000209
 30
0.0
 11
9355.0
 21
4357.5000000000209
 31
0.0
  1
210以上
 13
9250.0
 23
3850.0000000000209
 33
0.0
 14
9460.0
 24
3850.0000000000209
 34
0.0
1001
ACAD
1000
DSTYLE
1002
{
1070
    41
1040
1.0
1002
}
  0
LINE
  5
B1D6
  8
0
 10
11315.000000000009
 20
8704.9999999999782
 30
0.0
 11
11315.000000000009
 21
8534.9999999999782
 31
0.0
  0
LINE
  5
B1D7
  8
0
 10
11315.000000000009
 20
8534.9999999999782
 30
0.0
 11
11125.0
 21
8534.9999999999782
 31
0.0
  0
LINE
  5
B1D8
  8
0
 10
11105.0
 20
8554.9999999999782
 30
0.0
 11
11105.0
 21
8602.5000000000055
 31
0.0
  0
LINE
  5
B1D9
  8
0
 10
11125.0
 20
8704.9999999999782
 30
0.0
 11
11315.000000000009
 21
8704.9999999999782
 31
0.0
  0
LINE
  5
B1DA
  8
0
 10
11125.0
 20
8704.9999999999782
 30
0.0
 11
11105.0
 21
8684.9999999999782
 31
0.0
  0
LINE
  5
B1DB
  8
0
 10
11105.0
 20
8554.9999999999782
 30
0.0
 11
11125.0
 21
8534.9999999999782
 31
0.0
  0
LINE
  5
B1DC
  8
0
 10
11311.800000000019
 20
8704.9999999999782
 30
0.0
 11
11311.800000000019
 21
8534.9999999999782
 31
0.0
  0
CIRCLE
  5
B1DD
  8
0
 10
11205.0
 20
8620.0000000000055
 30
0.0
 40
79.0
  0
LINE
  5
B1DE
  8
0
 10
11105.0
 20
8637.5000000000055
 30
0.0
 11
11127.962671385871
 21
8637.5000000000055
 31
0.0
  0
LINE
  5
B1DF
  8
0
 10
11127.962671385871
 20
8602.5000000000055
 30
0.0
 11
11105.0
 21
8602.5000000000055
 31
0.0
  0
LINE
  5
B1E0
  8
0
 10
11105.0
 20
8637.5000000000055
 30
0.0
 11
11105.0
 21
8684.9999999999782
 31
0.0
  0
LINE
  5
B1E1
  8
0
  6
CENTER2
 10
11105.0
 20
8620.0000000000055
 30
0.0
 11
11305.0
 21
8620.0000000000055
 31
0.0
  0
LINE
  5
B1E2
  8
0
  6
CENTER2
 10
11205.0
 20
8720.0000000000055
 30
0.0
 11
11205.0
 21
8520.0000000000055
 31
0.0
  0
LINE
  5
B1E3
  8
0
 10
7116.0
 20
8321.4906003784272
 30
0.0
 11
7116.0
 21
8403.5773133723796
 31
0.0
  0
LINE
  5
B1E4
  8
0
 10
7116.0
 20
8598.8211779876001
 30
0.0
 11
7116.0
 21
8650.0000000000055
 31
0.0
  0
LINE
  5
B1E5
  8
0
 10
7342.4999999999709
 20
8730.0000000000346
 30
0.0
 11
7470.6063695409975
 21
8730.0000000000346
 31
0.0
  0
LINE
  5
B1E6
  8
0
 10
7532.5
 20
8694.4248447151349
 30
0.0
 11
7532.5
 21
8650.0000000000055
 31
0.0
  0
LINE
  5
B1E7
  8
0
 10
7342.4999999999709
 20
8650.0000000000055
 30
0.0
 11
7342.4999999999709
 21
8730.0000000000346
 31
0.0
  0
CIRCLE
  5
B1E8
  8
0
  6
HIDDEN
 10
7437.5
 20
8665.0000000000055
 30
0.0
 40
59.0
  0
CIRCLE
  5
B1E9
  8
0
  6
HIDDEN
 10
7437.5
 20
8665.0000000000055
 30
0.0
 40
50.0
  0
LINE
  5
B1EA
  8
0
  6
CENTER2
 10
7437.5
 20
8740.0000000000073
 30
0.0
 11
7437.5
 21
8590.0000000000055
 31
0.0
  0
LINE
  5
B1EB
  8
0
  6
CENTER2
 10
7362.5
 20
8665.0000000000055
 30
0.0
 11
7512.5
 21
8665.0000000000055
 31
0.0
  0
LINE
  5
B1EC
  8
0
 10
9333.2499999999964
 20
3279.2500000000368
 30
0.0
 11
9329.2751262658421
 21
3275.2751262658858
 31
0.0
  0
LINE
  5
B1ED
  8
0
 10
9295.0
 20
3274.2500000000359
 30
0.0
 11
9326.8002525317006
 21
3274.2500000000359
 31
0.0
  0
ARC
  5
B1EE
  8
0
 10
9326.8002525317006
 20
3277.7500000000368
 30
0.0
 40
3.5
 50
269.9999984650417
 51
314.99999923268319
  0
ARC
  5
B1EF
  8
0
 10
9326.8002525317006
 20
3322.2500000000382
 30
0.0
 40
3.5
 50
45.00000076731677
 51
90.000001534958287
  0
LINE
  5
B1F0
  8
0
 10
9333.2499999999964
 20
3320.7500000000382
 30
0.0
 11
9329.2751262658421
 21
3324.7248737341938
 31
0.0
  0
LINE
  5
B1F1
  8
0
 10
9295.0
 20
3325.7500000000382
 30
0.0
 11
9326.8002525317006
 21
3325.7500000000382
 31
0.0
  0
ARC
  5
B1F2
  8
0
 10
9341.0
 20
3288.0000000000382
 30
0.0
 40
3.0
 50
279.5940682271567
 51
0.0
  0
ARC
  5
B1F3
  8
0
 10
9341.0
 20
3312.0000000000382
 30
0.0
 40
3.0
 50
0.0
 51
80.405931772843275
  0
LINE
  5
B1F4
  8
0
 10
9282.0
 20
3308.0000000000382
 30
0.0
 11
9283.0
 21
3308.0000000000382
 31
0.0
  0
LINE
  5
B1F5
  8
0
 10
9282.0
 20
3292.0000000000368
 30
0.0
 11
9283.0
 21
3292.0000000000368
 31
0.0
  0
LINE
  5
B1F6
  8
0
 10
9282.0
 20
3308.0000000000382
 30
0.0
 11
9282.0
 21
3292.0000000000368
 31
0.0
  0
LINE
  5
B1F7
  8
0
 10
9344.0
 20
3288.0000000000382
 30
0.0
 11
9344.0
 21
3312.0000000000382
 31
0.0
  0
LINE
  5
B1F8
  8
0
 10
9283.0
 20
3290.8161542300159
 30
0.0
 11
9283.0
 21
3309.1838457700651
 31
0.0
  0
LINE
  5
B1F9
  8
0
 10
9253.0
 20
3321.0000000000368
 30
0.0
 11
9253.0
 21
3335.0000000000359
 31
0.0
  0
LINE
  5
B1FA
  8
0
 10
9253.0
 20
3279.0000000000359
 30
0.0
 11
9253.0
 21
3265.0000000000359
 31
0.0
  0
ARC
  5
B1FB
  8
0
 10
9340.0
 20
3280.7500000000382
 30
0.0
 40
1.5
 50
269.9999984650417
 51
0.0
  0
ARC
  5
B1FC
  8
0
 10
9340.0
 20
3319.2500000000382
 30
0.0
 40
1.5
 50
0.0
 51
90.000001534958287
  0
LINE
  5
B1FD
  8
0
 10
9341.5000000000018
 20
3319.2500000000382
 30
0.0
 11
9341.5000000000018
 21
3280.7500000000382
 31
0.0
  0
ARC
  5
B1FE
  8
0
 10
9278.4999999999982
 20
3288.6902249187551
 30
0.0
 40
1.5
 50
97.746158250920075
 51
180.00000307033341
  0
LINE
  5
B1FF
  8
0
 10
9277.0
 20
3321.0000000000368
 30
0.0
 11
9277.0
 21
3279.0000000000359
 31
0.0
  0
ARC
  5
B200
  8
0
 10
9278.4999999999982
 20
3311.3097750813181
 30
0.0
 40
1.5
 50
180.00000307033341
 51
262.25384174907992
  0
LINE
  5
B201
  8
0
 10
9277.0
 20
3280.7500000000382
 30
0.0
 11
9277.0
 21
3279.0000000000359
 31
0.0
  0
ARC
  5
B202
  8
0
 10
9278.4999999999982
 20
3280.7500000000382
 30
0.0
 40
1.5
 50
180.00000307033341
 51
269.9999984650417
  0
ARC
  5
B203
  8
0
 10
9278.4999999999982
 20
3319.2500000000382
 30
0.0
 40
1.5
 50
90.000001534958287
 51
180.00000307033341
  0
CIRCLE
  5
B204
  8
0
 10
9288.75
 20
3272.7500000000359
 30
0.0
 40
3.25
  0
CIRCLE
  5
B205
  8
0
 10
9288.75
 20
3327.2500000000368
 30
0.0
 40
3.25
  0
LINE
  5
B206
  8
0
 10
9295.0
 20
3265.0000000000359
 30
0.0
 11
9277.0
 21
3265.0000000000359
 31
0.0
  0
LINE
  5
B207
  8
0
 10
9295.0
 20
3265.0000000000359
 30
0.0
 11
9295.0
 21
3279.2500000000368
 31
0.0
  0
LINE
  5
B208
  8
0
 10
9295.0
 20
3335.0000000000359
 30
0.0
 11
9295.0
 21
3320.7500000000382
 31
0.0
  0
LINE
  5
B209
  8
0
 10
9253.0
 20
3279.0000000000359
 30
0.0
 11
9277.0
 21
3279.0000000000359
 31
0.0
  0
LINE
  5
B20A
  8
0
 10
9277.0
 20
3265.0000000000359
 30
0.0
 11
9253.0
 21
3265.0000000000359
 31
0.0
  0
LINE
  5
B20B
  8
0
 10
9253.0
 20
3321.0000000000368
 30
0.0
 11
9277.0
 21
3321.0000000000368
 31
0.0
  0
LINE
  5
B20C
  8
0
 10
9295.0
 20
3335.0000000000359
 30
0.0
 11
9253.0
 21
3335.0000000000359
 31
0.0
  0
LINE
  5
B20D
  8
0
 10
9277.0
 20
3306.1000000000349
 30
0.0
 11
9277.0
 21
3293.9000000000378
 31
0.0
  0
ARC
  5
B20E
  8
0
 10
9306.0
 20
3300.0000000000359
 30
0.0
 40
6.0
 50
277.74615658319181
 51
82.253844819517738
  0
LINE
  5
B20F
  8
0
 10
9278.2978233063786
 20
3290.1765373302478
 30
0.0
 11
9306.8087067744782
 21
3294.0547503540661
 31
0.0
  0
LINE
  5
B210
  8
0
 10
9278.2978233063786
 20
3309.8234626698249
 30
0.0
 11
9306.8087067744782
 21
3305.9452496460149
 31
0.0
  0
LINE
  5
B211
  8
0
 10
9278.4999999999982
 20
3279.2500000000368
 30
0.0
 11
9340.0
 21
3279.2500000000368
 31
0.0
  0
LINE
  5
B212
  8
0
 10
9278.4999999999982
 20
3320.7500000000382
 30
0.0
 11
9340.0
 21
3320.7500000000382
 31
0.0
  0
LINE
  5
B213
  8
0
 10
4666.75
 20
3279.250000000045
 30
0.0
 11
4670.724873734157
 21
3275.2751262658858
 31
0.0
  0
LINE
  5
B214
  8
0
 10
4705.0
 20
3274.2500000000441
 30
0.0
 11
4673.1997474683012
 21
3274.2500000000441
 31
0.0
  0
ARC
  5
B215
  8
0
 10
4673.1997474683012
 20
3277.750000000045
 30
0.0
 40
3.5
 50
225.00000076731681
 51
270.0000015349583
  0
ARC
  5
B216
  8
0
 10
4673.1997474683012
 20
3322.250000000045
 30
0.0
 40
3.5
 50
89.999998465041699
 51
134.99999923268319
  0
LINE
  5
B217
  8
0
 10
4666.75
 20
3320.750000000045
 30
0.0
 11
4670.724873734157
 21
3324.7248737341938
 31
0.0
  0
LINE
  5
B218
  8
0
 10
4705.0
 20
3325.7500000000441
 30
0.0
 11
4673.1997474683012
 21
3325.7500000000441
 31
0.0
  0
ARC
  5
B219
  8
0
 10
4659.0
 20
3288.000000000045
 30
0.0
 40
3.0
 50
180.0
 51
260.40593177284319
  0
ARC
  5
B21A
  8
0
 10
4659.0
 20
3312.000000000045
 30
0.0
 40
3.0
 50
99.594068227156711
 51
180.0
  0
LINE
  5
B21B
  8
0
 10
4718.0
 20
3308.0000000000441
 30
0.0
 11
4717.0
 21
3308.0000000000441
 31
0.0
  0
LINE
  5
B21C
  8
0
 10
4718.0
 20
3292.0000000000441
 30
0.0
 11
4717.0
 21
3292.0000000000441
 31
0.0
  0
LINE
  5
B21D
  8
0
 10
4718.0
 20
3308.0000000000441
 30
0.0
 11
4718.0
 21
3292.0000000000441
 31
0.0
  0
LINE
  5
B21E
  8
0
 10
4656.0
 20
3288.000000000045
 30
0.0
 11
4656.0
 21
3312.000000000045
 31
0.0
  0
LINE
  5
B21F
  8
0
 10
4717.0
 20
3290.8161542300231
 30
0.0
 11
4717.0
 21
3309.1838457700651
 31
0.0
  0
LINE
  5
B220
  8
0
 10
4747.0
 20
3321.0000000000441
 30
0.0
 11
4747.0
 21
3335.0000000000432
 31
0.0
  0
LINE
  5
B221
  8
0
 10
4747.0
 20
3279.0000000000441
 30
0.0
 11
4747.0
 21
3265.0000000000441
 31
0.0
  0
ARC
  5
B222
  8
0
 10
4660.0
 20
3280.750000000045
 30
0.0
 40
1.5
 50
180.0
 51
270.0000015349583
  0
ARC
  5
B223
  8
0
 10
4660.0
 20
3319.250000000045
 30
0.0
 40
1.5
 50
89.999998465041699
 51
180.0
  0
LINE
  5
B224
  8
0
 10
4658.5
 20
3319.250000000045
 30
0.0
 11
4658.5
 21
3280.750000000045
 31
0.0
  0
ARC
  5
B225
  8
0
 10
4721.5
 20
3288.6902249187629
 30
0.0
 40
1.5
 50
359.99999692966651
 51
82.253841749079953
  0
LINE
  5
B226
  8
0
 10
4723.0
 20
3321.0000000000441
 30
0.0
 11
4723.0
 21
3279.0000000000441
 31
0.0
  0
ARC
  5
B227
  8
0
 10
4721.5
 20
3311.3097750813249
 30
0.0
 40
1.5
 50
277.74615825092008
 51
359.99999692966651
  0
LINE
  5
B228
  8
0
 10
4723.0
 20
3280.750000000045
 30
0.0
 11
4723.0
 21
3279.0000000000441
 31
0.0
  0
ARC
  5
B229
  8
0
 10
4721.5
 20
3280.750000000045
 30
0.0
 40
1.5
 50
270.0000015349583
 51
359.99999692966651
  0
ARC
  5
B22A
  8
0
 10
4721.5
 20
3319.250000000045
 30
0.0
 40
1.5
 50
359.99999692966651
 51
89.999998465041699
  0
CIRCLE
  5
B22B
  8
0
 10
4711.25
 20
3272.7500000000441
 30
0.0
 40
3.25
  0
CIRCLE
  5
B22C
  8
0
 10
4711.25
 20
3327.2500000000441
 30
0.0
 40
3.25
  0
LINE
  5
B22D
  8
0
 10
4705.0
 20
3265.0000000000441
 30
0.0
 11
4723.0
 21
3265.0000000000441
 31
0.0
  0
LINE
  5
B22E
  8
0
 10
4705.0
 20
3265.0000000000441
 30
0.0
 11
4705.0
 21
3279.250000000045
 31
0.0
  0
LINE
  5
B22F
  8
0
 10
4705.0
 20
3335.0000000000432
 30
0.0
 11
4705.0
 21
3320.750000000045
 31
0.0
  0
LINE
  5
B230
  8
0
 10
4747.0
 20
3279.0000000000441
 30
0.0
 11
4723.0
 21
3279.0000000000441
 31
0.0
  0
LINE
  5
B231
  8
0
 10
4723.0
 20
3265.0000000000441
 30
0.0
 11
4747.0
 21
3265.0000000000441
 31
0.0
  0
LINE
  5
B232
  8
0
 10
4747.0
 20
3321.0000000000441
 30
0.0
 11
4723.0
 21
3321.0000000000441
 31
0.0
  0
LINE
  5
B233
  8
0
 10
4705.0
 20
3335.0000000000432
 30
0.0
 11
4747.0
 21
3335.0000000000432
 31
0.0
  0
LINE
  5
B234
  8
0
 10
4723.0
 20
3306.1000000000431
 30
0.0
 11
4723.0
 21
3293.9000000000378
 31
0.0
  0
ARC
  5
B235
  8
0
 10
4694.0
 20
3300.0000000000441
 30
0.0
 40
6.0
 50
97.74615518048229
 51
262.25384341680819
  0
LINE
  5
B236
  8
0
 10
4721.7021766936232
 20
3290.176537330256
 30
0.0
 11
4693.1912932255354
 21
3294.0547503540661
 31
0.0
  0
LINE
  5
B237
  8
0
 10
4721.7021766936232
 20
3309.8234626698322
 30
0.0
 11
4693.1912932255354
 21
3305.9452496460149
 31
0.0
  0
LINE
  5
B238
  8
0
 10
4721.5
 20
3279.250000000045
 30
0.0
 11
4660.0
 21
3279.250000000045
 31
0.0
  0
LINE
  5
B239
  8
0
 10
4721.5
 20
3320.750000000045
 30
0.0
 11
4660.0
 21
3320.750000000045
 31
0.0
  0
LINE
  5
B23A
  8
0
  6
CENTER2
 10
4718.0
 20
3300.0000000000441
 30
0.0
 11
9282.0
 21
3300.0000000000359
 31
0.0
  0
TEXT
  5
B23B
  8
0
 10
8367.2047612756323
 20
3088.5185434277741
 30
0.0
 40
105.0
  1
光軸
 41
0.8
  7
横文字
 72
     1
 11
8456.8047612756327
 21
3088.5185434277741
 31
0.0
  0
INSERT
  5
B23C
  8
0
  2
*U35
 10
0.0
 20
0.0
 30
0.0
  0
DIMENSION
  5
B23D
  8
0
  2
*D5
 10
4323.0
 20
3300.0000000000359
 30
0.0
 11
4240.4999999999991
 21
3367.5000000000368
 31
0.0
 70
   128
 13
4423.0
 23
3500.0000000000359
 33
0.0
 14
4723.0
 24
3300.0000000000359
 34
0.0
 50
90.0
1001
ACAD
1000
DSTYLE
1002
{
1070
    41
1040
1.0
1002
}
  0
LINE
  5
B23E
  8
0
  6
PHANTOM2
 10
6903.5
 20
969.00000000002171
 30
0.0
 11
7156.5
 21
969.00000000002171
 31
0.0
  0
LINE
  5
B23F
  8
0
  6
PHANTOM2
 10
6918.2603986449967
 20
945.00000000002171
 30
0.0
 11
6987.7396013550024
 21
945.00000000002171
 31
0.0
  0
LINE
  5
B240
  8
0
  6
PHANTOM2
 10
6903.5
 20
1224.0000000000221
 30
0.0
 11
6903.5
 21
969.00000000002171
 31
0.0
  0
LINE
  5
B241
  8
0
  6
PHANTOM2
 10
7156.5
 20
1224.0000000000221
 30
0.0
 11
7156.5
 21
969.00000000002171
 31
0.0
  0
LINE
  5
B242
  8
0
  6
PHANTOM2
 10
6913.5
 20
969.00000000002171
 30
0.0
 11
6915.270761370004
 21
947.75086356002407
 31
0.0
  0
LINE
  5
B243
  8
0
  6
PHANTOM2
 10
6992.4999999999991
 20
969.00000000002171
 30
0.0
 11
6990.7292386299951
 21
947.75086356002407
 31
0.0
  0
ARC
  5
B244
  8
0
  6
PHANTOM2
 10
6987.7396013550024
 20
948.00000000002183
 30
0.0
 40
3.0
 50
270.0
 51
355.23635976324272
  0
ARC
  5
B245
  8
0
  6
PHANTOM2
 10
6918.2603986449967
 20
948.00000000002183
 30
0.0
 40
3.0
 50
184.76364023675731
 51
270.0
  0
LINE
  5
B246
  8
0
  6
PHANTOM2
 10
6935.8999999999933
 20
1293.0000000000221
 30
0.0
 11
6935.8999999999933
 21
1224.0000000000221
 31
0.0
  0
LINE
  5
B247
  8
0
  6
PHANTOM2
 10
7127.8999999999942
 20
1293.0000000000221
 30
0.0
 11
7127.8999999999942
 21
1224.0000000000221
 31
0.0
  0
ARC
  5
B248
  8
0
  6
PHANTOM2
 10
7116.8999999999942
 20
1293.0000000000221
 30
0.0
 40
11.0
 50
0.0
 51
90.0
  0
ARC
  5
B249
  8
0
  6
PHANTOM2
 10
6946.8999999999942
 20
1293.0000000000221
 30
0.0
 40
11.0
 50
90.0
 51
180.0
  0
LINE
  5
B24A
  8
0
  6
PHANTOM2
 10
7049.0
 20
1120.4500000000189
 30
0.0
 11
7011.0
 21
1120.4500000000189
 31
0.0
  0
LINE
  5
B24B
  8
0
  6
PHANTOM2
 10
7049.0
 20
2138.9999999999859
 30
0.0
 11
7049.0
 21
1120.4500000000189
 31
0.0
  0
LINE
  5
B24C
  8
0
  6
PHANTOM2
 10
7011.0
 20
2138.9999999999859
 30
0.0
 11
7011.0
 21
1120.4500000000189
 31
0.0
  0
LINE
  5
B24D
  8
0
  6
PHANTOM2
 10
7116.8999999999942
 20
1304.0000000000221
 30
0.0
 11
7049.0
 21
1304.0000000000221
 31
0.0
  0
LINE
  5
B24E
  8
0
  6
PHANTOM2
 10
7011.0
 20
1304.0000000000221
 30
0.0
 11
6946.8999999999942
 21
1304.0000000000221
 31
0.0
  0
LINE
  5
B24F
  8
0
  6
PHANTOM2
 10
6903.5
 20
1224.0000000000221
 30
0.0
 11
7011.0
 21
1224.0000000000221
 31
0.0
  0
LINE
  5
B250
  8
0
  6
PHANTOM2
 10
7049.0
 20
1224.0000000000221
 30
0.0
 11
7156.5
 21
1224.0000000000221
 31
0.0
  0
CIRCLE
  5
B251
  8
0
 10
7034.199999999998
 20
8746.5999999999967
 30
0.0
 40
4.1500000000000004
  0
ARC
  5
B252
  8
0
 10
7034.3000000000011
 20
8746.4999999999709
 30
0.0
 40
9.5
 50
270.0
 51
54.032634234836493
  0
LINE
  5
B253
  8
0
 10
7005.0
 20
8779.4999999999727
 30
0.0
 11
7039.8795815549965
 21
8754.1888405929712
 31
0.0
  0
LINE
  5
B254
  8
0
 10
7002.0
 20
8736.9999999999709
 30
0.0
 11
7002.0
 21
8722.4999999999709
 31
0.0
  0
LINE
  5
B255
  8
0
 10
7000.0
 20
8736.9999999999709
 30
0.0
 11
7034.3000000000011
 21
8736.9999999999709
 31
0.0
  0
LINE
  5
B256
  8
0
 10
7002.0
 20
8779.4999999999727
 30
0.0
 11
7005.0
 21
8779.4999999999727
 31
0.0
  0
LINE
  5
B257
  8
0
 10
7002.0
 20
8779.4999999999727
 30
0.0
 11
7000.0
 21
8779.4999999999727
 31
0.0
  0
LINE
  5
B258
  8
0
 10
7000.0
 20
8722.4999999999709
 30
0.0
 11
7002.0
 21
8722.4999999999709
 31
0.0
  0
LINE
  5
B259
  8
0
 10
7000.0
 20
8779.4999999999727
 30
0.0
 11
7000.0
 21
8722.4999999999709
 31
0.0
  0
LINE
  5
B25A
  8
0
 10
7024.5
 20
8736.9999999999709
 30
0.0
 11
7024.5
 21
8732.0499999999665
 31
0.0
  0
LINE
  5
B25B
  8
0
 10
7086.3000000000029
 20
8730.0499999999683
 30
0.0
 11
7101.699999999998
 21
8730.0499999999683
 31
0.0
  0
LINE
  5
B25C
  8
0
 10
7101.699999999998
 20
8732.0499999999665
 30
0.0
 11
7101.699999999998
 21
8730.0499999999683
 31
0.0
  0
LINE
  5
B25D
  8
0
 10
7086.3000000000029
 20
8730.0499999999683
 30
0.0
 11
7086.3000000000029
 21
8732.0499999999665
 31
0.0
  0
ARC
  5
B25E
  8
0
 10
7094.0
 20
8733.6392066369663
 30
0.0
 40
10.089206638
 50
248.19745111857679
 51
291.8025458101443
  0
ARC
  5
B25F
  8
0
 10
7088.3763883749916
 20
8726.350148804966
 30
0.0
 40
2.8001488060000002
 50
227.924975695944
 51
312.0750212328561
  0
ARC
  5
B260
  8
0
 10
7099.6236116249929
 20
8726.350148804966
 30
0.0
 40
2.8001488060000002
 50
227.924975695944
 51
312.0750212328561
  0
LINE
  5
B261
  8
0
 10
7090.2527767489973
 20
8730.0499999999683
 30
0.0
 11
7090.2527767489973
 21
8724.2716878359715
 31
0.0
  0
LINE
  5
B262
  8
0
 10
7086.5
 20
8730.0499999999683
 30
0.0
 11
7086.5
 21
8724.2716878359715
 31
0.0
  0
LINE
  5
B263
  8
0
 10
7099.6236116249929
 20
8723.5499999999647
 30
0.0
 11
7088.3763883749916
 21
8723.5499999999647
 31
0.0
  0
LINE
  5
B264
  8
0
 10
7097.7472232500004
 20
8730.0499999999683
 30
0.0
 11
7097.7472232500004
 21
8724.2716878359715
 31
0.0
  0
LINE
  5
B265
  8
0
 10
7101.5
 20
8730.0499999999683
 30
0.0
 11
7101.5
 21
8724.2716878359715
 31
0.0
  0
LINE
  5
B266
  8
0
 10
7588.1063695409975
 20
8770.3499999999694
 30
0.0
 11
10878.5
 21
8770.3499999999694
 31
0.0
  0
LINE
  5
B267
  8
0
 10
7107.0
 20
8739.0499999999665
 30
0.0
 11
7470.6063695409975
 21
8739.0499999999665
 31
0.0
  0
LINE
  5
B268
  8
0
 10
7024.5
 20
8735.5499999999665
 30
0.0
 11
7470.6063695409975
 21
8735.5499999999665
 31
0.0
  0
LINE
  5
B269
  8
0
 10
7081.5
 20
8770.3499999999694
 30
0.0
 11
7564.2374040237637
 21
8770.3499999999694
 31
0.0
  0
LINE
  5
B26A
  8
0
 10
7107.0
 20
8735.5499999999665
 30
0.0
 11
7024.5
 21
8735.5499999999665
 31
0.0
  0
LINE
  5
B26B
  8
0
 10
7098.0
 20
8718.2499999999709
 30
0.0
 11
7090.0
 21
8718.2499999999709
 31
0.0
  0
LINE
  5
B26C
  8
0
 10
7096.8000000000011
 20
8717.0499999999665
 30
0.0
 11
7091.1999999999971
 21
8717.0499999999665
 31
0.0
  0
LINE
  5
B26D
  8
0
 10
7098.0
 20
8718.2499999999709
 30
0.0
 11
7096.8000000000011
 21
8717.0499999999665
 31
0.0
  0
LINE
  5
B26E
  8
0
 10
7090.0
 20
8718.2499999999709
 30
0.0
 11
7091.1999999999971
 21
8717.0499999999665
 31
0.0
  0
LINE
  5
B26F
  8
0
 10
7090.0
 20
8723.5499999999647
 30
0.0
 11
7090.0
 21
8718.2499999999709
 31
0.0
  0
LINE
  5
B270
  8
0
 10
7098.0
 20
8723.5499999999647
 30
0.0
 11
7098.0
 21
8718.2499999999709
 31
0.0
  0
LINE
  5
B271
  8
0
 10
7107.0
 20
8747.5499999999665
 30
0.0
 11
7107.0
 21
8732.0499999999665
 31
0.0
  0
LINE
  5
B272
  8
0
 10
7107.0
 20
8732.0499999999665
 30
0.0
 11
7024.5
 21
8732.0499999999665
 31
0.0
  0
LINE
  5
B273
  8
0
 10
7040.6800816939931
 20
8753.5387894969681
 30
0.0
 11
7107.0
 21
8747.5499999999665
 31
0.0
  0
LINE
  5
B274
  8
0
 10
7076.1994736699999
 20
8769.5499999999665
 30
0.0
 11
7027.6994736700008
 21
8769.5499999999665
 31
0.0
  0
LINE
  5
B275
  8
0
 10
7027.6994736700008
 20
8769.5499999999665
 30
0.0
 11
7027.6994736700008
 21
8766.8499999999694
 31
0.0
  0
LINE
  5
B276
  8
0
 10
7076.1994736699999
 20
8753.5499999999665
 30
0.0
 11
7076.1994736699999
 21
8756.5499999999665
 31
0.0
  0
LINE
  5
B277
  8
0
 10
7076.1994736699999
 20
8766.5499999999665
 30
0.0
 11
7076.1994736699999
 21
8769.5499999999665
 31
0.0
  0
LINE
  5
B278
  8
0
 10
7071.6644736699973
 20
8757.910499999969
 30
0.0
 11
7076.1994736699999
 21
8756.5499999999665
 31
0.0
  0
LINE
  5
B279
  8
0
 10
7071.6811250460023
 20
8765.1944954119681
 30
0.0
 11
7076.1994736699999
 21
8766.5499999999665
 31
0.0
  0
LINE
  5
B27A
  8
0
 10
7032.0328070029946
 20
8765.2499999999709
 30
0.0
 11
7030.6344736699984
 21
8765.6694999999654
 31
0.0
  0
LINE
  5
B27B
  8
0
 10
7062.949473669999
 20
8772.5499999999665
 30
0.0
 11
7040.9494736699999
 21
8772.5499999999665
 31
0.0
  0
LINE
  5
B27C
  8
0
 10
7040.9494736699999
 20
8772.5499999999665
 30
0.0
 11
7040.9494736699999
 21
8769.5499999999665
 31
0.0
  0
LINE
  5
B27D
  8
0
 10
7062.949473669999
 20
8769.5499999999665
 30
0.0
 11
7062.949473669999
 21
8772.5499999999665
 31
0.0
  0
LINE
  5
B27E
  8
0
 10
7057.4494736700008
 20
8772.5499999999665
 30
0.0
 11
7057.4494736700008
 21
8769.5499999999665
 31
0.0
  0
LINE
  5
B27F
  8
0
 10
7046.4494736699999
 20
8769.5499999999665
 30
0.0
 11
7046.4494736699999
 21
8772.5499999999665
 31
0.0
  0
LINE
  5
B280
  8
0
 10
7061.449473669999
 20
8753.5499999999665
 30
0.0
 11
7061.449473669999
 21
8751.6618518509713
 31
0.0
  0
LINE
  5
B281
  8
0
 10
7058.9644736699984
 20
8764.2499999999727
 30
0.0
 11
7058.9644736699984
 21
8763.2499999999709
 31
0.0
  0
LINE
  5
B282
  8
0
 10
7058.9644736699984
 20
8763.2499999999709
 30
0.0
 11
7036.7644736700031
 21
8763.2499999999709
 31
0.0
  0
LINE
  5
B283
  8
0
 10
7036.7644736700031
 20
8763.2499999999709
 30
0.0
 11
7036.7644736700031
 21
8764.2499999999727
 31
0.0
  0
LINE
  5
B284
  8
0
 10
7036.7644736700031
 20
8759.8499999999694
 30
0.0
 11
7058.9644736699984
 21
8759.8499999999694
 31
0.0
  0
LINE
  5
B285
  8
0
 10
7058.9644736699984
 20
8759.8499999999694
 30
0.0
 11
7058.9644736699984
 21
8758.8499999999694
 31
0.0
  0
LINE
  5
B286
  8
0
 10
7036.7644736700031
 20
8758.8499999999694
 30
0.0
 11
7036.7644736700031
 21
8759.8499999999694
 31
0.0
  0
LINE
  5
B287
  8
0
 10
7037.6294736700083
 20
8762.8099999999686
 30
0.0
 11
7045.3994736699979
 21
8762.8099999999686
 31
0.0
  0
LINE
  5
B288
  8
0
 10
7045.3994736699979
 20
8762.8099999999686
 30
0.0
 11
7045.3994736699979
 21
8760.2899999999718
 31
0.0
  0
LINE
  5
B289
  8
0
 10
7045.3994736699979
 20
8760.2899999999718
 30
0.0
 11
7037.6294736700083
 21
8760.2899999999718
 31
0.0
  0
LINE
  5
B28A
  8
0
 10
7037.6294736700083
 20
8760.2899999999718
 30
0.0
 11
7037.6294736700083
 21
8762.8099999999686
 31
0.0
  0
LINE
  5
B28B
  8
0
 10
7039.6944736699952
 20
8766.8499999999694
 30
0.0
 11
7043.3344736699928
 21
8766.8499999999694
 31
0.0
  0
LINE
  5
B28C
  8
0
 10
7043.3344736699928
 20
8766.8499999999694
 30
0.0
 11
7043.3344736699928
 21
8765.2499999999709
 31
0.0
  0
LINE
  5
B28D
  8
0
 10
7043.3344736699928
 20
8763.2499999999709
 30
0.0
 11
7043.3344736699928
 21
8762.8099999999686
 31
0.0
  0
LINE
  5
B28E
  8
0
 10
7043.3344736699928
 20
8760.2899999999718
 30
0.0
 11
7043.3344736699928
 21
8759.8499999999694
 31
0.0
  0
LINE
  5
B28F
  8
0
 10
7043.3344736699928
 20
8757.8499999999694
 30
0.0
 11
7043.3344736699928
 21
8756.2499999999709
 31
0.0
  0
LINE
  5
B290
  8
0
 10
7043.3344736699928
 20
8756.2499999999709
 30
0.0
 11
7039.6944736699952
 21
8756.2499999999709
 31
0.0
  0
LINE
  5
B291
  8
0
 10
7039.6944736699952
 20
8756.2499999999709
 30
0.0
 11
7039.6944736699952
 21
8757.8499999999694
 31
0.0
  0
LINE
  5
B292
  8
0
 10
7039.6944736699952
 20
8759.8499999999694
 30
0.0
 11
7039.6944736699952
 21
8760.2899999999718
 31
0.0
  0
LINE
  5
B293
  8
0
 10
7039.6944736699952
 20
8762.8099999999686
 30
0.0
 11
7039.6944736699952
 21
8763.2499999999709
 31
0.0
  0
LINE
  5
B294
  8
0
 10
7039.6944736699952
 20
8765.2499999999709
 30
0.0
 11
7039.6944736699952
 21
8766.8499999999694
 31
0.0
  0
LINE
  5
B295
  8
0
 10
7024.6369525860064
 20
8765.2499999999709
 30
0.0
 11
7046.2644736700031
 21
8765.2499999999709
 31
0.0
  0
LINE
  5
B296
  8
0
 10
7046.2644736700031
 20
8765.2499999999709
 30
0.0
 11
7046.2644736700031
 21
8764.2499999999727
 31
0.0
  0
LINE
  5
B297
  8
0
 10
7034.8343876129948
 20
8757.8499999999694
 30
0.0
 11
7046.2644736700031
 21
8757.8499999999694
 31
0.0
  0
LINE
  5
B298
  8
0
 10
7046.2644736700031
 20
8757.8499999999694
 30
0.0
 11
7046.2644736700031
 21
8758.8499999999694
 31
0.0
  0
LINE
  5
B299
  8
0
 10
7027.9993500809924
 20
8762.8099999999686
 30
0.0
 11
7032.6994736699999
 21
8762.8099999999686
 31
0.0
  0
LINE
  5
B29A
  8
0
 10
7032.6994736699999
 20
8764.2499999999727
 30
0.0
 11
7032.6994736699999
 21
8759.3992487209707
 31
0.0
  0
LINE
  5
B29B
  8
0
 10
7032.6994736699999
 20
8760.2899999999718
 30
0.0
 11
7031.4719901179924
 21
8760.2899999999718
 31
0.0
  0
LINE
  5
B29C
  8
0
 10
7026.9944736699972
 20
8766.8499999999694
 30
0.0
 11
7030.6344736699984
 21
8766.8499999999694
 31
0.0
  0
LINE
  5
B29D
  8
0
 10
7030.6344736699984
 20
8766.8499999999694
 30
0.0
 11
7030.6344736699984
 21
8765.2499999999709
 31
0.0
  0
LINE
  5
B29E
  8
0
 10
7030.6344736699984
 20
8763.2499999999709
 30
0.0
 11
7030.6344736699984
 21
8762.8099999999686
 31
0.0
  0
LINE
  5
B29F
  8
0
 10
7026.9944736699972
 20
8765.2499999999709
 30
0.0
 11
7026.9944736699972
 21
8766.8499999999694
 31
0.0
  0
LINE
  5
B2A0
  8
0
 10
7084.3644736699944
 20
8764.2499999999727
 30
0.0
 11
7084.3644736699944
 21
8763.2499999999709
 31
0.0
  0
LINE
  5
B2A1
  8
0
 10
7084.3644736699944
 20
8763.2499999999709
 30
0.0
 11
7062.1644736699982
 21
8763.2499999999709
 31
0.0
  0
LINE
  5
B2A2
  8
0
 10
7062.1644736699982
 20
8763.2499999999709
 30
0.0
 11
7062.1644736699982
 21
8764.2499999999727
 31
0.0
  0
LINE
  5
B2A3
  8
0
 10
7062.1644736699982
 20
8759.8499999999694
 30
0.0
 11
7084.3644736699944
 21
8759.8499999999694
 31
0.0
  0
LINE
  5
B2A4
  8
0
 10
7084.3644736699944
 20
8759.8499999999694
 30
0.0
 11
7084.3644736699944
 21
8758.8499999999694
 31
0.0
  0
LINE
  5
B2A5
  8
0
 10
7062.1644736699982
 20
8758.8499999999694
 30
0.0
 11
7062.1644736699982
 21
8759.8499999999694
 31
0.0
  0
LINE
  5
B2A6
  8
0
 10
7063.0294736700034
 20
8762.8099999999686
 30
0.0
 11
7070.7994736700057
 21
8762.8099999999686
 31
0.0
  0
LINE
  5
B2A7
  8
0
 10
7070.7994736700057
 20
8762.8099999999686
 30
0.0
 11
7070.7994736700057
 21
8760.2899999999718
 31
0.0
  0
LINE
  5
B2A8
  8
0
 10
7070.7994736700057
 20
8760.2899999999718
 30
0.0
 11
7063.0294736700034
 21
8760.2899999999718
 31
0.0
  0
LINE
  5
B2A9
  8
0
 10
7063.0294736700034
 20
8760.2899999999718
 30
0.0
 11
7063.0294736700034
 21
8762.8099999999686
 31
0.0
  0
LINE
  5
B2AA
  8
0
 10
7065.0944736700039
 20
8766.8499999999694
 30
0.0
 11
7068.7344736700043
 21
8766.8499999999694
 31
0.0
  0
LINE
  5
B2AB
  8
0
 10
7068.7344736700043
 20
8766.8499999999694
 30
0.0
 11
7068.7344736700043
 21
8765.2499999999709
 31
0.0
  0
LINE
  5
B2AC
  8
0
 10
7068.7344736700043
 20
8763.2499999999709
 30
0.0
 11
7068.7344736700043
 21
8762.8099999999686
 31
0.0
  0
LINE
  5
B2AD
  8
0
 10
7068.7344736700043
 20
8760.2899999999718
 30
0.0
 11
7068.7344736700043
 21
8759.8499999999694
 31
0.0
  0
LINE
  5
B2AE
  8
0
 10
7068.7344736700043
 20
8757.8499999999694
 30
0.0
 11
7068.7344736700043
 21
8756.2499999999709
 31
0.0
  0
LINE
  5
B2AF
  8
0
 10
7068.7344736700043
 20
8756.2499999999709
 30
0.0
 11
7065.0944736700039
 21
8756.2499999999709
 31
0.0
  0
LINE
  5
B2B0
  8
0
 10
7065.0944736700039
 20
8756.2499999999709
 30
0.0
 11
7065.0944736700039
 21
8757.8499999999694
 31
0.0
  0
LINE
  5
B2B1
  8
0
 10
7065.0944736700039
 20
8759.8499999999694
 30
0.0
 11
7065.0944736700039
 21
8760.2899999999718
 31
0.0
  0
LINE
  5
B2B2
  8
0
 10
7065.0944736700039
 20
8762.8099999999686
 30
0.0
 11
7065.0944736700039
 21
8763.2499999999709
 31
0.0
  0
LINE
  5
B2B3
  8
0
 10
7065.0944736700039
 20
8765.2499999999709
 30
0.0
 11
7065.0944736700039
 21
8766.8499999999694
 31
0.0
  0
LINE
  5
B2B4
  8
0
 10
7049.4644736699984
 20
8765.2499999999709
 30
0.0
 11
7071.6644736699973
 21
8765.2499999999709
 31
0.0
  0
LINE
  5
B2B5
  8
0
 10
7071.6644736699973
 20
8765.2499999999709
 30
0.0
 11
7071.6644736699973
 21
8764.2499999999727
 31
0.0
  0
LINE
  5
B2B6
  8
0
 10
7049.4644736699984
 20
8764.2499999999727
 30
0.0
 11
7049.4644736699984
 21
8765.2499999999709
 31
0.0
  0
LINE
  5
B2B7
  8
0
 10
7049.4644736699984
 20
8757.8499999999694
 30
0.0
 11
7071.6644736699973
 21
8757.8499999999694
 31
0.0
  0
LINE
  5
B2B8
  8
0
 10
7071.6644736699973
 20
8757.8499999999694
 30
0.0
 11
7071.6644736699973
 21
8758.8499999999694
 31
0.0
  0
LINE
  5
B2B9
  8
0
 10
7049.4644736699984
 20
8758.8499999999694
 30
0.0
 11
7049.4644736699984
 21
8757.8499999999694
 31
0.0
  0
LINE
  5
B2BA
  8
0
 10
7050.3294736700036
 20
8762.8099999999686
 30
0.0
 11
7058.0994736700086
 21
8762.8099999999686
 31
0.0
  0
LINE
  5
B2BB
  8
0
 10
7058.0994736700086
 20
8762.8099999999686
 30
0.0
 11
7058.0994736700086
 21
8760.2899999999718
 31
0.0
  0
LINE
  5
B2BC
  8
0
 10
7058.0994736700086
 20
8760.2899999999718
 30
0.0
 11
7050.3294736700036
 21
8760.2899999999718
 31
0.0
  0
LINE
  5
B2BD
  8
0
 10
7050.3294736700036
 20
8760.2899999999718
 30
0.0
 11
7050.3294736700036
 21
8762.8099999999686
 31
0.0
  0
LINE
  5
B2BE
  8
0
 10
7052.3944736700068
 20
8766.8499999999694
 30
0.0
 11
7056.0344736700063
 21
8766.8499999999694
 31
0.0
  0
LINE
  5
B2BF
  8
0
 10
7056.0344736700063
 20
8766.8499999999694
 30
0.0
 11
7056.0344736700063
 21
8765.2499999999709
 31
0.0
  0
LINE
  5
B2C0
  8
0
 10
7056.0344736700063
 20
8763.2499999999709
 30
0.0
 11
7056.0344736700063
 21
8762.8099999999686
 31
0.0
  0
LINE
  5
B2C1
  8
0
 10
7056.0344736700063
 20
8760.2899999999718
 30
0.0
 11
7056.0344736700063
 21
8759.8499999999694
 31
0.0
  0
LINE
  5
B2C2
  8
0
 10
7056.0344736700063
 20
8757.8499999999694
 30
0.0
 11
7056.0344736700063
 21
8756.2499999999709
 31
0.0
  0
LINE
  5
B2C3
  8
0
 10
7056.0344736700063
 20
8756.2499999999709
 30
0.0
 11
7052.3944736700068
 21
8756.2499999999709
 31
0.0
  0
LINE
  5
B2C4
  8
0
 10
7052.3944736700068
 20
8756.2499999999709
 30
0.0
 11
7052.3944736700068
 21
8757.8499999999694
 31
0.0
  0
LINE
  5
B2C5
  8
0
 10
7052.3944736700068
 20
8759.8499999999694
 30
0.0
 11
7052.3944736700068
 21
8760.2899999999718
 31
0.0
  0
LINE
  5
B2C6
  8
0
 10
7052.3944736700068
 20
8762.8099999999686
 30
0.0
 11
7052.3944736700068
 21
8763.2499999999709
 31
0.0
  0
LINE
  5
B2C7
  8
0
 10
7052.3944736700068
 20
8765.2499999999709
 30
0.0
 11
7052.3944736700068
 21
8766.8499999999694
 31
0.0
  0
LINE
  5
B2C8
  8
0
 10
7109.7644736700022
 20
8764.2499999999727
 30
0.0
 11
7109.7644736700022
 21
8763.2499999999709
 31
0.0
  0
LINE
  5
B2C9
  8
0
 10
7109.7644736700022
 20
8763.2499999999709
 30
0.0
 11
7087.5644736700051
 21
8763.2499999999709
 31
0.0
  0
LINE
  5
B2CA
  8
0
 10
7087.5644736700051
 20
8763.2499999999709
 30
0.0
 11
7087.5644736700051
 21
8764.2499999999727
 31
0.0
  0
LINE
  5
B2CB
  8
0
 10
7087.5644736700051
 20
8759.8499999999694
 30
0.0
 11
7109.7644736700022
 21
8759.8499999999694
 31
0.0
  0
LINE
  5
B2CC
  8
0
 10
7109.7644736700022
 20
8759.8499999999694
 30
0.0
 11
7109.7644736700022
 21
8758.8499999999694
 31
0.0
  0
LINE
  5
B2CD
  8
0
 10
7087.5644736700051
 20
8758.8499999999694
 30
0.0
 11
7087.5644736700051
 21
8759.8499999999694
 31
0.0
  0
LINE
  5
B2CE
  8
0
 10
7088.4294736699967
 20
8762.8099999999686
 30
0.0
 11
7096.1994736700008
 21
8762.8099999999686
 31
0.0
  0
LINE
  5
B2CF
  8
0
 10
7096.1994736700008
 20
8762.8099999999686
 30
0.0
 11
7096.1994736700008
 21
8760.2899999999718
 31
0.0
  0
LINE
  5
B2D0
  8
0
 10
7096.1994736700008
 20
8760.2899999999718
 30
0.0
 11
7088.4294736699967
 21
8760.2899999999718
 31
0.0
  0
LINE
  5
B2D1
  8
0
 10
7088.4294736699967
 20
8760.2899999999718
 30
0.0
 11
7088.4294736699967
 21
8762.8099999999686
 31
0.0
  0
LINE
  5
B2D2
  8
0
 10
7090.4944736699972
 20
8766.8499999999694
 30
0.0
 11
7094.1344736699966
 21
8766.8499999999694
 31
0.0
  0
LINE
  5
B2D3
  8
0
 10
7094.1344736699966
 20
8766.8499999999694
 30
0.0
 11
7094.1344736699966
 21
8765.2499999999709
 31
0.0
  0
LINE
  5
B2D4
  8
0
 10
7094.1344736699966
 20
8763.2499999999709
 30
0.0
 11
7094.1344736699966
 21
8762.8099999999686
 31
0.0
  0
LINE
  5
B2D5
  8
0
 10
7094.1344736699966
 20
8760.2899999999718
 30
0.0
 11
7094.1344736699966
 21
8759.8499999999694
 31
0.0
  0
LINE
  5
B2D6
  8
0
 10
7094.1344736699966
 20
8757.8499999999694
 30
0.0
 11
7094.1344736699966
 21
8756.2499999999709
 31
0.0
  0
LINE
  5
B2D7
  8
0
 10
7094.1344736699966
 20
8756.2499999999709
 30
0.0
 11
7090.4944736699972
 21
8756.2499999999709
 31
0.0
  0
LINE
  5
B2D8
  8
0
 10
7090.4944736699972
 20
8756.2499999999709
 30
0.0
 11
7090.4944736699972
 21
8757.8499999999694
 31
0.0
  0
LINE
  5
B2D9
  8
0
 10
7090.4944736699972
 20
8759.8499999999694
 30
0.0
 11
7090.4944736699972
 21
8760.2899999999718
 31
0.0
  0
LINE
  5
B2DA
  8
0
 10
7090.4944736699972
 20
8762.8099999999686
 30
0.0
 11
7090.4944736699972
 21
8763.2499999999709
 31
0.0
  0
LINE
  5
B2DB
  8
0
 10
7090.4944736699972
 20
8765.2499999999709
 30
0.0
 11
7090.4944736699972
 21
8766.8499999999694
 31
0.0
  0
LINE
  5
B2DC
  8
0
 10
7074.8644736699925
 20
8765.2499999999709
 30
0.0
 11
7097.0644736700051
 21
8765.2499999999709
 31
0.0
  0
LINE
  5
B2DD
  8
0
 10
7097.0644736700051
 20
8765.2499999999709
 30
0.0
 11
7097.0644736700051
 21
8764.2499999999727
 31
0.0
  0
LINE
  5
B2DE
  8
0
 10
7074.8644736699925
 20
8764.2499999999727
 30
0.0
 11
7074.8644736699925
 21
8765.2499999999709
 31
0.0
  0
LINE
  5
B2DF
  8
0
 10
7074.8644736699925
 20
8757.8499999999694
 30
0.0
 11
7097.0644736700051
 21
8757.8499999999694
 31
0.0
  0
LINE
  5
B2E0
  8
0
 10
7097.0644736700051
 20
8757.8499999999694
 30
0.0
 11
7097.0644736700051
 21
8758.8499999999694
 31
0.0
  0
LINE
  5
B2E1
  8
0
 10
7074.8644736699925
 20
8758.8499999999694
 30
0.0
 11
7074.8644736699925
 21
8757.8499999999694
 31
0.0
  0
LINE
  5
B2E2
  8
0
 10
7075.7294736699987
 20
8762.8099999999686
 30
0.0
 11
7083.4994736700019
 21
8762.8099999999686
 31
0.0
  0
LINE
  5
B2E3
  8
0
 10
7083.4994736700019
 20
8762.8099999999686
 30
0.0
 11
7083.4994736700019
 21
8760.2899999999718
 31
0.0
  0
LINE
  5
B2E4
  8
0
 10
7083.4994736700019
 20
8760.2899999999718
 30
0.0
 11
7075.7294736699987
 21
8760.2899999999718
 31
0.0
  0
LINE
  5
B2E5
  8
0
 10
7075.7294736699987
 20
8760.2899999999718
 30
0.0
 11
7075.7294736699987
 21
8762.8099999999686
 31
0.0
  0
LINE
  5
B2E6
  8
0
 10
7077.7944736700001
 20
8766.8499999999694
 30
0.0
 11
7081.4344736700004
 21
8766.8499999999694
 31
0.0
  0
LINE
  5
B2E7
  8
0
 10
7081.4344736700004
 20
8766.8499999999694
 30
0.0
 11
7081.4344736700004
 21
8765.2499999999709
 31
0.0
  0
LINE
  5
B2E8
  8
0
 10
7081.4344736700004
 20
8763.2499999999709
 30
0.0
 11
7081.4344736700004
 21
8762.8099999999686
 31
0.0
  0
LINE
  5
B2E9
  8
0
 10
7081.4344736700004
 20
8760.2899999999718
 30
0.0
 11
7081.4344736700004
 21
8759.8499999999694
 31
0.0
  0
LINE
  5
B2EA
  8
0
 10
7081.4344736700004
 20
8757.8499999999694
 30
0.0
 11
7081.4344736700004
 21
8756.2499999999709
 31
0.0
  0
LINE
  5
B2EB
  8
0
 10
7081.4344736700004
 20
8756.2499999999709
 30
0.0
 11
7077.7944736700001
 21
8756.2499999999709
 31
0.0
  0
LINE
  5
B2EC
  8
0
 10
7077.7944736700001
 20
8756.2499999999709
 30
0.0
 11
7077.7944736700001
 21
8757.8499999999694
 31
0.0
  0
LINE
  5
B2ED
  8
0
 10
7077.7944736700001
 20
8759.8499999999694
 30
0.0
 11
7077.7944736700001
 21
8760.2899999999718
 31
0.0
  0
LINE
  5
B2EE
  8
0
 10
7077.7944736700001
 20
8762.8099999999686
 30
0.0
 11
7077.7944736700001
 21
8763.2499999999709
 31
0.0
  0
LINE
  5
B2EF
  8
0
 10
7077.7944736700001
 20
8765.2499999999709
 30
0.0
 11
7077.7944736700001
 21
8766.8499999999694
 31
0.0
  0
LINE
  5
B2F0
  8
0
 10
7092.3144736700051
 20
8753.7499999999709
 30
0.0
 11
7092.3144736700051
 21
8769.3499999999694
 31
0.0
  0
LINE
  5
B2F1
  8
0
 10
7135.1644736699982
 20
8764.2499999999727
 30
0.0
 11
7135.1644736699982
 21
8763.2499999999709
 31
0.0
  0
LINE
  5
B2F2
  8
0
 10
7135.1644736699982
 20
8763.2499999999709
 30
0.0
 11
7112.9644736700002
 21
8763.2499999999709
 31
0.0
  0
LINE
  5
B2F3
  8
0
 10
7112.9644736700002
 20
8763.2499999999709
 30
0.0
 11
7112.9644736700002
 21
8764.2499999999727
 31
0.0
  0
LINE
  5
B2F4
  8
0
 10
7112.9644736700002
 20
8759.8499999999694
 30
0.0
 11
7135.1644736699982
 21
8759.8499999999694
 31
0.0
  0
LINE
  5
B2F5
  8
0
 10
7135.1644736699982
 20
8759.8499999999694
 30
0.0
 11
7135.1644736699982
 21
8758.8499999999694
 31
0.0
  0
LINE
  5
B2F6
  8
0
 10
7112.9644736700002
 20
8758.8499999999694
 30
0.0
 11
7112.9644736700002
 21
8759.8499999999694
 31
0.0
  0
LINE
  5
B2F7
  8
0
 10
7113.8294736700054
 20
8762.8099999999686
 30
0.0
 11
7121.5994736700077
 21
8762.8099999999686
 31
0.0
  0
LINE
  5
B2F8
  8
0
 10
7121.5994736700077
 20
8762.8099999999686
 30
0.0
 11
7121.5994736700077
 21
8760.2899999999718
 31
0.0
  0
LINE
  5
B2F9
  8
0
 10
7121.5994736700077
 20
8760.2899999999718
 30
0.0
 11
7113.8294736700054
 21
8760.2899999999718
 31
0.0
  0
LINE
  5
B2FA
  8
0
 10
7113.8294736700054
 20
8760.2899999999718
 30
0.0
 11
7113.8294736700054
 21
8762.8099999999686
 31
0.0
  0
LINE
  5
B2FB
  8
0
 10
7115.8944736700078
 20
8766.8499999999694
 30
0.0
 11
7119.5344736700072
 21
8766.8499999999694
 31
0.0
  0
LINE
  5
B2FC
  8
0
 10
7119.5344736700072
 20
8766.8499999999694
 30
0.0
 11
7119.5344736700072
 21
8765.2499999999709
 31
0.0
  0
LINE
  5
B2FD
  8
0
 10
7119.5344736700072
 20
8763.2499999999709
 30
0.0
 11
7119.5344736700072
 21
8762.8099999999686
 31
0.0
  0
LINE
  5
B2FE
  8
0
 10
7119.5344736700072
 20
8760.2899999999718
 30
0.0
 11
7119.5344736700072
 21
8759.8499999999694
 31
0.0
  0
LINE
  5
B2FF
  8
0
 10
7119.5344736700072
 20
8757.8499999999694
 30
0.0
 11
7119.5344736700072
 21
8756.2499999999709
 31
0.0
  0
LINE
  5
B300
  8
0
 10
7119.5344736700072
 20
8756.2499999999709
 30
0.0
 11
7115.8944736700078
 21
8756.2499999999709
 31
0.0
  0
LINE
  5
B301
  8
0
 10
7115.8944736700078
 20
8756.2499999999709
 30
0.0
 11
7115.8944736700078
 21
8757.8499999999694
 31
0.0
  0
LINE
  5
B302
  8
0
 10
7115.8944736700078
 20
8759.8499999999694
 30
0.0
 11
7115.8944736700078
 21
8760.2899999999718
 31
0.0
  0
LINE
  5
B303
  8
0
 10
7115.8944736700078
 20
8762.8099999999686
 30
0.0
 11
7115.8944736700078
 21
8763.2499999999709
 31
0.0
  0
LINE
  5
B304
  8
0
 10
7115.8944736700078
 20
8765.2499999999709
 30
0.0
 11
7115.8944736700078
 21
8766.8499999999694
 31
0.0
  0
LINE
  5
B305
  8
0
 10
7100.2644736700022
 20
8765.2499999999709
 30
0.0
 11
7122.4644736700002
 21
8765.2499999999709
 31
0.0
  0
LINE
  5
B306
  8
0
 10
7122.4644736700002
 20
8765.2499999999709
 30
0.0
 11
7122.4644736700002
 21
8764.2499999999727
 31
0.0
  0
LINE
  5
B307
  8
0
 10
7100.2644736700022
 20
8764.2499999999727
 30
0.0
 11
7100.2644736700022
 21
8765.2499999999709
 31
0.0
  0
LINE
  5
B308
  8
0
 10
7100.2644736700022
 20
8757.8499999999694
 30
0.0
 11
7122.4644736700002
 21
8757.8499999999694
 31
0.0
  0
LINE
  5
B309
  8
0
 10
7122.4644736700002
 20
8757.8499999999694
 30
0.0
 11
7122.4644736700002
 21
8758.8499999999694
 31
0.0
  0
LINE
  5
B30A
  8
0
 10
7100.2644736700022
 20
8758.8499999999694
 30
0.0
 11
7100.2644736700022
 21
8757.8499999999694
 31
0.0
  0
LINE
  5
B30B
  8
0
 10
7101.1294736700083
 20
8762.8099999999686
 30
0.0
 11
7108.899473669997
 21
8762.8099999999686
 31
0.0
  0
LINE
  5
B30C
  8
0
 10
7108.899473669997
 20
8762.8099999999686
 30
0.0
 11
7108.899473669997
 21
8760.2899999999718
 31
0.0
  0
LINE
  5
B30D
  8
0
 10
7108.899473669997
 20
8760.2899999999718
 30
0.0
 11
7101.1294736700083
 21
8760.2899999999718
 31
0.0
  0
LINE
  5
B30E
  8
0
 10
7101.1294736700083
 20
8760.2899999999718
 30
0.0
 11
7101.1294736700083
 21
8762.8099999999686
 31
0.0
  0
LINE
  5
B30F
  8
0
 10
7103.1944736699952
 20
8766.8499999999694
 30
0.0
 11
7106.8344736699937
 21
8766.8499999999694
 31
0.0
  0
LINE
  5
B310
  8
0
 10
7106.8344736699937
 20
8766.8499999999694
 30
0.0
 11
7106.8344736699937
 21
8765.2499999999709
 31
0.0
  0
LINE
  5
B311
  8
0
 10
7106.8344736699937
 20
8763.2499999999709
 30
0.0
 11
7106.8344736699937
 21
8762.8099999999686
 31
0.0
  0
LINE
  5
B312
  8
0
 10
7106.8344736699937
 20
8760.2899999999718
 30
0.0
 11
7106.8344736699937
 21
8759.8499999999694
 31
0.0
  0
LINE
  5
B313
  8
0
 10
7106.8344736699937
 20
8757.8499999999694
 30
0.0
 11
7106.8344736699937
 21
8756.2499999999709
 31
0.0
  0
LINE
  5
B314
  8
0
 10
7106.8344736699937
 20
8756.2499999999709
 30
0.0
 11
7103.1944736699952
 21
8756.2499999999709
 31
0.0
  0
LINE
  5
B315
  8
0
 10
7103.1944736699952
 20
8756.2499999999709
 30
0.0
 11
7103.1944736699952
 21
8757.8499999999694
 31
0.0
  0
LINE
  5
B316
  8
0
 10
7103.1944736699952
 20
8759.8499999999694
 30
0.0
 11
7103.1944736699952
 21
8760.2899999999718
 31
0.0
  0
LINE
  5
B317
  8
0
 10
7103.1944736699952
 20
8762.8099999999686
 30
0.0
 11
7103.1944736699952
 21
8763.2499999999709
 31
0.0
  0
LINE
  5
B318
  8
0
 10
7103.1944736699952
 20
8765.2499999999709
 30
0.0
 11
7103.1944736699952
 21
8766.8499999999694
 31
0.0
  0
LINE
  5
B319
  8
0
 10
7138.3644736699944
 20
8763.2499999999709
 30
0.0
 11
7138.3644736699944
 21
8764.2499999999727
 31
0.0
  0
LINE
  5
B31A
  8
0
 10
7138.3644736699944
 20
8758.8499999999694
 30
0.0
 11
7138.3644736699944
 21
8759.8499999999694
 31
0.0
  0
LINE
  5
B31B
  8
0
 10
7139.2294736699987
 20
8760.2899999999718
 30
0.0
 11
7139.2294736699987
 21
8762.8099999999686
 31
0.0
  0
LINE
  5
B31C
  8
0
 10
7125.6644736699973
 20
8764.2499999999727
 30
0.0
 11
7125.6644736699973
 21
8765.2499999999709
 31
0.0
  0
LINE
  5
B31D
  8
0
 10
7125.6644736699973
 20
8758.8499999999694
 30
0.0
 11
7125.6644736699973
 21
8757.8499999999694
 31
0.0
  0
LINE
  5
B31E
  8
0
 10
7126.5294736700007
 20
8762.8099999999686
 30
0.0
 11
7134.2994736700057
 21
8762.8099999999686
 31
0.0
  0
LINE
  5
B31F
  8
0
 10
7134.2994736700057
 20
8762.8099999999686
 30
0.0
 11
7134.2994736700057
 21
8760.2899999999718
 31
0.0
  0
LINE
  5
B320
  8
0
 10
7134.2994736700057
 20
8760.2899999999718
 30
0.0
 11
7126.5294736700007
 21
8760.2899999999718
 31
0.0
  0
LINE
  5
B321
  8
0
 10
7126.5294736700007
 20
8760.2899999999718
 30
0.0
 11
7126.5294736700007
 21
8762.8099999999686
 31
0.0
  0
LINE
  5
B322
  8
0
 10
7128.5944736700048
 20
8766.8499999999694
 30
0.0
 11
7132.2344736700034
 21
8766.8499999999694
 31
0.0
  0
LINE
  5
B323
  8
0
 10
7132.2344736700034
 20
8766.8499999999694
 30
0.0
 11
7132.2344736700034
 21
8765.2499999999709
 31
0.0
  0
LINE
  5
B324
  8
0
 10
7132.2344736700034
 20
8763.2499999999709
 30
0.0
 11
7132.2344736700034
 21
8762.8099999999686
 31
0.0
  0
LINE
  5
B325
  8
0
 10
7132.2344736700034
 20
8760.2899999999718
 30
0.0
 11
7132.2344736700034
 21
8759.8499999999694
 31
0.0
  0
LINE
  5
B326
  8
0
 10
7132.2344736700034
 20
8757.8499999999694
 30
0.0
 11
7132.2344736700034
 21
8756.2499999999709
 31
0.0
  0
LINE
  5
B327
  8
0
 10
7132.2344736700034
 20
8756.2499999999709
 30
0.0
 11
7128.5944736700048
 21
8756.2499999999709
 31
0.0
  0
LINE
  5
B328
  8
0
 10
7128.5944736700048
 20
8756.2499999999709
 30
0.0
 11
7128.5944736700048
 21
8757.8499999999694
 31
0.0
  0
LINE
  5
B329
  8
0
 10
7128.5944736700048
 20
8759.8499999999694
 30
0.0
 11
7128.5944736700048
 21
8760.2899999999718
 31
0.0
  0
LINE
  5
B32A
  8
0
 10
7128.5944736700048
 20
8762.8099999999686
 30
0.0
 11
7128.5944736700048
 21
8763.2499999999709
 31
0.0
  0
LINE
  5
B32B
  8
0
 10
7128.5944736700048
 20
8765.2499999999709
 30
0.0
 11
7128.5944736700048
 21
8766.8499999999694
 31
0.0
  0
LINE
  5
B32C
  8
0
 10
7027.393016107002
 20
8763.2499999999709
 30
0.0
 11
7032.6994736699999
 21
8763.2499999999709
 31
0.0
  0
LINE
  5
B32D
  8
0
 10
7032.0783240919991
 20
8759.8499999999694
 30
0.0
 11
7032.6994736699999
 21
8759.8499999999694
 31
0.0
  0
LINE
  5
B32E
  8
0
 10
7046.2644736700031
 20
8765.0499999999665
 30
0.0
 11
7049.4644736699984
 21
8765.0499999999665
 31
0.0
  0
LINE
  5
B32F
  8
0
 10
7046.2644736700031
 20
8758.0499999999665
 30
0.0
 11
7049.4644736699984
 21
8758.0499999999665
 31
0.0
  0
LINE
  5
B330
  8
0
 10
7071.1994736700008
 20
8759.8499999999694
 30
0.0
 11
7071.1994736700008
 21
8763.2499999999709
 31
0.0
  0
LINE
  5
B331
  8
0
 10
7081.5
 20
8770.3499999999694
 30
0.0
 11
7081.5
 21
8765.2499999999709
 31
0.0
  0
LINE
  5
B332
  8
0
 10
7081.5
 20
8757.8499999999694
 30
0.0
 11
7081.5
 21
8749.8526887859989
 31
0.0
  0
LINE
  5
B333
  8
0
 10
7026.014984345994
 20
8764.2499999999727
 30
0.0
 11
7185.9644736699993
 21
8764.2499999999727
 31
0.0
  0
LINE
  5
B334
  8
0
 10
7033.4563558530062
 20
8758.8499999999694
 30
0.0
 11
7185.9644736699993
 21
8758.8499999999694
 31
0.0
  0
LINE
  5
B335
  8
0
 10
7160.564473670006
 20
8764.2499999999727
 30
0.0
 11
7160.564473670006
 21
8763.2499999999709
 31
0.0
  0
LINE
  5
B336
  8
0
 10
7160.564473670006
 20
8763.2499999999709
 30
0.0
 11
7138.3644736699944
 21
8763.2499999999709
 31
0.0
  0
LINE
  5
B337
  8
0
 10
7138.3644736699944
 20
8759.8499999999694
 30
0.0
 11
7160.564473670006
 21
8759.8499999999694
 31
0.0
  0
LINE
  5
B338
  8
0
 10
7160.564473670006
 20
8759.8499999999694
 30
0.0
 11
7160.564473670006
 21
8758.8499999999694
 31
0.0
  0
LINE
  5
B339
  8
0
 10
7139.2294736699987
 20
8762.8099999999686
 30
0.0
 11
7146.9994736700028
 21
8762.8099999999686
 31
0.0
  0
LINE
  5
B33A
  8
0
 10
7146.9994736700028
 20
8762.8099999999686
 30
0.0
 11
7146.9994736700028
 21
8760.2899999999718
 31
0.0
  0
LINE
  5
B33B
  8
0
 10
7146.9994736700028
 20
8760.2899999999718
 30
0.0
 11
7139.2294736699987
 21
8760.2899999999718
 31
0.0
  0
LINE
  5
B33C
  8
0
 10
7141.294473670001
 20
8766.8499999999694
 30
0.0
 11
7144.9344736700023
 21
8766.8499999999694
 31
0.0
  0
LINE
  5
B33D
  8
0
 10
7144.9344736700023
 20
8766.8499999999694
 30
0.0
 11
7144.9344736700023
 21
8765.2499999999709
 31
0.0
  0
LINE
  5
B33E
  8
0
 10
7144.9344736700023
 20
8763.2499999999709
 30
0.0
 11
7144.9344736700023
 21
8762.8099999999686
 31
0.0
  0
LINE
  5
B33F
  8
0
 10
7144.9344736700023
 20
8760.2899999999718
 30
0.0
 11
7144.9344736700023
 21
8759.8499999999694
 31
0.0
  0
LINE
  5
B340
  8
0
 10
7144.9344736700023
 20
8757.8499999999694
 30
0.0
 11
7144.9344736700023
 21
8756.2499999999709
 31
0.0
  0
LINE
  5
B341
  8
0
 10
7144.9344736700023
 20
8756.2499999999709
 30
0.0
 11
7141.294473670001
 21
8756.2499999999709
 31
0.0
  0
LINE
  5
B342
  8
0
 10
7141.294473670001
 20
8756.2499999999709
 30
0.0
 11
7141.294473670001
 21
8757.8499999999694
 31
0.0
  0
LINE
  5
B343
  8
0
 10
7141.294473670001
 20
8759.8499999999694
 30
0.0
 11
7141.294473670001
 21
8760.2899999999718
 31
0.0
  0
LINE
  5
B344
  8
0
 10
7141.294473670001
 20
8762.8099999999686
 30
0.0
 11
7141.294473670001
 21
8763.2499999999709
 31
0.0
  0
LINE
  5
B345
  8
0
 10
7141.294473670001
 20
8765.2499999999709
 30
0.0
 11
7141.294473670001
 21
8766.8499999999694
 31
0.0
  0
LINE
  5
B346
  8
0
 10
7125.6644736699973
 20
8765.2499999999709
 30
0.0
 11
7147.8644736699944
 21
8765.2499999999709
 31
0.0
  0
LINE
  5
B347
  8
0
 10
7147.8644736699944
 20
8765.2499999999709
 30
0.0
 11
7147.8644736699944
 21
8764.2499999999727
 31
0.0
  0
LINE
  5
B348
  8
0
 10
7125.6644736699973
 20
8757.8499999999694
 30
0.0
 11
7147.8644736699944
 21
8757.8499999999694
 31
0.0
  0
LINE
  5
B349
  8
0
 10
7147.8644736699944
 20
8757.8499999999694
 30
0.0
 11
7147.8644736699944
 21
8758.8499999999694
 31
0.0
  0
LINE
  5
B34A
  8
0
 10
7185.9644736699993
 20
8763.2499999999709
 30
0.0
 11
7163.7644736700031
 21
8763.2499999999709
 31
0.0
  0
LINE
  5
B34B
  8
0
 10
7163.7644736700031
 20
8763.2499999999709
 30
0.0
 11
7163.7644736700031
 21
8764.2499999999727
 31
0.0
  0
LINE
  5
B34C
  8
0
 10
7163.7644736700031
 20
8759.8499999999694
 30
0.0
 11
7185.9644736699993
 21
8759.8499999999694
 31
0.0
  0
LINE
  5
B34D
  8
0
 10
7163.7644736700031
 20
8758.8499999999694
 30
0.0
 11
7163.7644736700031
 21
8759.8499999999694
 31
0.0
  0
LINE
  5
B34E
  8
0
 10
7164.6294736700083
 20
8762.8099999999686
 30
0.0
 11
7172.399473669996
 21
8762.8099999999686
 31
0.0
  0
LINE
  5
B34F
  8
0
 10
7172.399473669996
 20
8760.2899999999718
 30
0.0
 11
7164.6294736700083
 21
8760.2899999999718
 31
0.0
  0
LINE
  5
B350
  8
0
 10
7164.6294736700083
 20
8760.2899999999718
 30
0.0
 11
7164.6294736700083
 21
8762.8099999999686
 31
0.0
  0
LINE
  5
B351
  8
0
 10
7166.6944736699961
 20
8766.8499999999694
 30
0.0
 11
7170.3344736699928
 21
8766.8499999999694
 31
0.0
  0
LINE
  5
B352
  8
0
 10
7170.3344736699928
 20
8756.2499999999709
 30
0.0
 11
7166.6944736699961
 21
8756.2499999999709
 31
0.0
  0
LINE
  5
B353
  8
0
 10
7166.6944736699961
 20
8756.2499999999709
 30
0.0
 11
7166.6944736699961
 21
8757.8499999999694
 31
0.0
  0
LINE
  5
B354
  8
0
 10
7166.6944736699961
 20
8759.8499999999694
 30
0.0
 11
7166.6944736699961
 21
8760.2899999999718
 31
0.0
  0
LINE
  5
B355
  8
0
 10
7166.6944736699961
 20
8762.8099999999686
 30
0.0
 11
7166.6944736699961
 21
8763.2499999999709
 31
0.0
  0
LINE
  5
B356
  8
0
 10
7166.6944736699961
 20
8765.2499999999709
 30
0.0
 11
7166.6944736699961
 21
8766.8499999999694
 31
0.0
  0
LINE
  5
B357
  8
0
 10
7151.064473670006
 20
8765.2499999999709
 30
0.0
 11
7173.2644736700022
 21
8765.2499999999709
 31
0.0
  0
LINE
  5
B358
  8
0
 10
7151.064473670006
 20
8764.2499999999727
 30
0.0
 11
7151.064473670006
 21
8765.2499999999709
 31
0.0
  0
LINE
  5
B359
  8
0
 10
7151.064473670006
 20
8757.8499999999694
 30
0.0
 11
7173.2644736700022
 21
8757.8499999999694
 31
0.0
  0
LINE
  5
B35A
  8
0
 10
7151.064473670006
 20
8758.8499999999694
 30
0.0
 11
7151.064473670006
 21
8757.8499999999694
 31
0.0
  0
LINE
  5
B35B
  8
0
 10
7151.9294736699958
 20
8762.8099999999686
 30
0.0
 11
7159.699473669999
 21
8762.8099999999686
 31
0.0
  0
LINE
  5
B35C
  8
0
 10
7159.699473669999
 20
8762.8099999999686
 30
0.0
 11
7159.699473669999
 21
8760.2899999999718
 31
0.0
  0
LINE
  5
B35D
  8
0
 10
7159.699473669999
 20
8760.2899999999718
 30
0.0
 11
7151.9294736699958
 21
8760.2899999999718
 31
0.0
  0
LINE
  5
B35E
  8
0
 10
7151.9294736699958
 20
8760.2899999999718
 30
0.0
 11
7151.9294736699958
 21
8762.8099999999686
 31
0.0
  0
LINE
  5
B35F
  8
0
 10
7153.9944736699981
 20
8766.8499999999694
 30
0.0
 11
7157.6344736699984
 21
8766.8499999999694
 31
0.0
  0
LINE
  5
B360
  8
0
 10
7157.6344736699984
 20
8766.8499999999694
 30
0.0
 11
7157.6344736699984
 21
8765.2499999999709
 31
0.0
  0
LINE
  5
B361
  8
0
 10
7157.6344736699984
 20
8763.2499999999709
 30
0.0
 11
7157.6344736699984
 21
8762.8099999999686
 31
0.0
  0
LINE
  5
B362
  8
0
 10
7157.6344736699984
 20
8760.2899999999718
 30
0.0
 11
7157.6344736699984
 21
8759.8499999999694
 31
0.0
  0
LINE
  5
B363
  8
0
 10
7157.6344736699984
 20
8757.8499999999694
 30
0.0
 11
7157.6344736699984
 21
8756.2499999999709
 31
0.0
  0
LINE
  5
B364
  8
0
 10
7157.6344736699984
 20
8756.2499999999709
 30
0.0
 11
7153.9944736699981
 21
8756.2499999999709
 31
0.0
  0
LINE
  5
B365
  8
0
 10
7153.9944736699981
 20
8756.2499999999709
 30
0.0
 11
7153.9944736699981
 21
8757.8499999999694
 31
0.0
  0
LINE
  5
B366
  8
0
 10
7153.9944736699981
 20
8759.8499999999694
 30
0.0
 11
7153.9944736699981
 21
8760.2899999999718
 31
0.0
  0
LINE
  5
B367
  8
0
 10
7153.9944736699981
 20
8762.8099999999686
 30
0.0
 11
7153.9944736699981
 21
8763.2499999999709
 31
0.0
  0
LINE
  5
B368
  8
0
 10
7153.9944736699981
 20
8765.2499999999709
 30
0.0
 11
7153.9944736699981
 21
8766.8499999999694
 31
0.0
  0
LINE
  5
B369
  8
0
 10
7172.399473669996
 20
8762.8099999999686
 30
0.0
 11
7172.399473669996
 21
8760.2899999999718
 31
0.0
  0
LINE
  5
B36A
  8
0
 10
7170.3344736699928
 20
8766.8499999999694
 30
0.0
 11
7170.3344736699928
 21
8765.2499999999709
 31
0.0
  0
LINE
  5
B36B
  8
0
 10
7173.2644736700022
 20
8765.2499999999709
 30
0.0
 11
7173.2644736700022
 21
8764.2499999999727
 31
0.0
  0
LINE
  5
B36C
  8
0
 10
7173.2644736700022
 20
8757.8499999999694
 30
0.0
 11
7173.2644736700022
 21
8758.8499999999694
 31
0.0
  0
LINE
  5
B36D
  8
0
 10
7170.3344736699928
 20
8756.2499999999709
 30
0.0
 11
7170.3344736699928
 21
8757.8499999999694
 31
0.0
  0
LINE
  5
B36E
  8
0
 10
7170.3344736699928
 20
8759.8499999999694
 30
0.0
 11
7170.3344736699928
 21
8760.2899999999718
 31
0.0
  0
LINE
  5
B36F
  8
0
 10
7170.3344736699928
 20
8762.8099999999686
 30
0.0
 11
7170.3344736699928
 21
8763.2499999999709
 31
0.0
  0
LINE
  5
B370
  8
0
 10
7185.9644736699993
 20
8764.2499999999727
 30
0.0
 11
7185.9644736699993
 21
8763.2499999999709
 31
0.0
  0
LINE
  5
B371
  8
0
 10
7185.9644736699993
 20
8759.8499999999694
 30
0.0
 11
7185.9644736699993
 21
8758.8499999999694
 31
0.0
  0
LINE
  5
B372
  8
0
 10
7179.3944736700078
 20
8766.8499999999694
 30
0.0
 11
7183.0344736700072
 21
8766.8499999999694
 31
0.0
  0
LINE
  5
B373
  8
0
 10
7183.0344736700072
 20
8756.2499999999709
 30
0.0
 11
7179.3944736700078
 21
8756.2499999999709
 31
0.0
  0
LINE
  5
B374
  8
0
 10
7179.3944736700078
 20
8756.2499999999709
 30
0.0
 11
7179.3944736700078
 21
8757.8499999999694
 31
0.0
  0
LINE
  5
B375
  8
0
 10
7179.3944736700078
 20
8759.8499999999694
 30
0.0
 11
7179.3944736700078
 21
8760.2899999999718
 31
0.0
  0
LINE
  5
B376
  8
0
 10
7179.3944736700078
 20
8762.8099999999686
 30
0.0
 11
7179.3944736700078
 21
8763.2499999999709
 31
0.0
  0
LINE
  5
B377
  8
0
 10
7179.3944736700078
 20
8765.2499999999709
 30
0.0
 11
7179.3944736700078
 21
8766.8499999999694
 31
0.0
  0
LINE
  5
B378
  8
0
 10
7183.0344736700072
 20
8766.8499999999694
 30
0.0
 11
7183.0344736700072
 21
8765.2499999999709
 31
0.0
  0
LINE
  5
B379
  8
0
 10
7183.0344736700072
 20
8756.2499999999709
 30
0.0
 11
7183.0344736700072
 21
8757.8499999999694
 31
0.0
  0
LINE
  5
B37A
  8
0
 10
7183.0344736700072
 20
8759.8499999999694
 30
0.0
 11
7183.0344736700072
 21
8760.2899999999718
 31
0.0
  0
LINE
  5
B37B
  8
0
 10
7183.0344736700072
 20
8762.8099999999686
 30
0.0
 11
7183.0344736700072
 21
8763.2499999999709
 31
0.0
  0
LINE
  5
B37C
  8
0
 10
7176.4644736699993
 20
8764.2499999999727
 30
0.0
 11
7176.4644736699993
 21
8765.2499999999709
 31
0.0
  0
LINE
  5
B37D
  8
0
 10
7176.4644736699993
 20
8765.2499999999709
 30
0.0
 11
7185.9644736699993
 21
8765.2499999999709
 31
0.0
  0
LINE
  5
B37E
  8
0
 10
7176.4644736699993
 20
8758.8499999999694
 30
0.0
 11
7176.4644736699993
 21
8757.8499999999694
 31
0.0
  0
LINE
  5
B37F
  8
0
 10
7176.4644736699993
 20
8757.8499999999694
 30
0.0
 11
7185.9644736699993
 21
8757.8499999999694
 31
0.0
  0
LINE
  5
B380
  8
0
 10
7177.3294736700054
 20
8762.8099999999686
 30
0.0
 11
7185.0994736700086
 21
8762.8099999999686
 31
0.0
  0
LINE
  5
B381
  8
0
 10
7185.0994736700086
 20
8760.2899999999718
 30
0.0
 11
7177.3294736700054
 21
8760.2899999999718
 31
0.0
  0
LINE
  5
B382
  8
0
 10
7177.3294736700054
 20
8760.2899999999718
 30
0.0
 11
7177.3294736700054
 21
8762.8099999999686
 31
0.0
  0
LINE
  5
B383
  8
0
 10
7185.0994736700086
 20
8762.8099999999686
 30
0.0
 11
7185.0994736700086
 21
8760.2899999999718
 31
0.0
  0
LINE
  5
B384
  8
0
 10
10776.0
 20
8583.5683897679701
 30
0.0
 11
11031.0
 21
8583.5683897679701
 31
0.0
  0
LINE
  5
B385
  8
0
 10
11031.0
 20
8735.5683897679664
 30
0.0
 11
11031.0
 21
8583.5683897679701
 31
0.0
  0
LINE
  5
B386
  8
0
 10
10776.0
 20
8735.5683897679664
 30
0.0
 11
10776.0
 21
8583.5683897679701
 31
0.0
  0
LINE
  5
B387
  8
0
 10
10850.5
 20
8764.5683897679719
 30
0.0
 11
10956.5
 21
8764.5683897679719
 31
0.0
  0
LINE
  5
B388
  8
0
 10
10833.0
 20
8735.5683897679664
 30
0.0
 11
10850.5
 21
8764.5683897679719
 31
0.0
  0
LINE
  5
B389
  8
0
 10
10956.5
 20
8764.5683897679719
 30
0.0
 11
10974.0
 21
8735.5683897679664
 31
0.0
  0
LINE
  5
B38A
  8
0
 10
11029.0
 20
8735.5683897679664
 30
0.0
 11
11029.0
 21
8583.5683897679701
 31
0.0
  0
LINE
  5
B38B
  8
0
 10
10779.0
 20
8735.5683897679664
 30
0.0
 11
10779.0
 21
8583.5683897679701
 31
0.0
  0
LINE
  5
B38C
  8
0
 10
10788.0
 20
8733.5683897679701
 30
0.0
 11
11020.0
 21
8733.5683897679701
 31
0.0
  0
ARC
  5
B38D
  8
0
 10
10788.0
 20
8724.5683897679701
 30
0.0
 40
9.0
 50
90.0
 51
180.0
  0
ARC
  5
B38E
  8
0
 10
11020.0
 20
8724.5683897679701
 30
0.0
 40
9.0
 50
0.0
 51
90.0
  0
LINE
  5
B38F
  8
0
 10
10974.0
 20
8735.5683897679664
 30
0.0
 11
10974.0
 21
8733.5683897679701
 31
0.0
  0
LINE
  5
B390
  8
0
 10
10833.0
 20
8735.5683897679664
 30
0.0
 11
10833.0
 21
8733.5683897679701
 31
0.0
  0
LINE
  5
B391
  8
0
 10
10776.0
 20
8735.5683897679664
 30
0.0
 11
10833.0
 21
8735.5683897679664
 31
0.0
  0
LINE
  5
B392
  8
0
 10
10974.0
 20
8735.5683897679664
 30
0.0
 11
11031.0
 21
8735.5683897679664
 31
0.0
  0
LINE
  5
B393
  8
0
 10
11055.0
 20
8710.5683897679683
 30
0.0
 11
11055.0
 21
8637.5683897679701
 31
0.0
  0
LINE
  5
B394
  8
0
 10
11031.0
 20
8712.5683897679719
 30
0.0
 11
11055.0
 21
8710.5683897679683
 31
0.0
  0
LINE
  5
B395
  8
0
 10
11031.0
 20
8635.5683897679701
 30
0.0
 11
11055.0
 21
8637.5683897679701
 31
0.0
  0
LINE
  5
B396
  8
0
 10
10696.0
 20
8721.5683897679701
 30
0.0
 11
10696.0
 21
8610.3968168929696
 31
0.0
  0
LINE
  5
B397
  8
0
 10
10776.0
 20
8596.5683897679701
 30
0.0
 11
10709.828427125
 21
8596.5683897679701
 31
0.0
  0
LINE
  5
B398
  8
0
 10
10776.0
 20
8723.5683897679701
 30
0.0
 11
10698.0
 21
8723.5683897679701
 31
0.0
  0
LINE
  5
B399
  8
0
 10
10776.0
 20
8609.5683897679701
 30
0.0
 11
10696.17964055799
 21
8609.5683897679701
 31
0.0
  0
LINE
  5
B39A
  8
0
 10
10696.585786436999
 20
8608.9826033309655
 30
0.0
 11
10708.414213562
 21
8597.1541762059696
 31
0.0
  0
ARC
  5
B39B
  8
0
 10
10698.0
 20
8721.5683897679701
 30
0.0
 40
2.0
 50
90.0
 51
180.0
  0
ARC
  5
B39C
  8
0
 10
10698.0
 20
8610.3968168929696
 30
0.0
 40
2.0
 50
180.0
 51
224.99999769688981
  0
ARC
  5
B39D
  8
0
 10
10709.828427125
 20
8598.5683897679701
 30
0.0
 40
2.0
 50
224.99999769688981
 51
270.0
  0
LINE
  5
B39E
  8
0
 10
10878.5
 20
8770.3499999999694
 30
0.0
 11
10878.5
 21
8764.5683897679719
 31
0.0
  0
LINE
  5
B39F
  8
0
  6
CENTER2
 10
7015.8344736699937
 20
8761.5499999999665
 30
0.0
 11
10848.678557898
 21
8761.5499999999665
 31
0.0
  0
LINE
  5
B3A0
  8
0
 10
6994.99999999997
 20
8730.0
 30
0.0
 11
7004.99999999997
 21
8730.0
 31
0.0
  0
LINE
  5
B3A1
  8
0
 10
6994.99999999997
 20
8768.0
 30
0.0
 11
7004.99999999997
 21
8768.0
 31
0.0
  0
LINE
  5
B3A2
  8
0
 10
7040.6676918895419
 20
8753.5499999999665
 30
0.0
 11
7076.1994736699999
 21
8753.5499999999665
 31
0.0
  0
LINE
  5
B3A3
  8
0
 10
7067.4999999999991
 20
8545.99999999797
 30
0.0
 11
7142.5
 21
8545.99999999797
 31
0.0
  0
LINE
  5
B3A4
  8
0
 10
7142.5
 20
8545.99999999797
 30
0.0
 11
7142.5
 21
8445.9999999979718
 31
0.0
  0
LINE
  5
B3A5
  8
0
 10
7092.5
 20
8395.99999999797
 30
0.0
 11
7067.4999999999991
 21
8395.99999999797
 31
0.0
  0
LINE
  5
B3A6
  8
0
 10
7142.5
 20
8445.9999999979718
 30
0.0
 11
7124.7261892359966
 21
8428.2261892329716
 31
0.0
  0
LINE
  5
B3A7
  8
0
 10
7106.2410423529946
 20
8409.7410423499787
 30
0.0
 11
7092.5
 21
8395.99999999797
 31
0.0
  0
LINE
  5
B3A8
  8
0
 10
7070.699999999998
 20
8545.99999999797
 30
0.0
 11
7070.699999999998
 21
8395.99999999797
 31
0.0
  0
LINE
  5
B3A9
  8
0
 10
7067.4999999999991
 20
8545.99999999797
 30
0.0
 11
7067.4999999999991
 21
8395.99999999797
 31
0.0
  0
LINE
  5
B3AA
  8
0
 10
7646.8153591070022
 20
7962.2999999979729
 30
0.0
 11
7561.8153591070022
 21
7962.2999999979729
 31
0.0
  0
LINE
  5
B3AB
  8
0
 10
7561.8153591070022
 20
7962.2999999979729
 30
0.0
 11
7561.8153591070022
 21
7979.7999999979738
 31
0.0
  0
LINE
  5
B3AC
  8
0
 10
7646.8153591070022
 20
7962.2999999979729
 30
0.0
 11
7646.8153591070022
 21
7979.7999999979738
 31
0.0
  0
ARC
  5
B3AD
  8
0
 10
7604.3153591070022
 20
7781.3555555529656
 30
0.0
 40
202.944444444
 50
77.911817005054786
 51
102.0881860662665
  0
ARC
  5
B3AE
  8
0
 10
7300.7678759959972
 20
8463.6256766049682
 30
0.0
 40
19.751979002999999
 50
5.5200692339941702
 51
85.927159842199856
  0
ARC
  5
B3AF
  8
0
 10
7184.497327930002
 20
8344.3805385469659
 30
0.0
 40
14.0
 50
162.48911710711079
 51
288.95811197020618
  0
ARC
  5
B3B0
  8
0
 10
7192.3276386049993
 20
8455.9033722319691
 30
0.0
 40
85.0
 50
270.38706613002847
 51
315.72361300301702
  0
LINE
  5
B3B1
  8
0
 10
7096.0096990720049
 20
8446.3634400469673
 30
0.0
 11
7160.5544041959947
 21
8405.5971939319716
 31
0.0
  0
ARC
  5
B3B2
  8
0
 10
7095.8819279529998
 20
8431.3639842389748
 30
0.0
 40
15.0
 50
89.511945902299928
 51
205.9352805127956
  0
LINE
  5
B3B3
  8
0
 10
7082.3925986109971
 20
8424.8036493469717
 30
0.0
 11
7146.9373037350006
 21
8384.0374032309664
 31
0.0
  0
ARC
  5
B3B4
  8
0
 10
7192.3276386049993
 20
8455.9033722319691
 30
0.0
 40
85.0
 50
237.72361167270591
 51
270.38706613002847
  0
ARC
  5
B3B5
  8
0
 10
7192.3276386049993
 20
8455.9033722319691
 30
0.0
 40
59.5
 50
237.72361167270591
 51
315.72361300301702
  0
LINE
  5
B3B6
  8
0
 10
7192.9018606680056
 20
8370.9053118489774
 30
0.0
 11
7171.146090698996
 21
8348.5929564269663
 31
0.0
  0
LINE
  5
B3B7
  8
0
 10
7586.1063695409975
 20
8754.4990744169663
 30
0.0
 11
7581.2911094049914
 21
8754.4990744169663
 31
0.0
  0
LINE
  5
B3B8
  8
0
 10
7586.1063695409975
 20
8754.4990744169663
 30
0.0
 11
7586.1063695409975
 21
8766.99907441697
 31
0.0
  0
LINE
  5
B3B9
  8
0
 10
7580.6897028740068
 20
8757.6217604579706
 30
0.0
 11
7580.6897028740068
 21
8763.8671325419709
 31
0.0
  0
LINE
  5
B3BA
  8
0
 10
7586.1063695409975
 20
8766.99907441697
 30
0.0
 11
7581.2911094049914
 21
8766.99907441697
 31
0.0
  0
ARC
  5
B3BB
  8
0
 10
7589.0973750719986
 20
8757.6217604579706
 30
0.0
 40
8.4076721980000002
 50
158.19745572501699
 51
201.80254427498281
  0
LINE
  5
B3BC
  8
0
 10
7589.7729695409953
 20
8754.3326642309694
 30
0.0
 11
7588.1063695409975
 21
8754.3326642309694
 31
0.0
  0
LINE
  5
B3BD
  8
0
 10
7588.1063695409975
 20
8754.3326642309694
 30
0.0
 11
7588.1063695409975
 21
8767.1654842309727
 31
0.0
  0
LINE
  5
B3BE
  8
0
 10
7588.1063695409975
 20
8767.1654842309727
 30
0.0
 11
7589.7729695409953
 21
8767.1654842309727
 31
0.0
  0
LINE
  5
B3BF
  8
0
 10
7589.7729695409953
 20
8754.3326642309694
 30
0.0
 11
7589.7729695409953
 21
8767.1654842309727
 31
0.0
  0
LINE
  5
B3C0
  8
0
 10
7589.7729695409953
 20
8760.7490742309656
 30
0.0
 11
7588.1063695409975
 21
8760.3025101069725
 31
0.0
  0
LINE
  5
B3C1
  8
0
 10
7589.7729695409953
 20
8761.1956383559664
 30
0.0
 11
7588.1063695409975
 21
8760.7490742309656
 31
0.0
  0
LINE
  5
B3C2
  8
0
 10
7586.1063695409975
 20
8760.7444464999699
 30
0.0
 11
7581.2911094049914
 21
8760.7444464999699
 31
0.0
  0
ARC
  5
B3C3
  8
0
 10
7589.0973750719986
 20
8763.8671325419709
 30
0.0
 40
8.4076721980000002
 50
158.19745572501699
 51
201.80254427498281
  0
LINE
  5
B3C4
  8
0
 10
7589.763230769996
 20
8754.4993242309702
 30
0.0
 11
7594.5782982950041
 21
8754.4993242309702
 31
0.0
  0
LINE
  5
B3C5
  8
0
 10
7589.763230769996
 20
8754.4993242309702
 30
0.0
 11
7589.763230769996
 21
8766.9988242309701
 31
0.0
  0
LINE
  5
B3C6
  8
0
 10
7595.1796807700021
 20
8757.6218853659739
 30
0.0
 11
7595.1796807700021
 21
8763.8670076349736
 31
0.0
  0
LINE
  5
B3C7
  8
0
 10
7589.763230769996
 20
8766.9988242309701
 30
0.0
 11
7594.5782982950041
 21
8766.9988242309701
 31
0.0
  0
ARC
  5
B3C8
  8
0
 10
7586.7723448780007
 20
8757.6218853659739
 30
0.0
 40
8.4073358910000007
 50
338.19745265430868
 51
21.802547345691291
  0
LINE
  5
B3C9
  8
0
 10
7589.763230769996
 20
8760.7444464999699
 30
0.0
 11
7594.5782982950041
 21
8760.7444464999699
 31
0.0
  0
ARC
  5
B3CA
  8
0
 10
7586.7723448780007
 20
8763.8670076349736
 30
0.0
 40
8.4073358910000007
 50
338.19745265430868
 51
21.802547345691291
  0
LINE
  5
B3CB
  8
0
 10
7490.6063695409975
 20
8743.0499999999665
 30
0.0
 11
7490.6063695409975
 21
8762.0499999999665
 31
0.0
  0
LINE
  5
B3CC
  8
0
 10
7516.1063695409975
 20
8758.5499999999665
 30
0.0
 11
7516.1063695409975
 21
8762.0499999999665
 31
0.0
  0
ARC
  5
B3CD
  8
0
 10
7518.6063695409957
 20
8758.5499999999665
 30
0.0
 40
2.5
 50
180.0000030699164
 51
0.0
  0
LINE
  5
B3CE
  8
0
 10
7588.1063695409975
 20
8743.0499999999665
 30
0.0
 11
7588.1063695409975
 21
8773.0499999999665
 31
0.0
  0
LINE
  5
B3CF
  8
0
 10
7574.1063695409975
 20
8773.0499999999665
 30
0.0
 11
7588.1063695409975
 21
8773.0499999999665
 31
0.0
  0
LINE
  5
B3D0
  8
0
 10
7574.1063695409975
 20
8773.0499999999665
 30
0.0
 11
7521.1063695409975
 21
8758.5499999999665
 31
0.0
  0
LINE
  5
B3D1
  8
0
 10
7516.1063695409975
 20
8762.0499999999665
 30
0.0
 11
7490.6063695409975
 21
8762.0499999999665
 31
0.0
  0
LINE
  5
B3D2
  8
0
 10
7516.1063695409975
 20
8760.0499999999665
 30
0.0
 11
7490.6063695409975
 21
8760.0499999999665
 31
0.0
  0
LINE
  5
B3D3
  8
0
 10
7586.1063695409975
 20
8743.0499999999665
 30
0.0
 11
7586.1063695409975
 21
8773.0499999999665
 31
0.0
  0
LINE
  5
B3D4
  8
0
 10
7605.6063695409948
 20
8741.0499999999665
 30
0.0
 11
7605.6063695409948
 21
8739.0499999999665
 31
0.0
  0
LINE
  5
B3D5
  8
0
 10
7470.6063695409975
 20
8741.0499999999665
 30
0.0
 11
7470.6063695409975
 21
8739.0499999999665
 31
0.0
  0
LINE
  5
B3D6
  8
0
 10
7470.6063695409975
 20
8741.0499999999665
 30
0.0
 11
7470.6063695409975
 21
8739.0499999999665
 31
0.0
  0
LINE
  5
B3D7
  8
0
 10
7546.6063695409939
 20
8756.7499999999709
 30
0.0
 11
7580.7350198119948
 21
8756.7499999999709
 31
0.0
  0
LINE
  5
B3D8
  8
0
 10
7546.6063695409939
 20
8764.7499999999709
 30
0.0
 11
7580.7361851540054
 21
8764.7499999999709
 31
0.0
  0
LINE
  5
B3D9
  8
0
 10
7546.6063695409939
 20
8764.7499999999709
 30
0.0
 11
7546.6063695409939
 21
8756.7499999999709
 31
0.0
  0
LINE
  5
B3DA
  8
0
 10
7595.1331834290031
 20
8764.7499999999709
 30
0.0
 11
7621.6063695409948
 21
8764.7499999999709
 31
0.0
  0
LINE
  5
B3DB
  8
0
 10
7595.1343489860001
 20
8756.7499999999709
 30
0.0
 11
7621.6063695409948
 21
8756.7499999999709
 31
0.0
  0
LINE
  5
B3DC
  8
0
 10
7621.6063695409948
 20
8764.7499999999709
 30
0.0
 11
7621.6063695409948
 21
8756.7499999999709
 31
0.0
  0
LINE
  5
B3DD
  8
0
 10
7621.6063695409948
 20
8764.7499999999709
 30
0.0
 11
7629.6063695409975
 21
8763.1499999999705
 31
0.0
  0
LINE
  5
B3DE
  8
0
 10
7642.1063695409975
 20
8763.1499999999705
 30
0.0
 11
7642.1063695409975
 21
8758.3499999999694
 31
0.0
  0
LINE
  5
B3DF
  8
0
 10
7642.1063695409975
 20
8763.1499999999705
 30
0.0
 11
7629.6063695409975
 21
8763.1499999999705
 31
0.0
  0
LINE
  5
B3E0
  8
0
 10
7629.6063695409975
 20
8758.3499999999694
 30
0.0
 11
7621.6063695409948
 21
8756.7499999999709
 31
0.0
  0
LINE
  5
B3E1
  8
0
 10
7629.6063695409975
 20
8758.3499999999694
 30
0.0
 11
7629.6063695409975
 21
8763.1499999999705
 31
0.0
  0
LINE
  5
B3E2
  8
0
 10
7642.1063695409975
 20
8758.3499999999694
 30
0.0
 11
7629.6063695409975
 21
8758.3499999999694
 31
0.0
  0
LINE
  5
B3E3
  8
0
 10
7610.3153591070022
 20
8688.7999999999665
 30
0.0
 11
7598.3153591070022
 21
8688.7999999999665
 31
0.0
  0
LINE
  5
B3E4
  8
0
 10
7604.3153591070022
 20
8694.7999999999665
 30
0.0
 11
7604.3153591070022
 21
8682.7999999999665
 31
0.0
  0
LINE
  5
B3E5
  8
0
 10
7605.6063695409948
 20
8746.0499999999665
 30
0.0
 11
7605.6063695409948
 21
8717.0499999999665
 31
0.0
  0
LINE
  5
B3E6
  8
0
 10
7470.6063695409975
 20
8746.0499999999665
 30
0.0
 11
7470.6063695409975
 21
8708.0499999999683
 31
0.0
  0
LINE
  5
B3E7
  8
0
 10
7480.6063695409948
 20
8743.0499999999665
 30
0.0
 11
7595.6063695409975
 21
8743.0499999999665
 31
0.0
  0
LINE
  5
B3E8
  8
0
 10
7470.6063695409975
 20
8746.0499999999665
 30
0.0
 11
7480.6063695409948
 21
8743.0499999999665
 31
0.0
  0
LINE
  5
B3E9
  8
0
 10
7605.6063695409948
 20
8746.0499999999665
 30
0.0
 11
7595.6063695409975
 21
8743.0499999999665
 31
0.0
  0
LINE
  5
B3EA
  8
0
 10
7602.6063695409939
 20
8714.0499999999665
 30
0.0
 11
7562.6063695409975
 21
8714.0499999999665
 31
0.0
  0
LINE
  5
B3EB
  8
0
 10
7605.6063695409948
 20
8720.0499999999665
 30
0.0
 11
7470.6063695409975
 21
8720.0499999999665
 31
0.0
  0
LINE
  5
B3EC
  8
0
 10
7559.6063695409975
 20
8711.0499999999665
 30
0.0
 11
7559.6063695409975
 21
8701.0499999999665
 31
0.0
  0
ARC
  5
B3ED
  8
0
 10
7602.6063695409939
 20
8717.0499999999665
 30
0.0
 40
3.0
 50
269.9999984650417
 51
0.0
  0
ARC
  5
B3EE
  8
0
 10
7562.6063695409975
 20
8711.0499999999665
 30
0.0
 40
3.0
 50
90.000001534958287
 51
180.0000030699164
  0
ARC
  5
B3EF
  8
0
 10
7556.6063695409975
 20
8701.0499999999665
 30
0.0
 40
3.0
 50
269.9999984650417
 51
0.0
  0
ARC
  5
B3F0
  8
0
 10
7480.6063695409948
 20
8708.0499999999683
 30
0.0
 40
10.0
 50
180.0000030699164
 51
269.9999984650417
  0
LINE
  5
B3F1
  8
0
 10
7480.6063695409948
 20
8698.0499999999665
 30
0.0
 11
7502.4553524619987
 21
8698.0499999999665
 31
0.0
  0
LINE
  5
B3F2
  8
0
 10
7535.7573866199973
 20
8698.0499999999665
 30
0.0
 11
7556.6063695409975
 21
8698.0499999999665
 31
0.0
  0
CIRCLE
  5
B3F3
  8
0
 10
7519.1063695409975
 20
8686.7999999999665
 30
0.0
 40
4.1500000000000004
  0
CIRCLE
  5
B3F4
  8
0
 10
7519.1063695409975
 20
8686.7999999999665
 30
0.0
 40
4.1500000000000004
  0
LINE
  5
B3F5
  8
0
 10
7504.1846318549942
 20
8697.0547849419745
 30
0.0
 11
7512.405411892003
 21
8682.9064583499712
 31
0.0
  0
LINE
  5
B3F6
  8
0
 10
7534.0281072270009
 20
8697.0547849419745
 30
0.0
 11
7525.8073271900057
 21
8682.9064583499712
 31
0.0
  0
ARC
  5
B3F7
  8
0
 10
7535.7573866199973
 20
8696.0499999999665
 30
0.0
 40
2.0
 50
90.000001534958287
 51
149.84159131516819
  0
ARC
  5
B3F8
  8
0
 10
7502.4553524619987
 20
8696.0499999999665
 30
0.0
 40
2.0
 50
30.158411755126629
 51
90.000001534958287
  0
ARC
  5
B3F9
  8
0
 10
7519.1063695409975
 20
8686.7999999999665
 30
0.0
 40
7.75
 50
210.15840868483181
 51
329.84158824487338
  0
LINE
  5
B3FA
  8
0
 10
7545.6063695409975
 20
8698.0499999999665
 30
0.0
 11
7559.016621015995
 21
8684.1608109719746
 31
0.0
  0
LINE
  5
B3FB
  8
0
 10
7560.1666809500011
 20
8706.4689363159687
 30
0.0
 11
7571.9861538069954
 21
8694.2117052049725
 31
0.0
  0
LINE
  5
B3FC
  8
0
 10
7560.4554239370027
 20
8683.5499999999665
 30
0.0
 11
7608.1965169659961
 21
8683.5499999999665
 31
0.0
  0
LINE
  5
B3FD
  8
0
 10
7610.162261339995
 20
8685.9185770699696
 30
0.0
 11
7607.9122613399968
 21
8697.9185770699696
 31
0.0
  0
LINE
  5
B3FE
  8
0
 10
7584.1753200130061
 20
8699.5499999999665
 30
0.0
 11
7605.946516965997
 21
8699.5499999999665
 31
0.0
  0
LINE
  5
B3FF
  8
0
 10
7583.1226107840039
 20
8699.2505302929712
 30
0.0
 11
7574.478551627004
 21
8693.8994460529721
 31
0.0
  0
ARC
  5
B400
  8
0
 10
7560.4554239370027
 20
8685.5499999999665
 30
0.0
 40
2.0
 50
223.99491167509299
 51
269.9999984650417
  0
ARC
  5
B401
  8
0
 10
7608.1965169659961
 20
8685.5499999999665
 30
0.0
 40
2.0
 50
269.9999984650417
 51
10.619655457291911
  0
ARC
  5
B402
  8
0
 10
7605.946516965997
 20
8697.5499999999665
 30
0.0
 40
2.0
 50
10.619655457291911
 51
90.000001534958287
  0
ARC
  5
B403
  8
0
 10
7584.1753200130061
 20
8697.5499999999665
 30
0.0
 40
2.0
 50
90.000001534958287
 51
121.7594821617262
  0
ARC
  5
B404
  8
0
 10
7573.4258423980064
 20
8695.5999763459713
 30
0.0
 40
2.0
 50
223.95837100297879
 51
301.75947909140388
  0
ARC
  5
B405
  8
0
 10
7561.6063695409975
 20
8707.8572074569747
 30
0.0
 40
2.0
 50
180.0000030699164
 51
223.95837100297879
  0
CIRCLE
  5
B406
  8
0
 10
7604.3153591070022
 20
8688.7999999999665
 30
0.0
 40
3.25
  0
CIRCLE
  5
B407
  8
0
 10
7584.4953546540073
 20
8696.4249999999665
 30
0.0
 40
2.0
  0
CIRCLE
  5
B408
  8
0
 10
7577.6063695409975
 20
8718.5499999999665
 30
0.0
 40
1.5
  0
LINE
  5
B409
  8
0
 10
7579.2874639560041
 20
8711.7126501989696
 30
0.0
 11
7582.941990024995
 21
8712.8505474049671
 31
0.0
  0
LINE
  5
B40A
  8
0
 10
7583.3590050549974
 20
8701.4595045959704
 30
0.0
 11
7579.7196126790059
 21
8700.3263195149684
 31
0.0
  0
LINE
  5
B40B
  8
0
 10
7579.7196126790059
 20
8700.3263195149684
 30
0.0
 11
7585.9148792170017
 21
8703.3026717329703
 31
0.0
  0
LINE
  5
B40C
  8
0
 10
7579.4223237599954
 20
8701.2811070829684
 30
0.0
 11
7585.6175902980031
 21
8704.2574592999736
 31
0.0
  0
LINE
  5
B40D
  8
0
 10
7579.1250348409949
 20
8702.2358946499735
 30
0.0
 11
7585.3203013780012
 21
8705.21224686797
 31
0.0
  0
LINE
  5
B40E
  8
0
 10
7578.8277459210067
 20
8703.1906822169694
 30
0.0
 11
7585.0230124589998
 21
8706.1670344349695
 31
0.0
  0
LINE
  5
B40F
  8
0
 10
7578.5304570019953
 20
8704.1454697839727
 30
0.0
 11
7584.725723540002
 21
8707.1218220019709
 31
0.0
  0
LINE
  5
B410
  8
0
 10
7578.2331680829948
 20
8705.1002573519709
 30
0.0
 11
7584.4284346210043
 21
8708.0766095689669
 31
0.0
  0
LINE
  5
B411
  8
0
 10
7577.9358791639979
 20
8706.0550449189686
 30
0.0
 11
7584.1311457020056
 21
8709.0313971369651
 31
0.0
  0
LINE
  5
B412
  8
0
 10
7577.6385902449983
 20
8707.0098324859737
 30
0.0
 11
7583.8338567829924
 21
8709.9861847039701
 31
0.0
  0
LINE
  5
B413
  8
0
 10
7577.3413013249947
 20
8707.9646200529733
 30
0.0
 11
7583.536567863006
 21
8710.9409722709734
 31
0.0
  0
LINE
  5
B414
  8
0
 10
7577.0440124059978
 20
8708.9194076209733
 30
0.0
 11
7583.2392789440028
 21
8711.8957598379693
 31
0.0
  0
LINE
  5
B415
  8
0
 10
7576.7467234869982
 20
8709.8741951879711
 30
0.0
 11
7582.941990024995
 21
8712.8505474049671
 31
0.0
  0
ARC
  5
B416
  8
0
 10
7583.0906344849918
 20
8712.3731536219711
 30
0.0
 40
0.5
 50
287.29484062595492
 51
107.2948436962202
  0
ARC
  5
B417
  8
0
 10
7583.3879234040078
 20
8711.4183660549697
 30
0.0
 40
0.5
 50
287.29484062595492
 51
107.2948436962202
  0
ARC
  5
B418
  8
0
 10
7583.6852123230065
 20
8710.4635784869715
 30
0.0
 40
0.5
 50
287.29484062595492
 51
107.2948436962202
  0
ARC
  5
B419
  8
0
 10
7583.9825012420051
 20
8709.5087909199738
 30
0.0
 40
0.5
 50
287.29484062595492
 51
107.2948436962202
  0
ARC
  5
B41A
  8
0
 10
7584.279790161002
 20
8708.5540033529669
 30
0.0
 40
0.5
 50
287.29484062595492
 51
107.2948436962202
  0
ARC
  5
B41B
  8
0
 10
7584.5770790810047
 20
8707.5992157859746
 30
0.0
 40
0.5
 50
287.29484062595492
 51
107.2948436962202
  0
ARC
  5
B41C
  8
0
 10
7584.8743680000034
 20
8706.6444282179727
 30
0.0
 40
0.5
 50
287.29484062595492
 51
107.2948436962202
  0
ARC
  5
B41D
  8
0
 10
7585.171656919003
 20
8705.6896406509713
 30
0.0
 40
0.5
 50
287.29484062595492
 51
107.2948436962202
  0
ARC
  5
B41E
  8
0
 10
7585.4689458380017
 20
8704.7348530839754
 30
0.0
 40
0.5
 50
287.29484062595492
 51
107.2948436962202
  0
ARC
  5
B41F
  8
0
 10
7585.7662347570003
 20
8703.7800655169704
 30
0.0
 40
0.5
 50
287.29484062595492
 51
107.2948436962202
  0
ARC
  5
B420
  8
0
 10
7576.8953679469987
 20
8709.3968014039747
 30
0.0
 40
0.5
 50
107.2948436962202
 51
287.29484062595492
  0
ARC
  5
B421
  8
0
 10
7577.1926568659983
 20
8708.442013836966
 30
0.0
 40
0.5
 50
107.2948436962202
 51
287.29484062595492
  0
ARC
  5
B422
  8
0
 10
7577.4899457849961
 20
8707.4872262699737
 30
0.0
 40
0.5
 50
107.2948436962202
 51
287.29484062595492
  0
ARC
  5
B423
  8
0
 10
7577.7872347039956
 20
8706.5324387019718
 30
0.0
 40
0.5
 50
107.2948436962202
 51
287.29484062595492
  0
ARC
  5
B424
  8
0
 10
7578.0845236229952
 20
8705.5776511349686
 30
0.0
 40
0.5
 50
107.2948436962202
 51
287.29484062595492
  0
ARC
  5
B425
  8
0
 10
7578.3818125429971
 20
8704.6228635679709
 30
0.0
 40
0.5
 50
107.2948436962202
 51
287.29484062595492
  0
ARC
  5
B426
  8
0
 10
7578.3818125429971
 20
8704.6228635679709
 30
0.0
 40
0.5
 50
107.2948436962202
 51
287.29484062595492
  0
ARC
  5
B427
  8
0
 10
7578.6791014619967
 20
8703.6680760009713
 30
0.0
 40
0.5
 50
107.2948436962202
 51
287.29484062595492
  0
ARC
  5
B428
  8
0
 10
7578.9763903809944
 20
8702.7132884339735
 30
0.0
 40
0.5
 50
107.2948436962202
 51
287.29484062595492
  0
ARC
  5
B429
  8
0
 10
7579.2736793000058
 20
8701.7585008659735
 30
0.0
 40
0.5
 50
107.2948436962202
 51
287.29484062595492
  0
ARC
  5
B42A
  8
0
 10
7579.5709682190063
 20
8700.8037132989703
 30
0.0
 40
0.5
 50
107.2948436962202
 51
287.29484062595492
  0
ARC
  5
B42B
  8
0
 10
7576.5980790280018
 20
8710.3515889709743
 30
0.0
 40
0.5
 50
107.2948436962202
 51
287.29484062595492
  0
ARC
  5
B42C
  8
0
 10
7586.063523675999
 20
8702.8252779499653
 30
0.0
 40
0.5
 50
287.29484062595492
 51
107.2948436962202
  0
LINE
  5
B42D
  8
0
 10
7585.1270963730058
 20
8701.8265900899714
 30
0.0
 11
7586.2121681359986
 21
8702.3478841659744
 31
0.0
  0
LINE
  5
B42E
  8
0
 10
7576.4494345679968
 20
8710.8289827549652
 30
0.0
 11
7577.517487627003
 21
8711.3421006449698
 31
0.0
  0
LINE
  5
B42F
  8
0
 10
7578.5609800390112
 20
8713.7394265849725
 30
0.0
 11
7578.4642778630068
 21
8714.0499999999665
 31
0.0
  0
ARC
  5
B430
  8
0
 10
7585.9931790959972
 20
8700.0238419879679
 30
0.0
 40
2.0
 50
115.66072996322001
 51
193.7996522098081
  0
ARC
  5
B431
  8
0
 10
7576.6514049050029
 20
8713.1448487459711
 30
0.0
 40
2.0
 50
295.6607268931902
 51
17.294842161074818
  0
LINE
  5
B432
  8
0
 10
7579.5116312580058
 20
8714.0499999999665
 30
0.0
 11
7579.5157676060044
 21
8714.0367155039694
 31
0.0
  0
ARC
  5
B433
  8
0
 10
7576.6514049050029
 20
8713.1448487459711
 30
0.0
 40
3.0
 50
295.6607268931902
 51
17.294842161074818
  0
LINE
  5
B434
  8
0
 10
7577.9505289880017
 20
8710.4407265939735
 30
0.0
 11
7576.8824759290001
 21
8709.9276087039689
 31
0.0
  0
LINE
  5
B435
  8
0
 10
7583.0967157889963
 20
8699.2350710969695
 30
0.0
 11
7583.0968648580028
 21
8699.234592338973
 31
0.0
  0
ARC
  5
B436
  8
0
 10
7585.9931790959972
 20
8700.0238419879679
 30
0.0
 40
3.0
 50
115.66072996322001
 51
195.24306894694101
  0
LINE
  5
B437
  8
0
 10
7584.6940550120044
 20
8702.7279641399728
 30
0.0
 11
7585.7791267749999
 21
8703.2492582169725
 31
0.0
  0
LINE
  5
B438
  8
0
 10
7610.3153591070022
 20
8688.7999999999665
 30
0.0
 11
7598.3153591070022
 21
8688.7999999999665
 31
0.0
  0
LINE
  5
B439
  8
0
 10
7604.3153591070022
 20
8694.7999999999665
 30
0.0
 11
7604.3153591070022
 21
8682.7999999999665
 31
0.0
  0
CIRCLE
  5
B43A
  8
0
 10
7519.1063695409975
 20
8686.7999999999665
 30
0.0
 40
4.3499999999999979
  0
LINE
  5
B43B
  8
0
 10
7506.9709746610033
 20
8692.2593655499732
 30
0.0
 11
7486.4429604329898
 21
8671.2061759729695
 31
0.0
  0
LINE
  5
B43C
  8
0
 10
7530.3632459859937
 20
8680.4396405709722
 30
0.0
 11
7504.3424733400034
 21
8654.5031694189747
 31
0.0
  0
ARC
  5
B43D
  8
0
 10
7517.0120087550022
 20
8684.6520584509708
 30
0.0
 40
14.0
 50
342.48911403631558
 51
22.5522885011051
  0
LINE
  5
B43E
  8
0
 10
7606.8153591070004
 20
7984.2846011109732
 30
0.0
 11
7606.8153591070004
 21
8688.7999999999665
 31
0.0
  0
LINE
  5
B43F
  8
0
 10
7601.8153591070004
 20
7984.2846011109732
 30
0.0
 11
7601.8153591070004
 21
8688.7999999999665
 31
0.0
  0
LINE
  5
B440
  8
0
 10
7504.3424733400034
 20
8654.5031694189747
 30
0.0
 11
7189.0456036060059
 21
8331.1399498749743
 31
0.0
  0
LINE
  5
B441
  8
0
 10
7486.4429604329898
 20
8671.2061759729695
 30
0.0
 11
7235.1074744519992
 21
8414.1906865739711
 31
0.0
  0
LINE
  5
B442
  8
0
 10
7605.6063695409948
 20
8739.0499999999665
 30
0.0
 11
10835.10097169099
 21
8739.0499999999665
 31
0.0
  0
LINE
  5
B443
  8
0
 10
7605.6063695409948
 20
8735.5499999999665
 30
0.0
 11
10832.988902725991
 21
8735.5499999999665
 31
0.0
  0
ARC
  5
B444
  8
0
 10
7532.7806218831547
 20
8144.0000000000073
 30
0.0
 40
453.0
 50
90.0
 51
101.9959382423332
  0
ARC
  5
B445
  8
0
 10
7532.7806218831547
 20
8144.0000000000164
 30
0.0
 40
400.00000000000068
 50
90.0
 51
116.09408024141059
  0
ARC
  5
B446
  8
0
 10
7532.7806218831547
 20
8144.0000000000164
 30
0.0
 40
411.00000000000023
 50
90.0
 51
112.1684633736085
  0
ARC
  5
B447
  8
0
 10
7325.1619968365703
 20
8197.0000000000055
 30
0.0
 40
399.99999999999937
 50
90.0
 51
134.9660822257126
  0
ARC
  5
B448
  8
0
 10
7325.1619968365703
 20
8197.0000000000055
 30
0.0
 40
410.99999999999937
 50
90.0
 51
134.9669911783443
  0
ARC
  5
B449
  8
0
 10
7325.1619968365703
 20
8197.0000000000055
 30
0.0
 40
453.0
 50
90.0
 51
134.9700515994264
  0
LINE
  5
B44A
  8
0
 10
7950.0
 20
8770.3499999999694
 30
0.0
 11
7950.0
 21
8800.0
 31
0.0
  0
LINE
  5
B44B
  8
0
 10
8050.0
 20
8735.5499999999665
 30
0.0
 11
8050.0
 21
8650.0000000000055
 31
0.0
  0
LINE
  5
B44C
  8
0
 10
9150.0
 20
8770.3499999999694
 30
0.0
 11
9150.0
 21
8800.0
 31
0.0
  0
LINE
  5
B44D
  8
0
 10
9250.0
 20
8735.5499999999665
 30
0.0
 11
9250.0
 21
8650.0000000000055
 31
0.0
  0
DIMENSION
  5
B44E
  8
0
  2
*D25
 10
11315.0
 20
10050.0
 30
0.0
 11
9172.5000000000018
 21
10132.5
 31
0.0
  1
奥行寸法D
 13
7000.0
 23
9900.0
 33
0.0
 14
11315.0
 24
9900.0
 34
0.0
1001
ACAD
1000
DSTYLE
1002
{
1070
    76
1070
     1
1070
     7
1000
NONE
1070
     5
1000

1070
   173
1070
     1
1070
     6
1000
ORIGIN
1070
    41
1040
1.0
1002
}
  0
LINE
  5
B44F
  8
0
 10
9950.0
 20
8645.0000000010114
 30
0.0
 11
9980.0
 21
8645.0000000010114
 31
0.0
  0
LINE
  5
B450
  8
0
 10
9980.0
 20
8645.0000000010114
 30
0.0
 11
9980.0
 21
8615.0000000010095
 31
0.0
  0
LINE
  5
B451
  8
0
 10
9980.0
 20
8615.0000000010095
 30
0.0
 11
9950.0
 21
8615.0000000010095
 31
0.0
  0
LINE
  5
B452
  8
0
 10
9950.0
 20
8615.0000000010095
 30
0.0
 11
9950.0
 21
8645.0000000010114
 31
0.0
  0
LINE
  5
B453
  8
0
 10
9952.3000000000011
 20
8615.0000000010095
 30
0.0
 11
9952.3000000000011
 21
8645.0000000010114
 31
0.0
  0
CIRCLE
  5
B454
  8
0
 10
9965.0
 20
8630.0000000010114
 30
0.0
 40
3.5
  0
TEXT
  5
B455
  8
0
 10
7749.9020248928791
 20
8028.4682613542964
 30
0.0
 40
105.0
  1
手動切換えロープ
 41
0.8
  7
横文字
 72
     1
 11
8141.3020248928779
 21
8028.4682613542964
 31
0.0
  0
INSERT
  5
B456
  8
0
  2
*U36
 10
0.0
 20
0.0
 30
0.0
  0
ARC
  5
B457
  8
0
 10
7532.7806218831547
 20
8144.0000000000073
 30
0.0
 40
453.0
 50
148.11352816759469
 51
179.3259631019319
  0
ARC
  5
B458
  8
0
 10
7532.7806218831547
 20
8144.0000000000164
 30
0.0
 40
411.00000000000023
 50
151.576015844502
 51
179.3259631019319
  0
ARC
  5
B459
  8
0
 10
7532.7806218831547
 20
8144.0000000000164
 30
0.0
 40
400.00000000000068
 50
152.07063157448971
 51
179.3259631019319
  0
ARC
  5
B45A
  8
0
 10
7532.7806218831547
 20
8144.0000000000164
 30
0.0
 40
411.00000000000023
 50
123.4497250215486
 51
141.59675901379541
  0
ARC
  5
B45B
  8
0
 10
7532.7806218831547
 20
8144.0000000000073
 30
0.0
 40
453.0
 50
108.1173027617175
 51
144.88450769086859
  0
LINE
  5
B45C
  8
0
 10
7448.2737301379966
 20
8597.0000000000055
 30
0.0
 11
10015.0
 21
8597.0000000000055
 31
0.0
  0
LINE
  5
B45D
  8
0
 10
7458.9993332909089
 20
8608.0000000000055
 30
0.0
 11
10015.0
 21
8608.0000000000055
 31
0.0
  0
LINE
  5
B45E
  8
0
 10
7465.7054377396107
 20
8650.0
 30
0.0
 11
7000.0
 21
8650.0000000000055
 31
0.0
  0
LINE
  5
B45F
  8
0
 10
7073.5
 20
6134.7999999999729
 30
0.0
 11
7073.5
 21
6069.7999999999747
 31
0.0
  0
LINE
  5
B460
  8
0
 10
7138.5
 20
6069.7999999999747
 30
0.0
 11
7067.4999999999991
 21
6069.7999999999747
 31
0.0
  0
LINE
  5
B461
  8
0
 10
7138.5
 20
6134.7999999999729
 30
0.0
 11
7067.4999999999991
 21
6134.7999999999729
 31
0.0
  0
LINE
  5
B462
  8
0
 10
7132.5
 20
6064.7999999999747
 30
0.0
 11
7067.4999999999991
 21
6064.7999999999747
 31
0.0
  0
LINE
  5
B463
  8
0
 10
7132.5
 20
6139.7999999999747
 30
0.0
 11
7067.4999999999991
 21
6139.7999999999747
 31
0.0
  0
LINE
  5
B464
  8
0
 10
7132.5
 20
6134.7999999999729
 30
0.0
 11
7132.5
 21
6139.7999999999747
 31
0.0
  0
LINE
  5
B465
  8
0
 10
7132.5
 20
6064.7999999999747
 30
0.0
 11
7132.5
 21
6069.7999999999747
 31
0.0
  0
LINE
  5
B466
  8
0
 10
7138.5
 20
6069.7999999999747
 30
0.0
 11
7138.5
 21
6134.7999999999729
 31
0.0
  0
LINE
  5
B467
  8
0
 10
7017.5
 20
6162.2999999999747
 30
0.0
 11
7067.4999999999991
 21
6162.2999999999747
 31
0.0
  0
LINE
  5
B468
  8
0
 10
7017.5
 20
6027.2999999999747
 30
0.0
 11
7017.5
 21
6162.2999999999747
 31
0.0
  0
LINE
  5
B469
  8
0
 10
7067.4999999999991
 20
6027.2999999999747
 30
0.0
 11
7017.5
 21
6027.2999999999747
 31
0.0
  0
LINE
  5
B46A
  8
0
 10
7105.6447058825443
 20
6139.7999999999747
 30
0.0
 11
7132.8083006708639
 21
8148.7055567207326
 31
0.0
  0
LINE
  5
B46B
  8
0
 10
7094.6439446632139
 20
6139.7999999999747
 30
0.0
 11
7121.8090618375281
 21
8148.8349595305554
 31
0.0
  0
LINE
  5
B46C
  8
0
  6
PHANTOM2
 10
11745.0
 20
8950.0
 30
0.0
 11
7000.0
 21
8950.0
 31
0.0
  0
LINE
  5
B46D
  8
0
  6
PHANTOM2
 10
7000.0
 20
8950.0
 30
0.0
 11
7000.0
 21
10350.0
 31
0.0
  0
LINE
  5
B46E
  8
0
  6
PHANTOM2
 10
6850.0
 20
10350.0
 30
0.0
 11
6850.0
 21
8500.0
 31
0.0
  0
LINE
  5
B46F
  8
0
  6
PHANTOM2
 10
6850.0
 20
8500.0
 30
0.0
 11
7000.0
 21
8500.0
 31
0.0
  0
LINE
  5
B470
  8
0
  6
PHANTOM2
 10
7000.0
 20
8500.0
 30
0.0
 11
7000.0
 21
8800.0
 31
0.0
  0
LINE
  5
B471
  8
0
  6
PHANTOM2
 10
7000.0
 20
8800.0
 30
0.0
 11
11745.0
 21
8800.0
 31
0.0
  0
LINE
  5
B472
  8
0
  6
PHANTOM2
 10
3750.0
 20
3650.0
 30
0.0
 11
4750.0
 21
3650.0
 31
0.0
  0
LINE
  5
B473
  8
0
  6
PHANTOM2
 10
4750.0
 20
3650.0
 30
0.0
 11
4750.0
 21
3500.0
 31
0.0
  0
LINE
  5
B474
  8
0
  6
PHANTOM2
 10
4750.0
 20
3500.0
 30
0.0
 11
3750.0
 21
3500.0
 31
0.0
  0
LINE
  5
B475
  8
0
  6
PHANTOM2
 10
10250.0
 20
3650.0
 30
0.0
 11
9250.0
 21
3650.0
 31
0.0
  0
LINE
  5
B476
  8
0
  6
PHANTOM2
 10
9250.0
 20
3650.0
 30
0.0
 11
9250.0
 21
3500.0
 31
0.0
  0
LINE
  5
B477
  8
0
  6
PHANTOM2
 10
9250.0
 20
3500.0
 30
0.0
 11
10250.0
 21
3500.0
 31
0.0
  0
ARC
  5
B478
  8
0
 10
11410.400000000011
 20
8574.599999999984
 30
0.0
 40
4.5999999999999979
 50
270.0
 51
0.0
  0
ARC
  5
B479
  8
0
 10
11410.400000000011
 20
8574.599999999984
 30
0.0
 40
2.299999999999998
 50
270.0
 51
0.0
  0
ARC
  5
B47A
  8
0
 10
11319.6
 20
8574.599999999984
 30
0.0
 40
4.5999999999999979
 50
180.0
 51
270.0
  0
ARC
  5
B47B
  8
0
 10
11319.6
 20
8574.599999999984
 30
0.0
 40
2.299999999999998
 50
180.0
 51
270.0
  0
LINE
  5
B47C
  8
0
 10
11410.400000000011
 20
8569.9999999999782
 30
0.0
 11
11319.6
 21
8569.9999999999782
 31
0.0
  0
LINE
  5
B47D
  8
0
 10
11415.000000000009
 20
8665.3999999999796
 30
0.0
 11
11415.000000000009
 21
8574.5999999999749
 31
0.0
  0
LINE
  5
B47E
  8
0
 10
11412.70000000001
 20
8574.5999999999749
 30
0.0
 11
11412.70000000001
 21
8665.3999999999796
 31
0.0
  0
LINE
  5
B47F
  8
0
 10
11319.6
 20
8572.2999999999847
 30
0.0
 11
11410.400000000011
 21
8572.2999999999847
 31
0.0
  0
LINE
  5
B480
  8
0
 10
11317.300000000019
 20
8665.3999999999796
 30
0.0
 11
11317.300000000019
 21
8574.5999999999749
 31
0.0
  0
LINE
  5
B481
  8
0
 10
11315.000000000009
 20
8574.5999999999749
 30
0.0
 11
11315.000000000009
 21
8665.3999999999796
 31
0.0
  0
ARC
  5
B482
  8
0
 10
11410.400000000011
 20
8665.3999999999796
 30
0.0
 40
4.5999999999999979
 50
0.0
 51
90.0
  0
ARC
  5
B483
  8
0
 10
11410.400000000011
 20
8665.3999999999796
 30
0.0
 40
2.299999999999998
 50
0.0
 51
90.0
  0
ARC
  5
B484
  8
0
 10
11319.6
 20
8665.3999999999796
 30
0.0
 40
4.5999999999999979
 50
90.0
 51
180.0
  0
ARC
  5
B485
  8
0
 10
11319.6
 20
8665.3999999999796
 30
0.0
 40
2.299999999999998
 50
90.0
 51
180.0
  0
LINE
  5
B486
  8
0
 10
11410.400000000011
 20
8669.9999999999782
 30
0.0
 11
11319.6
 21
8669.9999999999782
 31
0.0
  0
LINE
  5
B487
  8
0
 10
11319.6
 20
8667.6999999999753
 30
0.0
 11
11410.400000000011
 21
8667.6999999999753
 31
0.0
  0
TEXT
  5
B488
  8
0
 10
11841.76406871194
 20
9174.2640687118892
 30
0.0
 40
105.0
  1
□-100x100x2.3
 41
0.8
  7
横文字
 72
     1
 11
12351.76406871194
 21
9174.2640687118892
 31
0.0
  0
TEXT
  5
B489
  8
0
 10
12010.16406871194
 20
8994.2640687118892
 30
0.0
 40
105.0
  1
（当社工事外）
 41
0.8
  7
横文字
 72
     1
 11
12351.76406871194
 21
8994.2640687118892
 31
0.0
  0
INSERT
  5
B48A
  8
0
  2
*U37
 10
0.0
 20
0.0
 30
0.0
  0
TEXT
  5
B48B
  8
0
 10
10979.999999999971
 20
47.5
 30
0.0
 40
105.0
  1
ローヘッド
 11
10979.999999999971
 21
100.0
 31
0.0
 73
     2
  0
TEXT
  5
B48C
  8
0
 10
10229.999999999971
 20
47.5
 30
0.0
 40
105.0
  1
納まり　  :
 11
10229.999999999971
 21
100.0
 31
0.0
 73
     2
  0
TEXT
  5
B48D
  8
0
 10
6552.9957445612663
 20
7427.0875098650658
 30
0.0
 40
105.0
  1
パネル
 41
0.8
  7
文字
 72
     1
 11
6692.9957445612672
 21
7427.0875098650658
 31
0.0
  0
INSERT
  5
B48E
  8
0
  2
*U38
 10
0.0
 20
0.0
 30
0.0
  0
TEXT
  5
B48F
  8
0
 10
13460.4
 20
10647.5
 30
0.0
 40
105.0
  1
標準
 41
0.8
  7
文字
 72
     1
 11
13550.0
 21
10700.0
 31
0.0
 73
     2
  0
TEXT
  5
B490
  8
0
 10
13064.0
 20
10447.5
 30
0.0
 40
105.0
  1
Y
 41
0.8
  7
文字
 72
     1
 11
13100.0
 21
10500.0
 31
0.0
 73
     2
  0
LINE
  5
B491
  8
0
 10
15300.0
 20
10800.0
 30
0.0
 11
13300.0
 21
10800.0
 31
0.0
  0
LINE
  5
B492
  8
0
 10
12900.0
 20
11000.0
 30
0.0
 11
12900.0
 21
10400.0
 31
0.0
  0
LINE
  5
B493
  8
0
 10
15300.0
 20
10600.0
 30
0.0
 11
12900.0
 21
10600.0
 31
0.0
  0
LINE
  5
B494
  8
0
 10
12900.0
 20
10400.0
 30
0.0
 11
15300.0
 21
10400.0
 31
0.0
  0
LINE
  5
B495
  8
0
 10
13300.0
 20
11000.0
 30
0.0
 11
13300.0
 21
10400.0
 31
0.0
  0
LINE
  5
B496
  8
0
 10
14300.0
 20
11000.0
 30
0.0
 11
14300.0
 21
10400.0
 31
0.0
  0
TEXT
  5
B497
  8
0
 10
13510.0
 20
10447.5
 30
0.0
 40
105.0
  1
0
 41
0.8
  7
文字
 72
     1
 11
13550.0
 21
10500.0
 31
0.0
 73
     2
  0
TEXT
  5
B498
  8
0
 10
13458.4
 20
10847.5
 30
0.0
 40
105.0
  1
スチールパネル
 41
0.8
  7
文字
 72
     1
 11
13800.0
 21
10900.0
 31
0.0
 73
     2
  0
LINE
  5
B499
  8
0
 10
15300.0
 20
11000.0
 30
0.0
 11
12900.0
 21
11000.0
 31
0.0
  0
LINE
  5
B49A
  8
0
 10
12900.0
 20
11000.0
 30
0.0
 11
13300.0
 21
10600.0
 31
0.0
  0
TEXT
  5
B49B
  8
0
 10
12900.0
 20
11047.5
 30
0.0
 40
105.0
  1
有効開口高=H-Y
 41
0.8
  7
文字
 11
12900.0
 21
11100.0
 31
0.0
 73
     2
  0
LINE
  5
B49C
  8
0
 10
13800.0
 20
10800.0
 30
0.0
 11
13800.0
 21
10400.0
 31
0.0
  0
TEXT
  5
B49D
  8
0
 10
13910.0
 20
10647.5
 30
0.0
 40
105.0
  1
補強付
 41
0.8
  7
文字
 72
     1
 11
14050.0
 21
10700.0
 31
0.0
 73
     2
  0
TEXT
  5
B49E
  8
0
 10
13970.0
 20
10447.5
 30
0.0
 40
105.0
  1
55
 41
0.8
  7
文字
 72
     1
 11
14050.0
 21
10500.0
 31
0.0
 73
     2
  0
TEXT
  5
B49F
  8
0
 10
14460.4
 20
10647.5
 30
0.0
 40
105.0
  1
標準
 41
0.8
  7
文字
 72
     1
 11
14550.0
 21
10700.0
 31
0.0
 73
     2
  0
LINE
  5
B4A0
  8
0
 10
14800.0
 20
10800.0
 30
0.0
 11
14800.0
 21
10400.0
 31
0.0
  0
TEXT
  5
B4A1
  8
0
 10
14871.200000000001
 20
10647.5
 30
0.0
 40
105.0
  1
ワイド1
 41
0.8
  7
文字
 72
     1
 11
15050.0
 21
10700.0
 31
0.0
 73
     2
  0
LINE
  5
B4A2
  8
0
 10
15300.0
 20
11000.0
 30
0.0
 11
15300.0
 21
10400.0
 31
0.0
  0
TEXT
  5
B4A3
  8
0
 10
14340.4
 20
10847.5
 30
0.0
 40
105.0
  1
アルミパネル・FRPパネル
 41
0.6
  7
文字
 72
     1
 11
14800.0
 21
10900.0
 31
0.0
 73
     2
  0
TEXT
  5
B4A4
  8
0
 10
14510.0
 20
10447.5
 30
0.0
 40
105.0
  1
0
 41
0.8
  7
文字
 72
     1
 11
14550.0
 21
10500.0
 31
0.0
 73
     2
  0
TEXT
  5
B4A5
  8
0
 10
14970.0
 20
10447.5
 30
0.0
 40
105.0
  1
80
 41
0.8
  7
文字
 72
     1
 11
15050.0
 21
10500.0
 31
0.0
 73
     2
  0
DIMENSION
  5
B4A6
  8
0
  2
*D26
 10
5975.2137271591928
 20
8400.0
 30
0.0
 11
5892.7137271591919
 21
8450.0000000000018
 31
0.0
  1
Y
 13
6650.2137271591946
 23
8500.0
 33
0.0
 14
6650.2137271591946
 24
8400.0
 34
0.0
 50
90.0
1001
ACAD
1000
DSTYLE
1002
{
1070
    41
1040
1.0
1002
}
  0
DIMENSION
  5
B4A7
  8
0
  2
*D28
 10
5975.2137271591928
 20
6000.0
 30
0.0
 11
5892.7137271591919
 21
7200.0000000000009
 31
0.0
  1
有効開口高=H-Y
 13
6650.2137271591946
 23
8400.0
 33
0.0
 14
6125.213727159191
 24
6000.0
 34
0.0
 50
90.0
1001
ACAD
1000
DSTYLE
1002
{
1070
    41
1040
1.0
1002
}
  0
LINE
  5
B4A8
  8
0
 10
12900.0
 20
10000.0
 30
0.0
 11
12900.0
 21
9400.0
 31
0.0
  0
LINE
  5
B4A9
  8
0
 10
15700.0
 20
10000.0
 30
0.0
 11
12900.0
 21
10000.0
 31
0.0
  0
TEXT
  5
B4AA
  8
0
 10
13160.4
 20
9847.5000000000018
 30
0.0
 40
105.0
  1
型式
 41
0.8
  7
文字
 72
     1
 11
13250.0
 21
9900.0
 31
0.0
 73
     2
  0
LINE
  5
B4AB
  8
0
 10
13600.0
 20
10000.0
 30
0.0
 11
13600.0
 21
9400.0
 31
0.0
  0
LINE
  5
B4AC
  8
0
 10
14300.0
 20
10000.0
 30
0.0
 11
14300.0
 21
9400.0
 31
0.0
  0
TEXT
  5
B4AD
  8
0
 10
13810.4
 20
9847.5000000000018
 30
0.0
 40
105.0
  1
D寸法
 41
0.8
  7
文字
 72
     1
 11
13950.0
 21
9900.0
 31
0.0
 73
     2
  0
TEXT
  5
B4AE
  8
0
 10
14476.4
 20
9847.5000000000018
 30
0.0
 40
105.0
  1
DL寸法
 41
0.8
  7
文字
 72
     1
 11
14650.0
 21
9900.0
 31
0.0
 73
     2
  0
TEXT
  5
B4AF
  8
0
 10
12959.6
 20
9647.5
 30
0.0
 40
105.0
  1
DH2400用
 41
0.8
  7
文字
 72
     1
 11
13250.0
 21
9700.0
 31
0.0
 73
     2
  0
TEXT
  5
B4B0
  8
0
 10
13694.4
 20
9647.5
 30
0.0
 40
105.0
  1
3693以上
 41
0.8
  7
文字
 72
     1
 11
13950.0
 21
9700.0
 31
0.0
 73
     2
  0
TEXT
  5
B4B1
  8
0
 10
14490.0
 20
9647.5
 30
0.0
 40
105.0
  1
3583
 41
0.8
  7
文字
 72
     1
 11
14650.0
 21
9700.0
 31
0.0
 73
     2
  0
TEXT
  5
B4B2
  8
0
 10
12959.6
 20
9447.5000000000018
 30
0.0
 40
105.0
  1
DH3000用
 41
0.8
  7
文字
 72
     1
 11
13250.0
 21
9500.0
 31
0.0
 73
     2
  0
TEXT
  5
B4B3
  8
0
 10
13694.4
 20
9447.5000000000018
 30
0.0
 40
105.0
  1
4315以上
 41
0.8
  7
文字
 72
     1
 11
13950.0
 21
9500.0
 31
0.0
 73
     2
  0
TEXT
  5
B4B4
  8
0
 10
14490.0
 20
9447.5000000000018
 30
0.0
 40
105.0
  1
4205
 41
0.8
  7
文字
 72
     1
 11
14650.0
 21
9500.0
 31
0.0
 73
     2
  0
LINE
  5
B4B5
  8
0
 10
15000.0
 20
10000.0
 30
0.0
 11
15000.0
 21
9400.0
 31
0.0
  0
LINE
  5
B4B6
  8
0
 10
15700.0
 20
9800.0
 30
0.0
 11
12900.0
 21
9800.0
 31
0.0
  0
LINE
  5
B4B7
  8
0
 10
15700.0
 20
9600.0
 30
0.0
 11
12900.0
 21
9600.0
 31
0.0
  0
LINE
  5
B4B8
  8
0
 10
15700.0
 20
9400.0
 30
0.0
 11
12900.0
 21
9400.0
 31
0.0
  0
TEXT
  5
B4B9
  8
0
 10
14931.200000000001
 20
11047.5
 30
0.0
 40
105.0
  1
（mm）
 41
0.8
  7
文字
 72
     2
 11
15300.0
 21
11100.0
 31
0.0
 73
     2
  0
DIMENSION
  5
B4BA
  8
0
  2
*D30
 10
11205.0
 20
9825.0
 30
0.0
 11
9102.5
 21
9907.5
 31
0.0
  1
DL
 13
7000.0
 23
9675.0
 33
0.0
 14
11205.0
 24
9000.0
 34
0.0
1001
ACAD
1000
DSTYLE
1002
{
1070
    41
1040
1.0
1002
}
  0
LINE
  5
B4BB
  8
0
 10
15700.0
 20
10000.0
 30
0.0
 11
15700.0
 21
9400.0
 31
0.0
  0
TEXT
  5
B4BC
  8
0
 10
15218.4
 20
9847.5000000000018
 30
0.0
 40
105.0
  1
L寸法
 41
0.8
  7
文字
 72
     1
 11
15350.0
 21
9900.0
 31
0.0
 73
     2
  0
TEXT
  5
B4BD
  8
0
 10
15190.0
 20
9647.5
 30
0.0
 40
105.0
  1
3433
 41
0.8
  7
文字
 72
     1
 11
15350.0
 21
9700.0
 31
0.0
 73
     2
  0
TEXT
  5
B4BE
  8
0
 10
15190.0
 20
9447.5000000000018
 30
0.0
 40
105.0
  1
4055
 41
0.8
  7
文字
 72
     1
 11
15350.0
 21
9500.0
 31
0.0
 73
     2
  0
ENDSEC
  0
EOF
