  0
SECTION
  2
HEADER
  9
$ACADVER
  1
AC1009
  9
$INSBASE
 10
0.0
 20
0.0
 30
0.0
  9
$EXTMIN
 10
-0.4998397926137841
 20
-0.3584016095373954
 30
-0.0015258207003583
  9
$EXTMAX
 10
16380.499916067931
 20
11745.35845630145
 30
0.0000000349246037
  9
$LIMMIN
 10
0.0
 20
0.0
  9
$LIMMAX
 10
420.0
 20
297.0
  9
$ORTHOMODE
 70
     0
  9
$REGENMODE
 70
     1
  9
$FILLMODE
 70
     1
  9
$QTEXTMODE
 70
     0
  9
$MIRRTEXT
 70
     1
  9
$DRAGMODE
 70
     2
  9
$LTSCALE
 40
7.5
  9
$OSMODE
 70
  3071
  9
$ATTMODE
 70
     1
  9
$TEXTSIZE
 40
105.0
  9
$TRACEWID
 40
1.0
  9
$TEXTSTYLE
  7
文字
  9
$CLAYER
  8
0
  9
$CELTYPE
  6
BYLAYER
  9
$CECOLOR
 62
   256
  9
$DIMSCALE
 40
30.0
  9
$DIMASZ
 40
2.0
  9
$DIMEXO
 40
5.0
  9
$DIMDLI
 40
7.5
  9
$DIMRND
 40
0.0
  9
$DIMDLE
 40
0.0
  9
$DIMEXE
 40
1.0
  9
$DIMTP
 40
0.0
  9
$DIMTM
 40
0.0
  9
$DIMTXT
 40
3.5
  9
$DIMCEN
 40
1.0
  9
$DIMTSZ
 40
0.0
  9
$DIMTOL
 70
     0
  9
$DIMLIM
 70
     0
  9
$DIMTIH
 70
     0
  9
$DIMTOH
 70
     0
  9
$DIMSE1
 70
     0
  9
$DIMSE2
 70
     0
  9
$DIMTAD
 70
     1
  9
$DIMZIN
 70
     8
  9
$DIMBLK
  1
ORIGIN
  9
$DIMASO
 70
     1
  9
$DIMSHO
 70
     1
  9
$DIMPOST
  1

  9
$DIMAPOST
  1

  9
$DIMALT
 70
     0
  9
$DIMALTD
 70
     3
  9
$DIMALTF
 40
0.03937007874016
  9
$DIMLFAC
 40
1.0
  9
$DIMTOFL
 70
     1
  9
$DIMTVP
 40
0.0
  9
$DIMTIX
 70
     1
  9
$DIMSOXD
 70
     0
  9
$DIMSAH
 70
     0
  9
$DIMBLK1
  1

  9
$DIMBLK2
  1

  9
$DIMSTYLE
  2
寸法線30
  9
$DIMCLRD
 70
   256
  9
$DIMCLRE
 70
   256
  9
$DIMCLRT
 70
   256
  9
$DIMTFAC
 40
1.0
  9
$DIMGAP
 40
1.0
  9
$LUNITS
 70
     2
  9
$LUPREC
 70
     4
  9
$SKETCHINC
 40
1.0
  9
$FILLETRAD
 40
0.0
  9
$AUNITS
 70
     0
  9
$AUPREC
 70
     0
  9
$MENU
  1
.
  9
$ELEVATION
 40
0.0
  9
$PELEVATION
 40
0.0
  9
$THICKNESS
 40
0.0
  9
$LIMCHECK
 70
     0
  9
$BLIPMODE
 70
     0
  9
$CHAMFERA
 40
10.0
  9
$CHAMFERB
 40
10.0
  9
$SKPOLY
 70
     0
  9
$TDCREATE
 40
2452654.657629028
  9
$TDUPDATE
 40
2456778.7055012961
  9
$TDINDWG
 40
0.8011419329
  9
$TDUSRTIMER
 40
0.8011401042
  9
$USRTIMER
 70
     1
  9
$ANGBASE
 50
0.0
  9
$ANGDIR
 70
     0
  9
$PDMODE
 70
     0
  9
$PDSIZE
 40
0.0
  9
$PLINEWID
 40
0.0
  9
$COORDS
 70
     2
  9
$SPLFRAME
 70
     0
  9
$SPLINETYPE
 70
     6
  9
$SPLINESEGS
 70
     8
  9
$ATTDIA
 70
     0
  9
$ATTREQ
 70
     1
  9
$HANDLING
 70
     1
  9
$HANDSEED
  5
A657
  9
$SURFTAB1
 70
     6
  9
$SURFTAB2
 70
     6
  9
$SURFTYPE
 70
     6
  9
$SURFU
 70
     6
  9
$SURFV
 70
     6
  9
$UCSNAME
  2

  9
$UCSORG
 10
0.0
 20
0.0
 30
0.0
  9
$UCSXDIR
 10
1.0
 20
0.0
 30
0.0
  9
$UCSYDIR
 10
0.0
 20
1.0
 30
0.0
  9
$PUCSNAME
  2

  9
$PUCSORG
 10
0.0
 20
0.0
 30
0.0
  9
$PUCSXDIR
 10
1.0
 20
0.0
 30
0.0
  9
$PUCSYDIR
 10
0.0
 20
1.0
 30
0.0
  9
$USERI1
 70
     0
  9
$USERI2
 70
     0
  9
$USERI3
 70
     0
  9
$USERI4
 70
     0
  9
$USERI5
 70
     0
  9
$USERR1
 40
0.0
  9
$USERR2
 40
0.0
  9
$USERR3
 40
0.0
  9
$USERR4
 40
0.0
  9
$USERR5
 40
0.0
  9
$WORLDVIEW
 70
     1
  9
$SHADEDGE
 70
     3
  9
$SHADEDIF
 70
    70
  9
$TILEMODE
 70
     1
  9
$MAXACTVP
 70
    64
  9
$PLIMCHECK
 70
     0
  9
$PEXTMIN
 10
1.0000000000000000E+020
 20
1.0000000000000000E+020
 30
1.0000000000000000E+020
  9
$PEXTMAX
 10
-1.0000000000000000E+020
 20
-1.0000000000000000E+020
 30
-1.0000000000000000E+020
  9
$PLIMMIN
 10
0.0
 20
0.0
  9
$PLIMMAX
 10
420.0
 20
297.0
  9
$UNITMODE
 70
     0
  9
$VISRETAIN
 70
     1
  9
$PLINEGEN
 70
     0
  9
$PSLTSCALE
 70
     1
  0
ENDSEC
  0
SECTION
  2
TABLES
  0
TABLE
  2
VPORT
 70
     1
  0
VPORT
  2
*ACTIVE
 70
     0
 10
0.0
 20
0.0
 11
1.0
 21
1.0
 12
8190.0000381376594
 22
5872.5000273459573
 13
0.0
 23
0.0
 14
10.0
 24
10.0
 15
10.0
 25
10.0
 16
0.0
 26
0.0
 36
1.0
 17
0.0
 27
0.0
 37
0.0
 40
11826.443434254021
 41
1.7981651376146781
 42
50.0
 43
0.0
 44
0.0
 50
0.0
 51
0.0
 71
     0
 72
   100
 73
     1
 74
     3
 75
     0
 76
     0
 77
     0
 78
     0
  0
ENDTAB
  0
TABLE
  2
LTYPE
 70
     4
  0
LTYPE
  2
CONTINUOUS
 70
     0
  3
Solid line
 72
    65
 73
     0
 40
0.0
  0
LTYPE
  2
HIDDEN
 70
     0
  3
Hidden __ __ __ __ __ __ __ __ __ __ __ __ __ _
 72
    65
 73
     2
 40
9.5249999999999986
 49
6.3499999999999979
 49
-3.174999999999998
  0
LTYPE
  2
CENTER2
 70
     0
  3
Center (.5x) ___ _ ___ _ ___ _ ___ _ ___ _ ___
 72
    65
 73
     4
 40
28.574999999999999
 49
19.050000000000001
 49
-3.174999999999998
 49
3.174999999999998
 49
-3.174999999999998
  0
LTYPE
  2
PHANTOM2
 70
     0
  3
Phantom (.5x) ___ _ _ ___ _ _ ___ _ _ ___ _ _
 72
    65
 73
     6
 40
31.75
 49
15.875
 49
-3.174999999999998
 49
3.174999999999998
 49
-3.174999999999998
 49
3.174999999999998
 49
-3.174999999999998
  0
ENDTAB
  0
TABLE
  2
LAYER
 70
     2
  0
LAYER
  2
0
 70
     0
 62
     7
  6
CONTINUOUS
  0
LAYER
  2
DEFPOINTS
 70
     0
 62
     7
  6
CONTINUOUS
  0
ENDTAB
  0
TABLE
  2
STYLE
 70
     4
  0
STYLE
  2
STANDARD
 70
     0
 40
0.0
 41
1.0
 50
0.0
 71
     0
 42
105.0
  3
romans.shx
  4
bigfont.shx
  0
STYLE
  2
文字
 70
     0
 40
0.0
 41
0.8
 50
0.0
 71
     0
 42
105.0
  3
romans.shx
  4
extfont.shx
  0
STYLE
  2
横文字
 70
     0
 40
0.0
 41
0.8
 50
0.0
 71
     0
 42
105.0
  3
romans.shx
  4
extfont.shx
  0
ENDTAB
  0
TABLE
  2
VIEW
 70
     0
  0
ENDTAB
  0
TABLE
  2
UCS
 70
     0
  0
ENDTAB
  0
TABLE
  2
APPID
 70
    81
  0
APPID
  2
ACAD
 70
     0
  0
APPID
  2
ACADANNOTATIVE
 70
     0
  0
APPID
  2
ADE
 70
     0
  0
APPID
  2
DCO15
 70
     0
  0
APPID
  2
SETH_MM
 70
     0
  0
APPID
  2
ACAD_PSEXT
 70
     0
  0
APPID
  2
ACAD_EXEMPT_FROM_CAD_STANDARDS
 70
     0
  0
APPID
  2
ACAD_MLEADERVER
 70
     0
  0
APPID
  2
AUTOESSSHUTTERLINE1
 70
     0
  0
APPID
  2
AUTOESSSHUTTERLINE2
 70
     0
  0
APPID
  2
AUTOESSSHUTTERPT
 70
     0
  0
APPID
  2
MAKICIRCLE
 70
     0
  0
APPID
  2
ACAD_DSTYLE_DIMJAG
 70
     0
  0
APPID
  2
ACAD_DSTYLE_DIMTALN
 70
     0
  0
APPID
  2
SETW_MM
 70
     0
  0
APPID
  2
PARADIMLINE
 70
     0
  0
APPID
  2
PARABASEPT
 70
     0
  0
APPID
  2
MIRRORCHK_L
 70
     0
  0
APPID
  2
MIRRORCHK_R
 70
     0
  0
APPID
  2
LINKSPLIT1
 70
     0
  0
APPID
  2
LINKSPLIT2
 70
     0
  0
APPID
  2
LINKSPLIT3
 70
     0
  0
APPID
  2
LINKSPLIT4
 70
     0
  0
APPID
  2
TBANLLINE
 70
     0
  0
APPID
  2
TBANRLINE
 70
     0
  0
APPID
  2
TBANHLINE
 70
     0
  0
APPID
  2
ARCLINEA1
 70
     0
  0
APPID
  2
ARCLINEA2
 70
     0
  0
APPID
  2
ARCLINEB1
 70
     0
  0
APPID
  2
ARCLINEB2
 70
     0
  0
APPID
  2
ODPDW
 70
     0
  0
APPID
  2
ODPDH
 70
     0
  0
APPID
  2
ODWLINE1
 70
     0
  0
APPID
  2
ODWLINE2
 70
     0
  0
APPID
  2
ODSY
 70
     0
  0
APPID
  2
EDWDW
 70
     0
  0
APPID
  2
EDWDH
 70
     0
  0
APPID
  2
LINKSPLIT11
 70
     0
  0
APPID
  2
LINKSPLIT12
 70
     0
  0
APPID
  2
LINKSPLIT13
 70
     0
  0
APPID
  2
LINKSPLIT14
 70
     0
  0
APPID
  2
AUTOESSDOORPTH1
 70
     0
  0
APPID
  2
AUTOESSDOORPTH2
 70
     0
  0
APPID
  2
AUTOESSDOORPTV1
 70
     0
  0
APPID
  2
AUTOESSDOORPTV2
 70
     0
  0
APPID
  2
TBANPT1
 70
     0
  0
APPID
  2
TBANPT2
 70
     0
  0
APPID
  2
SETDH_MM
 70
     0
  0
APPID
  2
SETV1_MM
 70
     0
  0
APPID
  2
SETV2_MM
 70
     0
  0
APPID
  2
KAIKOUDIM
 70
     0
  0
APPID
  2
TBANK
 70
     0
  0
APPID
  2
TBANR
 70
     0
  0
APPID
  2
TBANO
 70
     0
  0
APPID
  2
TBANHATA1
 70
     0
  0
APPID
  2
TBANHATA2
 70
     0
  0
APPID
  2
TBANMEN
 70
     0
  0
APPID
  2
TBANW
 70
     0
  0
APPID
  2
TBANH
 70
     0
  0
APPID
  2
ARCLINEA3
 70
     0
  0
APPID
  2
ARCLINEB3
 70
     0
  0
APPID
  2
WORKNAME_UE
 70
     0
  0
APPID
  2
WORKNAME
 70
     0
  0
APPID
  2
SD1
 70
     0
  0
APPID
  2
SD2
 70
     0
  0
APPID
  2
DELETEOBJ
 70
     0
  0
APPID
  2
TBANTEXT
 70
     0
  0
APPID
  2
MAKITEXT
 70
     0
  0
APPID
  2
N_01
 70
     0
  0
APPID
  2
N_02
 70
     0
  0
APPID
  2
N_03
 70
     0
  0
APPID
  2
N_04
 70
     0
  0
APPID
  2
N_05
 70
     0
  0
APPID
  2
N_06
 70
     0
  0
APPID
  2
N_07
 70
     0
  0
APPID
  2
N_08
 70
     0
  0
APPID
  2
N_09
 70
     0
  0
APPID
  2
N_10
 70
     0
  0
APPID
  2
N_11
 70
     0
  0
APPID
  2
N_12
 70
     0
  0
APPID
  2
N_13
 70
     0
  0
ENDTAB
  0
TABLE
  2
DIMSTYLE
 70
     3
  0
DIMSTYLE
  2
STANDARD
 70
     0
  3

  4

  5

  6

  7

 40
30.0
 41
1.0
 42
5.0
 43
7.5
 44
1.0
 45
0.0
 46
0.0
 47
0.0
 48
0.0
140
3.5
141
2.5
142
0.0
143
25.399999999999999
144
1.0
145
0.0
146
1.0
147
1.0
 71
     0
 72
     0
 73
     0
 74
     0
 75
     0
 76
     0
 77
     1
 78
     8
170
     0
171
     2
172
     1
173
     0
174
     1
175
     0
176
     0
177
     0
178
     0
  0
DIMSTYLE
  2
寸法線30
 70
     0
  3

  4

  5

  6

  7

 40
30.0
 41
2.0
 42
5.0
 43
7.5
 44
1.0
 45
0.0
 46
0.0
 47
0.0
 48
0.0
140
3.5
141
1.0
142
0.0
143
0.03937007874016
144
1.0
145
0.0
146
1.0
147
1.0
 71
     0
 72
     0
 73
     0
 74
     0
 75
     0
 76
     0
 77
     1
 78
     8
170
     0
171
     3
172
     1
173
     0
174
     1
175
     0
176
   256
177
   256
178
   256
  0
ENDTAB
  0
ENDSEC
  0
SECTION
  2
BLOCKS
  0
BLOCK
  8
0
  2
$MODEL_SPACE
 70
     0
 10
0.0
 20
0.0
 30
0.0
  3
$MODEL_SPACE
  1

  0
ENDBLK
  5
A549
  8
0
  0
BLOCK
 67
     1
  8
0
  2
$PAPER_SPACE
 70
     0
 10
0.0
 20
0.0
 30
0.0
  3
$PAPER_SPACE
  1

  0
ENDBLK
  5
A545
 67
     1
  8
0
  0
BLOCK
  8
0
  2
_ORIGIN
 70
     0
 10
0.0
 20
0.0
 30
0.0
  3
_ORIGIN
  1

  0
CIRCLE
  5
A7
  8
0
  6
BYBLOCK
 62
     0
 10
0.0
 20
0.0
 30
0.0
 40
0.5
  0
LINE
  5
A8
  8
0
  6
BYBLOCK
 62
     0
 10
0.0
 20
0.0
 30
0.0
 11
-1.0
 21
0.0
 31
0.0
  0
ENDBLK
  5
AA
  8
0
  0
BLOCK
  8
0
  2
_OPEN30
 70
     0
 10
0.0
 20
0.0
 30
0.0
  3
_OPEN30
  1

  0
LINE
  5
AC
  8
0
  6
BYBLOCK
 62
     0
 10
-1.0
 20
0.26794919
 30
0.0
 11
0.0
 21
0.0
 31
0.0
  0
LINE
  5
AD
  8
0
  6
BYBLOCK
 62
     0
 10
0.0
 20
0.0
 30
0.0
 11
-1.0
 21
-0.26794919
 31
0.0
  0
LINE
  5
AE
  8
0
  6
BYBLOCK
 62
     0
 10
0.0
 20
0.0
 30
0.0
 11
-1.0
 21
0.0
 31
0.0
  0
ENDBLK
  5
B0
  8
0
  0
BLOCK
  8
0
  2
*D4
 70
     1
 10
0.0
 20
0.0
 30
0.0
  3
*D4
  1

  0
LINE
  5
A36A
  8
0
 10
4750.0
 20
4000.0000000000209
 30
0.0
 11
4750.0
 21
4530.0000000000209
 31
0.0
  0
LINE
  5
A36B
  8
0
 10
9250.0
 20
4000.0000000000209
 30
0.0
 11
9250.0
 21
4530.0000000000209
 31
0.0
  0
LINE
  5
A36C
  8
0
 10
4780.0
 20
4500.0000000000209
 30
0.0
 11
9220.0
 21
4500.0000000000209
 31
0.0
  0
INSERT
  5
A36D
  8
0
  2
_ORIGIN
 10
4750.0
 20
4500.0000000000209
 30
0.0
 41
30.0
 42
30.0
 43
30.0
 50
180.0
  0
INSERT
  5
A36E
  8
0
  2
_ORIGIN
 10
9250.0
 20
4500.0000000000209
 30
0.0
 41
30.0
 42
30.0
 43
30.0
  0
INSERT
  5
A36F
  8
0
  2
*U5
 10
0.0
 20
0.0
 30
0.0
  0
POINT
  5
A370
  8
DEFPOINTS
 62
     0
 10
4750.0
 20
3850.0000000000209
 30
0.0
  0
POINT
  5
A371
  8
DEFPOINTS
 62
     0
 10
9250.0
 20
3850.0000000000209
 30
0.0
  0
POINT
  5
A372
  8
DEFPOINTS
 62
     0
 10
9250.0
 20
4500.0000000000209
 30
0.0
  0
ENDBLK
  5
A2C6
  8
0
  0
BLOCK
  8
0
  2
*U5
 70
     1
 10
0.0
 20
0.0
 30
0.0
  3
*U5
  1

  0
TEXT
  5
A4AA
  8
0
 10
6952.0
 20
4530.0000000000209
 30
0.0
 40
105.0
  1
W
 41
0.8
  7
文字
  0
ENDBLK
  5
A4AC
  8
0
  0
BLOCK
  8
0
  2
*D6
 70
     1
 10
0.0
 20
0.0
 30
0.0
  3
*D6
  1

  0
LINE
  5
A373
  8
0
 10
6500.0
 20
8800.0000000000055
 30
0.0
 11
5720.0000000000009
 21
8800.0000000000055
 31
0.0
  0
LINE
  5
A374
  8
0
 10
5700.0
 20
6000.0000000000073
 30
0.0
 11
5720.0
 21
6000.0000000000073
 31
0.0
  0
LINE
  5
A375
  8
0
 10
5750.0
 20
8770.0000000000055
 30
0.0
 11
5750.0
 21
6030.0000000000082
 31
0.0
  0
INSERT
  5
A376
  8
0
  2
_ORIGIN
 10
5750.0
 20
8800.0000000000055
 30
0.0
 41
30.0
 42
30.0
 43
30.0
 50
90.0
  0
INSERT
  5
A377
  8
0
  2
_ORIGIN
 10
5750.0
 20
6000.0000000000073
 30
0.0
 41
30.0
 42
30.0
 43
30.0
 50
270.0
  0
INSERT
  5
A378
  8
0
  2
*U7
 10
0.0
 20
0.0
 30
0.0
  0
POINT
  5
A379
  8
DEFPOINTS
 62
     0
 10
6650.0
 20
8800.0000000000055
 30
0.0
  0
POINT
  5
A37A
  8
DEFPOINTS
 62
     0
 10
5850.0
 20
6000.0000000000073
 30
0.0
  0
POINT
  5
A37B
  8
DEFPOINTS
 62
     0
 10
5750.0
 20
6000.0000000000073
 30
0.0
  0
ENDBLK
  5
A2D2
  8
0
  0
BLOCK
  8
0
  2
*U7
 70
     1
 10
0.0
 20
0.0
 30
0.0
  3
*U7
  1

  0
TEXT
  5
A4AE
  8
0
 10
5719.9999999999973
 20
7356.0000000000082
 30
0.0
 40
105.0
  1
H
 50
90.0
 41
0.8
  7
文字
  0
ENDBLK
  5
A4B0
  8
0
  0
BLOCK
  8
0
  2
*D8
 70
     1
 10
0.0
 20
0.0
 30
0.0
  3
*D8
  1

  0
LINE
  5
A37C
  8
0
 10
6500.0
 20
8800.0000000000055
 30
0.0
 11
5720.0
 21
8800.0000000000055
 31
0.0
  0
LINE
  5
A37D
  8
0
 10
6500.0
 20
9140.0000000000127
 30
0.0
 11
5720.0
 21
9140.0000000000127
 31
0.0
  0
LINE
  5
A37E
  8
0
 10
5750.0
 20
8770.0000000000055
 30
0.0
 11
5750.0
 21
8740.0000000000073
 31
0.0
  0
LINE
  5
A37F
  8
0
 10
5750.0
 20
9170.0000000000146
 30
0.0
 11
5750.0
 21
9200.0000000000127
 31
0.0
  0
LINE
  5
A380
  8
0
 10
5750.0
 20
8800.0000000000055
 30
0.0
 11
5750.0
 21
9140.0000000000127
 31
0.0
  0
INSERT
  5
A381
  8
0
  2
_ORIGIN
 10
5750.0
 20
8800.0000000000055
 30
0.0
 41
30.0
 42
30.0
 43
30.0
 50
90.0
  0
INSERT
  5
A382
  8
0
  2
_ORIGIN
 10
5750.0
 20
9140.0000000000127
 30
0.0
 41
30.0
 42
30.0
 43
30.0
 50
270.0
  0
INSERT
  5
A383
  8
0
  2
*U9
 10
0.0
 20
0.0
 30
0.0
  0
POINT
  5
A384
  8
DEFPOINTS
 62
     0
 10
6650.0
 20
8800.0000000000055
 30
0.0
  0
POINT
  5
A385
  8
DEFPOINTS
 62
     0
 10
6650.0
 20
9140.0000000000127
 30
0.0
  0
POINT
  5
A386
  8
DEFPOINTS
 62
     0
 10
5750.0
 20
9140.0000000000127
 30
0.0
  0
ENDBLK
  5
A2DE
  8
0
  0
BLOCK
  8
0
  2
*U9
 70
     1
 10
0.0
 20
0.0
 30
0.0
  3
*U9
  1

  0
TEXT
  5
A4B2
  8
0
 10
5719.9999999999973
 20
8614.4000000000142
 30
0.0
 40
105.0
  1
HR=340以上
 50
90.0
 41
0.8
  7
文字
  0
ENDBLK
  5
A4B4
  8
0
  0
BLOCK
  8
0
  2
*D10
 70
     1
 10
0.0
 20
0.0
 30
0.0
  3
*D10
  1

  0
LINE
  5
A387
  8
0
 10
7400.0
 20
6020.0000000000073
 30
0.0
 11
8029.9999999999973
 21
6020.0000000000073
 31
0.0
  0
LINE
  5
A388
  8
0
 10
7400.0
 20
8840.0000000000146
 30
0.0
 11
8030.0
 21
8840.0000000000146
 31
0.0
  0
LINE
  5
A389
  8
0
 10
7999.9999999999973
 20
6050.0000000000073
 30
0.0
 11
8000.0
 21
8810.0000000000127
 31
0.0
  0
INSERT
  5
A38A
  8
0
  2
_ORIGIN
 10
7999.9999999999973
 20
6020.0000000000073
 30
0.0
 41
30.0
 42
30.0
 43
30.0
 50
270.0
  0
INSERT
  5
A38B
  8
0
  2
_ORIGIN
 10
8000.0
 20
8840.0000000000146
 30
0.0
 41
30.0
 42
30.0
 43
30.0
 50
90.0
  0
INSERT
  5
A38C
  8
0
  2
*U11
 10
0.0
 20
0.0
 30
0.0
  0
POINT
  5
A38D
  8
DEFPOINTS
 62
     0
 10
7250.0
 20
6020.0000000000073
 30
0.0
  0
POINT
  5
A38E
  8
DEFPOINTS
 62
     0
 10
7250.0
 20
8840.0000000000146
 30
0.0
  0
POINT
  5
A38F
  8
DEFPOINTS
 62
     0
 10
8000.0
 20
8840.0000000000146
 30
0.0
  0
ENDBLK
  5
A2EC
  8
0
  0
BLOCK
  8
0
  2
*U11
 70
     1
 10
0.0
 20
0.0
 30
0.0
  3
*U11
  1

  0
TEXT
  5
A4B6
  8
0
 10
7969.9999999999973
 20
7344.0000000000136
 30
0.0
 40
105.0
  1
DH
 50
90.0
 41
0.8
  7
文字
  0
ENDBLK
  5
A4B8
  8
0
  0
BLOCK
  8
0
  2
*D12
 70
     1
 10
0.0
 20
0.0
 30
0.0
  3
*D12
  1

  0
LINE
  5
A390
  8
0
 10
7000.0
 20
9940.0000000000091
 30
0.0
 11
7000.0
 21
9970.0000000000091
 31
0.0
  0
LINE
  5
A391
  8
0
 10
10270.0
 20
9490.0000000000146
 30
0.0
 11
10270.0
 21
9970.0000000000091
 31
0.0
  0
LINE
  5
A392
  8
0
 10
7030.0
 20
9940.0000000000091
 30
0.0
 11
10240.0
 21
9940.0000000000091
 31
0.0
  0
INSERT
  5
A393
  8
0
  2
_ORIGIN
 10
7000.0
 20
9940.0000000000091
 30
0.0
 41
30.0
 42
30.0
 43
30.0
 50
180.0
  0
INSERT
  5
A394
  8
0
  2
_ORIGIN
 10
10270.0
 20
9940.0000000000091
 30
0.0
 41
30.0
 42
30.0
 43
30.0
  0
INSERT
  5
A395
  8
0
  2
*U13
 10
0.0
 20
0.0
 30
0.0
  0
POINT
  5
A396
  8
DEFPOINTS
 62
     0
 10
7000.0
 20
9790.0000000000091
 30
0.0
  0
POINT
  5
A397
  8
DEFPOINTS
 62
     0
 10
10270.0
 20
9340.0000000000146
 30
0.0
  0
POINT
  5
A398
  8
DEFPOINTS
 62
     0
 10
10270.0
 20
9940.0000000000091
 30
0.0
  0
ENDBLK
  5
A2F8
  8
0
  0
BLOCK
  8
0
  2
*U13
 70
     1
 10
0.0
 20
0.0
 30
0.0
  3
*U13
  1

  0
TEXT
  5
A4BA
  8
0
 10
8375.0
 20
9970.0000000000091
 30
0.0
 40
105.0
  1
DH+450
 41
0.8
  7
文字
  0
ENDBLK
  5
A4BC
  8
0
  0
BLOCK
  8
0
  2
*D14
 70
     1
 10
0.0
 20
0.0
 30
0.0
  3
*D14
  1

  0
LINE
  5
A399
  8
0
 10
4725.0
 20
3100.0000000000209
 30
0.0
 11
4725.0
 21
2720.0000000000218
 31
0.0
  0
LINE
  5
A39A
  8
0
 10
9275.0
 20
3100.0000000000209
 30
0.0
 11
9275.0
 21
2720.0000000000218
 31
0.0
  0
LINE
  5
A39B
  8
0
 10
4755.0
 20
2750.0000000000209
 30
0.0
 11
9245.0
 21
2750.0000000000209
 31
0.0
  0
INSERT
  5
A39C
  8
0
  2
_ORIGIN
 10
4725.0
 20
2750.0000000000209
 30
0.0
 41
30.0
 42
30.0
 43
30.0
 50
180.0
  0
INSERT
  5
A39D
  8
0
  2
_ORIGIN
 10
9275.0
 20
2750.0000000000209
 30
0.0
 41
30.0
 42
30.0
 43
30.0
  0
INSERT
  5
A39E
  8
0
  2
*U15
 10
0.0
 20
0.0
 30
0.0
  0
POINT
  5
A39F
  8
DEFPOINTS
 62
     0
 10
4725.0
 20
3250.0000000000209
 30
0.0
  0
POINT
  5
A3A0
  8
DEFPOINTS
 62
     0
 10
9275.0
 20
3250.0000000000209
 30
0.0
  0
POINT
  5
A3A1
  8
DEFPOINTS
 62
     0
 10
9275.0
 20
2750.0000000000209
 30
0.0
  0
ENDBLK
  5
A304
  8
0
  0
BLOCK
  8
0
  2
*U15
 70
     1
 10
0.0
 20
0.0
 30
0.0
  3
*U15
  1

  0
TEXT
  5
A4BE
  8
0
 10
6906.0
 20
2780.0000000000218
 30
0.0
 40
105.0
  1
DW
 41
0.8
  7
文字
  0
ENDBLK
  5
A4C0
  8
0
  0
BLOCK
  8
0
  2
*D16
 70
     1
 10
0.0
 20
0.0
 30
0.0
  3
*D16
  1

  0
LINE
  5
A3A2
  8
0
 10
7000.0
 20
10165.000000000009
 30
0.0
 11
7000.0
 21
10195.0
 31
0.0
  0
LINE
  5
A3A3
  8
0
 10
11020.0
 20
9490.0000000000091
 30
0.0
 11
11020.0
 21
10195.0
 31
0.0
  0
LINE
  5
A3A4
  8
0
 10
7030.0
 20
10165.000000000009
 30
0.0
 11
10990.0
 21
10165.000000000009
 31
0.0
  0
INSERT
  5
A3A5
  8
0
  2
_ORIGIN
 10
7000.0
 20
10165.000000000009
 30
0.0
 41
30.0
 42
30.0
 43
30.0
 50
180.0
  0
INSERT
  5
A3A6
  8
0
  2
_ORIGIN
 10
11020.0
 20
10165.000000000009
 30
0.0
 41
30.0
 42
30.0
 43
30.0
  0
INSERT
  5
A3A7
  8
0
  2
*U17
 10
0.0
 20
0.0
 30
0.0
  0
POINT
  5
A3A8
  8
DEFPOINTS
 62
     0
 10
7000.0
 20
10015.0
 30
0.0
  0
POINT
  5
A3A9
  8
DEFPOINTS
 62
     0
 10
11020.0
 20
9340.0000000000073
 30
0.0
  0
POINT
  5
A3AA
  8
DEFPOINTS
 62
     0
 10
11020.0
 20
10165.000000000009
 30
0.0
  0
ENDBLK
  5
A310
  8
0
  0
BLOCK
  8
0
  2
*U17
 70
     1
 10
0.0
 20
0.0
 30
0.0
  3
*U17
  1

  0
TEXT
  5
A4C2
  8
0
 10
8710.0
 20
10195.0
 30
0.0
 40
105.0
  1
DH+1200
 41
0.8
  7
文字
  0
ENDBLK
  5
A4C4
  8
0
  0
BLOCK
  8
0
  2
*D18
 70
     1
 10
0.0
 20
0.0
 30
0.0
  3
*D18
  1

  0
LINE
  5
A3AB
  8
0
 10
4750.0
 20
4000.0000000000209
 30
0.0
 11
4750.0
 21
4305.0000000000209
 31
0.0
  0
LINE
  5
A3AC
  8
0
 10
4540.0
 20
4000.0000000000209
 30
0.0
 11
4540.0
 21
4305.0000000000209
 31
0.0
  0
LINE
  5
A3AD
  8
0
 10
4780.0
 20
4275.0000000000209
 30
0.0
 11
4810.0
 21
4275.0000000000209
 31
0.0
  0
LINE
  5
A3AE
  8
0
 10
4510.0
 20
4275.0000000000209
 30
0.0
 11
4480.0
 21
4275.0000000000209
 31
0.0
  0
LINE
  5
A3AF
  8
0
 10
4750.0
 20
4275.0000000000209
 30
0.0
 11
4540.0
 21
4275.0000000000209
 31
0.0
  0
INSERT
  5
A3B0
  8
0
  2
_ORIGIN
 10
4750.0
 20
4275.0000000000209
 30
0.0
 41
30.0
 42
30.0
 43
30.0
 50
180.0
  0
INSERT
  5
A3B1
  8
0
  2
_ORIGIN
 10
4540.0
 20
4275.0000000000209
 30
0.0
 41
30.0
 42
30.0
 43
30.0
  0
INSERT
  5
A3B2
  8
0
  2
*U19
 10
0.0
 20
0.0
 30
0.0
  0
POINT
  5
A3B3
  8
DEFPOINTS
 62
     0
 10
4750.0
 20
3850.0000000000209
 30
0.0
  0
POINT
  5
A3B4
  8
DEFPOINTS
 62
     0
 10
4540.0
 20
3850.0000000000209
 30
0.0
  0
POINT
  5
A3B5
  8
DEFPOINTS
 62
     0
 10
4540.0
 20
4275.0000000000209
 30
0.0
  0
ENDBLK
  5
A31C
  8
0
  0
BLOCK
  8
0
  2
*U19
 70
     1
 10
0.0
 20
0.0
 30
0.0
  3
*U19
  1

  0
TEXT
  5
A4C6
  8
0
 10
4429.3999999999996
 20
4305.0000000000209
 30
0.0
 40
105.0
  1
210以上
 41
0.8
  7
文字
  0
ENDBLK
  5
A4C8
  8
0
  0
BLOCK
  8
0
  2
*D20
 70
     1
 10
0.0
 20
0.0
 30
0.0
  3
*D20
  1

  0
LINE
  5
A3B6
  8
0
 10
9250.0
 20
4000.0000000000209
 30
0.0
 11
9250.0
 21
4305.0000000000209
 31
0.0
  0
LINE
  5
A3B7
  8
0
 10
9460.0
 20
4000.0000000000209
 30
0.0
 11
9460.0
 21
4305.0000000000209
 31
0.0
  0
LINE
  5
A3B8
  8
0
 10
9220.0
 20
4275.0000000000209
 30
0.0
 11
9190.0
 21
4275.0000000000209
 31
0.0
  0
LINE
  5
A3B9
  8
0
 10
9490.0
 20
4275.0000000000209
 30
0.0
 11
9520.0
 21
4275.0000000000209
 31
0.0
  0
LINE
  5
A3BA
  8
0
 10
9250.0
 20
4275.0000000000209
 30
0.0
 11
9460.0
 21
4275.0000000000209
 31
0.0
  0
INSERT
  5
A3BB
  8
0
  2
_ORIGIN
 10
9250.0
 20
4275.0000000000209
 30
0.0
 41
30.0
 42
30.0
 43
30.0
  0
INSERT
  5
A3BC
  8
0
  2
_ORIGIN
 10
9460.0
 20
4275.0000000000209
 30
0.0
 41
30.0
 42
30.0
 43
30.0
 50
180.0
  0
INSERT
  5
A3BD
  8
0
  2
*U21
 10
0.0
 20
0.0
 30
0.0
  0
POINT
  5
A3BE
  8
DEFPOINTS
 62
     0
 10
9250.0
 20
3850.0000000000209
 30
0.0
  0
POINT
  5
A3BF
  8
DEFPOINTS
 62
     0
 10
9460.0
 20
3850.0000000000209
 30
0.0
  0
POINT
  5
A3C0
  8
DEFPOINTS
 62
     0
 10
9460.0
 20
4275.0000000000209
 30
0.0
  0
ENDBLK
  5
A32A
  8
0
  0
BLOCK
  8
0
  2
*U21
 70
     1
 10
0.0
 20
0.0
 30
0.0
  3
*U21
  1

  0
TEXT
  5
A4CA
  8
0
 10
9139.3999999999996
 20
4305.0000000000209
 30
0.0
 40
105.0
  1
210以上
 41
0.8
  7
文字
  0
ENDBLK
  5
A4CC
  8
0
  0
BLOCK
  8
0
  2
*D22
 70
     1
 10
0.0
 20
0.0
 30
0.0
  3
*D22
  1

  0
LINE
  5
A3C1
  8
0
 10
4273.0
 20
3500.0000000000359
 30
0.0
 11
4293.0
 21
3500.0000000000359
 31
0.0
  0
LINE
  5
A3C2
  8
0
 10
4573.0
 20
3300.0
 30
0.0
 11
4293.0
 21
3300.0
 31
0.0
  0
LINE
  5
A3C3
  8
0
 10
4323.0
 20
3470.0000000000368
 30
0.0
 11
4323.0
 21
3330.0
 31
0.0
  0
INSERT
  5
A3C4
  8
0
  2
*U23
 10
0.0
 20
0.0
 30
0.0
  0
INSERT
  5
A3C5
  8
0
  2
_ORIGIN
 10
4323.0
 20
3500.0000000000359
 30
0.0
 41
30.0
 42
30.0
 43
30.0
 50
90.0
  0
INSERT
  5
A3C6
  8
0
  2
_ORIGIN
 10
4323.0
 20
3300.0
 30
0.0
 41
30.0
 42
30.0
 43
30.0
 50
270.0
  0
POINT
  5
A3C7
  8
DEFPOINTS
 62
     0
 10
4423.0
 20
3500.0000000000359
 30
0.0
  0
POINT
  5
A3C8
  8
DEFPOINTS
 62
     0
 10
4723.0
 20
3300.0
 30
0.0
  0
POINT
  5
A3C9
  8
DEFPOINTS
 62
     0
 10
4323.0
 20
3300.0
 30
0.0
  0
ENDBLK
  5
A338
  8
0
  0
BLOCK
  8
0
  2
*U23
 70
     1
 10
0.0
 20
0.0
 30
0.0
  3
*U23
  1

  0
TEXT
  5
A4CE
  8
0
 10
4293.0
 20
3247.5000000000359
 30
0.0
 40
105.0
  1
200
 50
90.0
 41
0.8
  7
文字
  0
ENDBLK
  5
A4D0
  8
0
  0
BLOCK
  8
0
  2
*D24
 70
     1
 10
0.0
 20
0.0
 30
0.0
  3
*D24
  1

  0
LINE
  5
A3CA
  8
0
 10
6500.0
 20
8800.0
 30
0.0
 11
5945.0
 21
8800.0
 31
0.0
  0
LINE
  5
A3CB
  8
0
 10
6500.0
 20
8700.0
 30
0.0
 11
5945.0
 21
8700.0
 31
0.0
  0
LINE
  5
A3CC
  8
0
 10
5975.0
 20
8830.0
 30
0.0
 11
5975.0
 21
8860.0
 31
0.0
  0
LINE
  5
A3CD
  8
0
 10
5975.0
 20
8670.0
 30
0.0
 11
5975.0
 21
8640.0
 31
0.0
  0
LINE
  5
A3CE
  8
0
 10
5975.0
 20
8800.0
 30
0.0
 11
5975.0
 21
8700.0
 31
0.0
  0
INSERT
  5
A3CF
  8
0
  2
_ORIGIN
 10
5975.0
 20
8800.0
 30
0.0
 41
30.0
 42
30.0
 43
30.0
 50
270.0
  0
INSERT
  5
A3D0
  8
0
  2
_ORIGIN
 10
5975.0
 20
8700.0
 30
0.0
 41
30.0
 42
30.0
 43
30.0
 50
90.0
  0
INSERT
  5
A3D1
  8
0
  2
*U25
 10
0.0
 20
0.0
 30
0.0
  0
POINT
  5
A3D2
  8
DEFPOINTS
 62
     0
 10
6650.0
 20
8800.0
 30
0.0
  0
POINT
  5
A3D3
  8
DEFPOINTS
 62
     0
 10
6650.0
 20
8700.0
 30
0.0
  0
POINT
  5
A3D4
  8
DEFPOINTS
 62
     0
 10
5975.0
 20
8700.0
 30
0.0
  0
ENDBLK
  5
A344
  8
0
  0
BLOCK
  8
0
  2
*U25
 70
     1
 10
0.0
 20
0.0
 30
0.0
  3
*U25
  1

  0
TEXT
  5
A4D2
  8
0
 10
5944.9999999999991
 20
8714.0000000000018
 30
0.0
 40
105.0
  1
Y
 50
90.0
 41
0.8
  7
文字
  0
ENDBLK
  5
A4D4
  8
0
  0
BLOCK
  8
0
  2
*D26
 70
     1
 10
0.0
 20
0.0
 30
0.0
  3
*D26
  1

  0
LINE
  5
A3D5
  8
0
 10
6500.0
 20
8700.0
 30
0.0
 11
5945.0000000000009
 21
8700.0
 31
0.0
  0
LINE
  5
A3D6
  8
0
 10
5975.0
 20
5999.9999999999918
 30
0.0
 11
5945.0
 21
5999.9999999999918
 31
0.0
  0
LINE
  5
A3D7
  8
0
 10
5975.0000000000009
 20
8670.0
 30
0.0
 11
5975.0
 21
6029.9999999999927
 31
0.0
  0
INSERT
  5
A3D8
  8
0
  2
_ORIGIN
 10
5975.0000000000009
 20
8700.0
 30
0.0
 41
30.0
 42
30.0
 43
30.0
 50
90.0
  0
INSERT
  5
A3D9
  8
0
  2
_ORIGIN
 10
5975.0
 20
5999.9999999999918
 30
0.0
 41
30.0
 42
30.0
 43
30.0
 50
270.0
  0
INSERT
  5
A3DA
  8
0
  2
*U27
 10
0.0
 20
0.0
 30
0.0
  0
POINT
  5
A3DB
  8
DEFPOINTS
 62
     0
 10
6650.0
 20
8700.0
 30
0.0
  0
POINT
  5
A3DC
  8
DEFPOINTS
 62
     0
 10
6125.0
 20
5999.9999999999918
 30
0.0
  0
POINT
  5
A3DD
  8
DEFPOINTS
 62
     0
 10
5975.0
 20
5999.9999999999918
 30
0.0
  0
ENDBLK
  5
A352
  8
0
  0
BLOCK
  8
0
  2
*U27
 70
     1
 10
0.0
 20
0.0
 30
0.0
  3
*U27
  1

  0
TEXT
  5
A4D6
  8
0
 10
5944.9999999999991
 20
6915.9999999999964
 30
0.0
 40
105.0
  1
有効開口高=H-Y
 50
90.0
 41
0.8
  7
文字
  0
ENDBLK
  5
A4D8
  8
0
  0
BLOCK
  8
0
  2
*D28
 70
     1
 10
0.0
 20
0.0
 30
0.0
  3
*D28
  1

  0
LINE
  5
A3DE
  8
0
 10
10270.0
 20
9490.0000000000146
 30
0.0
 11
10270.0
 21
9970.0000000000091
 31
0.0
  0
LINE
  5
A3DF
  8
0
 10
10420.0
 20
9490.0000000000146
 30
0.0
 11
10420.0
 21
9970.0000000000091
 31
0.0
  0
LINE
  5
A3E0
  8
0
 10
10240.0
 20
9940.0000000000091
 30
0.0
 11
10210.0
 21
9940.0000000000091
 31
0.0
  0
LINE
  5
A3E1
  8
0
 10
10450.0
 20
9940.0000000000091
 30
0.0
 11
10480.0
 21
9940.0000000000091
 31
0.0
  0
LINE
  5
A3E2
  8
0
 10
10270.0
 20
9940.0000000000091
 30
0.0
 11
10420.0
 21
9940.0000000000091
 31
0.0
  0
INSERT
  5
A3E3
  8
0
  2
_ORIGIN
 10
10270.0
 20
9940.0000000000091
 30
0.0
 41
30.0
 42
30.0
 43
30.0
  0
INSERT
  5
A3E4
  8
0
  2
_ORIGIN
 10
10420.0
 20
9940.0000000000091
 30
0.0
 41
30.0
 42
30.0
 43
30.0
 50
180.0
  0
INSERT
  5
A3E5
  8
0
  2
*U29
 10
0.0
 20
0.0
 30
0.0
  0
POINT
  5
A3E6
  8
DEFPOINTS
 62
     0
 10
10270.0
 20
9340.0000000000146
 30
0.0
  0
POINT
  5
A3E7
  8
DEFPOINTS
 62
     0
 10
10420.0
 20
9340.0000000000146
 30
0.0
  0
POINT
  5
A3E8
  8
DEFPOINTS
 62
     0
 10
10420.0
 20
9940.0000000000091
 30
0.0
  0
ENDBLK
  5
A35E
  8
0
  0
BLOCK
  8
0
  2
*U29
 70
     1
 10
0.0
 20
0.0
 30
0.0
  3
*U29
  1

  0
TEXT
  5
A4DA
  8
0
 10
10219.0
 20
9970.0000000000091
 30
0.0
 40
105.0
  1
150
 41
0.8
  7
文字
  0
ENDBLK
  5
A4DC
  8
0
  0
BLOCK
  8
0
  2
*U30
 70
     1
 10
0.0
 20
0.0
 30
0.0
  3
*U30
  1

  0
INSERT
  5
A46B
  8
0
  2
_OPEN30
 10
8200.0
 20
8844.0000000000218
 30
0.0
 41
60.0
 42
60.0
 43
60.0
 50
105.0000000000006
  0
POLYLINE
  5
A46C
  8
0
 66
     1
 10
0.0
 20
0.0
 30
0.0
  0
VERTEX
  5
A5FF
  8
0
 10
8215.5291427061493
 20
8786.0444504226743
 30
0.0
  0
VERTEX
  5
A600
  8
0
 10
8290.586665785886
 20
8505.9259607988497
 30
0.0
  0
VERTEX
  5
A601
  8
0
 10
8865.9866657858802
 20
8505.9259607988497
 30
0.0
  0
SEQEND
  5
A602
  8
0
  0
ENDBLK
  5
A472
  8
0
  0
BLOCK
  8
0
  2
*U31
 70
     1
 10
0.0
 20
0.0
 30
0.0
  3
*U31
  1

  0
INSERT
  5
A474
  8
0
  2
_OPEN30
 10
7482.49999999997
 20
9030.0000000000437
 30
0.0
 41
60.0
 42
60.0
 43
60.0
 50
254.99999999999889
  0
POLYLINE
  5
A475
  8
0
 66
     1
 10
0.0
 20
0.0
 30
0.0
  0
VERTEX
  5
A603
  8
0
 10
7498.0291427061229
 20
9087.9555495773875
 30
0.0
  0
VERTEX
  5
A604
  8
0
 10
7598.9685702961142
 20
9464.6666218301234
 30
0.0
  0
VERTEX
  5
A605
  8
0
 10
8297.5685702961055
 20
9464.6666218301234
 30
0.0
  0
SEQEND
  5
A606
  8
0
  0
ENDBLK
  5
A47B
  8
0
  0
BLOCK
  8
0
  2
*U32
 70
     1
 10
0.0
 20
0.0
 30
0.0
  3
*U32
  1

  0
INSERT
  5
A47D
  8
0
  2
_OPEN30
 10
10370.000000000009
 20
8904.9999999999854
 30
0.0
 41
60.0
 42
60.0
 43
60.0
 50
105.00000000000099
  0
POLYLINE
  5
A47E
  8
0
 66
     1
 10
0.0
 20
0.0
 30
0.0
  0
VERTEX
  5
A607
  8
0
 10
10385.52914270616
 20
8847.0444504226416
 30
0.0
  0
VERTEX
  5
A608
  8
0
 10
10473.52761804102
 20
8518.6296694843604
 30
0.0
  0
VERTEX
  5
A609
  8
0
 10
11054.527618041029
 20
8518.6296694843604
 30
0.0
  0
SEQEND
  5
A60A
  8
0
  0
ENDBLK
  5
A484
  8
0
  0
BLOCK
  8
0
  2
*U33
 70
     1
 10
0.0
 20
0.0
 30
0.0
  3
*U33
  1

  0
INSERT
  5
A486
  8
0
  2
_OPEN30
 10
10987.502044782559
 20
8898.3645347582333
 30
0.0
 41
60.0
 42
60.0
 43
60.0
 50
104.9999999999991
  0
POLYLINE
  5
A487
  8
0
 66
     1
 10
0.0
 20
0.0
 30
0.0
  0
VERTEX
  5
A60B
  8
0
 10
11003.031187488719
 20
8840.4089851808912
 30
0.0
  0
VERTEX
  5
A60C
  8
0
 10
11089.25169527063
 20
8518.6296694843604
 30
0.0
  0
VERTEX
  5
A60D
  8
0
 10
11479.85169527064
 20
8518.6296694843604
 30
0.0
  0
SEQEND
  5
A60E
  8
0
  0
ENDBLK
  5
A48D
  8
0
  0
BLOCK
  8
0
  2
*U34
 70
     1
 10
0.0
 20
0.0
 30
0.0
  3
*U34
  1

  0
INSERT
  5
A48F
  8
0
  2
_OPEN30
 10
10580.000000000009
 20
8989.9999999999873
 30
0.0
 41
60.0
 42
60.0
 43
60.0
 50
228.1850282262989
  0
POLYLINE
  5
A490
  8
0
 66
     1
 10
0.0
 20
0.0
 30
0.0
  0
VERTEX
  5
A60F
  8
0
 10
10620.00363472396
 20
9034.7181082881634
 30
0.0
  0
VERTEX
  5
A610
  8
0
 10
11004.26406871194
 20
9464.2640687118983
 30
0.0
  0
VERTEX
  5
A611
  8
0
 10
12129.26406871194
 20
9464.2640687118983
 30
0.0
  0
SEQEND
  5
A612
  8
0
  0
ENDBLK
  5
A496
  8
0
  0
BLOCK
  8
0
  2
*U35
 70
     1
 10
0.0
 20
0.0
 30
0.0
  3
*U35
  1

  0
INSERT
  5
A498
  8
0
  2
_OPEN30
 10
8250.0000000000418
 20
3300.0
 30
0.0
 41
60.0
 42
60.0
 43
60.0
 50
104.9999999999999
  0
POLYLINE
  5
A499
  8
0
 66
     1
 10
0.0
 20
0.0
 30
0.0
  0
VERTEX
  5
A613
  8
0
 10
8265.5291427061966
 20
3242.0444504226562
 30
0.0
  0
VERTEX
  5
A614
  8
0
 10
8314.7047612756724
 20
3058.5185434277391
 30
0.0
  0
VERTEX
  5
A615
  8
0
 10
8598.9047612756804
 20
3058.5185434277391
 30
0.0
  0
SEQEND
  5
A616
  8
0
  0
ENDBLK
  5
A49F
  8
0
  0
BLOCK
  8
0
  2
*U36
 70
     1
 10
0.0
 20
0.0
 30
0.0
  3
*U36
  1

  0
INSERT
  5
A4A1
  8
0
  2
_OPEN30
 10
7016.0
 20
7171.0475088412277
 30
0.0
 41
60.0
 42
60.0
 43
60.0
 50
300.00000000000148
  0
POLYLINE
  5
A4A2
  8
0
 66
     1
 10
0.0
 20
0.0
 30
0.0
  0
VERTEX
  5
A617
  8
0
 10
6986.0
 20
7223.0090330682942
 30
0.0
  0
VERTEX
  5
A618
  8
0
 10
6885.4957445612526
 20
7397.0875098650722
 30
0.0
  0
VERTEX
  5
A619
  8
0
 10
6500.4957445612526
 20
7397.0875098650722
 30
0.0
  0
SEQEND
  5
A61A
  8
0
  0
ENDBLK
  5
A4A8
  8
0
  0
ENDSEC
  0
SECTION
  2
ENTITIES
  0
LINE
  5
6011
  8
0
 10
16380.0
 20
0.0
 30
0.0
 11
0.0
 21
0.0
 31
0.0
  0
LINE
  5
6012
  8
0
 10
0.0
 20
11745.0
 30
0.0
 11
16380.0
 21
11745.0
 31
0.0
  0
LINE
  5
6013
  8
0
 10
0.0
 20
11745.0
 30
0.0
 11
0.0
 21
0.0
 31
0.0
  0
LINE
  5
6014
  8
0
 10
16380.0
 20
11745.0
 30
0.0
 11
16380.0
 21
0.0
 31
0.0
  0
LINE
  5
A116
  8
0
 10
10130.0
 20
400.0
 30
0.0
 11
10130.0
 21
0.0
 31
0.0
  0
TEXT
  5
A117
  8
0
 10
10979.999999999971
 20
247.5
 30
0.0
 40
105.0
  1
オーバードア（電動トロリー式H006型）
 11
10979.999999999971
 21
300.0
 31
0.0
 73
     2
  0
TEXT
  5
A118
  8
0
 10
10229.999999999971
 20
247.5
 30
0.0
 40
105.0
  1
製品名称  :
 11
10229.999999999971
 21
300.0
 31
0.0
 73
     2
  0
LINE
  5
A119
  8
0
 10
10130.0
 20
200.0
 30
0.0
 11
13880.0
 21
200.0
 31
0.0
  0
LINE
  5
A11A
  8
0
 10
13880.0
 20
400.0
 30
0.0
 11
13880.0
 21
0.0
 31
0.0
  0
TEXT
  5
A11B
  8
0
 10
13998.33333333333
 20
112.5
 30
0.0
 40
175.0
  1
東洋シヤッター株式会社
 72
     1
 11
15130.0
 21
200.0
 31
0.0
 73
     2
  0
LINE
  5
A11C
  8
0
 10
10130.0
 20
400.0
 30
0.0
 11
16380.0
 21
400.0
 31
0.0
  0
TEXT
  5
A11D
  8
0
 10
12979.999999999971
 20
47.5
 30
0.0
 40
105.0
  1
縮尺:1/30
 11
12979.999999999971
 21
100.0
 31
0.0
 73
     2
  0
LINE
  5
A11E
  8
0
 10
4724.9999999999927
 20
3432.5
 30
0.0
 11
9275.0
 21
3432.5
 31
0.0
  0
LINE
  5
A11F
  8
0
 10
9275.0
 20
3432.5
 30
0.0
 11
9275.0
 21
3484.0
 31
0.0
  0
LINE
  5
A120
  8
0
 10
9275.0
 20
3484.0
 30
0.0
 11
4724.9999999999927
 21
3484.0
 31
0.0
  0
LINE
  5
A121
  8
0
 10
4724.9999999999927
 20
3484.0
 30
0.0
 11
4724.9999999999927
 21
3432.5
 31
0.0
  0
ARC
  5
A122
  8
0
 10
9327.2999999999884
 20
3497.6999999999971
 30
0.0
 40
2.299999999999998
 50
90.0
 51
180.0
  0
LINE
  5
A123
  8
0
 10
9365.0
 20
3497.6999999999971
 30
0.0
 11
9365.0
 21
3500.0
 31
0.0
  0
LINE
  5
A124
  8
0
 10
9327.2999999999884
 20
3497.6999999999971
 30
0.0
 11
9365.0
 21
3497.6999999999971
 31
0.0
  0
LINE
  5
A125
  8
0
 10
9327.2999999999884
 20
3384.0
 30
0.0
 11
9327.2999999999884
 21
3497.6999999999971
 31
0.0
  0
LINE
  5
A126
  8
0
 10
9325.0
 20
3384.0
 30
0.0
 11
9327.2999999999884
 21
3384.0
 31
0.0
  0
LINE
  5
A127
  8
0
 10
9325.0
 20
3497.6999999999971
 30
0.0
 11
9325.0
 21
3384.0
 31
0.0
  0
LINE
  5
A128
  8
0
 10
9365.0
 20
3500.0
 30
0.0
 11
9327.2999999999884
 21
3500.0
 31
0.0
  0
ARC
  5
A129
  8
0
 10
9312.5
 20
3386.4999999999409
 30
0.0
 40
5.7499999999704414
 50
180.0
 51
0.0
  0
ARC
  5
A12A
  8
0
 10
9312.5
 20
3421.5
 30
0.0
 40
5.7499999999704414
 50
0.0
 51
180.0
  0
LINE
  5
A12B
  8
0
 10
9306.7500000000273
 20
3386.4999999999409
 30
0.0
 11
9306.7500000000273
 21
3421.5
 31
0.0
  0
LINE
  5
A12C
  8
0
 10
9318.2500000000127
 20
3421.5
 30
0.0
 11
9318.2500000000127
 21
3386.4999999999409
 31
0.0
  0
ARC
  5
A12D
  8
0
 10
9318.9999999999836
 20
3389.7190997647272
 30
0.0
 40
4.0
 50
329.99999999989421
 51
0.0
  0
ARC
  5
A12E
  8
0
 10
9319.0
 20
3389.7190997647349
 30
0.0
 40
6.0
 50
329.99999999989421
 51
0.0
  0
ARC
  5
A12F
  8
0
 10
9320.0
 20
3425.5
 30
0.0
 40
3.0
 50
0.0
 51
90.0
  0
ARC
  5
A130
  8
0
 10
9320.0
 20
3425.5
 30
0.0
 40
5.0
 50
0.0
 51
90.0
  0
LINE
  5
A131
  8
0
 10
9301.5529946162005
 20
3387.5
 30
0.0
 11
9304.4397459621541
 21
3382.5
 31
0.0
  0
LINE
  5
A132
  8
0
 10
9303.2850454237632
 20
3388.4999999999932
 30
0.0
 11
9301.5529946162005
 21
3387.5
 31
0.0
  0
LINE
  5
A133
  8
0
 10
9306.1717967697186
 20
3383.4999999999932
 30
0.0
 11
9303.2850454237632
 21
3388.4999999999932
 31
0.0
  0
LINE
  5
A134
  8
0
 10
9322.4641016151327
 20
3387.7190997647281
 30
0.0
 11
9320.0282032302348
 21
3383.5000000000141
 31
0.0
  0
LINE
  5
A135
  8
0
 10
9324.1961524226917
 20
3386.719099764734
 30
0.0
 11
9321.7602540378011
 21
3382.5
 31
0.0
  0
ARC
  5
A136
  8
0
 10
9313.0999999999913
 20
3387.5
 30
0.0
 40
8.0
 50
210.0000000001059
 51
329.99999999989421
  0
ARC
  5
A137
  8
0
 10
9313.0999999999913
 20
3387.5
 30
0.0
 40
10.0
 50
210.0000000001059
 51
329.99999999989421
  0
LINE
  5
A138
  8
0
 10
9323.0
 20
3425.5
 30
0.0
 11
9322.9999999999836
 21
3389.7190997647272
 31
0.0
  0
LINE
  5
A139
  8
0
 10
9300.0
 20
3428.5
 30
0.0
 11
9320.0
 21
3428.5
 31
0.0
  0
LINE
  5
A13A
  8
0
 10
9300.0
 20
3430.5
 30
0.0
 11
9300.0
 21
3428.5
 31
0.0
  0
LINE
  5
A13B
  8
0
 10
9320.0
 20
3430.5
 30
0.0
 11
9300.0
 21
3430.5
 31
0.0
  0
LINE
  5
A13C
  8
0
 10
9325.0
 20
3389.7190997647349
 30
0.0
 11
9325.0
 21
3425.5
 31
0.0
  0
LINE
  5
A13D
  8
0
 10
9265.6999999999971
 20
3382.5
 30
0.0
 11
9268.0
 21
3382.5
 31
0.0
  0
LINE
  5
A13E
  8
0
 10
9202.0
 20
3382.5
 30
0.0
 11
9204.2999999999865
 21
3382.5
 31
0.0
  0
LINE
  5
A13F
  8
0
 10
9178.2500000000127
 20
3397.5
 30
0.0
 11
9306.7500000000273
 21
3397.5
 31
0.0
  0
LINE
  5
A140
  8
0
 10
9178.2500000000127
 20
3410.5000000000009
 30
0.0
 11
9178.2500000000127
 21
3397.5
 31
0.0
  0
LINE
  5
A141
  8
0
 10
9306.7500000000273
 20
3410.5000000000009
 30
0.0
 11
9178.2500000000127
 21
3410.5000000000009
 31
0.0
  0
LINE
  5
A142
  8
0
 10
9265.6999999999971
 20
3430.1999999999971
 30
0.0
 11
9265.6999999999971
 21
3382.5
 31
0.0
  0
LINE
  5
A143
  8
0
 10
9204.2999999999865
 20
3430.1999999999971
 30
0.0
 11
9265.6999999999971
 21
3430.1999999999971
 31
0.0
  0
LINE
  5
A144
  8
0
 10
9204.2999999999865
 20
3382.5
 30
0.0
 11
9204.2999999999865
 21
3430.1999999999971
 31
0.0
  0
LINE
  5
A145
  8
0
 10
9202.0
 20
3432.5
 30
0.0
 11
9202.0
 21
3382.5
 31
0.0
  0
LINE
  5
A146
  8
0
 10
9268.0
 20
3432.5
 30
0.0
 11
9202.0
 21
3432.5
 31
0.0
  0
LINE
  5
A147
  8
0
 10
9268.0
 20
3382.5
 30
0.0
 11
9268.0
 21
3432.5
 31
0.0
  0
LINE
  5
A148
  8
0
  6
PHANTOM2
 10
9374.9999999999727
 20
3499.9999999999859
 30
0.0
 11
9374.9999999999836
 21
2250.0000000000209
 31
0.0
  0
LINE
  5
A149
  8
0
  6
PHANTOM2
 10
9374.9999999999727
 20
2000.0000000000221
 30
0.0
 11
9299.9999999999745
 21
2000.0000000000221
 31
0.0
  0
LINE
  5
A14A
  8
0
  6
PHANTOM2
 10
9299.9999999999745
 20
2000.0000000000221
 30
0.0
 11
9299.9999999999836
 21
2200.0000000000209
 31
0.0
  0
LINE
  5
A14B
  8
0
  6
PHANTOM2
 10
9324.9999999999727
 20
2000.0000000000221
 30
0.0
 11
9324.9999999999854
 21
2200.0000000000209
 31
0.0
  0
ARC
  5
A14C
  8
0
 10
4672.6999999999971
 20
3497.6999999999971
 30
0.0
 40
2.299999999999998
 50
0.0
 51
90.0
  0
LINE
  5
A14D
  8
0
 10
4634.9999999999927
 20
3497.6999999999971
 30
0.0
 11
4634.9999999999927
 21
3500.0
 31
0.0
  0
LINE
  5
A14E
  8
0
 10
4672.6999999999971
 20
3497.6999999999971
 30
0.0
 11
4634.9999999999927
 21
3497.6999999999971
 31
0.0
  0
LINE
  5
A14F
  8
0
 10
4672.6999999999971
 20
3384.0
 30
0.0
 11
4672.6999999999971
 21
3497.6999999999971
 31
0.0
  0
LINE
  5
A150
  8
0
 10
4674.9999999999918
 20
3384.0
 30
0.0
 11
4672.6999999999971
 21
3384.0
 31
0.0
  0
LINE
  5
A151
  8
0
 10
4674.9999999999918
 20
3497.6999999999971
 30
0.0
 11
4674.9999999999918
 21
3384.0
 31
0.0
  0
LINE
  5
A152
  8
0
 10
4634.9999999999927
 20
3500.0
 30
0.0
 11
4672.6999999999971
 21
3500.0
 31
0.0
  0
ARC
  5
A153
  8
0
 10
4687.4999999999918
 20
3386.4999999999409
 30
0.0
 40
5.7499999999704414
 50
180.0
 51
0.0
  0
ARC
  5
A154
  8
0
 10
4687.4999999999918
 20
3421.5
 30
0.0
 40
5.7499999999704414
 50
0.0
 51
180.0
  0
LINE
  5
A155
  8
0
 10
4693.2499999999618
 20
3386.4999999999409
 30
0.0
 11
4693.2499999999618
 21
3421.5
 31
0.0
  0
LINE
  5
A156
  8
0
 10
4681.7499999999636
 20
3421.5
 30
0.0
 11
4681.7499999999636
 21
3386.4999999999409
 31
0.0
  0
ARC
  5
A157
  8
0
 10
4680.9999999999918
 20
3389.7190997647272
 30
0.0
 40
4.0
 50
180.0
 51
210.0000000001059
  0
ARC
  5
A158
  8
0
 10
4680.9999999999918
 20
3389.7190997647349
 30
0.0
 40
6.0
 50
180.0
 51
210.0000000001059
  0
ARC
  5
A159
  8
0
 10
4679.9999999999909
 20
3425.5
 30
0.0
 40
3.0
 50
90.0
 51
180.0
  0
ARC
  5
A15A
  8
0
 10
4679.9999999999909
 20
3425.5
 30
0.0
 40
5.0
 50
90.0
 51
180.0
  0
LINE
  5
A15B
  8
0
 10
4698.4470053837858
 20
3387.5
 30
0.0
 11
4695.5602540378386
 21
3382.5
 31
0.0
  0
LINE
  5
A15C
  8
0
 10
4696.7149545762222
 20
3388.4999999999932
 30
0.0
 11
4698.4470053837858
 21
3387.5
 31
0.0
  0
LINE
  5
A15D
  8
0
 10
4693.8282032302741
 20
3383.4999999999932
 30
0.0
 11
4696.7149545762222
 21
3388.4999999999932
 31
0.0
  0
LINE
  5
A15E
  8
0
 10
4677.5358983848564
 20
3387.7190997647281
 30
0.0
 11
4679.9717967697507
 21
3383.5000000000141
 31
0.0
  0
LINE
  5
A15F
  8
0
 10
4675.8038475772837
 20
3386.719099764734
 30
0.0
 11
4678.2397459621943
 21
3382.5
 31
0.0
  0
ARC
  5
A160
  8
0
 10
4686.8999999999942
 20
3387.5
 30
0.0
 40
8.0
 50
210.0000000001059
 51
329.99999999989421
  0
ARC
  5
A161
  8
0
 10
4686.8999999999942
 20
3387.5
 30
0.0
 40
10.0
 50
210.0000000001059
 51
329.99999999989421
  0
LINE
  5
A162
  8
0
 10
4676.9999999999909
 20
3425.5
 30
0.0
 11
4676.9999999999909
 21
3389.7190997647272
 31
0.0
  0
LINE
  5
A163
  8
0
 10
4699.9999999999927
 20
3428.5
 30
0.0
 11
4679.9999999999909
 21
3428.5
 31
0.0
  0
LINE
  5
A164
  8
0
 10
4699.9999999999927
 20
3430.5
 30
0.0
 11
4699.9999999999927
 21
3428.5
 31
0.0
  0
LINE
  5
A165
  8
0
 10
4679.9999999999909
 20
3430.5
 30
0.0
 11
4699.9999999999927
 21
3430.5
 31
0.0
  0
LINE
  5
A166
  8
0
 10
4674.9999999999918
 20
3389.7190997647349
 30
0.0
 11
4674.9999999999918
 21
3425.5
 31
0.0
  0
LINE
  5
A167
  8
0
 10
4734.2999999999893
 20
3382.5
 30
0.0
 11
4731.9999999999927
 21
3382.5
 31
0.0
  0
LINE
  5
A168
  8
0
 10
4797.9999999999918
 20
3382.5
 30
0.0
 11
4795.6999999999971
 21
3382.5
 31
0.0
  0
LINE
  5
A169
  8
0
 10
4821.7499999999636
 20
3397.5
 30
0.0
 11
4693.2499999999618
 21
3397.5
 31
0.0
  0
LINE
  5
A16A
  8
0
 10
4821.7499999999636
 20
3410.5000000000009
 30
0.0
 11
4821.7499999999636
 21
3397.5
 31
0.0
  0
LINE
  5
A16B
  8
0
 10
4693.2499999999618
 20
3410.5000000000009
 30
0.0
 11
4821.7499999999636
 21
3410.5000000000009
 31
0.0
  0
LINE
  5
A16C
  8
0
 10
4734.2999999999893
 20
3430.1999999999971
 30
0.0
 11
4734.2999999999893
 21
3382.5
 31
0.0
  0
LINE
  5
A16D
  8
0
 10
4795.6999999999971
 20
3430.1999999999971
 30
0.0
 11
4734.2999999999893
 21
3430.1999999999971
 31
0.0
  0
LINE
  5
A16E
  8
0
 10
4795.6999999999971
 20
3382.5
 30
0.0
 11
4795.6999999999971
 21
3430.1999999999971
 31
0.0
  0
LINE
  5
A16F
  8
0
 10
4797.9999999999918
 20
3432.5
 30
0.0
 11
4797.9999999999918
 21
3382.5
 31
0.0
  0
LINE
  5
A170
  8
0
 10
4731.9999999999927
 20
3432.5
 30
0.0
 11
4797.9999999999918
 21
3432.5
 31
0.0
  0
LINE
  5
A171
  8
0
 10
4731.9999999999927
 20
3382.5
 30
0.0
 11
4731.9999999999927
 21
3432.5
 31
0.0
  0
LINE
  5
A172
  8
0
  6
PHANTOM2
 10
4625.0000000000064
 20
3499.9999999999859
 30
0.0
 11
4625.0000000000064
 21
2250.0000000000209
 31
0.0
  0
LINE
  5
A173
  8
0
  6
PHANTOM2
 10
4625.0000000000064
 20
2000.0000000000221
 30
0.0
 11
4700.0000000000064
 21
2000.0000000000221
 31
0.0
  0
LINE
  5
A174
  8
0
  6
PHANTOM2
 10
4700.0000000000064
 20
2000.0000000000221
 30
0.0
 11
4700.0000000000064
 21
2200.0000000000209
 31
0.0
  0
LINE
  5
A175
  8
0
  6
PHANTOM2
 10
4675.0000000000064
 20
2000.0000000000221
 30
0.0
 11
4675.0
 21
2200.0000000000209
 31
0.0
  0
DIMENSION
  5
A176
  8
0
  2
*D4
 10
9250.0
 20
4500.0000000000209
 30
0.0
 11
7000.0
 21
4582.50000000002
 31
0.0
  1
W
 13
4750.0
 23
3850.0000000000209
 33
0.0
 14
9250.0
 24
3850.0000000000209
 34
0.0
1001
ACAD
1000
DSTYLE
1002
{
1070
    41
1040
1.0
1002
}
  0
LINE
  5
A177
  8
0
 10
5250.0
 20
6000.0000000000073
 30
0.0
 11
11745.0
 21
6000.0000000000073
 31
0.0
  0
DIMENSION
  5
A178
  8
0
  2
*D6
 10
5750.0
 20
6000.0000000000073
 30
0.0
 11
5667.4999999999991
 21
7400.00000000001
 31
0.0
  1
H
 13
6650.0
 23
8800.0000000000055
 33
0.0
 14
5850.0
 24
6000.0000000000073
 34
0.0
 50
90.0
1001
ACAD
1000
DSTYLE
1002
{
1070
    41
1040
1.0
1002
}
  0
DIMENSION
  5
A179
  8
0
  2
*D8
 10
5750.0
 20
9140.0000000000127
 30
0.0
 11
5667.4999999999991
 21
8970.0000000000127
 31
0.0
  1
HR=340以上
 13
6650.0
 23
8800.0000000000055
 33
0.0
 14
6650.0
 24
9140.0000000000127
 34
0.0
 50
90.0
1001
ACAD
1000
DSTYLE
1002
{
1070
    41
1040
1.0
1002
}
  0
DIMENSION
  5
A17A
  8
0
  2
*D10
 10
8000.0
 20
8840.0000000000146
 30
0.0
 11
7917.5
 21
7430.0000000000127
 31
0.0
  1
DH
 13
7250.0
 23
6020.0000000000073
 33
0.0
 14
7250.0
 24
8840.0000000000146
 34
0.0
 50
90.0
1001
ACAD
1000
DSTYLE
1002
{
1070
    41
1040
1.0
1002
}
  0
DIMENSION
  5
A17B
  8
0
  2
*D12
 10
10270.0
 20
9940.0000000000091
 30
0.0
 11
8635.0
 21
10022.5
 31
0.0
  1
DH+450
 13
7000.0
 23
9790.0000000000091
 33
0.0
 14
10270.0
 24
9340.0000000000146
 34
0.0
1001
ACAD
1000
DSTYLE
1002
{
1070
    41
1040
1.0
1002
}
  0
LINE
  5
A17C
  8
0
 10
7950.0
 20
8950.0000000000127
 30
0.0
 11
7950.0
 21
9050.0000000000127
 31
0.0
  0
LINE
  5
A17D
  8
0
 10
7950.0
 20
9050.0000000000127
 30
0.0
 11
8050.0
 21
9050.0000000000127
 31
0.0
  0
LINE
  5
A17E
  8
0
 10
8050.0
 20
9050.0000000000127
 30
0.0
 11
8050.0
 21
8950.0000000000127
 31
0.0
  0
LINE
  5
A17F
  8
0
 10
4750.0
 20
2250.0000000000209
 30
0.0
 11
4575.0
 21
2250.0000000000209
 31
0.0
  0
LINE
  5
A180
  8
0
 10
4750.0
 20
2200.0000000000209
 30
0.0
 11
4575.0
 21
2200.0000000000209
 31
0.0
  0
LINE
  5
A181
  8
0
  6
PHANTOM2
 10
4625.0000000000064
 20
2200.0000000000209
 30
0.0
 11
4625.0000000000064
 21
2000.0000000000221
 31
0.0
  0
LINE
  5
A182
  8
0
  6
PHANTOM2
 10
4675.0
 20
2250.0000000000209
 30
0.0
 11
4674.9999999999918
 21
3389.7190997647349
 31
0.0
  0
LINE
  5
A183
  8
0
  6
PHANTOM2
 10
4700.0000000000064
 20
2250.0000000000209
 30
0.0
 11
4700.0000000000064
 21
3389.7190997647349
 31
0.0
  0
LINE
  5
A184
  8
0
 10
9424.9999999999745
 20
2250.0000000000209
 30
0.0
 11
9249.9999999999727
 21
2250.0000000000209
 31
0.0
  0
LINE
  5
A185
  8
0
 10
9424.9999999999745
 20
2200.0000000000209
 30
0.0
 11
9249.9999999999727
 21
2200.0000000000209
 31
0.0
  0
LINE
  5
A186
  8
0
  6
PHANTOM2
 10
9374.9999999999836
 20
2200.0000000000209
 30
0.0
 11
9374.9999999999727
 21
2000.0000000000221
 31
0.0
  0
LINE
  5
A187
  8
0
  6
PHANTOM2
 10
9299.9999999999836
 20
2250.0000000000209
 30
0.0
 11
9299.9999999999745
 21
3389.7190997647349
 31
0.0
  0
LINE
  5
A188
  8
0
  6
PHANTOM2
 10
9324.9999999999854
 20
2250.0000000000209
 30
0.0
 11
9325.0
 21
3389.7190997647349
 31
0.0
  0
DIMENSION
  5
A189
  8
0
  2
*D14
 10
9275.0
 20
2750.0000000000209
 30
0.0
 11
7000.0
 21
2832.5000000000218
 31
0.0
  1
DW
 13
4725.0
 23
3250.0000000000209
 33
0.0
 14
9275.0
 24
3250.0000000000209
 34
0.0
1001
ACAD
1000
DSTYLE
1002
{
1070
    41
1040
1.0
1002
}
  0
TEXT
  5
A18A
  8
0
 10
8343.0866657858824
 20
8535.9259607988497
 30
0.0
 40
105.0
  1
水平レール
 41
0.8
  7
横文字
 72
     1
 11
8578.2866657858831
 21
8535.9259607988497
 31
0.0
  0
INSERT
  5
A18B
  8
0
  2
*U30
 10
0.0
 20
0.0
 30
0.0
  0
LINE
  5
A18C
  8
0
 10
7016.0
 20
8839.9999999999873
 30
0.0
 11
7067.4999999999991
 21
8839.9999999999873
 31
0.0
  0
LINE
  5
A18D
  8
0
 10
7067.4999999999991
 20
8839.9999999999873
 30
0.0
 11
7067.4999999999991
 21
6019.9999999999782
 31
0.0
  0
LINE
  5
A18E
  8
0
 10
7067.4999999999991
 20
6019.9999999999782
 30
0.0
 11
7016.0
 21
6019.9999999999782
 31
0.0
  0
LINE
  5
A18F
  8
0
 10
7016.0
 20
6019.9999999999782
 30
0.0
 11
7016.0
 21
8839.9999999999873
 31
0.0
  0
LINE
  5
A190
  8
0
 10
7104.0
 20
6000.0000000000073
 30
0.0
 11
7132.8083006708639
 21
8448.7055567207517
 31
0.0
  0
LINE
  5
A191
  8
0
  6
HIDDEN
 10
7050.9963323068223
 20
6000.0000000000073
 30
0.0
 11
7067.4999999999991
 21
7402.8117537458756
 31
0.0
  0
LINE
  5
A192
  8
0
 10
7067.4999999999991
 20
7402.8117537458756
 30
0.0
 11
7079.8119681102407
 21
8449.3290429862409
 31
0.0
  0
LINE
  5
A193
  8
0
 10
7092.9992387806551
 20
6000.0000000000073
 30
0.0
 11
7121.8090618375281
 21
8448.8349595305608
 31
0.0
  0
LINE
  5
A194
  8
0
 10
10270.0
 20
8844.0000000000127
 30
0.0
 11
10270.0
 21
8950.0000000000127
 31
0.0
  0
LINE
  5
A195
  8
0
 10
7325.1619968365703
 20
8908.0000000000055
 30
0.0
 11
10270.0
 21
8908.0000000000127
 31
0.0
  0
LINE
  5
A196
  8
0
 10
7325.1619968365703
 20
8897.0000000000127
 30
0.0
 11
10270.0
 21
8897.0000000000127
 31
0.0
  0
LINE
  5
A197
  8
0
 10
7526.7806218831547
 20
8855.0000000000164
 30
0.0
 11
10270.0
 21
8855.0000000000164
 31
0.0
  0
LINE
  5
A198
  8
0
 10
7526.7806218831547
 20
8844.0000000000218
 30
0.0
 11
10270.0
 21
8844.0000000000127
 31
0.0
  0
ARC
  5
A199
  8
0
 10
7325.1619968365703
 20
8497.0000000000127
 30
0.0
 40
400.0
 50
90.0
 51
90.595983602537871
  0
LINE
  5
A19A
  8
0
 10
7005.0100990677893
 20
8817.4867584707026
 30
0.0
 11
7042.4968575384983
 21
8780.0000000000127
 31
0.0
  0
ARC
  5
A19B
  8
0
 10
7325.1619968365703
 20
8497.0000000000127
 30
0.0
 40
411.0
 50
90.0
 51
90.403012908078864
  0
DIMENSION
  5
A19C
  8
0
  2
*D16
 10
11020.0
 20
10165.000000000009
 30
0.0
 11
9010.0
 21
10247.5
 31
0.0
  1
DH+1200
 13
7000.0
 23
10015.0
 33
0.0
 14
11020.0
 24
9340.0000000000073
 34
0.0
1001
ACAD
1000
DSTYLE
1002
{
1070
    41
1040
1.0
1002
}
  0
LINE
  5
A19D
  8
0
 10
10270.0
 20
8950.0000000000127
 30
0.0
 11
7327.1154036189237
 21
8950.0000000000127
 31
0.0
  0
LINE
  5
A19E
  8
0
 10
9150.0
 20
8950.0000000000127
 30
0.0
 11
9150.0
 21
9050.0000000000127
 31
0.0
  0
LINE
  5
A19F
  8
0
 10
9150.0
 20
9050.0000000000127
 30
0.0
 11
9250.0
 21
9050.0000000000127
 31
0.0
  0
LINE
  5
A1A0
  8
0
 10
9250.0
 20
9050.0000000000127
 30
0.0
 11
9250.0
 21
8950.0000000000127
 31
0.0
  0
TEXT
  5
A1A1
  8
0
 10
7651.4685702961169
 20
9494.6666218301252
 30
0.0
 40
105.0
  1
ワイヤシーブ
 41
0.8
  7
横文字
 72
     1
 11
7948.268570296118
 21
9494.6666218301252
 31
0.0
  0
INSERT
  5
A1A2
  8
0
  2
*U31
 10
0.0
 20
0.0
 30
0.0
  0
LINE
  5
A1A3
  8
0
  6
PHANTOM2
 10
7067.4999999999991
 20
6019.9999999999782
 30
0.0
 11
7378.4999999999973
 21
8965.0000000000146
 31
0.0
  0
LINE
  5
A1A4
  8
0
  6
CENTER2
 10
4500.0
 20
1850.0000000000221
 30
0.0
 11
9500.0
 21
1850.0000000000221
 31
0.0
  0
LINE
  5
A1A5
  8
0
  6
PHANTOM2
 10
9325.0
 20
1771.0000000000291
 30
0.0
 11
9325.0
 21
1929.000000000028
 31
0.0
  0
LINE
  5
A1A6
  8
0
  6
PHANTOM2
 10
9325.0
 20
1771.0000000000291
 30
0.0
 11
9340.0
 21
1785.0000000000221
 31
0.0
  0
LINE
  5
A1A7
  8
0
  6
PHANTOM2
 10
9340.0
 20
1785.0000000000221
 30
0.0
 11
9420.0
 21
1785.0000000000221
 31
0.0
  0
LINE
  5
A1A8
  8
0
  6
PHANTOM2
 10
9420.0
 20
1785.0000000000221
 30
0.0
 11
9420.0
 21
1915.0000000000221
 31
0.0
  0
LINE
  5
A1A9
  8
0
  6
PHANTOM2
 10
9420.0
 20
1915.0000000000221
 30
0.0
 11
9340.0
 21
1915.0000000000221
 31
0.0
  0
LINE
  5
A1AA
  8
0
  6
PHANTOM2
 10
9340.0
 20
1915.0000000000221
 30
0.0
 11
9325.0
 21
1929.000000000028
 31
0.0
  0
LINE
  5
A1AB
  8
0
  6
PHANTOM2
 10
4675.0
 20
1771.0000000000291
 30
0.0
 11
4675.0
 21
1929.000000000028
 31
0.0
  0
LINE
  5
A1AC
  8
0
  6
PHANTOM2
 10
4675.0
 20
1771.0000000000291
 30
0.0
 11
4659.9999999999927
 21
1785.0000000000221
 31
0.0
  0
LINE
  5
A1AD
  8
0
  6
PHANTOM2
 10
4659.9999999999927
 20
1785.0000000000221
 30
0.0
 11
4579.9999999999918
 21
1785.0000000000221
 31
0.0
  0
LINE
  5
A1AE
  8
0
  6
PHANTOM2
 10
4579.9999999999918
 20
1785.0000000000221
 30
0.0
 11
4579.9999999999918
 21
1915.0000000000221
 31
0.0
  0
LINE
  5
A1AF
  8
0
  6
PHANTOM2
 10
4579.9999999999918
 20
1915.0000000000221
 30
0.0
 11
4659.9999999999927
 21
1915.0000000000221
 31
0.0
  0
LINE
  5
A1B0
  8
0
  6
PHANTOM2
 10
4659.9999999999927
 20
1915.0000000000221
 30
0.0
 11
4674.9999999999918
 21
1929.000000000028
 31
0.0
  0
LINE
  5
A1B1
  8
0
  6
PHANTOM2
 10
4552.0
 20
1862.4000000000519
 30
0.0
 11
4579.9999999999918
 21
1862.4000000000519
 31
0.0
  0
LINE
  5
A1B2
  8
0
  6
PHANTOM2
 10
9450.0
 20
1860.4000000000519
 30
0.0
 11
9450.0
 21
1839.600000000049
 31
0.0
  0
LINE
  5
A1B3
  8
0
  6
PHANTOM2
 10
9448.0
 20
1837.600000000049
 30
0.0
 11
9420.0
 21
1837.600000000049
 31
0.0
  0
LINE
  5
A1B4
  8
0
  6
PHANTOM2
 10
4550.0
 20
1839.600000000049
 30
0.0
 11
4550.0
 21
1860.4000000000519
 31
0.0
  0
LINE
  5
A1B5
  8
0
  6
PHANTOM2
 10
9448.0
 20
1862.4000000000519
 30
0.0
 11
9450.0
 21
1860.4000000000519
 31
0.0
  0
LINE
  5
A1B6
  8
0
  6
PHANTOM2
 10
9450.0
 20
1839.600000000049
 30
0.0
 11
9448.0
 21
1837.600000000049
 31
0.0
  0
LINE
  5
A1B7
  8
0
  6
PHANTOM2
 10
4552.0
 20
1862.4000000000519
 30
0.0
 11
4550.0
 21
1860.4000000000519
 31
0.0
  0
LINE
  5
A1B8
  8
0
  6
PHANTOM2
 10
4552.0
 20
1837.600000000049
 30
0.0
 11
4550.0
 21
1839.600000000049
 31
0.0
  0
LINE
  5
A1B9
  8
0
  6
PHANTOM2
 10
4675.0
 20
1862.4000000000519
 30
0.0
 11
5262.4000000000024
 21
1862.4000000000519
 31
0.0
  0
LINE
  5
A1BA
  8
0
  6
PHANTOM2
 10
4579.9999999999918
 20
1837.600000000049
 30
0.0
 11
4552.0
 21
1837.600000000049
 31
0.0
  0
LINE
  5
A1BB
  8
0
  6
PHANTOM2
 10
9420.0000000000146
 20
1862.4000000000519
 30
0.0
 11
9448.0
 21
1862.4000000000519
 31
0.0
  0
LINE
  5
A1BC
  8
0
  6
PHANTOM2
 10
9325.0
 20
1837.600000000049
 30
0.0
 11
8737.6000000000058
 21
1837.600000000049
 31
0.0
  0
LINE
  5
A1BD
  8
0
 10
8850.0
 20
1950.000000000043
 30
0.0
 11
8650.0
 21
1750.0000000000509
 31
0.0
  0
LINE
  5
A1BE
  8
0
 10
5350.0
 20
1950.000000000043
 30
0.0
 11
5150.0
 21
1750.0000000000509
 31
0.0
  0
LINE
  5
A1BF
  8
0
  6
PHANTOM2
 10
8762.3999999999942
 20
1862.4000000000519
 30
0.0
 11
9325.0
 21
1862.4000000000519
 31
0.0
  0
LINE
  5
A1C0
  8
0
  6
PHANTOM2
 10
5237.5999999999976
 20
1837.600000000049
 30
0.0
 11
4675.0
 21
1837.600000000049
 31
0.0
  0
TEXT
  5
A1C1
  8
0
 10
10526.02761804102
 20
8548.6296694843622
 30
0.0
 40
105.0
  1
巻取ドラム
 41
0.8
  7
横文字
 72
     1
 11
10764.02761804102
 21
8548.6296694843622
 31
0.0
  0
INSERT
  5
A1C2
  8
0
  2
*U32
 10
0.0
 20
0.0
 30
0.0
  0
DIMENSION
  5
A1C3
  8
0
  2
*D18
 10
4540.0
 20
4275.0000000000209
 30
0.0
 11
4645.0
 21
4357.5000000000209
 31
0.0
  1
210以上
 13
4750.0
 23
3850.0000000000209
 33
0.0
 14
4540.0
 24
3850.0000000000209
 34
0.0
1001
ACAD
1000
DSTYLE
1002
{
1070
    41
1040
1.0
1002
}
  0
DIMENSION
  5
A1C4
  8
0
  2
*D20
 10
9460.0
 20
4275.0000000000209
 30
0.0
 11
9355.0
 21
4357.5000000000209
 31
0.0
  1
210以上
 13
9250.0
 23
3850.0000000000209
 33
0.0
 14
9460.0
 24
3850.0000000000209
 34
0.0
1001
ACAD
1000
DSTYLE
1002
{
1070
    41
1040
1.0
1002
}
  0
LINE
  5
A1C5
  8
0
 10
10530.000000000009
 20
9024.9999999999836
 30
0.0
 11
10530.000000000009
 21
8854.9999999999873
 31
0.0
  0
LINE
  5
A1C6
  8
0
 10
10530.000000000009
 20
8854.9999999999873
 30
0.0
 11
10340.000000000009
 21
8854.9999999999873
 31
0.0
  0
LINE
  5
A1C7
  8
0
 10
10320.000000000009
 20
8874.9999999999873
 30
0.0
 11
10320.000000000009
 21
8922.5000000000109
 31
0.0
  0
LINE
  5
A1C8
  8
0
 10
10340.000000000009
 20
9024.9999999999836
 30
0.0
 11
10530.000000000009
 21
9024.9999999999836
 31
0.0
  0
LINE
  5
A1C9
  8
0
 10
10340.000000000009
 20
9024.9999999999836
 30
0.0
 11
10320.000000000009
 21
9004.9999999999854
 31
0.0
  0
LINE
  5
A1CA
  8
0
 10
10320.000000000009
 20
8874.9999999999873
 30
0.0
 11
10340.000000000009
 21
8854.9999999999873
 31
0.0
  0
LINE
  5
A1CB
  8
0
 10
10526.800000000019
 20
9024.9999999999836
 30
0.0
 11
10526.800000000019
 21
8854.9999999999873
 31
0.0
  0
CIRCLE
  5
A1CC
  8
0
 10
10420.0
 20
8940.0000000000127
 30
0.0
 40
79.0
  0
LINE
  5
A1CD
  8
0
 10
10320.000000000009
 20
8957.5000000000127
 30
0.0
 11
10342.962671385871
 21
8957.5000000000127
 31
0.0
  0
LINE
  5
A1CE
  8
0
 10
10342.962671385871
 20
8922.5000000000109
 30
0.0
 11
10320.000000000009
 21
8922.5000000000109
 31
0.0
  0
LINE
  5
A1CF
  8
0
 10
10320.000000000009
 20
8957.5000000000127
 30
0.0
 11
10320.000000000009
 21
9004.9999999999854
 31
0.0
  0
LINE
  5
A1D0
  8
0
  6
CENTER2
 10
10320.0
 20
8940.0000000000127
 30
0.0
 11
10520.0
 21
8940.0000000000127
 31
0.0
  0
LINE
  5
A1D1
  8
0
  6
CENTER2
 10
10420.0
 20
9040.0000000000127
 30
0.0
 11
10420.0
 21
8840.0000000000146
 31
0.0
  0
LINE
  5
A1D2
  8
0
 10
7110.0
 20
8895.6405838814117
 30
0.0
 11
7110.0
 21
8950.0000000000127
 31
0.0
  0
LINE
  5
A1D3
  8
0
 10
7252.9826110349959
 20
9050.2000000000116
 30
0.0
 11
7252.9826110349959
 21
8995.2000000000116
 31
0.0
  0
LINE
  5
A1D4
  8
0
 10
7332.9826110349959
 20
9015.7677643630177
 30
0.0
 11
7332.9826110349959
 21
9040.2000000000116
 31
0.0
  0
LINE
  5
A1D5
  8
0
 10
7312.4999999959982
 20
9025.2313331480127
 30
0.0
 11
7312.4999999959982
 21
9030.0000000000127
 31
0.0
  0
LINE
  5
A1D6
  8
0
 10
7312.4999999959982
 20
9030.0000000000127
 30
0.0
 11
7327.4999999959991
 21
9030.0000000000127
 31
0.0
  0
LINE
  5
A1D7
  8
0
 10
7327.4999999959991
 20
9023.0615437390097
 30
0.0
 11
7327.4999999959991
 21
9033.2000000000135
 31
0.0
  0
ARC
  5
A1D8
  8
0
 10
7317.9826110349977
 20
9010.2000000000116
 30
0.0
 40
16.0
 50
356.99999999999437
 51
176.9999999999944
  0
LINE
  5
A1D9
  8
0
 10
7327.4999999959991
 20
9030.0000000000127
 30
0.0
 11
7312.4999999959982
 21
9030.0000000000127
 31
0.0
  0
LINE
  5
A1DA
  8
0
 10
7252.9826110349959
 20
8995.2000000000116
 30
0.0
 11
7300.1782838530044
 21
8995.2000000000116
 31
0.0
  0
LINE
  5
A1DB
  8
0
 10
7120.0
 20
9120.0000000000127
 30
0.0
 11
7000.0
 21
9120.0000000000127
 31
0.0
  0
LINE
  5
A1DC
  8
0
 10
7000.0
 20
9120.0000000000127
 30
0.0
 11
7000.0
 21
9050.0000000000127
 31
0.0
  0
LINE
  5
A1DD
  8
0
 10
7120.0
 20
9050.0000000000127
 30
0.0
 11
7120.0
 21
9120.0000000000127
 31
0.0
  0
LINE
  5
A1DE
  8
0
 10
7312.4999999959982
 20
9030.0000000000127
 30
0.0
 11
7312.4999999959982
 21
9025.2313331480127
 31
0.0
  0
LINE
  5
A1DF
  8
0
 10
7327.4999999959991
 20
9033.2000000000135
 30
0.0
 11
7327.4999999959991
 21
9023.0615437390097
 31
0.0
  0
LINE
  5
A1E0
  8
0
 10
7000.0
 20
9050.0000000000127
 30
0.0
 11
10681.949114883
 21
9050.0000000000127
 31
0.0
  0
LINE
  5
A1E1
  8
0
 10
10672.923672323001
 20
9115.0000000000146
 30
0.0
 11
7120.0
 21
9115.0000000000146
 31
0.0
  0
LINE
  5
A1E2
  8
0
 10
7327.4999999959991
 20
9033.2000000000135
 30
0.0
 11
7352.982611034995
 21
9033.2000000000135
 31
0.0
  0
LINE
  5
A1E3
  8
0
 10
7402.9826110349959
 20
9040.2000000000116
 30
0.0
 11
7252.9826110349959
 21
9040.2000000000116
 31
0.0
  0
LINE
  5
A1E4
  8
0
 10
7402.9826110349959
 20
9020.2000000000116
 30
0.0
 11
7372.9826110349977
 21
9020.2000000000116
 31
0.0
  0
LINE
  5
A1E5
  8
0
 10
7402.9826110349959
 20
9050.2000000000116
 30
0.0
 11
7402.9826110349959
 21
9020.2000000000116
 31
0.0
  0
LINE
  5
A1E6
  8
0
 10
7372.9826110349977
 20
9020.2000000000116
 30
0.0
 11
7372.9826110349977
 21
9040.2000000000116
 31
0.0
  0
LINE
  5
A1E7
  8
0
 10
7446.9826110349959
 20
9035.2000000000116
 30
0.0
 11
7402.9826110349959
 21
9035.2000000000116
 31
0.0
  0
LINE
  5
A1E8
  8
0
 10
7402.9826110349959
 20
9025.2000000000116
 30
0.0
 11
7446.9826110349959
 21
9025.2000000000116
 31
0.0
  0
LINE
  5
A1E9
  8
0
 10
7352.982611034995
 20
9025.2000000000116
 30
0.0
 11
7372.9826110349977
 21
9025.2000000000116
 31
0.0
  0
LINE
  5
A1EA
  8
0
 10
7446.9826110349959
 20
9025.2000000000116
 30
0.0
 11
7446.9826110349959
 21
9035.2000000000116
 31
0.0
  0
LINE
  5
A1EB
  8
0
 10
7372.9826110349977
 20
9035.2000000000116
 30
0.0
 11
7352.982611034995
 21
9035.2000000000116
 31
0.0
  0
LINE
  5
A1EC
  8
0
 10
7352.982611034995
 20
9035.2000000000116
 30
0.0
 11
7352.982611034995
 21
9025.2000000000116
 31
0.0
  0
LINE
  5
A1ED
  8
0
 10
7333.9606835909926
 20
9009.3626247000084
 30
0.0
 11
7314.1702785179968
 21
8837.739200413007
 31
0.0
  0
LINE
  5
A1EE
  8
0
 10
7302.0045384779942
 20
9011.0373753000094
 30
0.0
 11
7282.2141334059988
 21
8839.4139510130117
 31
0.0
  0
ARC
  5
A1EF
  8
0
 10
7092.5
 20
8735.2000000000116
 30
0.0
 40
16.0
 50
87.000000000414033
 51
267.00000000041399
  0
LINE
  5
A1F0
  8
0
 10
7179.2195152880013
 20
8746.6771803190131
 30
0.0
 11
7093.337375300006
 21
8751.1780725560093
 31
0.0
  0
LINE
  5
A1F1
  8
0
 10
7091.6626246999958
 20
8719.2219274440158
 30
0.0
 11
7177.5447646889952
 21
8714.7210352070106
 31
0.0
  0
ARC
  5
A1F2
  8
0
 10
7184.348438999994
 20
8844.5428747250116
 30
0.0
 40
130.0
 50
267.00000000041399
 51
356.99999999999437
  0
ARC
  5
A1F3
  8
0
 10
7184.348438999994
 20
8844.5428747250116
 30
0.0
 40
98.0
 50
267.00000000041399
 51
356.99999999999437
  0
LINE
  5
A1F4
  8
0
 10
10790.00000000299
 20
9130.0000000000127
 30
0.0
 11
10840.47595450599
 21
9102.0368535020098
 31
0.0
  0
ARC
  5
A1F5
  8
0
 10
10660.000000003
 20
9085.0000000000127
 30
0.0
 40
20.0
 50
121.58734191154539
 51
238.41265808845461
  0
LINE
  5
A1F6
  8
0
 10
10649.5240455
 20
9067.9631464980121
 30
0.0
 11
10700.000000003
 21
9040.0000000000127
 31
0.0
  0
LINE
  5
A1F7
  8
0
 10
10700.000000003
 20
9130.0000000000127
 30
0.0
 11
10790.00000000299
 21
9130.0000000000127
 31
0.0
  0
ARC
  5
A1F8
  8
0
 10
10830.00000000299
 20
9085.0000000000127
 30
0.0
 40
20.0
 50
301.58734191154542
 51
58.412658088454577
  0
LINE
  5
A1F9
  8
0
 10
10700.000000003
 20
9130.0000000000127
 30
0.0
 11
10649.5240455
 21
9102.0368535020098
 31
0.0
  0
LINE
  5
A1FA
  8
0
 10
10790.00000000299
 20
9040.0000000000127
 30
0.0
 11
10700.000000003
 21
9040.0000000000127
 31
0.0
  0
LINE
  5
A1FB
  8
0
 10
10817.076327682989
 20
9115.0000000000146
 30
0.0
 11
11020.000000003
 21
9115.0000000000146
 31
0.0
  0
LINE
  5
A1FC
  8
0
 10
11020.000000003
 20
9050.0000000000127
 30
0.0
 11
10808.05088512299
 21
9050.0000000000127
 31
0.0
  0
LINE
  5
A1FD
  8
0
 10
10840.47595450599
 20
9067.9631464980121
 30
0.0
 11
10790.00000000299
 21
9040.0000000000127
 31
0.0
  0
LINE
  5
A1FE
  8
0
  6
CENTER2
 10
10975.000000003
 20
8930.0000000000291
 30
0.0
 11
10855.000000003
 21
8930.0000000000291
 31
0.0
  0
LINE
  5
A1FF
  8
0
  6
CENTER2
 10
10915.00000000298
 20
8990.0000000000273
 30
0.0
 11
10915.00000000302
 21
8870.0000000000291
 31
0.0
  0
CIRCLE
  5
A200
  8
0
 10
10915.000000003
 20
8930.0000000000291
 30
0.0
 40
52.0
  0
LINE
  5
A201
  8
0
 10
11015.000000003
 20
8860.0000000000109
 30
0.0
 11
11020.000000003
 21
8865.0000000000146
 31
0.0
  0
LINE
  5
A202
  8
0
 10
10810.00000000299
 20
8865.0000000000146
 30
0.0
 11
10815.000000003
 21
8860.0000000000109
 31
0.0
  0
LINE
  5
A203
  8
0
 10
10810.00000000299
 20
9050.0000000000127
 30
0.0
 11
10810.00000000299
 21
8865.0000000000146
 31
0.0
  0
LINE
  5
A204
  8
0
 10
11020.000000003
 20
9050.0000000000127
 30
0.0
 11
10810.00000000299
 21
9050.0000000000127
 31
0.0
  0
LINE
  5
A205
  8
0
 10
11020.000000003
 20
8865.0000000000146
 30
0.0
 11
11020.000000003
 21
9050.0000000000127
 31
0.0
  0
LINE
  5
A206
  8
0
 10
10815.000000003
 20
8860.0000000000109
 30
0.0
 11
11015.000000003
 21
8860.0000000000109
 31
0.0
  0
CIRCLE
  5
A207
  8
0
 10
10745.00000000299
 20
9085.0000000000127
 30
0.0
 40
25.0
  0
LINE
  5
A208
  8
0
  6
CENTER2
 10
10710.00000000299
 20
9084.9999999999563
 30
0.0
 11
10780.000000003
 21
9084.9999999999563
 31
0.0
  0
LINE
  5
A209
  8
0
  6
CENTER2
 10
10745.00000000295
 20
9049.9999999999563
 30
0.0
 11
10745.00000000304
 21
9119.9999999999563
 31
0.0
  0
LINE
  5
A20A
  8
0
  6
HIDDEN
 10
10945.283294860301
 20
8972.2720008112738
 30
0.0
 11
10759.5592763767
 21
9105.3230773131072
 31
0.0
  0
LINE
  5
A20B
  8
0
  6
HIDDEN
 10
10875.697149170261
 20
8895.9517119899228
 30
0.0
 11
10726.10439864111
 21
9068.6306307643827
 31
0.0
  0
LINE
  5
A20C
  8
0
 10
11020.000000003
 20
9115.0000000000146
 30
0.0
 11
11020.000000003
 21
9050.0000000000127
 31
0.0
  0
LINE
  5
A20D
  8
0
 10
7067.4999999999991
 20
8700.2000000000135
 30
0.0
 11
7092.5
 21
8700.2000000000135
 31
0.0
  0
LINE
  5
A20E
  8
0
 10
7142.5
 20
8850.2000000000135
 30
0.0
 11
7067.4999999999991
 21
8850.2000000000135
 31
0.0
  0
LINE
  5
A20F
  8
0
 10
7142.5
 20
8750.2000000027747
 30
0.0
 11
7142.5
 21
8850.2000000000135
 31
0.0
  0
LINE
  5
A210
  8
0
 10
7067.4999999999991
 20
8850.2000000000135
 30
0.0
 11
7067.4999999999991
 21
8700.2000000000135
 31
0.0
  0
LINE
  5
A211
  8
0
 10
7092.5
 20
8700.2000000000135
 30
0.0
 11
7110.532974324844
 21
8718.2329743258597
 31
0.0
  0
LINE
  5
A212
  8
0
  6
CENTER2
 10
7117.4999999999991
 20
8735.2000000000116
 30
0.0
 11
7067.4999999999991
 21
8735.2000000000116
 31
0.0
  0
LINE
  5
A213
  8
0
  6
CENTER2
 10
7092.5
 20
8760.2000000000116
 30
0.0
 11
7092.5
 21
8710.2000000000116
 31
0.0
  0
LINE
  5
A214
  8
0
 10
7140.9811672219803
 20
8748.6811672246695
 30
0.0
 11
7142.5
 21
8750.2000000027747
 31
0.0
  0
ARC
  5
A215
  8
0
 10
7325.1619968365703
 20
8497.0000000000127
 30
0.0
 40
400.0
 50
95.235505184185811
 51
134.9660822257126
  0
ARC
  5
A216
  8
0
 10
7325.1619968365703
 20
8497.0000000000127
 30
0.0
 40
411.0
 50
94.914959539392243
 51
134.9669911783443
  0
ARC
  5
A217
  8
0
 10
7325.1619968365703
 20
8497.0000000000127
 30
0.0
 40
453.0
 50
93.836870633998288
 51
134.9700515994264
  0
LINE
  5
A218
  8
0
 10
7294.966138057207
 20
8950.0000000000127
 30
0.0
 11
7000.0
 21
8950.0000000000127
 31
0.0
  0
LINE
  5
A219
  8
0
 10
7342.4999999999709
 20
9030.0000000000437
 30
0.0
 11
7352.982611034995
 21
9030.0000000000437
 31
0.0
  0
LINE
  5
A21A
  8
0
 10
7532.49999999997
 20
9030.0000000000437
 30
0.0
 11
7532.49999999997
 21
8950.0000000000127
 31
0.0
  0
LINE
  5
A21B
  8
0
 10
7342.4999999999709
 20
8950.0000000000127
 30
0.0
 11
7342.4999999999709
 21
9030.0000000000437
 31
0.0
  0
CIRCLE
  5
A21C
  8
0
  6
HIDDEN
 10
7437.5
 20
8965.0000000000146
 30
0.0
 40
59.0
  0
CIRCLE
  5
A21D
  8
0
  6
HIDDEN
 10
7437.5
 20
8965.0000000000146
 30
0.0
 40
50.0
  0
LINE
  5
A21E
  8
0
  6
CENTER2
 10
7437.5
 20
9040.0000000000127
 30
0.0
 11
7437.5
 21
8890.0000000000127
 31
0.0
  0
LINE
  5
A21F
  8
0
  6
CENTER2
 10
7362.5
 20
8965.0000000000146
 30
0.0
 11
7512.5
 21
8965.0000000000146
 31
0.0
  0
LINE
  5
A220
  8
0
 10
7446.9826110349959
 20
9030.0000000000437
 30
0.0
 11
7532.49999999997
 21
9030.0000000000437
 31
0.0
  0
LINE
  5
A221
  8
0
  6
CENTER2
 10
7342.9826110349968
 20
9010.2000000000116
 30
0.0
 11
7292.982611034995
 21
9010.2000000000116
 31
0.0
  0
LINE
  5
A222
  8
0
  6
CENTER2
 10
7317.9826110349977
 20
9035.2000000000116
 30
0.0
 11
7317.9826110349977
 21
8985.2000000000116
 31
0.0
  0
LINE
  5
A223
  8
0
  6
PHANTOM2
 10
6956.0000000000136
 20
1750.0000000000221
 30
0.0
 11
6956.0000000000136
 21
1250.0000000000221
 31
0.0
  0
LINE
  5
A224
  8
0
  6
PHANTOM2
 10
6956.0000000000136
 20
1250.0000000000221
 30
0.0
 11
7106.0000000000136
 21
1250.0000000000221
 31
0.0
  0
LINE
  5
A225
  8
0
  6
PHANTOM2
 10
7106.0000000000136
 20
1250.0000000000221
 30
0.0
 11
7106.0000000000136
 21
1750.0000000000221
 31
0.0
  0
LINE
  5
A226
  8
0
  6
PHANTOM2
 10
6942.2000000000126
 20
1292.5000000000221
 30
0.0
 11
6956.0000000000136
 21
1292.5000000000221
 31
0.0
  0
LINE
  5
A227
  8
0
  6
PHANTOM2
 10
6942.2000000000126
 20
1417.5000000000221
 30
0.0
 11
6956.0000000000136
 21
1417.5000000000221
 31
0.0
  0
LINE
  5
A228
  8
0
  6
PHANTOM2
 10
7392.2000000000144
 20
1417.5000000000221
 30
0.0
 11
7392.2000000000144
 21
1292.5000000000221
 31
0.0
  0
LINE
  5
A229
  8
0
  6
PHANTOM2
 10
6910.6000000000058
 20
1407.000000000058
 30
0.0
 11
6910.6000000000058
 21
1303.000000000058
 31
0.0
  0
LINE
  5
A22A
  8
0
  6
PHANTOM2
 10
6910.6000000000058
 20
1303.000000000058
 30
0.0
 11
6917.8000000000184
 21
1303.000000000058
 31
0.0
  0
LINE
  5
A22B
  8
0
  6
PHANTOM2
 10
6917.8000000000184
 20
1303.000000000058
 30
0.0
 11
6917.8000000000184
 21
1407.000000000058
 31
0.0
  0
LINE
  5
A22C
  8
0
  6
PHANTOM2
 10
6917.8000000000184
 20
1407.000000000058
 30
0.0
 11
6910.6000000000058
 21
1407.000000000058
 31
0.0
  0
LINE
  5
A22D
  8
0
  6
PHANTOM2
 10
6942.2000000000126
 20
1386.500000000058
 30
0.0
 11
6917.8000000000184
 21
1386.500000000058
 31
0.0
  0
LINE
  5
A22E
  8
0
  6
PHANTOM2
 10
6942.2000000000126
 20
1323.500000000058
 30
0.0
 11
6917.8000000000184
 21
1323.500000000058
 31
0.0
  0
LINE
  5
A22F
  8
0
  6
PHANTOM2
 10
7342.2000000000107
 20
1417.5000000000221
 30
0.0
 11
7342.2000000000107
 21
1292.5000000000221
 31
0.0
  0
LINE
  5
A230
  8
0
  6
CENTER2
 10
6842.2000000000116
 20
1355.0000000000221
 30
0.0
 11
7492.2000000000107
 21
1355.0000000000221
 31
0.0
  0
LINE
  5
A231
  8
0
  6
PHANTOM2
 10
6942.2000000000126
 20
1417.5000000000221
 30
0.0
 11
6942.2000000000126
 21
1292.5000000000221
 31
0.0
  0
LINE
  5
A232
  8
0
  6
PHANTOM2
 10
7106.0000000000136
 20
1292.5000000000221
 30
0.0
 11
7392.2000000000144
 21
1292.5000000000221
 31
0.0
  0
LINE
  5
A233
  8
0
  6
PHANTOM2
 10
7106.0000000000136
 20
1417.5000000000221
 30
0.0
 11
7392.2000000000144
 21
1417.5000000000221
 31
0.0
  0
LINE
  5
A234
  8
0
  6
PHANTOM2
 10
10250.0
 20
3650.0
 30
0.0
 11
9250.0
 21
3650.0
 31
0.0
  0
LINE
  5
A235
  8
0
  6
PHANTOM2
 10
9250.0
 20
3650.0
 30
0.0
 11
9250.0
 21
3500.0
 31
0.0
  0
LINE
  5
A236
  8
0
  6
PHANTOM2
 10
9250.0
 20
3500.0
 30
0.0
 11
10250.0
 21
3500.0
 31
0.0
  0
LINE
  5
A237
  8
0
  6
PHANTOM2
 10
3750.0
 20
3650.0
 30
0.0
 11
4750.0
 21
3650.0
 31
0.0
  0
LINE
  5
A238
  8
0
  6
PHANTOM2
 10
4750.0
 20
3650.0
 30
0.0
 11
4750.0
 21
3500.0
 31
0.0
  0
LINE
  5
A239
  8
0
  6
PHANTOM2
 10
4750.0
 20
3500.0
 30
0.0
 11
3750.0
 21
3500.0
 31
0.0
  0
LINE
  5
A23A
  8
0
  6
PHANTOM2
 10
6850.0
 20
10465.000000000009
 30
0.0
 11
6850.0
 21
8800.0000000000055
 31
0.0
  0
LINE
  5
A23B
  8
0
  6
PHANTOM2
 10
6850.0
 20
8800.0000000000055
 30
0.0
 11
7000.0
 21
8800.0000000000055
 31
0.0
  0
LINE
  5
A23C
  8
0
  6
PHANTOM2
 10
7000.0
 20
8800.0000000000055
 30
0.0
 11
7000.0
 21
9140.0000000000127
 31
0.0
  0
LINE
  5
A23D
  8
0
  6
PHANTOM2
 10
7000.0
 20
9140.0000000000127
 30
0.0
 11
11745.0
 21
9140.0000000000127
 31
0.0
  0
LINE
  5
A23E
  8
0
  6
PHANTOM2
 10
11745.0
 20
9290.0000000000127
 30
0.0
 11
7000.0
 21
9290.0000000000127
 31
0.0
  0
LINE
  5
A23F
  8
0
  6
PHANTOM2
 10
7000.0
 20
9290.0000000000127
 30
0.0
 11
7000.0
 21
10465.000000000009
 31
0.0
  0
LINE
  5
A240
  8
0
 10
10855.499532002999
 20
8791.0000000000164
 30
0.0
 11
10974.499532002999
 21
8791.0000000000164
 31
0.0
  0
LINE
  5
A241
  8
0
 10
10853.999532002999
 20
8792.5000000000164
 30
0.0
 11
10853.999532002999
 21
8804.0000000000146
 31
0.0
  0
LINE
  5
A242
  8
0
 10
10975.999532002999
 20
8792.5000000000164
 30
0.0
 11
10975.999532002999
 21
8804.0000000000146
 31
0.0
  0
LINE
  5
A243
  8
0
 10
10854.99961115006
 20
8804.0000000000146
 30
0.0
 11
10853.999532002999
 21
8804.0000000000146
 31
0.0
  0
LINE
  5
A244
  8
0
 10
10975.999532002999
 20
8804.0000000000146
 30
0.0
 11
10974.999532002999
 21
8804.0000000000146
 31
0.0
  0
ARC
  5
A245
  8
0
 10
10974.499532002999
 20
8792.5000000000164
 30
0.0
 40
1.5
 50
270.00000255881957
 51
359.99999795311089
  0
ARC
  5
A246
  8
0
 10
10855.499532002999
 20
8792.5000000000164
 30
0.0
 40
1.5
 50
180.00000102344441
 51
270.00000255881957
  0
LINE
  5
A247
  8
0
 10
10974.999996561821
 20
8860.0000000000109
 30
0.0
 11
10974.99961115006
 21
8804.0000000000146
 31
0.0
  0
LINE
  5
A248
  8
0
 10
10854.999996561821
 20
8860.0000000000109
 30
0.0
 11
10854.99961115006
 21
8804.0000000000146
 31
0.0
  0
TEXT
  5
A249
  8
0
 10
11141.751695270639
 20
8548.6296694843622
 30
0.0
 40
105.0
  1
開閉機
 41
0.8
  7
横文字
 72
     1
 11
11284.55169527064
 21
8548.6296694843622
 31
0.0
  0
INSERT
  5
A24A
  8
0
  2
*U33
 10
0.0
 20
0.0
 30
0.0
  0
ARC
  5
A24B
  8
0
 10
10625.400000000011
 20
8894.5999999999894
 30
0.0
 40
4.5999999999999979
 50
270.0
 51
0.0
  0
ARC
  5
A24C
  8
0
 10
10625.400000000011
 20
8894.5999999999894
 30
0.0
 40
2.299999999999998
 50
270.0
 51
0.0
  0
ARC
  5
A24D
  8
0
 10
10534.60000000002
 20
8894.5999999999894
 30
0.0
 40
4.5999999999999979
 50
180.0
 51
270.0
  0
ARC
  5
A24E
  8
0
 10
10534.60000000002
 20
8894.5999999999894
 30
0.0
 40
2.299999999999998
 50
180.0
 51
270.0
  0
LINE
  5
A24F
  8
0
 10
10625.400000000011
 20
8889.9999999999818
 30
0.0
 11
10534.60000000002
 21
8889.9999999999818
 31
0.0
  0
LINE
  5
A250
  8
0
 10
10630.000000000009
 20
8985.3999999999869
 30
0.0
 11
10630.000000000009
 21
8894.599999999984
 31
0.0
  0
LINE
  5
A251
  8
0
 10
10627.70000000001
 20
8894.599999999984
 30
0.0
 11
10627.70000000001
 21
8985.3999999999869
 31
0.0
  0
LINE
  5
A252
  8
0
 10
10534.60000000002
 20
8892.2999999999884
 30
0.0
 11
10625.400000000011
 21
8892.2999999999884
 31
0.0
  0
LINE
  5
A253
  8
0
 10
10532.300000000019
 20
8985.3999999999869
 30
0.0
 11
10532.300000000019
 21
8894.599999999984
 31
0.0
  0
LINE
  5
A254
  8
0
 10
10530.000000000009
 20
8894.599999999984
 30
0.0
 11
10530.000000000009
 21
8985.3999999999869
 31
0.0
  0
ARC
  5
A255
  8
0
 10
10625.400000000011
 20
8985.3999999999869
 30
0.0
 40
4.5999999999999979
 50
0.0
 51
90.0
  0
ARC
  5
A256
  8
0
 10
10625.400000000011
 20
8985.3999999999869
 30
0.0
 40
2.299999999999998
 50
0.0
 51
90.0
  0
ARC
  5
A257
  8
0
 10
10534.60000000002
 20
8985.3999999999869
 30
0.0
 40
4.5999999999999979
 50
90.0
 51
180.0
  0
ARC
  5
A258
  8
0
 10
10534.60000000002
 20
8985.3999999999869
 30
0.0
 40
2.299999999999998
 50
90.0
 51
180.0
  0
LINE
  5
A259
  8
0
 10
10625.400000000011
 20
8989.9999999999873
 30
0.0
 11
10534.60000000002
 21
8989.9999999999873
 31
0.0
  0
LINE
  5
A25A
  8
0
 10
10534.60000000002
 20
8987.6999999999825
 30
0.0
 11
10625.400000000011
 21
8987.6999999999825
 31
0.0
  0
TEXT
  5
A25B
  8
0
 10
11056.76406871194
 20
9494.2640687118965
 30
0.0
 40
105.0
  1
□-100x100x2.3
 41
0.8
  7
横文字
 72
     1
 11
11566.76406871194
 21
9494.2640687118965
 31
0.0
  0
TEXT
  5
A25C
  8
0
 10
11225.16406871194
 20
9314.2640687118983
 30
0.0
 40
105.0
  1
（当社工事外）
 41
0.8
  7
横文字
 72
     1
 11
11566.76406871194
 21
9314.2640687118983
 31
0.0
  0
INSERT
  5
A25D
  8
0
  2
*U34
 10
0.0
 20
0.0
 30
0.0
  0
LINE
  5
A25E
  8
0
 10
9282.5000000000455
 20
3330.0000000000291
 30
0.0
 11
9282.5000000000455
 21
3272.3000000000261
 31
0.0
  0
LINE
  5
A25F
  8
0
 10
9284.8000000000466
 20
3270.00000000003
 30
0.0
 11
9345.2000000000407
 21
3270.00000000003
 31
0.0
  0
LINE
  5
A260
  8
0
 10
9347.5000000000437
 20
3272.3000000000261
 30
0.0
 11
9347.5000000000437
 21
3330.0000000000291
 31
0.0
  0
LINE
  5
A261
  8
0
 10
9347.5000000000437
 20
3330.0000000000291
 30
0.0
 11
9345.2000000000407
 21
3330.0000000000291
 31
0.0
  0
LINE
  5
A262
  8
0
 10
9345.2000000000407
 20
3330.0000000000291
 30
0.0
 11
9345.2000000000407
 21
3272.3000000000261
 31
0.0
  0
LINE
  5
A263
  8
0
 10
9345.2000000000407
 20
3272.3000000000261
 30
0.0
 11
9284.8000000000466
 21
3272.3000000000261
 31
0.0
  0
LINE
  5
A264
  8
0
 10
9284.8000000000466
 20
3272.3000000000261
 30
0.0
 11
9284.8000000000466
 21
3330.0000000000291
 31
0.0
  0
LINE
  5
A265
  8
0
 10
9284.8000000000466
 20
3330.0000000000291
 30
0.0
 11
9282.5000000000455
 21
3330.0000000000291
 31
0.0
  0
ARC
  5
A266
  8
0
 10
9284.8000000000466
 20
3272.3000000000261
 30
0.0
 40
2.299999999999998
 50
180.0
 51
270.0
  0
ARC
  5
A267
  8
0
 10
9345.2000000000407
 20
3272.3000000000261
 30
0.0
 40
2.299999999999998
 50
270.0
 51
0.0
  0
LINE
  5
A268
  8
0
 10
9347.5000000000437
 20
3330.0000000000291
 30
0.0
 11
9372.5
 21
3330.0000000000218
 31
0.0
  0
LINE
  5
A269
  8
0
 10
9377.5000000000018
 20
3325.0000000000209
 30
0.0
 11
9377.4999999999836
 21
3280.0000000000291
 31
0.0
  0
LINE
  5
A26A
  8
0
 10
9372.5
 20
3330.0000000000218
 30
0.0
 11
9377.5000000000018
 21
3325.0000000000209
 31
0.0
  0
LINE
  5
A26B
  8
0
 10
9372.4999999999836
 20
3275.0000000000291
 30
0.0
 11
9347.5000000000018
 21
3275.0000000000291
 31
0.0
  0
LINE
  5
A26C
  8
0
 10
9377.4999999999836
 20
3280.0000000000291
 30
0.0
 11
9372.4999999999836
 21
3275.0000000000291
 31
0.0
  0
CIRCLE
  5
A26D
  8
0
 10
9365.0
 20
3300.0
 30
0.0
 40
6.0
  0
LINE
  5
A26E
  8
0
 10
9282.5000000000455
 20
3330.0000000000291
 30
0.0
 11
9257.5000000000873
 21
3330.0000000000218
 31
0.0
  0
LINE
  5
A26F
  8
0
 10
9252.5000000000873
 20
3325.0000000000209
 30
0.0
 11
9252.5000000001
 21
3280.0000000000291
 31
0.0
  0
LINE
  5
A270
  8
0
 10
9257.5000000000873
 20
3330.0000000000218
 30
0.0
 11
9252.5000000000873
 21
3325.0000000000209
 31
0.0
  0
LINE
  5
A271
  8
0
 10
9257.5000000001055
 20
3275.0000000000291
 30
0.0
 11
9282.5000000000873
 21
3275.0000000000291
 31
0.0
  0
LINE
  5
A272
  8
0
 10
9252.5000000001
 20
3280.0000000000291
 30
0.0
 11
9257.5000000001055
 21
3275.0000000000291
 31
0.0
  0
CIRCLE
  5
A273
  8
0
 10
9265.0000000000873
 20
3300.0
 30
0.0
 40
6.0
  0
LINE
  5
A274
  8
0
 10
9332.5000000000018
 20
3293.0
 30
0.0
 11
9332.5000000000018
 21
3307.0
 31
0.0
  0
ARC
  5
A275
  8
0
 10
9330.5
 20
3307.0
 30
0.0
 40
2.0
 50
0.0
 51
90.0
  0
LINE
  5
A276
  8
0
 10
9330.5
 20
3309.0
 30
0.0
 11
9299.5
 21
3309.0
 31
0.0
  0
ARC
  5
A277
  8
0
 10
9299.5
 20
3307.0
 30
0.0
 40
2.0
 50
90.0
 51
180.0
  0
LINE
  5
A278
  8
0
 10
9297.5000000000018
 20
3307.0
 30
0.0
 11
9297.5000000000018
 21
3293.0
 31
0.0
  0
ARC
  5
A279
  8
0
 10
9299.5
 20
3293.0
 30
0.0
 40
2.0
 50
180.0
 51
270.0
  0
LINE
  5
A27A
  8
0
 10
9299.5
 20
3291.0
 30
0.0
 11
9330.5
 21
3291.0
 31
0.0
  0
ARC
  5
A27B
  8
0
 10
9330.5
 20
3293.0
 30
0.0
 40
2.0
 50
270.0
 51
0.0
  0
LINE
  5
A27C
  8
0
  6
CENTER2
 10
9297.5000000000018
 20
3300.0
 30
0.0
 11
4702.5000000001019
 21
3300.0
 31
0.0
  0
LINE
  5
A27D
  8
0
 10
4717.5000000000491
 20
3330.0000000000291
 30
0.0
 11
4717.5000000000491
 21
3272.3000000000261
 31
0.0
  0
LINE
  5
A27E
  8
0
 10
4715.200000000048
 20
3270.00000000003
 30
0.0
 11
4654.8000000000538
 21
3270.00000000003
 31
0.0
  0
LINE
  5
A27F
  8
0
 10
4652.50000000005
 20
3272.3000000000261
 30
0.0
 11
4652.50000000005
 21
3330.0000000000291
 31
0.0
  0
LINE
  5
A280
  8
0
 10
4652.50000000005
 20
3330.0000000000291
 30
0.0
 11
4654.8000000000538
 21
3330.0000000000291
 31
0.0
  0
LINE
  5
A281
  8
0
 10
4654.8000000000538
 20
3330.0000000000291
 30
0.0
 11
4654.8000000000538
 21
3272.3000000000261
 31
0.0
  0
LINE
  5
A282
  8
0
 10
4654.8000000000538
 20
3272.3000000000261
 30
0.0
 11
4715.200000000048
 21
3272.3000000000261
 31
0.0
  0
LINE
  5
A283
  8
0
 10
4715.200000000048
 20
3272.3000000000261
 30
0.0
 11
4715.200000000048
 21
3330.0000000000291
 31
0.0
  0
LINE
  5
A284
  8
0
 10
4715.200000000048
 20
3330.0000000000291
 30
0.0
 11
4717.5000000000491
 21
3330.0000000000291
 31
0.0
  0
ARC
  5
A285
  8
0
 10
4715.200000000048
 20
3272.3000000000261
 30
0.0
 40
2.299999999999998
 50
270.0
 51
0.0
  0
ARC
  5
A286
  8
0
 10
4654.8000000000538
 20
3272.3000000000261
 30
0.0
 40
2.299999999999998
 50
180.0
 51
270.0
  0
LINE
  5
A287
  8
0
 10
4652.50000000005
 20
3330.0000000000291
 30
0.0
 11
4627.5000000001019
 21
3330.0000000000218
 31
0.0
  0
LINE
  5
A288
  8
0
 10
4622.5000000001
 20
3325.0000000000209
 30
0.0
 11
4622.5000000001
 21
3280.0000000000291
 31
0.0
  0
LINE
  5
A289
  8
0
 10
4627.5000000001019
 20
3330.0000000000218
 30
0.0
 11
4622.5000000001
 21
3325.0000000000209
 31
0.0
  0
LINE
  5
A28A
  8
0
 10
4627.5000000001019
 20
3275.0000000000291
 30
0.0
 11
4652.500000000101
 21
3275.0000000000291
 31
0.0
  0
LINE
  5
A28B
  8
0
 10
4622.5000000001
 20
3280.0000000000291
 30
0.0
 11
4627.5000000001019
 21
3275.0000000000291
 31
0.0
  0
CIRCLE
  5
A28C
  8
0
 10
4635.000000000101
 20
3300.0
 30
0.0
 40
6.0
  0
LINE
  5
A28D
  8
0
 10
4717.5000000000491
 20
3330.0000000000291
 30
0.0
 11
4742.5
 21
3330.0000000000218
 31
0.0
  0
LINE
  5
A28E
  8
0
 10
4747.5
 20
3325.0000000000209
 30
0.0
 11
4747.5
 21
3280.0000000000291
 31
0.0
  0
LINE
  5
A28F
  8
0
 10
4742.5
 20
3330.0000000000218
 30
0.0
 11
4747.5
 21
3325.0000000000209
 31
0.0
  0
LINE
  5
A290
  8
0
 10
4742.5
 20
3275.0000000000291
 30
0.0
 11
4717.5
 21
3275.0000000000291
 31
0.0
  0
LINE
  5
A291
  8
0
 10
4747.5
 20
3280.0000000000291
 30
0.0
 11
4742.5
 21
3275.0000000000291
 31
0.0
  0
CIRCLE
  5
A292
  8
0
 10
4735.0
 20
3300.0
 30
0.0
 40
6.0
  0
LINE
  5
A293
  8
0
 10
4667.5000000001019
 20
3293.0
 30
0.0
 11
4667.5000000001019
 21
3307.0
 31
0.0
  0
ARC
  5
A294
  8
0
 10
4669.500000000101
 20
3307.0
 30
0.0
 40
2.0
 50
90.0
 51
180.0
  0
LINE
  5
A295
  8
0
 10
4669.500000000101
 20
3309.0
 30
0.0
 11
4700.5000000001019
 21
3309.0
 31
0.0
  0
ARC
  5
A296
  8
0
 10
4700.5000000001019
 20
3307.0
 30
0.0
 40
2.0
 50
0.0
 51
90.0
  0
LINE
  5
A297
  8
0
 10
4702.5000000001019
 20
3307.0
 30
0.0
 11
4702.5000000001019
 21
3293.0
 31
0.0
  0
ARC
  5
A298
  8
0
 10
4700.5000000001019
 20
3293.0
 30
0.0
 40
2.0
 50
270.0
 51
0.0
  0
LINE
  5
A299
  8
0
 10
4700.5000000001019
 20
3291.0
 30
0.0
 11
4669.500000000101
 21
3291.0
 31
0.0
  0
ARC
  5
A29A
  8
0
 10
4669.500000000101
 20
3293.0
 30
0.0
 40
2.0
 50
180.0
 51
270.0
  0
TEXT
  5
A29B
  8
0
 10
8367.2047612756778
 20
3088.5185434277391
 30
0.0
 40
105.0
  1
光軸
 41
0.8
  7
横文字
 72
     1
 11
8456.8047612756782
 21
3088.5185434277391
 31
0.0
  0
INSERT
  5
A29C
  8
0
  2
*U35
 10
0.0
 20
0.0
 30
0.0
  0
DIMENSION
  5
A29D
  8
0
  2
*D22
 10
4323.0
 20
3300.0
 30
0.0
 11
4240.4999999999991
 21
3367.5000000000368
 31
0.0
 70
   128
 13
4423.0
 23
3500.0000000000359
 33
0.0
 14
4723.0
 24
3300.0
 34
0.0
 50
90.0
1001
ACAD
1000
DSTYLE
1002
{
1070
    41
1040
1.0
1002
}
  0
ARC
  5
A29E
  8
0
 10
7532.7806218831547
 20
8444.0000000000218
 30
0.0
 40
400.0
 50
90.0
 51
179.3259631019319
  0
ARC
  5
A29F
  8
0
 10
7532.7806218831547
 20
8444.0000000000127
 30
0.0
 40
453.0
 50
90.0
 51
118.8005748677966
  0
ARC
  5
A2A0
  8
0
 10
7532.7806218831547
 20
8444.0000000000218
 30
0.0
 40
411.0
 50
90.0
 51
124.8504940036506
  0
ARC
  5
A2A1
  8
0
 10
7532.7806218831547
 20
8444.0000000000218
 30
0.0
 40
411.0
 50
137.1895109544609
 51
179.3259631019319
  0
ARC
  5
A2A2
  8
0
 10
7532.7806218831547
 20
8444.0000000000127
 30
0.0
 40
453.0
 50
124.0664339806137
 51
137.9735709773646
  0
ARC
  5
A2A3
  8
0
 10
7532.7806218831547
 20
8444.0000000000127
 30
0.0
 40
453.0
 50
143.23705422204841
 51
179.3259631019319
  0
LINE
  5
A2A4
  8
0
 10
7116.0
 20
8621.4906003784345
 30
0.0
 11
7116.0
 21
8717.9464596509333
 31
0.0
  0
TEXT
  5
A2A5
  8
0
 10
10979.999999999971
 20
47.5
 30
0.0
 40
105.0
  1
ローヘッド
 11
10979.999999999971
 21
100.0
 31
0.0
 73
     2
  0
TEXT
  5
A2A6
  8
0
 10
10229.999999999971
 20
47.5
 30
0.0
 40
105.0
  1
納まり　  :
 11
10229.999999999971
 21
100.0
 31
0.0
 73
     2
  0
TEXT
  5
A2A7
  8
0
 10
6552.9957445612517
 20
7427.0875098650722
 30
0.0
 40
105.0
  1
パネル
 41
0.8
  7
文字
 72
     1
 11
6692.9957445612526
 21
7427.0875098650722
 31
0.0
  0
INSERT
  5
A2A8
  8
0
  2
*U36
 10
0.0
 20
0.0
 30
0.0
  0
DIMENSION
  5
A2A9
  8
0
  2
*D24
 10
5975.0
 20
8700.0
 30
0.0
 11
5892.4999999999991
 21
8750.0000000000018
 31
0.0
  1
Y
 13
6650.0
 23
8800.0
 33
0.0
 14
6650.0
 24
8700.0
 34
0.0
 50
90.0
1001
ACAD
1000
DSTYLE
1002
{
1070
    41
1040
1.0
1002
}
  0
DIMENSION
  5
A2AA
  8
0
  2
*D26
 10
5975.0
 20
5999.9999999999918
 30
0.0
 11
5892.4999999999991
 21
7349.9999999999973
 31
0.0
  1
有効開口高=H-Y
 13
6650.0
 23
8700.0
 33
0.0
 14
6125.0
 24
5999.9999999999918
 34
0.0
 50
90.0
1001
ACAD
1000
DSTYLE
1002
{
1070
    41
1040
1.0
1002
}
  0
TEXT
  5
A2AB
  8
0
 10
13460.4
 20
10647.5
 30
0.0
 40
105.0
  1
標準
 41
0.8
  7
文字
 72
     1
 11
13550.0
 21
10700.0
 31
0.0
 73
     2
  0
TEXT
  5
A2AC
  8
0
 10
13064.0
 20
10447.5
 30
0.0
 40
105.0
  1
Y
 41
0.8
  7
文字
 72
     1
 11
13100.0
 21
10500.0
 31
0.0
 73
     2
  0
LINE
  5
A2AD
  8
0
 10
15300.0
 20
10800.0
 30
0.0
 11
13300.0
 21
10800.0
 31
0.0
  0
LINE
  5
A2AE
  8
0
 10
12900.0
 20
11000.0
 30
0.0
 11
12900.0
 21
10400.0
 31
0.0
  0
LINE
  5
A2AF
  8
0
 10
15300.0
 20
10600.0
 30
0.0
 11
12900.0
 21
10600.0
 31
0.0
  0
LINE
  5
A2B0
  8
0
 10
12900.0
 20
10400.0
 30
0.0
 11
15300.0
 21
10400.0
 31
0.0
  0
LINE
  5
A2B1
  8
0
 10
13300.0
 20
11000.0
 30
0.0
 11
13300.0
 21
10400.0
 31
0.0
  0
LINE
  5
A2B2
  8
0
 10
14300.0
 20
11000.0
 30
0.0
 11
14300.0
 21
10400.0
 31
0.0
  0
TEXT
  5
A2B3
  8
0
 10
13510.0
 20
10447.5
 30
0.0
 40
105.0
  1
0
 41
0.8
  7
文字
 72
     1
 11
13550.0
 21
10500.0
 31
0.0
 73
     2
  0
TEXT
  5
A2B4
  8
0
 10
13458.4
 20
10847.5
 30
0.0
 40
105.0
  1
スチールパネル
 41
0.8
  7
文字
 72
     1
 11
13800.0
 21
10900.0
 31
0.0
 73
     2
  0
LINE
  5
A2B5
  8
0
 10
15300.0
 20
11000.0
 30
0.0
 11
12900.0
 21
11000.0
 31
0.0
  0
LINE
  5
A2B6
  8
0
 10
12900.0
 20
11000.0
 30
0.0
 11
13300.0
 21
10600.0
 31
0.0
  0
TEXT
  5
A2B7
  8
0
 10
12900.0
 20
11047.5
 30
0.0
 40
105.0
  1
有効開口高=H-Y
 41
0.8
  7
文字
 11
12900.0
 21
11100.0
 31
0.0
 73
     2
  0
LINE
  5
A2B8
  8
0
 10
13800.0
 20
10800.0
 30
0.0
 11
13800.0
 21
10400.0
 31
0.0
  0
TEXT
  5
A2B9
  8
0
 10
13910.0
 20
10647.5
 30
0.0
 40
105.0
  1
補強付
 41
0.8
  7
文字
 72
     1
 11
14050.0
 21
10700.0
 31
0.0
 73
     2
  0
TEXT
  5
A2BA
  8
0
 10
13970.0
 20
10447.5
 30
0.0
 40
105.0
  1
55
 41
0.8
  7
文字
 72
     1
 11
14050.0
 21
10500.0
 31
0.0
 73
     2
  0
TEXT
  5
A2BB
  8
0
 10
14460.4
 20
10647.5
 30
0.0
 40
105.0
  1
標準
 41
0.8
  7
文字
 72
     1
 11
14550.0
 21
10700.0
 31
0.0
 73
     2
  0
LINE
  5
A2BC
  8
0
 10
14800.0
 20
10800.0
 30
0.0
 11
14800.0
 21
10400.0
 31
0.0
  0
TEXT
  5
A2BD
  8
0
 10
14871.200000000001
 20
10647.5
 30
0.0
 40
105.0
  1
ワイド1
 41
0.8
  7
文字
 72
     1
 11
15050.0
 21
10700.0
 31
0.0
 73
     2
  0
LINE
  5
A2BE
  8
0
 10
15300.0
 20
11000.0
 30
0.0
 11
15300.0
 21
10400.0
 31
0.0
  0
TEXT
  5
A2BF
  8
0
 10
14340.4
 20
10847.5
 30
0.0
 40
105.0
  1
アルミパネル・FRPパネル
 41
0.6
  7
文字
 72
     1
 11
14800.0
 21
10900.0
 31
0.0
 73
     2
  0
TEXT
  5
A2C0
  8
0
 10
14510.0
 20
10447.5
 30
0.0
 40
105.0
  1
0
 41
0.8
  7
文字
 72
     1
 11
14550.0
 21
10500.0
 31
0.0
 73
     2
  0
TEXT
  5
A2C1
  8
0
 10
14970.0
 20
10447.5
 30
0.0
 40
105.0
  1
80
 41
0.8
  7
文字
 72
     1
 11
15050.0
 21
10500.0
 31
0.0
 73
     2
  0
TEXT
  5
A2C2
  8
0
 10
14931.200000000001
 20
11047.5
 30
0.0
 40
105.0
  1
（mm）
 41
0.8
  7
文字
 72
     2
 11
15300.0
 21
11100.0
 31
0.0
 73
     2
  0
DIMENSION
  5
A2C3
  8
0
  2
*D28
 10
10420.0
 20
9940.0000000000091
 30
0.0
 11
10345.0
 21
10022.5
 31
0.0
 13
10270.0
 23
9340.0000000000146
 33
0.0
 14
10420.0
 24
9340.0000000000146
 34
0.0
1001
ACAD
1000
DSTYLE
1002
{
1070
    41
1040
1.0
1002
}
  0
ENDSEC
  0
EOF
