  0
SECTION
  2
HEADER
  9
$ACADVER
  1
AC1009
  9
$INSBASE
 10
0.0
 20
0.0
 30
0.0
  9
$EXTMIN
 10
-0.4998397926137841
 20
-0.3584016095373954
 30
-0.0015258207003583
  9
$EXTMAX
 10
16380.499916067931
 20
11745.35845630145
 30
0.0000000349246037
  9
$LIMMIN
 10
0.0
 20
0.0
  9
$LIMMAX
 10
420.0
 20
297.0
  9
$ORTHOMODE
 70
     0
  9
$REGENMODE
 70
     1
  9
$FILLMODE
 70
     1
  9
$QTEXTMODE
 70
     0
  9
$MIRRTEXT
 70
     1
  9
$DRAGMODE
 70
     2
  9
$LTSCALE
 40
7.5
  9
$OSMODE
 70
  3071
  9
$ATTMODE
 70
     1
  9
$TEXTSIZE
 40
105.0
  9
$TRACEWID
 40
1.0
  9
$TEXTSTYLE
  7
文字
  9
$CLAYER
  8
0
  9
$CELTYPE
  6
BYLAYER
  9
$CECOLOR
 62
   256
  9
$DIMSCALE
 40
30.0
  9
$DIMASZ
 40
2.0
  9
$DIMEXO
 40
5.0
  9
$DIMDLI
 40
7.5
  9
$DIMRND
 40
0.0
  9
$DIMDLE
 40
0.0
  9
$DIMEXE
 40
1.0
  9
$DIMTP
 40
0.0
  9
$DIMTM
 40
0.0
  9
$DIMTXT
 40
3.5
  9
$DIMCEN
 40
1.0
  9
$DIMTSZ
 40
0.0
  9
$DIMTOL
 70
     0
  9
$DIMLIM
 70
     0
  9
$DIMTIH
 70
     0
  9
$DIMTOH
 70
     0
  9
$DIMSE1
 70
     0
  9
$DIMSE2
 70
     0
  9
$DIMTAD
 70
     1
  9
$DIMZIN
 70
     8
  9
$DIMBLK
  1
ORIGIN
  9
$DIMASO
 70
     1
  9
$DIMSHO
 70
     1
  9
$DIMPOST
  1

  9
$DIMAPOST
  1

  9
$DIMALT
 70
     0
  9
$DIMALTD
 70
     3
  9
$DIMALTF
 40
0.03937007874016
  9
$DIMLFAC
 40
1.0
  9
$DIMTOFL
 70
     1
  9
$DIMTVP
 40
0.0
  9
$DIMTIX
 70
     1
  9
$DIMSOXD
 70
     0
  9
$DIMSAH
 70
     0
  9
$DIMBLK1
  1

  9
$DIMBLK2
  1

  9
$DIMSTYLE
  2
寸法線30
  9
$DIMCLRD
 70
   256
  9
$DIMCLRE
 70
   256
  9
$DIMCLRT
 70
   256
  9
$DIMTFAC
 40
1.0
  9
$DIMGAP
 40
1.0
  9
$LUNITS
 70
     2
  9
$LUPREC
 70
     4
  9
$SKETCHINC
 40
1.0
  9
$FILLETRAD
 40
0.0
  9
$AUNITS
 70
     0
  9
$AUPREC
 70
     0
  9
$MENU
  1
.
  9
$ELEVATION
 40
0.0
  9
$PELEVATION
 40
0.0
  9
$THICKNESS
 40
0.0
  9
$LIMCHECK
 70
     0
  9
$BLIPMODE
 70
     0
  9
$CHAMFERA
 40
10.0
  9
$CHAMFERB
 40
10.0
  9
$SKPOLY
 70
     0
  9
$TDCREATE
 40
2452654.657629028
  9
$TDUPDATE
 40
2456778.705642384
  9
$TDINDWG
 40
0.8006960069
  9
$TDUSRTIMER
 40
0.8006942014
  9
$USRTIMER
 70
     1
  9
$ANGBASE
 50
0.0
  9
$ANGDIR
 70
     0
  9
$PDMODE
 70
     0
  9
$PDSIZE
 40
0.0
  9
$PLINEWID
 40
0.0
  9
$COORDS
 70
     2
  9
$SPLFRAME
 70
     0
  9
$SPLINETYPE
 70
     6
  9
$SPLINESEGS
 70
     8
  9
$ATTDIA
 70
     0
  9
$ATTREQ
 70
     1
  9
$HANDLING
 70
     1
  9
$HANDSEED
  5
9BDB
  9
$SURFTAB1
 70
     6
  9
$SURFTAB2
 70
     6
  9
$SURFTYPE
 70
     6
  9
$SURFU
 70
     6
  9
$SURFV
 70
     6
  9
$UCSNAME
  2

  9
$UCSORG
 10
0.0
 20
0.0
 30
0.0
  9
$UCSXDIR
 10
1.0
 20
0.0
 30
0.0
  9
$UCSYDIR
 10
0.0
 20
1.0
 30
0.0
  9
$PUCSNAME
  2

  9
$PUCSORG
 10
0.0
 20
0.0
 30
0.0
  9
$PUCSXDIR
 10
1.0
 20
0.0
 30
0.0
  9
$PUCSYDIR
 10
0.0
 20
1.0
 30
0.0
  9
$USERI1
 70
     0
  9
$USERI2
 70
     0
  9
$USERI3
 70
     0
  9
$USERI4
 70
     0
  9
$USERI5
 70
     0
  9
$USERR1
 40
0.0
  9
$USERR2
 40
0.0
  9
$USERR3
 40
0.0
  9
$USERR4
 40
0.0
  9
$USERR5
 40
0.0
  9
$WORLDVIEW
 70
     1
  9
$SHADEDGE
 70
     3
  9
$SHADEDIF
 70
    70
  9
$TILEMODE
 70
     1
  9
$MAXACTVP
 70
    64
  9
$PLIMCHECK
 70
     0
  9
$PEXTMIN
 10
1.0000000000000000E+020
 20
1.0000000000000000E+020
 30
1.0000000000000000E+020
  9
$PEXTMAX
 10
-1.0000000000000000E+020
 20
-1.0000000000000000E+020
 30
-1.0000000000000000E+020
  9
$PLIMMIN
 10
0.0
 20
0.0
  9
$PLIMMAX
 10
420.0
 20
297.0
  9
$UNITMODE
 70
     0
  9
$VISRETAIN
 70
     1
  9
$PLINEGEN
 70
     0
  9
$PSLTSCALE
 70
     1
  0
ENDSEC
  0
SECTION
  2
TABLES
  0
TABLE
  2
VPORT
 70
     1
  0
VPORT
  2
*ACTIVE
 70
     0
 10
0.0
 20
0.0
 11
1.0
 21
1.0
 12
8190.0000381376594
 22
5872.5000273459573
 13
0.0
 23
0.0
 14
10.0
 24
10.0
 15
10.0
 25
10.0
 16
0.0
 26
0.0
 36
1.0
 17
0.0
 27
0.0
 37
0.0
 40
11826.443434254021
 41
1.7981651376146781
 42
50.0
 43
0.0
 44
0.0
 50
0.0
 51
0.0
 71
     0
 72
   100
 73
     1
 74
     3
 75
     0
 76
     0
 77
     0
 78
     0
  0
ENDTAB
  0
TABLE
  2
LTYPE
 70
     4
  0
LTYPE
  2
CONTINUOUS
 70
     0
  3
Solid line
 72
    65
 73
     0
 40
0.0
  0
LTYPE
  2
HIDDEN
 70
     0
  3
Hidden __ __ __ __ __ __ __ __ __ __ __ __ __ _
 72
    65
 73
     2
 40
9.5249999999999986
 49
6.3499999999999979
 49
-3.174999999999998
  0
LTYPE
  2
CENTER2
 70
     0
  3
Center (.5x) ___ _ ___ _ ___ _ ___ _ ___ _ ___
 72
    65
 73
     4
 40
28.574999999999999
 49
19.050000000000001
 49
-3.174999999999998
 49
3.174999999999998
 49
-3.174999999999998
  0
LTYPE
  2
PHANTOM2
 70
     0
  3
Phantom (.5x) ___ _ _ ___ _ _ ___ _ _ ___ _ _
 72
    65
 73
     6
 40
31.75
 49
15.875
 49
-3.174999999999998
 49
3.174999999999998
 49
-3.174999999999998
 49
3.174999999999998
 49
-3.174999999999998
  0
ENDTAB
  0
TABLE
  2
LAYER
 70
     2
  0
LAYER
  2
0
 70
     0
 62
     7
  6
CONTINUOUS
  0
LAYER
  2
DEFPOINTS
 70
     0
 62
     7
  6
CONTINUOUS
  0
ENDTAB
  0
TABLE
  2
STYLE
 70
     4
  0
STYLE
  2
STANDARD
 70
     0
 40
0.0
 41
1.0
 50
0.0
 71
     0
 42
105.0
  3
romans.shx
  4
bigfont.shx
  0
STYLE
  2
文字
 70
     0
 40
0.0
 41
0.8
 50
0.0
 71
     0
 42
105.0
  3
romans.shx
  4
extfont.shx
  0
STYLE
  2
横文字
 70
     0
 40
0.0
 41
0.8
 50
0.0
 71
     0
 42
105.0
  3
romans.shx
  4
extfont.shx
  0
ENDTAB
  0
TABLE
  2
VIEW
 70
     0
  0
ENDTAB
  0
TABLE
  2
UCS
 70
     0
  0
ENDTAB
  0
TABLE
  2
APPID
 70
    81
  0
APPID
  2
ACAD
 70
     0
  0
APPID
  2
ACADANNOTATIVE
 70
     0
  0
APPID
  2
ADE
 70
     0
  0
APPID
  2
DCO15
 70
     0
  0
APPID
  2
SETH_MM
 70
     0
  0
APPID
  2
ACAD_PSEXT
 70
     0
  0
APPID
  2
ACAD_EXEMPT_FROM_CAD_STANDARDS
 70
     0
  0
APPID
  2
ACAD_MLEADERVER
 70
     0
  0
APPID
  2
AUTOESSSHUTTERLINE1
 70
     0
  0
APPID
  2
AUTOESSSHUTTERLINE2
 70
     0
  0
APPID
  2
AUTOESSSHUTTERPT
 70
     0
  0
APPID
  2
MAKICIRCLE
 70
     0
  0
APPID
  2
ACAD_DSTYLE_DIMJAG
 70
     0
  0
APPID
  2
ACAD_DSTYLE_DIMTALN
 70
     0
  0
APPID
  2
SETW_MM
 70
     0
  0
APPID
  2
PARADIMLINE
 70
     0
  0
APPID
  2
PARABASEPT
 70
     0
  0
APPID
  2
MIRRORCHK_L
 70
     0
  0
APPID
  2
MIRRORCHK_R
 70
     0
  0
APPID
  2
LINKSPLIT1
 70
     0
  0
APPID
  2
LINKSPLIT2
 70
     0
  0
APPID
  2
LINKSPLIT3
 70
     0
  0
APPID
  2
LINKSPLIT4
 70
     0
  0
APPID
  2
TBANLLINE
 70
     0
  0
APPID
  2
TBANRLINE
 70
     0
  0
APPID
  2
TBANHLINE
 70
     0
  0
APPID
  2
ARCLINEA1
 70
     0
  0
APPID
  2
ARCLINEA2
 70
     0
  0
APPID
  2
ARCLINEB1
 70
     0
  0
APPID
  2
ARCLINEB2
 70
     0
  0
APPID
  2
ODPDW
 70
     0
  0
APPID
  2
ODPDH
 70
     0
  0
APPID
  2
ODWLINE1
 70
     0
  0
APPID
  2
ODWLINE2
 70
     0
  0
APPID
  2
ODSY
 70
     0
  0
APPID
  2
EDWDW
 70
     0
  0
APPID
  2
EDWDH
 70
     0
  0
APPID
  2
LINKSPLIT11
 70
     0
  0
APPID
  2
LINKSPLIT12
 70
     0
  0
APPID
  2
LINKSPLIT13
 70
     0
  0
APPID
  2
LINKSPLIT14
 70
     0
  0
APPID
  2
AUTOESSDOORPTH1
 70
     0
  0
APPID
  2
AUTOESSDOORPTH2
 70
     0
  0
APPID
  2
AUTOESSDOORPTV1
 70
     0
  0
APPID
  2
AUTOESSDOORPTV2
 70
     0
  0
APPID
  2
TBANPT1
 70
     0
  0
APPID
  2
TBANPT2
 70
     0
  0
APPID
  2
SETDH_MM
 70
     0
  0
APPID
  2
SETV1_MM
 70
     0
  0
APPID
  2
SETV2_MM
 70
     0
  0
APPID
  2
KAIKOUDIM
 70
     0
  0
APPID
  2
TBANK
 70
     0
  0
APPID
  2
TBANR
 70
     0
  0
APPID
  2
TBANO
 70
     0
  0
APPID
  2
TBANHATA1
 70
     0
  0
APPID
  2
TBANHATA2
 70
     0
  0
APPID
  2
TBANMEN
 70
     0
  0
APPID
  2
TBANW
 70
     0
  0
APPID
  2
TBANH
 70
     0
  0
APPID
  2
ARCLINEA3
 70
     0
  0
APPID
  2
ARCLINEB3
 70
     0
  0
APPID
  2
WORKNAME_UE
 70
     0
  0
APPID
  2
WORKNAME
 70
     0
  0
APPID
  2
SD1
 70
     0
  0
APPID
  2
SD2
 70
     0
  0
APPID
  2
DELETEOBJ
 70
     0
  0
APPID
  2
TBANTEXT
 70
     0
  0
APPID
  2
MAKITEXT
 70
     0
  0
APPID
  2
N_01
 70
     0
  0
APPID
  2
N_02
 70
     0
  0
APPID
  2
N_03
 70
     0
  0
APPID
  2
N_04
 70
     0
  0
APPID
  2
N_05
 70
     0
  0
APPID
  2
N_06
 70
     0
  0
APPID
  2
N_07
 70
     0
  0
APPID
  2
N_08
 70
     0
  0
APPID
  2
N_09
 70
     0
  0
APPID
  2
N_10
 70
     0
  0
APPID
  2
N_11
 70
     0
  0
APPID
  2
N_12
 70
     0
  0
APPID
  2
N_13
 70
     0
  0
ENDTAB
  0
TABLE
  2
DIMSTYLE
 70
     3
  0
DIMSTYLE
  2
STANDARD
 70
     0
  3

  4

  5

  6

  7

 40
30.0
 41
1.0
 42
5.0
 43
7.5
 44
1.0
 45
0.0
 46
0.0
 47
0.0
 48
0.0
140
3.5
141
2.5
142
0.0
143
25.399999999999999
144
1.0
145
0.0
146
1.0
147
1.0
 71
     0
 72
     0
 73
     0
 74
     0
 75
     0
 76
     0
 77
     1
 78
     8
170
     0
171
     2
172
     1
173
     0
174
     1
175
     0
176
     0
177
     0
178
     0
  0
DIMSTYLE
  2
寸法線30
 70
     0
  3

  4

  5

  6

  7

 40
30.0
 41
2.0
 42
5.0
 43
7.5
 44
1.0
 45
0.0
 46
0.0
 47
0.0
 48
0.0
140
3.5
141
1.0
142
0.0
143
0.03937007874016
144
1.0
145
0.0
146
1.0
147
1.0
 71
     0
 72
     0
 73
     0
 74
     0
 75
     0
 76
     0
 77
     1
 78
     8
170
     0
171
     3
172
     1
173
     0
174
     1
175
     0
176
   256
177
   256
178
   256
  0
ENDTAB
  0
ENDSEC
  0
SECTION
  2
BLOCKS
  0
BLOCK
  8
0
  2
$MODEL_SPACE
 70
     0
 10
0.0
 20
0.0
 30
0.0
  3
$MODEL_SPACE
  1

  0
ENDBLK
  5
9ADF
  8
0
  0
BLOCK
 67
     1
  8
0
  2
$PAPER_SPACE
 70
     0
 10
0.0
 20
0.0
 30
0.0
  3
$PAPER_SPACE
  1

  0
ENDBLK
  5
9ADB
 67
     1
  8
0
  0
BLOCK
  8
0
  2
_ORIGIN
 70
     0
 10
0.0
 20
0.0
 30
0.0
  3
_ORIGIN
  1

  0
CIRCLE
  5
A7
  8
0
  6
BYBLOCK
 62
     0
 10
0.0
 20
0.0
 30
0.0
 40
0.5
  0
LINE
  5
A8
  8
0
  6
BYBLOCK
 62
     0
 10
0.0
 20
0.0
 30
0.0
 11
-1.0
 21
0.0
 31
0.0
  0
ENDBLK
  5
AA
  8
0
  0
BLOCK
  8
0
  2
_OPEN30
 70
     0
 10
0.0
 20
0.0
 30
0.0
  3
_OPEN30
  1

  0
LINE
  5
AC
  8
0
  6
BYBLOCK
 62
     0
 10
-1.0
 20
0.26794919
 30
0.0
 11
0.0
 21
0.0
 31
0.0
  0
LINE
  5
AD
  8
0
  6
BYBLOCK
 62
     0
 10
0.0
 20
0.0
 30
0.0
 11
-1.0
 21
-0.26794919
 31
0.0
  0
LINE
  5
AE
  8
0
  6
BYBLOCK
 62
     0
 10
0.0
 20
0.0
 30
0.0
 11
-1.0
 21
0.0
 31
0.0
  0
ENDBLK
  5
B0
  8
0
  0
BLOCK
  8
0
  2
*D4
 70
     1
 10
0.0
 20
0.0
 30
0.0
  3
*D4
  1

  0
LINE
  5
9921
  8
0
 10
5500.0
 20
2500.0000000000259
 30
0.0
 11
5500.0
 21
3030.0000000000259
 31
0.0
  0
LINE
  5
9922
  8
0
 10
8500.0
 20
2500.0000000000259
 30
0.0
 11
8500.0
 21
3030.0000000000259
 31
0.0
  0
LINE
  5
9923
  8
0
 10
5530.0
 20
3000.0000000000259
 30
0.0
 11
8470.0
 21
3000.0000000000259
 31
0.0
  0
INSERT
  5
9924
  8
0
  2
_ORIGIN
 10
5500.0
 20
3000.0000000000259
 30
0.0
 41
30.0
 42
30.0
 43
30.0
 50
180.0
  0
INSERT
  5
9925
  8
0
  2
_ORIGIN
 10
8500.0
 20
3000.0000000000259
 30
0.0
 41
30.0
 42
30.0
 43
30.0
  0
INSERT
  5
9926
  8
0
  2
*U5
 10
0.0
 20
0.0
 30
0.0
  0
POINT
  5
9927
  8
DEFPOINTS
 62
     0
 10
5500.0
 20
2350.0000000000259
 30
0.0
  0
POINT
  5
9928
  8
DEFPOINTS
 62
     0
 10
8500.0
 20
2350.0000000000259
 30
0.0
  0
POINT
  5
9929
  8
DEFPOINTS
 62
     0
 10
8500.0
 20
3000.0000000000259
 30
0.0
  0
ENDBLK
  5
9883
  8
0
  0
BLOCK
  8
0
  2
*U5
 70
     1
 10
0.0
 20
0.0
 30
0.0
  3
*U5
  1

  0
TEXT
  5
9A40
  8
0
 10
6952.0
 20
3030.0000000000259
 30
0.0
 40
105.0
  1
W
 41
0.8
  7
文字
  0
ENDBLK
  5
9A42
  8
0
  0
BLOCK
  8
0
  2
*D6
 70
     1
 10
0.0
 20
0.0
 30
0.0
  3
*D6
  1

  0
LINE
  5
992A
  8
0
 10
6500.0
 20
7500.0
 30
0.0
 11
5720.0000000000009
 21
7500.0000000000027
 31
0.0
  0
LINE
  5
992B
  8
0
 10
5750.0
 20
5000.0
 30
0.0
 11
5720.0
 21
5000.0
 31
0.0
  0
LINE
  5
992C
  8
0
 10
5750.0
 20
7470.0000000000027
 30
0.0
 11
5750.0
 21
5030.0
 31
0.0
  0
INSERT
  5
992D
  8
0
  2
_ORIGIN
 10
5750.0
 20
7500.0000000000027
 30
0.0
 41
30.0
 42
30.0
 43
30.0
 50
90.0
  0
INSERT
  5
992E
  8
0
  2
_ORIGIN
 10
5750.0
 20
5000.0
 30
0.0
 41
30.0
 42
30.0
 43
30.0
 50
270.0
  0
INSERT
  5
992F
  8
0
  2
*U7
 10
0.0
 20
0.0
 30
0.0
  0
POINT
  5
9930
  8
DEFPOINTS
 62
     0
 10
6650.0
 20
7500.0
 30
0.0
  0
POINT
  5
9931
  8
DEFPOINTS
 62
     0
 10
5900.0
 20
5000.0
 30
0.0
  0
POINT
  5
9932
  8
DEFPOINTS
 62
     0
 10
5750.0
 20
5000.0
 30
0.0
  0
ENDBLK
  5
988F
  8
0
  0
BLOCK
  8
0
  2
*U7
 70
     1
 10
0.0
 20
0.0
 30
0.0
  3
*U7
  1

  0
TEXT
  5
9A44
  8
0
 10
5719.9999999999973
 20
6206.0000000000027
 30
0.0
 40
105.0
  1
H
 50
90.0
 41
0.8
  7
文字
  0
ENDBLK
  5
9A46
  8
0
  0
BLOCK
  8
0
  2
*D8
 70
     1
 10
0.0
 20
0.0
 30
0.0
  3
*D8
  1

  0
LINE
  5
9933
  8
0
 10
6500.0
 20
7500.0
 30
0.0
 11
5720.0
 21
7500.0000000000027
 31
0.0
  0
LINE
  5
9934
  8
0
 10
6500.0
 20
10050.0
 30
0.0
 11
5720.0
 21
10050.0
 31
0.0
  0
LINE
  5
9935
  8
0
 10
5750.0
 20
7530.0000000000018
 30
0.0
 11
5750.0
 21
10020.0
 31
0.0
  0
INSERT
  5
9936
  8
0
  2
_ORIGIN
 10
5750.0
 20
7500.0000000000027
 30
0.0
 41
30.0
 42
30.0
 43
30.0
 50
270.0
  0
INSERT
  5
9937
  8
0
  2
_ORIGIN
 10
5750.0
 20
10050.0
 30
0.0
 41
30.0
 42
30.0
 43
30.0
 50
90.0
  0
INSERT
  5
9938
  8
0
  2
*U9
 10
0.0
 20
0.0
 30
0.0
  0
POINT
  5
9939
  8
DEFPOINTS
 62
     0
 10
6650.0
 20
7500.0
 30
0.0
  0
POINT
  5
993A
  8
DEFPOINTS
 62
     0
 10
6650.0
 20
10050.0
 30
0.0
  0
POINT
  5
993B
  8
DEFPOINTS
 62
     0
 10
5750.0
 20
10050.0
 30
0.0
  0
ENDBLK
  5
989B
  8
0
  0
BLOCK
  8
0
  2
*U9
 70
     1
 10
0.0
 20
0.0
 30
0.0
  3
*U9
  1

  0
TEXT
  5
9A48
  8
0
 10
5719.9999999999973
 20
8281.4000000000033
 30
0.0
 40
105.0
  1
HR=DH+500以上
 50
90.0
 41
0.8
  7
文字
  0
ENDBLK
  5
9A4A
  8
0
  0
BLOCK
  8
0
  2
*D10
 70
     1
 10
0.0
 20
0.0
 30
0.0
  3
*D10
  1

  0
LINE
  5
993C
  8
0
 10
6500.0
 20
7500.0
 30
0.0
 11
5945.0
 21
7500.0000000000027
 31
0.0
  0
LINE
  5
993D
  8
0
 10
6500.0
 20
9500.0
 30
0.0
 11
5945.0
 21
9500.0
 31
0.0
  0
LINE
  5
993E
  8
0
 10
5975.0
 20
7530.0000000000018
 30
0.0
 11
5975.0
 21
9470.0
 31
0.0
  0
INSERT
  5
993F
  8
0
  2
_ORIGIN
 10
5975.0
 20
7500.0000000000027
 30
0.0
 41
30.0
 42
30.0
 43
30.0
 50
270.0
  0
INSERT
  5
9940
  8
0
  2
_ORIGIN
 10
5975.0
 20
9500.0
 30
0.0
 41
30.0
 42
30.0
 43
30.0
 50
90.0
  0
INSERT
  5
9941
  8
0
  2
*U11
 10
0.0
 20
0.0
 30
0.0
  0
POINT
  5
9942
  8
DEFPOINTS
 62
     0
 10
6650.0
 20
7500.0
 30
0.0
  0
POINT
  5
9943
  8
DEFPOINTS
 62
     0
 10
6650.0
 20
9500.0
 30
0.0
  0
POINT
  5
9944
  8
DEFPOINTS
 62
     0
 10
5975.0
 20
9500.0
 30
0.0
  0
ENDBLK
  5
98A7
  8
0
  0
BLOCK
  8
0
  2
*U11
 70
     1
 10
0.0
 20
0.0
 30
0.0
  3
*U11
  1

  0
TEXT
  5
9A4C
  8
0
 10
5944.9999999999991
 20
8280.0000000000018
 30
0.0
 40
105.0
  1
DH-50
 50
90.0
 41
0.8
  7
文字
  0
ENDBLK
  5
9A4E
  8
0
  0
BLOCK
  8
0
  2
*D12
 70
     1
 10
0.0
 20
0.0
 30
0.0
  3
*D12
  1

  0
LINE
  5
9945
  8
0
 10
7400.0
 20
5020.0
 30
0.0
 11
8029.9999999999973
 21
5020.0
 31
0.0
  0
LINE
  5
9946
  8
0
 10
7400.0
 20
7585.0000000000018
 30
0.0
 11
8030.0
 21
7585.0000000000018
 31
0.0
  0
LINE
  5
9947
  8
0
 10
7999.9999999999973
 20
5050.0
 30
0.0
 11
8000.0
 21
7555.0000000000027
 31
0.0
  0
INSERT
  5
9948
  8
0
  2
_ORIGIN
 10
7999.9999999999973
 20
5020.0
 30
0.0
 41
30.0
 42
30.0
 43
30.0
 50
270.0
  0
INSERT
  5
9949
  8
0
  2
_ORIGIN
 10
8000.0
 20
7585.0000000000018
 30
0.0
 41
30.0
 42
30.0
 43
30.0
 50
90.0
  0
INSERT
  5
994A
  8
0
  2
*U13
 10
0.0
 20
0.0
 30
0.0
  0
POINT
  5
994B
  8
DEFPOINTS
 62
     0
 10
7250.0
 20
5020.0
 30
0.0
  0
POINT
  5
994C
  8
DEFPOINTS
 62
     0
 10
7250.0
 20
7585.0000000000018
 30
0.0
  0
POINT
  5
994D
  8
DEFPOINTS
 62
     0
 10
8000.0
 20
7585.0000000000018
 30
0.0
  0
ENDBLK
  5
98B3
  8
0
  0
BLOCK
  8
0
  2
*U13
 70
     1
 10
0.0
 20
0.0
 30
0.0
  3
*U13
  1

  0
TEXT
  5
9A50
  8
0
 10
7969.9999999999973
 20
6216.5000000000027
 30
0.0
 40
105.0
  1
DH
 50
90.0
 41
0.8
  7
文字
  0
ENDBLK
  5
9A52
  8
0
  0
BLOCK
  8
0
  2
*D14
 70
     1
 10
0.0
 20
0.0
 30
0.0
  3
*D14
  1

  0
LINE
  5
994E
  8
0
 10
5475.0
 20
1600.000000000025
 30
0.0
 11
5475.0
 21
1220.000000000025
 31
0.0
  0
LINE
  5
994F
  8
0
 10
8525.0
 20
1600.000000000025
 30
0.0
 11
8525.0
 21
1220.000000000025
 31
0.0
  0
LINE
  5
9950
  8
0
 10
5505.0
 20
1250.000000000025
 30
0.0
 11
8495.0
 21
1250.000000000025
 31
0.0
  0
INSERT
  5
9951
  8
0
  2
_ORIGIN
 10
5475.0
 20
1250.000000000025
 30
0.0
 41
30.0
 42
30.0
 43
30.0
 50
180.0
  0
INSERT
  5
9952
  8
0
  2
_ORIGIN
 10
8525.0
 20
1250.000000000025
 30
0.0
 41
30.0
 42
30.0
 43
30.0
  0
INSERT
  5
9953
  8
0
  2
*U15
 10
0.0
 20
0.0
 30
0.0
  0
POINT
  5
9954
  8
DEFPOINTS
 62
     0
 10
5475.0
 20
1750.000000000025
 30
0.0
  0
POINT
  5
9955
  8
DEFPOINTS
 62
     0
 10
8525.0
 20
1750.000000000025
 30
0.0
  0
POINT
  5
9956
  8
DEFPOINTS
 62
     0
 10
8525.0
 20
1250.000000000025
 30
0.0
  0
ENDBLK
  5
98BF
  8
0
  0
BLOCK
  8
0
  2
*U15
 70
     1
 10
0.0
 20
0.0
 30
0.0
  3
*U15
  1

  0
TEXT
  5
9A54
  8
0
 10
6906.0
 20
1280.000000000025
 30
0.0
 40
105.0
  1
DW
 41
0.8
  7
文字
  0
ENDBLK
  5
9A56
  8
0
  0
BLOCK
  8
0
  2
*D16
 70
     1
 10
0.0
 20
0.0
 30
0.0
  3
*D16
  1

  0
LINE
  5
9957
  8
0
 10
5500.0
 20
2500.0000000000259
 30
0.0
 11
5500.0
 21
2805.0000000000259
 31
0.0
  0
LINE
  5
9958
  8
0
 10
5340.0
 20
2500.0000000000259
 30
0.0
 11
5340.0
 21
2805.0000000000259
 31
0.0
  0
LINE
  5
9959
  8
0
 10
5530.0
 20
2775.0000000000259
 30
0.0
 11
5560.0
 21
2775.0000000000259
 31
0.0
  0
LINE
  5
995A
  8
0
 10
5310.0
 20
2775.0000000000259
 30
0.0
 11
5280.0
 21
2775.0000000000259
 31
0.0
  0
LINE
  5
995B
  8
0
 10
5500.0
 20
2775.0000000000259
 30
0.0
 11
5340.0
 21
2775.0000000000259
 31
0.0
  0
INSERT
  5
995C
  8
0
  2
_ORIGIN
 10
5500.0
 20
2775.0000000000259
 30
0.0
 41
30.0
 42
30.0
 43
30.0
 50
180.0
  0
INSERT
  5
995D
  8
0
  2
_ORIGIN
 10
5340.0
 20
2775.0000000000259
 30
0.0
 41
30.0
 42
30.0
 43
30.0
  0
INSERT
  5
995E
  8
0
  2
*U17
 10
0.0
 20
0.0
 30
0.0
  0
POINT
  5
995F
  8
DEFPOINTS
 62
     0
 10
5500.0
 20
2350.0000000000259
 30
0.0
  0
POINT
  5
9960
  8
DEFPOINTS
 62
     0
 10
5340.0
 20
2350.0000000000259
 30
0.0
  0
POINT
  5
9961
  8
DEFPOINTS
 62
     0
 10
5340.0
 20
2775.0000000000259
 30
0.0
  0
ENDBLK
  5
98CB
  8
0
  0
BLOCK
  8
0
  2
*U17
 70
     1
 10
0.0
 20
0.0
 30
0.0
  3
*U17
  1

  0
TEXT
  5
9A58
  8
0
 10
5198.3999999999987
 20
2805.0000000000259
 30
0.0
 40
105.0
  1
160以上
 41
0.8
  7
文字
  0
ENDBLK
  5
9A5A
  8
0
  0
BLOCK
  8
0
  2
*D18
 70
     1
 10
0.0
 20
0.0
 30
0.0
  3
*D18
  1

  0
LINE
  5
9962
  8
0
 10
7000.0
 20
10400.0
 30
0.0
 11
7000.0
 21
10430.0
 31
0.0
  0
LINE
  5
9963
  8
0
 10
7550.0
 20
10200.0
 30
0.0
 11
7550.0
 21
10430.0
 31
0.0
  0
LINE
  5
9964
  8
0
 10
7030.0
 20
10400.0
 30
0.0
 11
7520.0
 21
10400.0
 31
0.0
  0
INSERT
  5
9965
  8
0
  2
_ORIGIN
 10
7000.0
 20
10400.0
 30
0.0
 41
30.0
 42
30.0
 43
30.0
 50
180.0
  0
INSERT
  5
9966
  8
0
  2
_ORIGIN
 10
7550.0
 20
10400.0
 30
0.0
 41
30.0
 42
30.0
 43
30.0
  0
INSERT
  5
9967
  8
0
  2
*U19
 10
0.0
 20
0.0
 30
0.0
  0
POINT
  5
9968
  8
DEFPOINTS
 62
     0
 10
7000.0
 20
10250.0
 30
0.0
  0
POINT
  5
9969
  8
DEFPOINTS
 62
     0
 10
7550.0
 20
10050.0
 30
0.0
  0
POINT
  5
996A
  8
DEFPOINTS
 62
     0
 10
7550.0
 20
10400.0
 30
0.0
  0
ENDBLK
  5
98D9
  8
0
  0
BLOCK
  8
0
  2
*U19
 70
     1
 10
0.0
 20
0.0
 30
0.0
  3
*U19
  1

  0
TEXT
  5
9A5C
  8
0
 10
7155.0
 20
10430.0
 30
0.0
 40
105.0
  1
550
 41
0.8
  7
文字
  0
ENDBLK
  5
9A5E
  8
0
  0
BLOCK
  8
0
  2
*D20
 70
     1
 10
0.0
 20
0.0
 30
0.0
  3
*D20
  1

  0
LINE
  5
996B
  8
0
 10
7000.0
 20
8775.0000000000582
 30
0.0
 11
7000.0
 21
8745.0000000000582
 31
0.0
  0
LINE
  5
996C
  8
0
 10
7460.0
 20
9250.0000000000582
 30
0.0
 11
7460.0
 21
8745.0000000000582
 31
0.0
  0
LINE
  5
996D
  8
0
 10
7030.0
 20
8775.0000000000582
 30
0.0
 11
7430.0
 21
8775.0000000000582
 31
0.0
  0
INSERT
  5
996E
  8
0
  2
_ORIGIN
 10
7000.0
 20
8775.0000000000582
 30
0.0
 41
30.0
 42
30.0
 43
30.0
 50
180.0
  0
INSERT
  5
996F
  8
0
  2
_ORIGIN
 10
7460.0
 20
8775.0000000000582
 30
0.0
 41
30.0
 42
30.0
 43
30.0
  0
INSERT
  5
9970
  8
0
  2
*U21
 10
0.0
 20
0.0
 30
0.0
  0
POINT
  5
9971
  8
DEFPOINTS
 62
     0
 10
7000.0
 20
8925.0000000000582
 30
0.0
  0
POINT
  5
9972
  8
DEFPOINTS
 62
     0
 10
7460.0
 20
9400.0000000000582
 30
0.0
  0
POINT
  5
9973
  8
DEFPOINTS
 62
     0
 10
7460.0
 20
8775.0000000000582
 30
0.0
  0
ENDBLK
  5
98E5
  8
0
  0
BLOCK
  8
0
  2
*U21
 70
     1
 10
0.0
 20
0.0
 30
0.0
  3
*U21
  1

  0
TEXT
  5
9A60
  8
0
 10
7110.0
 20
8805.0000000000582
 30
0.0
 40
105.0
  1
460
 41
0.8
  7
文字
  0
ENDBLK
  5
9A62
  8
0
  0
BLOCK
  8
0
  2
*D22
 70
     1
 10
0.0
 20
0.0
 30
0.0
  3
*D22
  1

  0
LINE
  5
9974
  8
0
 10
7000.0
 20
9000.0000000000582
 30
0.0
 11
7000.0
 21
8970.0000000000582
 31
0.0
  0
LINE
  5
9975
  8
0
 10
7160.0
 20
9250.0
 30
0.0
 11
7160.0
 21
8970.0000000000582
 31
0.0
  0
LINE
  5
9976
  8
0
 10
7030.0
 20
9000.0000000000582
 30
0.0
 11
7130.0
 21
9000.0000000000582
 31
0.0
  0
INSERT
  5
9977
  8
0
  2
*U23
 10
0.0
 20
0.0
 30
0.0
  0
INSERT
  5
9978
  8
0
  2
_ORIGIN
 10
7000.0
 20
9000.0000000000582
 30
0.0
 41
30.0
 42
30.0
 43
30.0
 50
180.0
  0
INSERT
  5
9979
  8
0
  2
_ORIGIN
 10
7160.0
 20
9000.0000000000582
 30
0.0
 41
30.0
 42
30.0
 43
30.0
  0
POINT
  5
997A
  8
DEFPOINTS
 62
     0
 10
7000.0
 20
9150.0000000000582
 30
0.0
  0
POINT
  5
997B
  8
DEFPOINTS
 62
     0
 10
7160.0
 20
9400.0
 30
0.0
  0
POINT
  5
997C
  8
DEFPOINTS
 62
     0
 10
7160.0
 20
9000.0000000000582
 30
0.0
  0
ENDBLK
  5
98F1
  8
0
  0
BLOCK
  8
0
  2
*U23
 70
     1
 10
0.0
 20
0.0
 30
0.0
  3
*U23
  1

  0
TEXT
  5
9A64
  8
0
 10
7004.0
 20
9030.0000000000564
 30
0.0
 40
105.0
  1
160
 41
0.8
  7
文字
  0
ENDBLK
  5
9A66
  8
0
  0
BLOCK
  8
0
  2
*D24
 70
     1
 10
0.0
 20
0.0
 30
0.0
  3
*D24
  1

  0
LINE
  5
997D
  8
0
 10
6500.0
 20
9500.0
 30
0.0
 11
5945.0
 21
9500.0
 31
0.0
  0
LINE
  5
997E
  8
0
 10
6500.0
 20
9800.0
 30
0.0
 11
5945.0
 21
9800.0
 31
0.0
  0
LINE
  5
997F
  8
0
 10
5975.0
 20
9530.0
 30
0.0
 11
5975.0
 21
9770.0000000000036
 31
0.0
  0
INSERT
  5
9980
  8
0
  2
_ORIGIN
 10
5975.0
 20
9500.0
 30
0.0
 41
30.0
 42
30.0
 43
30.0
 50
270.0
  0
INSERT
  5
9981
  8
0
  2
_ORIGIN
 10
5975.0
 20
9800.0
 30
0.0
 41
30.0
 42
30.0
 43
30.0
 50
90.0
  0
INSERT
  5
9982
  8
0
  2
*U25
 10
0.0
 20
0.0
 30
0.0
  0
POINT
  5
9983
  8
DEFPOINTS
 62
     0
 10
6650.0
 20
9500.0
 30
0.0
  0
POINT
  5
9984
  8
DEFPOINTS
 62
     0
 10
6650.0
 20
9800.0
 30
0.0
  0
POINT
  5
9985
  8
DEFPOINTS
 62
     0
 10
5975.0
 20
9800.0
 30
0.0
  0
ENDBLK
  5
98FD
  8
0
  0
BLOCK
  8
0
  2
*U25
 70
     1
 10
0.0
 20
0.0
 30
0.0
  3
*U25
  1

  0
TEXT
  5
9A68
  8
0
 10
5944.9999999999991
 20
9530.0000000000036
 30
0.0
 40
105.0
  1
300
 50
90.0
 41
0.8
  7
文字
  0
ENDBLK
  5
9A6A
  8
0
  0
BLOCK
  8
0
  2
*D26
 70
     1
 10
0.0
 20
0.0
 30
0.0
  3
*D26
  1

  0
LINE
  5
9986
  8
0
 10
8500.0
 20
2500.0000000000259
 30
0.0
 11
8500.0
 21
2805.0000000000259
 31
0.0
  0
LINE
  5
9987
  8
0
 10
8900.0
 20
2500.0000000000259
 30
0.0
 11
8900.0
 21
2805.0000000000259
 31
0.0
  0
LINE
  5
9988
  8
0
 10
8470.0
 20
2775.0000000000259
 30
0.0
 11
8440.0
 21
2775.0000000000259
 31
0.0
  0
LINE
  5
9989
  8
0
 10
8930.0
 20
2775.0000000000259
 30
0.0
 11
8960.0
 21
2775.0000000000259
 31
0.0
  0
LINE
  5
998A
  8
0
 10
8500.0
 20
2775.0000000000259
 30
0.0
 11
8900.0
 21
2775.0000000000259
 31
0.0
  0
INSERT
  5
998B
  8
0
  2
_ORIGIN
 10
8500.0
 20
2775.0000000000259
 30
0.0
 41
30.0
 42
30.0
 43
30.0
  0
INSERT
  5
998C
  8
0
  2
_ORIGIN
 10
8900.0
 20
2775.0000000000259
 30
0.0
 41
30.0
 42
30.0
 43
30.0
 50
180.0
  0
INSERT
  5
998D
  8
0
  2
*U27
 10
0.0
 20
0.0
 30
0.0
  0
POINT
  5
998E
  8
DEFPOINTS
 62
     0
 10
8500.0
 20
2350.0000000000259
 30
0.0
  0
POINT
  5
998F
  8
DEFPOINTS
 62
     0
 10
8900.0
 20
2350.0000000000259
 30
0.0
  0
POINT
  5
9990
  8
DEFPOINTS
 62
     0
 10
8900.0
 20
2775.0000000000259
 30
0.0
  0
ENDBLK
  5
9909
  8
0
  0
BLOCK
  8
0
  2
*U27
 70
     1
 10
0.0
 20
0.0
 30
0.0
  3
*U27
  1

  0
TEXT
  5
9A6C
  8
0
 10
8484.3999999999996
 20
2805.0000000000259
 30
0.0
 40
105.0
  1
400以上
 41
0.8
  7
文字
  0
ENDBLK
  5
9A6E
  8
0
  0
BLOCK
  8
0
  2
*D28
 70
     1
 10
0.0
 20
0.0
 30
0.0
  3
*D28
  1

  0
LINE
  5
9991
  8
0
 10
5023.0
 20
2000.00000000004
 30
0.0
 11
5043.0
 21
2000.00000000004
 31
0.0
  0
LINE
  5
9992
  8
0
 10
5323.0
 20
1750.000000000005
 30
0.0
 11
5043.0
 21
1750.000000000005
 31
0.0
  0
LINE
  5
9993
  8
0
 10
5073.0
 20
1970.00000000004
 30
0.0
 11
5073.0
 21
1780.0000000000041
 31
0.0
  0
INSERT
  5
9994
  8
0
  2
*U29
 10
0.0
 20
0.0
 30
0.0
  0
INSERT
  5
9995
  8
0
  2
_ORIGIN
 10
5073.0
 20
2000.00000000004
 30
0.0
 41
30.0
 42
30.0
 43
30.0
 50
90.0
  0
INSERT
  5
9996
  8
0
  2
_ORIGIN
 10
5073.0
 20
1750.000000000005
 30
0.0
 41
30.0
 42
30.0
 43
30.0
 50
270.0
  0
POINT
  5
9997
  8
DEFPOINTS
 62
     0
 10
5173.0
 20
2000.00000000004
 30
0.0
  0
POINT
  5
9998
  8
DEFPOINTS
 62
     0
 10
5473.0
 20
1750.000000000005
 30
0.0
  0
POINT
  5
9999
  8
DEFPOINTS
 62
     0
 10
5073.0
 20
1750.000000000005
 30
0.0
  0
ENDBLK
  5
9917
  8
0
  0
BLOCK
  8
0
  2
*U29
 70
     1
 10
0.0
 20
0.0
 30
0.0
  3
*U29
  1

  0
TEXT
  5
9A70
  8
0
 10
5043.0
 20
1747.50000000004
 30
0.0
 40
105.0
  1
250
 50
90.0
 41
0.8
  7
文字
  0
ENDBLK
  5
9A72
  8
0
  0
BLOCK
  8
0
  2
*U30
 70
     1
 10
0.0
 20
0.0
 30
0.0
  3
*U30
  1

  0
INSERT
  5
9A1C
  8
0
  2
_OPEN30
 10
7397.1527613208027
 20
8975.0000000000291
 30
0.0
 41
60.0
 42
60.0
 43
60.0
 50
120.0000000000001
  0
POLYLINE
  5
9A1D
  8
0
 66
     1
 10
0.0
 20
0.0
 30
0.0
  0
VERTEX
  5
9B8F
  8
0
 10
7427.1527613208036
 20
8923.0384757729607
 30
0.0
  0
VERTEX
  5
9B90
  8
0
 10
7547.1527613208036
 20
8715.1923788646964
 30
0.0
  0
VERTEX
  5
9B91
  8
0
 10
8122.5527613208087
 20
8715.1923788646964
 30
0.0
  0
SEQEND
  5
9B92
  8
0
  0
ENDBLK
  5
9A23
  8
0
  0
BLOCK
  8
0
  2
*U31
 70
     1
 10
0.0
 20
0.0
 30
0.0
  3
*U31
  1

  0
INSERT
  5
9A25
  8
0
  2
_OPEN30
 10
7034.7131855290963
 20
9815.942372798525
 30
0.0
 41
60.0
 42
60.0
 43
60.0
 50
255.00000000000031
  0
POLYLINE
  5
9A26
  8
0
 66
     1
 10
0.0
 20
0.0
 30
0.0
  0
VERTEX
  5
9B93
  8
0
 10
7050.2423282352447
 20
9873.8979223758688
 30
0.0
  0
VERTEX
  5
9B94
  8
0
 10
7099.4179468047223
 20
10057.423829370789
 30
0.0
  0
VERTEX
  5
9B95
  8
0
 10
7490.0179468047209
 20
10057.423829370789
 30
0.0
  0
SEQEND
  5
9B96
  8
0
  0
ENDBLK
  5
9A2C
  8
0
  0
BLOCK
  8
0
  2
*U32
 70
     1
 10
0.0
 20
0.0
 30
0.0
  3
*U32
  1

  0
INSERT
  5
9A2E
  8
0
  2
_OPEN30
 10
7000.0
 20
1750.000000000005
 30
0.0
 41
60.0
 42
60.0
 43
60.0
 50
104.9999999999997
  0
POLYLINE
  5
9A2F
  8
0
 66
     1
 10
0.0
 20
0.0
 30
0.0
  0
VERTEX
  5
9B97
  8
0
 10
7015.5291427061511
 20
1692.0444504226609
 30
0.0
  0
VERTEX
  5
9B98
  8
0
 10
7064.7047612756278
 20
1508.5185434277389
 30
0.0
  0
VERTEX
  5
9B99
  8
0
 10
7348.9047612756331
 20
1508.5185434277389
 30
0.0
  0
SEQEND
  5
9B9A
  8
0
  0
ENDBLK
  5
9A35
  8
0
  0
BLOCK
  8
0
  2
*U33
 70
     1
 10
0.0
 20
0.0
 30
0.0
  3
*U33
  1

  0
INSERT
  5
9A37
  8
0
  2
_OPEN30
 10
7016.0000000000073
 20
6171.0475088412204
 30
0.0
 41
60.0
 42
60.0
 43
60.0
 50
300.0
  0
POLYLINE
  5
9A38
  8
0
 66
     1
 10
0.0
 20
0.0
 30
0.0
  0
VERTEX
  5
9B9B
  8
0
 10
6986.0000000000073
 20
6223.009033068287
 30
0.0
  0
VERTEX
  5
9B9C
  8
0
 10
6885.4957445612672
 20
6397.0875098650649
 30
0.0
  0
VERTEX
  5
9B9D
  8
0
 10
6500.4957445612672
 20
6397.0875098650649
 30
0.0
  0
SEQEND
  5
9B9E
  8
0
  0
ENDBLK
  5
9A3E
  8
0
  0
ENDSEC
  0
SECTION
  2
ENTITIES
  0
LINE
  5
6011
  8
0
 10
16380.0
 20
0.0
 30
0.0
 11
0.0
 21
0.0
 31
0.0
  0
LINE
  5
6012
  8
0
 10
0.0
 20
11745.0
 30
0.0
 11
16380.0
 21
11745.0
 31
0.0
  0
LINE
  5
6013
  8
0
 10
0.0
 20
11745.0
 30
0.0
 11
0.0
 21
0.0
 31
0.0
  0
LINE
  5
6014
  8
0
 10
16380.0
 20
11745.0
 30
0.0
 11
16380.0
 21
0.0
 31
0.0
  0
LINE
  5
9757
  8
0
 10
10130.0
 20
400.0
 30
0.0
 11
10130.0
 21
0.0
 31
0.0
  0
TEXT
  5
9758
  8
0
 10
10979.99999999996
 20
247.5
 30
0.0
 40
105.0
  1
オーバードア（電動直結式）
 11
10979.99999999996
 21
300.0
 31
0.0
 73
     2
  0
TEXT
  5
9759
  8
0
 10
10229.99999999996
 20
247.5
 30
0.0
 40
105.0
  1
製品名称  :
 11
10229.99999999996
 21
300.0
 31
0.0
 73
     2
  0
LINE
  5
975A
  8
0
 10
10130.0
 20
200.0
 30
0.0
 11
13880.0
 21
200.0
 31
0.0
  0
LINE
  5
975B
  8
0
 10
13880.0
 20
400.0
 30
0.0
 11
13880.0
 21
0.0
 31
0.0
  0
TEXT
  5
975C
  8
0
 10
13998.33333333333
 20
112.5
 30
0.0
 40
175.0
  1
東洋シヤッター株式会社
 72
     1
 11
15130.0
 21
200.0
 31
0.0
 73
     2
  0
LINE
  5
975D
  8
0
 10
10130.0
 20
400.0
 30
0.0
 11
16380.0
 21
400.0
 31
0.0
  0
TEXT
  5
975E
  8
0
 10
12979.99999999996
 20
47.5
 30
0.0
 40
105.0
  1
縮尺:1/30
 11
12979.99999999996
 21
100.0
 31
0.0
 73
     2
  0
LINE
  5
975F
  8
0
 10
5474.9999999999936
 20
1932.5
 30
0.0
 11
8524.9999999999909
 21
1932.5
 31
0.0
  0
LINE
  5
9760
  8
0
 10
8524.9999999999909
 20
1932.5
 30
0.0
 11
8524.9999999999909
 21
1984.0
 31
0.0
  0
LINE
  5
9761
  8
0
 10
8524.9999999999909
 20
1984.0
 30
0.0
 11
5474.9999999999936
 21
1984.0
 31
0.0
  0
LINE
  5
9762
  8
0
 10
5474.9999999999936
 20
1984.0
 30
0.0
 11
5474.9999999999936
 21
1932.5
 31
0.0
  0
ARC
  5
9763
  8
0
 10
8577.2999999999865
 20
1997.700000000001
 30
0.0
 40
2.299999999999998
 50
90.0
 51
180.0
  0
LINE
  5
9764
  8
0
 10
8614.9999999999909
 20
1997.700000000001
 30
0.0
 11
8614.9999999999909
 21
2000.0
 31
0.0
  0
LINE
  5
9765
  8
0
 10
8577.2999999999865
 20
1997.700000000001
 30
0.0
 11
8614.9999999999909
 21
1997.700000000001
 31
0.0
  0
LINE
  5
9766
  8
0
 10
8577.2999999999865
 20
1884.0
 30
0.0
 11
8577.2999999999865
 21
1997.700000000001
 31
0.0
  0
LINE
  5
9767
  8
0
 10
8574.9999999999927
 20
1884.0
 30
0.0
 11
8577.2999999999865
 21
1884.0
 31
0.0
  0
LINE
  5
9768
  8
0
 10
8574.9999999999927
 20
1997.700000000001
 30
0.0
 11
8574.9999999999927
 21
1884.0
 31
0.0
  0
LINE
  5
9769
  8
0
 10
8614.9999999999909
 20
2000.0
 30
0.0
 11
8577.2999999999865
 21
2000.0
 31
0.0
  0
ARC
  5
976A
  8
0
 10
8562.4999999999909
 20
1886.499999999942
 30
0.0
 40
5.7499999999704414
 50
180.0
 51
0.0
  0
ARC
  5
976B
  8
0
 10
8562.4999999999909
 20
1921.5
 30
0.0
 40
5.7499999999704414
 50
0.0
 51
180.0
  0
LINE
  5
976C
  8
0
 10
8556.7500000000218
 20
1886.499999999942
 30
0.0
 11
8556.7500000000218
 21
1921.5
 31
0.0
  0
LINE
  5
976D
  8
0
 10
8568.2500000000218
 20
1921.5
 30
0.0
 11
8568.2500000000218
 21
1886.499999999942
 31
0.0
  0
ARC
  5
976E
  8
0
 10
8568.9999999999909
 20
1889.7190997647269
 30
0.0
 40
4.0
 50
329.99999999989421
 51
0.0
  0
ARC
  5
976F
  8
0
 10
8568.9999999999909
 20
1889.719099764734
 30
0.0
 40
6.0
 50
329.99999999989421
 51
0.0
  0
ARC
  5
9770
  8
0
 10
8569.9999999999909
 20
1925.5
 30
0.0
 40
3.0
 50
0.0
 51
90.0
  0
ARC
  5
9771
  8
0
 10
8569.9999999999909
 20
1925.5
 30
0.0
 40
5.0
 50
0.0
 51
90.0
  0
LINE
  5
9772
  8
0
 10
8551.5529946162005
 20
1887.499999999998
 30
0.0
 11
8554.4397459621468
 21
1882.5
 31
0.0
  0
LINE
  5
9773
  8
0
 10
8553.2850454237632
 20
1888.4999999999959
 30
0.0
 11
8551.5529946162005
 21
1887.499999999998
 31
0.0
  0
LINE
  5
9774
  8
0
 10
8556.1717967697077
 20
1883.4999999999959
 30
0.0
 11
8553.2850454237632
 21
1888.4999999999959
 31
0.0
  0
LINE
  5
9775
  8
0
 10
8572.4641016151309
 20
1887.7190997647269
 30
0.0
 11
8570.0282032302348
 21
1883.500000000018
 31
0.0
  0
LINE
  5
9776
  8
0
 10
8574.1961524227008
 20
1886.719099764734
 30
0.0
 11
8571.760254037792
 21
1882.5
 31
0.0
  0
ARC
  5
9777
  8
0
 10
8563.0999999999894
 20
1887.5
 30
0.0
 40
8.0
 50
210.0000000001059
 51
329.99999999989421
  0
ARC
  5
9778
  8
0
 10
8563.0999999999894
 20
1887.5
 30
0.0
 40
10.0
 50
210.0000000001059
 51
329.99999999987159
  0
LINE
  5
9779
  8
0
 10
8572.9999999999909
 20
1925.5
 30
0.0
 11
8572.9999999999909
 21
1889.7190997647269
 31
0.0
  0
LINE
  5
977A
  8
0
 10
8549.9999999999909
 20
1928.5
 30
0.0
 11
8569.9999999999909
 21
1928.5
 31
0.0
  0
LINE
  5
977B
  8
0
 10
8549.9999999999909
 20
1930.5
 30
0.0
 11
8549.9999999999909
 21
1928.5
 31
0.0
  0
LINE
  5
977C
  8
0
 10
8569.9999999999909
 20
1930.5
 30
0.0
 11
8549.9999999999909
 21
1930.5
 31
0.0
  0
LINE
  5
977D
  8
0
 10
8574.9999999999927
 20
1889.719099764734
 30
0.0
 11
8574.9999999999927
 21
1925.5
 31
0.0
  0
LINE
  5
977E
  8
0
 10
8515.6999999999898
 20
1882.5
 30
0.0
 11
8517.9999999999909
 21
1882.5
 31
0.0
  0
LINE
  5
977F
  8
0
 10
8451.9999999999909
 20
1882.5
 30
0.0
 11
8454.2999999999865
 21
1882.5
 31
0.0
  0
LINE
  5
9780
  8
0
 10
8428.2500000000236
 20
1897.5
 30
0.0
 11
8556.7500000000218
 21
1897.5
 31
0.0
  0
LINE
  5
9781
  8
0
 10
8428.2500000000236
 20
1910.5
 30
0.0
 11
8428.2500000000236
 21
1897.5
 31
0.0
  0
LINE
  5
9782
  8
0
 10
8556.7500000000218
 20
1910.5
 30
0.0
 11
8428.2500000000236
 21
1910.5
 31
0.0
  0
LINE
  5
9783
  8
0
 10
8515.6999999999898
 20
1930.200000000001
 30
0.0
 11
8515.6999999999898
 21
1882.5
 31
0.0
  0
LINE
  5
9784
  8
0
 10
8454.2999999999865
 20
1930.200000000001
 30
0.0
 11
8515.6999999999898
 21
1930.200000000001
 31
0.0
  0
LINE
  5
9785
  8
0
 10
8454.2999999999865
 20
1882.5
 30
0.0
 11
8454.2999999999865
 21
1930.200000000001
 31
0.0
  0
LINE
  5
9786
  8
0
 10
8451.9999999999909
 20
1932.5
 30
0.0
 11
8451.9999999999909
 21
1882.5
 31
0.0
  0
LINE
  5
9787
  8
0
 10
8517.9999999999909
 20
1932.5
 30
0.0
 11
8451.9999999999909
 21
1932.5
 31
0.0
  0
LINE
  5
9788
  8
0
 10
8517.9999999999909
 20
1882.5
 30
0.0
 11
8517.9999999999909
 21
1932.5
 31
0.0
  0
LINE
  5
9789
  8
0
  6
PHANTOM2
 10
8624.9999999999782
 20
1999.9999999999879
 30
0.0
 11
8624.9999999999782
 21
1475.000000000023
 31
0.0
  0
LINE
  5
978A
  8
0
  6
PHANTOM2
 10
8624.9999999999782
 20
1475.000000000023
 30
0.0
 11
8549.9999999999782
 21
1475.000000000023
 31
0.0
  0
ARC
  5
978B
  8
0
 10
5422.699999999998
 20
1997.700000000001
 30
0.0
 40
2.299999999999998
 50
0.0
 51
90.0
  0
LINE
  5
978C
  8
0
 10
5384.9999999999936
 20
1997.700000000001
 30
0.0
 11
5384.9999999999936
 21
2000.0
 31
0.0
  0
LINE
  5
978D
  8
0
 10
5422.699999999998
 20
1997.700000000001
 30
0.0
 11
5384.9999999999936
 21
1997.700000000001
 31
0.0
  0
LINE
  5
978E
  8
0
 10
5422.699999999998
 20
1884.0
 30
0.0
 11
5422.699999999998
 21
1997.700000000001
 31
0.0
  0
LINE
  5
978F
  8
0
 10
5424.9999999999927
 20
1884.0
 30
0.0
 11
5422.699999999998
 21
1884.0
 31
0.0
  0
LINE
  5
9790
  8
0
 10
5424.9999999999927
 20
1997.700000000001
 30
0.0
 11
5424.9999999999927
 21
1884.0
 31
0.0
  0
LINE
  5
9791
  8
0
 10
5384.9999999999936
 20
2000.0
 30
0.0
 11
5422.699999999998
 21
2000.0
 31
0.0
  0
ARC
  5
9792
  8
0
 10
5437.4999999999918
 20
1886.499999999942
 30
0.0
 40
5.7499999999704414
 50
180.0
 51
0.0
  0
ARC
  5
9793
  8
0
 10
5437.4999999999918
 20
1921.5
 30
0.0
 40
5.7499999999704414
 50
0.0
 51
180.0
  0
LINE
  5
9794
  8
0
 10
5443.2499999999618
 20
1886.499999999942
 30
0.0
 11
5443.2499999999618
 21
1921.5
 31
0.0
  0
LINE
  5
9795
  8
0
 10
5431.7499999999636
 20
1921.5
 30
0.0
 11
5431.7499999999636
 21
1886.499999999942
 31
0.0
  0
ARC
  5
9796
  8
0
 10
5430.9999999999927
 20
1889.7190997647269
 30
0.0
 40
4.0
 50
180.0
 51
210.0000000001059
  0
ARC
  5
9797
  8
0
 10
5430.9999999999927
 20
1889.719099764734
 30
0.0
 40
6.0
 50
180.0
 51
210.0000000001059
  0
ARC
  5
9798
  8
0
 10
5429.9999999999918
 20
1925.5
 30
0.0
 40
3.0
 50
90.0
 51
180.0
  0
ARC
  5
9799
  8
0
 10
5429.9999999999918
 20
1925.5
 30
0.0
 40
5.0
 50
90.0
 51
180.0
  0
LINE
  5
979A
  8
0
 10
5448.4470053837858
 20
1887.5
 30
0.0
 11
5445.5602540378386
 21
1882.5
 31
0.0
  0
LINE
  5
979B
  8
0
 10
5446.7149545762222
 20
1888.4999999999959
 30
0.0
 11
5448.4470053837858
 21
1887.5
 31
0.0
  0
LINE
  5
979C
  8
0
 10
5443.828203230275
 20
1883.4999999999959
 30
0.0
 11
5446.7149545762222
 21
1888.4999999999959
 31
0.0
  0
LINE
  5
979D
  8
0
 10
5427.5358983848564
 20
1887.7190997647269
 30
0.0
 11
5429.9717967697507
 21
1883.500000000018
 31
0.0
  0
LINE
  5
979E
  8
0
 10
5425.8038475772837
 20
1886.719099764734
 30
0.0
 11
5428.2397459621943
 21
1882.5
 31
0.0
  0
ARC
  5
979F
  8
0
 10
5436.8999999999942
 20
1887.5
 30
0.0
 40
8.0
 50
210.0000000001059
 51
329.99999999989421
  0
ARC
  5
97A0
  8
0
 10
5436.8999999999942
 20
1887.5
 30
0.0
 40
10.0
 50
210.00000000012841
 51
329.99999999989421
  0
LINE
  5
97A1
  8
0
 10
5426.9999999999918
 20
1925.5
 30
0.0
 11
5426.9999999999918
 21
1889.7190997647269
 31
0.0
  0
LINE
  5
97A2
  8
0
 10
5449.9999999999927
 20
1928.5
 30
0.0
 11
5429.9999999999918
 21
1928.5
 31
0.0
  0
LINE
  5
97A3
  8
0
 10
5449.9999999999927
 20
1930.5
 30
0.0
 11
5449.9999999999927
 21
1928.5
 31
0.0
  0
LINE
  5
97A4
  8
0
 10
5429.9999999999918
 20
1930.5
 30
0.0
 11
5449.9999999999927
 21
1930.5
 31
0.0
  0
LINE
  5
97A5
  8
0
 10
5424.9999999999927
 20
1889.719099764734
 30
0.0
 11
5424.9999999999927
 21
1925.5
 31
0.0
  0
LINE
  5
97A6
  8
0
 10
5484.2999999999902
 20
1882.5
 30
0.0
 11
5481.9999999999927
 21
1882.5
 31
0.0
  0
LINE
  5
97A7
  8
0
 10
5547.9999999999918
 20
1882.5
 30
0.0
 11
5545.699999999998
 21
1882.5
 31
0.0
  0
LINE
  5
97A8
  8
0
 10
5571.7499999999654
 20
1897.5
 30
0.0
 11
5443.2499999999618
 21
1897.5
 31
0.0
  0
LINE
  5
97A9
  8
0
 10
5571.7499999999654
 20
1910.5
 30
0.0
 11
5571.7499999999654
 21
1897.5
 31
0.0
  0
LINE
  5
97AA
  8
0
 10
5443.2499999999618
 20
1910.5
 30
0.0
 11
5571.7499999999654
 21
1910.5
 31
0.0
  0
LINE
  5
97AB
  8
0
 10
5484.2999999999902
 20
1930.200000000001
 30
0.0
 11
5484.2999999999902
 21
1882.5
 31
0.0
  0
LINE
  5
97AC
  8
0
 10
5545.699999999998
 20
1930.200000000001
 30
0.0
 11
5484.2999999999902
 21
1930.200000000001
 31
0.0
  0
LINE
  5
97AD
  8
0
 10
5545.699999999998
 20
1882.5
 30
0.0
 11
5545.699999999998
 21
1930.200000000001
 31
0.0
  0
LINE
  5
97AE
  8
0
 10
5547.9999999999918
 20
1932.5
 30
0.0
 11
5547.9999999999918
 21
1882.5
 31
0.0
  0
LINE
  5
97AF
  8
0
 10
5481.9999999999927
 20
1932.5
 30
0.0
 11
5547.9999999999918
 21
1932.5
 31
0.0
  0
LINE
  5
97B0
  8
0
 10
5481.9999999999927
 20
1882.5
 30
0.0
 11
5481.9999999999927
 21
1932.5
 31
0.0
  0
LINE
  5
97B1
  8
0
  6
PHANTOM2
 10
5375.0000000000073
 20
1999.9999999999879
 30
0.0
 11
5375.0000000000073
 21
1475.000000000023
 31
0.0
  0
LINE
  5
97B2
  8
0
  6
PHANTOM2
 10
5375.0000000000073
 20
1475.000000000023
 30
0.0
 11
5450.0000000000064
 21
1475.000000000023
 31
0.0
  0
DIMENSION
  5
97B3
  8
0
  2
*D4
 10
8500.0
 20
3000.0000000000259
 30
0.0
 11
7000.0
 21
3082.5000000000259
 31
0.0
  1
W
 13
5500.0
 23
2350.0000000000259
 33
0.0
 14
8500.0
 24
2350.0000000000259
 34
0.0
1001
ACAD
1000
DSTYLE
1002
{
1070
    41
1040
1.0
1002
}
  0
LINE
  5
97B4
  8
0
 10
7016.0000000000073
 20
7584.9999999999709
 30
0.0
 11
7067.5000000000064
 21
7584.9999999999709
 31
0.0
  0
LINE
  5
97B5
  8
0
 10
7067.5000000000064
 20
7584.9999999999709
 30
0.0
 11
7067.5000000000064
 21
5019.9999999999709
 31
0.0
  0
LINE
  5
97B6
  8
0
 10
7067.5000000000064
 20
5019.9999999999709
 30
0.0
 11
7016.0000000000073
 21
5019.9999999999709
 31
0.0
  0
LINE
  5
97B7
  8
0
 10
7016.0000000000073
 20
5019.9999999999709
 30
0.0
 11
7016.0000000000073
 21
7584.9999999999709
 31
0.0
  0
LINE
  5
97B8
  8
0
 10
5250.0
 20
5000.0
 30
0.0
 11
11745.0
 21
5000.0
 31
0.0
  0
LINE
  5
97B9
  8
0
 10
7104.0
 20
5000.0
 30
0.0
 11
7138.1137149705746
 21
7600.0000000000027
 31
0.0
  0
LINE
  5
97BA
  8
0
  6
HIDDEN
 10
7050.9963323068368
 20
5000.0
 30
0.0
 11
7067.5000000000064
 21
6402.8117537458693
 31
0.0
  0
DIMENSION
  5
97BB
  8
0
  2
*D6
 10
5750.0
 20
5000.0
 30
0.0
 11
5667.4999999999991
 21
6250.0000000000027
 31
0.0
  1
H
 13
6650.0
 23
7500.0
 33
0.0
 14
5900.0
 24
5000.0
 34
0.0
 50
90.0
1001
ACAD
1000
DSTYLE
1002
{
1070
    41
1040
1.0
1002
}
  0
DIMENSION
  5
97BC
  8
0
  2
*D8
 10
5750.0
 20
10050.0
 30
0.0
 11
5667.4999999999991
 21
8775.0000000000018
 31
0.0
  1
HR=DH+500以上
 13
6650.0
 23
7500.0
 33
0.0
 14
6650.0
 24
10050.0
 34
0.0
 50
90.0
1001
ACAD
1000
DSTYLE
1002
{
1070
    41
1040
1.0
1002
}
  0
DIMENSION
  5
97BD
  8
0
  2
*D10
 10
5975.0
 20
9500.0
 30
0.0
 11
5892.4999999999991
 21
8500.0000000000018
 31
0.0
  1
DH-50
 13
6650.0
 23
7500.0
 33
0.0
 14
6650.0
 24
9500.0
 34
0.0
 50
90.0
1001
ACAD
1000
DSTYLE
1002
{
1070
    41
1040
1.0
1002
}
  0
LINE
  5
97BE
  8
0
 10
7067.5000000000064
 20
6402.8117537458693
 30
0.0
 11
7085.1617412372498
 21
7604.0597587258017
 31
0.0
  0
DIMENSION
  5
97BF
  8
0
  2
*D12
 10
8000.0
 20
7585.0000000000018
 30
0.0
 11
7917.4999999999964
 21
6302.5000000000009
 31
0.0
  1
DH
 13
7250.0
 23
5020.0
 33
0.0
 14
7250.0
 24
7585.0000000000018
 34
0.0
 50
90.0
1001
ACAD
1000
DSTYLE
1002
{
1070
    41
1040
1.0
1002
}
  0
LINE
  5
97C0
  8
0
  6
PHANTOM2
 10
5425.0
 20
1475.000000000023
 30
0.0
 11
5424.9999999999927
 21
1889.719099764734
 31
0.0
  0
LINE
  5
97C1
  8
0
  6
PHANTOM2
 10
5450.0000000000064
 20
1475.000000000023
 30
0.0
 11
5450.0000000000064
 21
1889.719099764734
 31
0.0
  0
LINE
  5
97C2
  8
0
  6
PHANTOM2
 10
8549.9999999999782
 20
1475.000000000023
 30
0.0
 11
8549.9999999999782
 21
1889.719099764734
 31
0.0
  0
LINE
  5
97C3
  8
0
  6
PHANTOM2
 10
8574.9999999999854
 20
1475.000000000023
 30
0.0
 11
8574.9999999999927
 21
1889.719099764734
 31
0.0
  0
DIMENSION
  5
97C4
  8
0
  2
*D14
 10
8525.0
 20
1250.000000000025
 30
0.0
 11
7000.0
 21
1332.500000000025
 31
0.0
  1
DW
 13
5475.0
 23
1750.000000000025
 33
0.0
 14
8525.0
 24
1750.000000000025
 34
0.0
1001
ACAD
1000
DSTYLE
1002
{
1070
    41
1040
1.0
1002
}
  0
LINE
  5
97C5
  8
0
 10
7092.9992387806633
 20
5000.0
 30
0.0
 11
7127.1236816985756
 21
7600.8425844306566
 31
0.0
  0
DIMENSION
  5
97C6
  8
0
  2
*D16
 10
5340.0
 20
2775.0000000000259
 30
0.0
 11
5420.0
 21
2857.5000000000259
 31
0.0
  1
160以上
 13
5500.0
 23
2350.0000000000259
 33
0.0
 14
5340.0
 24
2350.0000000000259
 34
0.0
1001
ACAD
1000
DSTYLE
1002
{
1070
    41
1040
1.0
1002
}
  0
LINE
  5
97C7
  8
0
 10
7003.1999999999962
 20
9400.0000000000582
 30
0.0
 11
7460.0
 21
9400.0000000000582
 31
0.0
  0
LINE
  5
97C8
  8
0
 10
7460.0
 20
9400.0000000000582
 30
0.0
 11
7460.0
 21
9600.0000000000582
 31
0.0
  0
LINE
  5
97C9
  8
0
 10
7460.0
 20
9600.0000000000582
 30
0.0
 11
7003.1999999999962
 21
9600.0000000000582
 31
0.0
  0
LINE
  5
97CA
  8
0
 10
7000.0
 20
9596.8000000000557
 30
0.0
 11
7000.0
 21
9403.2000000000608
 31
0.0
  0
LINE
  5
97CB
  8
0
 10
7000.0
 20
9403.2000000000608
 30
0.0
 11
7460.0
 21
9403.2000000000608
 31
0.0
  0
LINE
  5
97CC
  8
0
 10
7003.1999999999962
 20
9600.0000000000582
 30
0.0
 11
7003.1999999999962
 21
9400.0000000000582
 31
0.0
  0
LINE
  5
97CD
  8
0
 10
7460.0
 20
9596.8000000000557
 30
0.0
 11
7000.0
 21
9596.8000000000557
 31
0.0
  0
CIRCLE
  5
97CE
  8
0
 10
7159.9999999999654
 20
9500.0000000000582
 30
0.0
 40
140.0
  0
LINE
  5
97CF
  8
0
  6
CENTER2
 10
7159.9999999999654
 20
9600.0000000000127
 30
0.0
 11
7159.9999999999654
 21
9400.0000000000127
 31
0.0
  0
LINE
  5
97D0
  8
0
  6
CENTER2
 10
7059.9999999999654
 20
9500.0
 30
0.0
 11
7259.9999999999636
 21
9500.0
 31
0.0
  0
LINE
  5
97D1
  8
0
 10
7524.5267093139782
 20
10005.856102931821
 30
0.0
 11
7471.8693057058908
 21
10011.89075780964
 31
0.0
  0
LINE
  5
97D2
  8
0
 10
7524.5267093139782
 20
10005.856102931821
 30
0.0
 11
7460.0
 21
9483.6319499834881
 31
0.0
  0
LINE
  5
97D3
  8
0
 10
7513.5978142255044
 20
10007.108578472509
 30
0.0
 11
7460.0
 21
9573.3335815545415
 31
0.0
  0
LINE
  5
97D4
  8
0
 10
7471.8693057058908
 20
10011.89075780964
 30
0.0
 11
7420.9755371043439
 21
9600.0000000000582
 31
0.0
  0
DIMENSION
  5
97D5
  8
0
  2
*D18
 10
7550.0
 20
10400.0
 30
0.0
 11
7275.0
 21
10482.5
 31
0.0
 13
7000.0
 23
10250.0
 33
0.0
 14
7550.0
 24
10050.0
 34
0.0
1001
ACAD
1000
DSTYLE
1002
{
1070
    41
1040
1.0
1002
}
  0
DIMENSION
  5
97D6
  8
0
  2
*D20
 10
7460.0
 20
8775.0000000000582
 30
0.0
 11
7230.0
 21
8857.5000000000582
 31
0.0
 13
7000.0
 23
8925.0000000000582
 33
0.0
 14
7460.0
 24
9400.0000000000582
 34
0.0
1001
ACAD
1000
DSTYLE
1002
{
1070
    41
1040
1.0
1002
}
  0
DIMENSION
  5
97D7
  8
0
  2
*D22
 10
7160.0
 20
9000.0000000000582
 30
0.0
 11
7130.0
 21
9082.5000000000582
 31
0.0
 70
   128
 13
7000.0
 23
9150.0000000000582
 33
0.0
 14
7160.0
 24
9400.0
 34
0.0
1001
ACAD
1000
DSTYLE
1002
{
1070
    41
1040
1.0
1002
}
  0
LINE
  5
97D8
  8
0
 10
7181.3601794100114
 20
7950.0
 30
0.0
 11
7138.1137149705746
 21
7600.0000000000027
 31
0.0
  0
LINE
  5
97D9
  8
0
 10
7170.2765267817304
 20
7950.0
 30
0.0
 11
7127.1848198821099
 21
7601.2524755406821
 31
0.0
  0
LINE
  5
97DA
  8
0
 10
7127.9571258374199
 20
7950.0
 30
0.0
 11
7085.4563113624909
 21
7606.0346548778243
 31
0.0
  0
LINE
  5
97DB
  8
0
 10
6600.0
 20
8000.0
 30
0.0
 11
7500.0
 21
8000.0
 31
0.0
  0
LINE
  5
97DC
  8
0
 10
6600.0
 20
7950.0
 30
0.0
 11
7500.0
 21
7950.0
 31
0.0
  0
LINE
  5
97DD
  8
0
 10
7396.2632717103861
 20
9400.0000000000582
 30
0.0
 11
7223.2774139526518
 21
8000.0
 31
0.0
  0
LINE
  5
97DE
  8
0
 10
7438.582672654702
 20
9400.0000000000564
 30
0.0
 11
7265.5968148969678
 21
8000.0
 31
0.0
  0
LINE
  5
97DF
  8
0
 10
7449.6663252829758
 20
9400.0000000000564
 30
0.0
 11
7276.6804675252497
 21
8000.0
 31
0.0
  0
TEXT
  5
97E0
  8
0
 10
7599.6527613208063
 20
8745.1923788646982
 30
0.0
 40
105.0
  1
垂直レール
 41
0.8
  7
横文字
 72
     1
 11
7834.8527613208053
 21
8745.1923788646982
 31
0.0
  0
INSERT
  5
97E1
  8
0
  2
*U30
 10
0.0
 20
0.0
 30
0.0
  0
LINE
  5
97E2
  8
0
 10
7190.0
 20
9700.0000000000236
 30
0.0
 11
7190.0
 21
9900.0000000000255
 31
0.0
  0
LINE
  5
97E3
  8
0
 10
7185.0
 20
9905.00000000002
 30
0.0
 11
7000.0
 21
9905.00000000002
 31
0.0
  0
LINE
  5
97E4
  8
0
 10
7000.0
 20
9905.00000000002
 30
0.0
 11
7000.0
 21
9695.0000000000218
 31
0.0
  0
LINE
  5
97E5
  8
0
 10
7000.0
 20
9695.0000000000218
 30
0.0
 11
7185.0
 21
9695.0000000000218
 31
0.0
  0
LINE
  5
97E6
  8
0
 10
7185.0
 20
9695.0000000000218
 30
0.0
 11
7190.0
 21
9700.0000000000236
 31
0.0
  0
LINE
  5
97E7
  8
0
 10
7190.0
 20
9900.0000000000255
 30
0.0
 11
7185.0
 21
9905.00000000002
 31
0.0
  0
CIRCLE
  5
97E8
  8
0
 10
7119.99999999997
 20
9800.0000000000255
 30
0.0
 40
52.0
  0
LINE
  5
97E9
  8
0
 10
7059.99999999997
 20
9800.0
 30
0.0
 11
7179.99999999997
 21
9800.0000000000455
 31
0.0
  0
LINE
  5
97EA
  8
0
 10
7119.99999999997
 20
9860.00000000002
 30
0.0
 11
7119.99999999997
 21
9740.0000000000236
 31
0.0
  0
TEXT
  5
97EB
  8
0
 10
7151.9179468047259
 20
10087.423829370789
 30
0.0
 40
105.0
  1
開閉機
 41
0.8
  7
横文字
 72
     1
 11
7294.7179468047252
 21
10087.423829370789
 31
0.0
  0
INSERT
  5
97EC
  8
0
  2
*U31
 10
0.0
 20
0.0
 30
0.0
  0
DIMENSION
  5
97ED
  8
0
  2
*D24
 10
5975.0
 20
9800.0
 30
0.0
 11
5892.4999999999991
 21
9650.0000000000055
 31
0.0
 13
6650.0
 23
9500.0
 33
0.0
 14
6650.0
 24
9800.0
 34
0.0
 50
90.0
1001
ACAD
1000
DSTYLE
1002
{
1070
    41
1040
1.0
1002
}
  0
CIRCLE
  5
97EE
  8
0
 10
7159.9999999999654
 20
9500.0
 30
0.0
 40
48.0
  0
LINE
  5
97EF
  8
0
  6
HIDDEN
 10
7068.5514807017607
 20
9792.4468640935957
 30
0.0
 11
7112.5090591093031
 21
9493.0278745479118
 31
0.0
  0
LINE
  5
97F0
  8
0
  6
HIDDEN
 10
7207.6586264801463
 20
9505.7144835306881
 30
0.0
 11
7171.6301786868407
 21
9806.1906904916032
 31
0.0
  0
LINE
  5
97F1
  8
0
  6
PHANTOM2
 10
8588.0
 20
1817.5000000000221
 30
0.0
 11
8848.0
 21
1817.5000000000221
 31
0.0
  0
LINE
  5
97F2
  8
0
  6
PHANTOM2
 10
8588.0
 20
1942.5000000000221
 30
0.0
 11
8848.0
 21
1942.5000000000221
 31
0.0
  0
LINE
  5
97F3
  8
0
  6
PHANTOM2
 10
8848.0
 20
1942.5000000000221
 30
0.0
 11
8848.0
 21
1817.5000000000221
 31
0.0
  0
LINE
  5
97F4
  8
0
  6
PHANTOM2
 10
8398.0
 20
1985.000000000058
 30
0.0
 11
8588.0
 21
1985.000000000058
 31
0.0
  0
LINE
  5
97F5
  8
0
  6
PHANTOM2
 10
8588.0
 20
1985.000000000058
 30
0.0
 11
8588.0
 21
1775.000000000058
 31
0.0
  0
LINE
  5
97F6
  8
0
  6
PHANTOM2
 10
8588.0
 20
1775.000000000058
 30
0.0
 11
8398.0
 21
1775.000000000058
 31
0.0
  0
LINE
  5
97F7
  8
0
  6
PHANTOM2
 10
8398.0
 20
1775.000000000058
 30
0.0
 11
8398.0
 21
1985.000000000058
 31
0.0
  0
LINE
  5
97F8
  8
0
  6
PHANTOM2
 10
8366.4000000000033
 20
1932.000000000058
 30
0.0
 11
8366.4000000000033
 21
1828.000000000058
 31
0.0
  0
LINE
  5
97F9
  8
0
  6
PHANTOM2
 10
8366.4000000000033
 20
1828.000000000058
 30
0.0
 11
8373.6000000000058
 21
1828.000000000058
 31
0.0
  0
LINE
  5
97FA
  8
0
  6
PHANTOM2
 10
8373.6000000000058
 20
1828.000000000058
 30
0.0
 11
8373.6000000000058
 21
1932.000000000058
 31
0.0
  0
LINE
  5
97FB
  8
0
  6
PHANTOM2
 10
8373.6000000000058
 20
1932.000000000058
 30
0.0
 11
8366.4000000000033
 21
1932.000000000058
 31
0.0
  0
LINE
  5
97FC
  8
0
  6
PHANTOM2
 10
8398.0
 20
1911.500000000058
 30
0.0
 11
8373.6000000000058
 21
1911.500000000058
 31
0.0
  0
LINE
  5
97FD
  8
0
  6
PHANTOM2
 10
8398.0
 20
1848.500000000058
 30
0.0
 11
8373.6000000000058
 21
1848.500000000058
 31
0.0
  0
LINE
  5
97FE
  8
0
  6
PHANTOM2
 10
8798.0
 20
1942.5000000000221
 30
0.0
 11
8798.0
 21
1817.5000000000221
 31
0.0
  0
LINE
  5
97FF
  8
0
  6
CENTER2
 10
8298.0
 20
1880.0000000000221
 30
0.0
 11
8948.0
 21
1880.0000000000221
 31
0.0
  0
LINE
  5
9800
  8
0
  6
PHANTOM2
 10
9500.0
 20
2150.0
 30
0.0
 11
8500.0
 21
2150.0
 31
0.0
  0
LINE
  5
9801
  8
0
  6
PHANTOM2
 10
8500.0
 20
2150.0
 30
0.0
 11
8500.0
 21
2000.0
 31
0.0
  0
LINE
  5
9802
  8
0
  6
PHANTOM2
 10
8500.0
 20
2000.0
 30
0.0
 11
9500.0
 21
2000.0
 31
0.0
  0
LINE
  5
9803
  8
0
  6
PHANTOM2
 10
4500.0
 20
2150.0
 30
0.0
 11
5500.0
 21
2150.0
 31
0.0
  0
LINE
  5
9804
  8
0
  6
PHANTOM2
 10
5500.0
 20
2150.0
 30
0.0
 11
5500.0
 21
2000.0
 31
0.0
  0
LINE
  5
9805
  8
0
  6
PHANTOM2
 10
5500.0
 20
2000.0
 30
0.0
 11
4500.0
 21
2000.0
 31
0.0
  0
LINE
  5
9806
  8
0
  6
PHANTOM2
 10
6850.0
 20
10700.0
 30
0.0
 11
6850.0
 21
8000.0
 31
0.0
  0
LINE
  5
9807
  8
0
  6
PHANTOM2
 10
6850.0
 20
7500.0
 30
0.0
 11
7000.0
 21
7500.0
 31
0.0
  0
LINE
  5
9808
  8
0
  6
PHANTOM2
 10
7000.0
 20
7500.0
 30
0.0
 11
7000.0
 21
7950.0
 31
0.0
  0
LINE
  5
9809
  8
0
  6
PHANTOM2
 10
7000.0
 20
8000.0
 30
0.0
 11
7000.0
 21
10700.0
 31
0.0
  0
LINE
  5
980A
  8
0
  6
PHANTOM2
 10
6850.0
 20
7950.0
 30
0.0
 11
6850.0
 21
7500.0
 31
0.0
  0
DIMENSION
  5
980B
  8
0
  2
*D26
 10
8900.0
 20
2775.0000000000259
 30
0.0
 11
8700.0
 21
2857.5000000000259
 31
0.0
  1
400以上
 13
8500.0
 23
2350.0000000000259
 33
0.0
 14
8900.0
 24
2350.0000000000259
 34
0.0
1001
ACAD
1000
DSTYLE
1002
{
1070
    41
1040
1.0
1002
}
  0
LINE
  5
980C
  8
0
 10
7259.0
 20
9740.4995320000253
 30
0.0
 11
7259.0
 21
9859.4995320000253
 31
0.0
  0
LINE
  5
980D
  8
0
 10
7257.5
 20
9738.9995320000253
 30
0.0
 11
7246.0
 21
9738.9995320000198
 31
0.0
  0
LINE
  5
980E
  8
0
 10
7257.5
 20
9860.9995320000198
 30
0.0
 11
7246.0
 21
9860.9995320000198
 31
0.0
  0
LINE
  5
980F
  8
0
 10
7246.0
 20
9739.9996111470846
 30
0.0
 11
7246.0
 21
9738.9995320000198
 31
0.0
  0
LINE
  5
9810
  8
0
 10
7246.0
 20
9860.9995320000198
 30
0.0
 11
7246.0
 21
9859.9995320000216
 31
0.0
  0
ARC
  5
9811
  8
0
 10
7257.5
 20
9859.4995320000198
 30
0.0
 40
1.5
 50
0.0000025587154284
 51
89.999997953111034
  0
ARC
  5
9812
  8
0
 10
7257.5
 20
9740.4995320000253
 30
0.0
 40
1.5
 50
270.0000010234445
 51
0.0000025587154284
  0
LINE
  5
9813
  8
0
 10
7190.0
 20
9859.9999965588486
 30
0.0
 11
7246.0
 21
9859.9996111470828
 31
0.0
  0
LINE
  5
9814
  8
0
 10
7190.0
 20
9739.9999965588468
 30
0.0
 11
7246.0
 21
9739.9996111470846
 31
0.0
  0
LINE
  5
9815
  8
0
 10
8532.5000000000455
 20
1780.0000000000271
 30
0.0
 11
8532.5000000000455
 21
1722.3000000000261
 31
0.0
  0
LINE
  5
9816
  8
0
 10
8534.8000000000466
 20
1720.0000000000271
 30
0.0
 11
8595.2000000000407
 21
1720.0000000000271
 31
0.0
  0
LINE
  5
9817
  8
0
 10
8597.5000000000418
 20
1722.3000000000261
 30
0.0
 11
8597.5000000000418
 21
1780.0000000000271
 31
0.0
  0
LINE
  5
9818
  8
0
 10
8597.5000000000418
 20
1780.0000000000271
 30
0.0
 11
8595.2000000000407
 21
1780.0000000000271
 31
0.0
  0
LINE
  5
9819
  8
0
 10
8595.2000000000407
 20
1780.0000000000271
 30
0.0
 11
8595.2000000000407
 21
1722.3000000000261
 31
0.0
  0
LINE
  5
981A
  8
0
 10
8595.2000000000407
 20
1722.3000000000261
 30
0.0
 11
8534.8000000000466
 21
1722.3000000000261
 31
0.0
  0
LINE
  5
981B
  8
0
 10
8534.8000000000466
 20
1722.3000000000261
 30
0.0
 11
8534.8000000000466
 21
1780.0000000000271
 31
0.0
  0
LINE
  5
981C
  8
0
 10
8534.8000000000466
 20
1780.0000000000271
 30
0.0
 11
8532.5000000000455
 21
1780.0000000000271
 31
0.0
  0
ARC
  5
981D
  8
0
 10
8534.8000000000466
 20
1722.3000000000261
 30
0.0
 40
2.299999999999998
 50
180.0
 51
270.0
  0
ARC
  5
981E
  8
0
 10
8595.2000000000407
 20
1722.3000000000261
 30
0.0
 40
2.299999999999998
 50
270.0
 51
0.0
  0
LINE
  5
981F
  8
0
 10
8597.5000000000418
 20
1780.0000000000271
 30
0.0
 11
8622.4999999999909
 21
1780.0000000000259
 31
0.0
  0
LINE
  5
9820
  8
0
 10
8627.4999999999945
 20
1775.000000000025
 30
0.0
 11
8627.4999999999945
 21
1730.0000000000271
 31
0.0
  0
LINE
  5
9821
  8
0
 10
8622.4999999999909
 20
1780.0000000000259
 30
0.0
 11
8627.4999999999945
 21
1775.000000000025
 31
0.0
  0
LINE
  5
9822
  8
0
 10
8622.4999999999909
 20
1725.0000000000271
 30
0.0
 11
8597.4999999999909
 21
1725.0000000000271
 31
0.0
  0
LINE
  5
9823
  8
0
 10
8627.4999999999945
 20
1730.0000000000271
 30
0.0
 11
8622.4999999999909
 21
1725.0000000000271
 31
0.0
  0
CIRCLE
  5
9824
  8
0
 10
8614.9999999999909
 20
1750.000000000005
 30
0.0
 40
6.0
  0
LINE
  5
9825
  8
0
 10
8532.5000000000455
 20
1780.0000000000271
 30
0.0
 11
8507.5000000000946
 21
1780.0000000000259
 31
0.0
  0
LINE
  5
9826
  8
0
 10
8502.5000000000946
 20
1775.000000000025
 30
0.0
 11
8502.5000000000946
 21
1730.0000000000271
 31
0.0
  0
LINE
  5
9827
  8
0
 10
8507.5000000000946
 20
1780.0000000000259
 30
0.0
 11
8502.5000000000946
 21
1775.000000000025
 31
0.0
  0
LINE
  5
9828
  8
0
 10
8507.5000000000946
 20
1725.0000000000271
 30
0.0
 11
8532.5000000000946
 21
1725.0000000000271
 31
0.0
  0
LINE
  5
9829
  8
0
 10
8502.5000000000946
 20
1730.0000000000271
 30
0.0
 11
8507.5000000000946
 21
1725.0000000000271
 31
0.0
  0
CIRCLE
  5
982A
  8
0
 10
8515.0000000000946
 20
1750.000000000005
 30
0.0
 40
6.0
  0
LINE
  5
982B
  8
0
 10
8582.4999999999945
 20
1743.000000000005
 30
0.0
 11
8582.4999999999945
 21
1757.000000000005
 31
0.0
  0
ARC
  5
982C
  8
0
 10
8580.4999999999909
 20
1757.000000000005
 30
0.0
 40
2.0
 50
0.0
 51
90.0
  0
LINE
  5
982D
  8
0
 10
8580.4999999999909
 20
1759.000000000005
 30
0.0
 11
8549.4999999999909
 21
1759.000000000005
 31
0.0
  0
ARC
  5
982E
  8
0
 10
8549.4999999999909
 20
1757.000000000005
 30
0.0
 40
2.0
 50
90.0
 51
180.0
  0
LINE
  5
982F
  8
0
 10
8547.4999999999909
 20
1757.000000000005
 30
0.0
 11
8547.4999999999909
 21
1743.000000000005
 31
0.0
  0
ARC
  5
9830
  8
0
 10
8549.4999999999909
 20
1743.000000000005
 30
0.0
 40
2.0
 50
180.0
 51
270.0
  0
LINE
  5
9831
  8
0
 10
8549.4999999999909
 20
1741.000000000005
 30
0.0
 11
8580.4999999999909
 21
1741.000000000005
 31
0.0
  0
ARC
  5
9832
  8
0
 10
8580.4999999999909
 20
1743.000000000005
 30
0.0
 40
2.0
 50
270.0
 51
0.0
  0
LINE
  5
9833
  8
0
  6
CENTER2
 10
8547.4999999999909
 20
1750.000000000005
 30
0.0
 11
5452.5000000001019
 21
1750.000000000005
 31
0.0
  0
LINE
  5
9834
  8
0
 10
5467.50000000005
 20
1780.0000000000271
 30
0.0
 11
5467.50000000005
 21
1722.3000000000261
 31
0.0
  0
LINE
  5
9835
  8
0
 10
5465.2000000000562
 20
1720.0000000000271
 30
0.0
 11
5404.8000000000457
 21
1720.0000000000271
 31
0.0
  0
LINE
  5
9836
  8
0
 10
5402.50000000005
 20
1722.3000000000261
 30
0.0
 11
5402.50000000005
 21
1780.0000000000271
 31
0.0
  0
LINE
  5
9837
  8
0
 10
5402.50000000005
 20
1780.0000000000271
 30
0.0
 11
5404.8000000000457
 21
1780.0000000000271
 31
0.0
  0
LINE
  5
9838
  8
0
 10
5404.8000000000457
 20
1780.0000000000271
 30
0.0
 11
5404.8000000000457
 21
1722.3000000000261
 31
0.0
  0
LINE
  5
9839
  8
0
 10
5404.8000000000457
 20
1722.3000000000261
 30
0.0
 11
5465.2000000000562
 21
1722.3000000000261
 31
0.0
  0
LINE
  5
983A
  8
0
 10
5465.2000000000562
 20
1722.3000000000261
 30
0.0
 11
5465.2000000000562
 21
1780.0000000000271
 31
0.0
  0
LINE
  5
983B
  8
0
 10
5465.2000000000562
 20
1780.0000000000271
 30
0.0
 11
5467.50000000005
 21
1780.0000000000271
 31
0.0
  0
ARC
  5
983C
  8
0
 10
5465.2000000000562
 20
1722.3000000000261
 30
0.0
 40
2.299999999999998
 50
270.0
 51
0.0
  0
ARC
  5
983D
  8
0
 10
5404.8000000000457
 20
1722.3000000000261
 30
0.0
 40
2.299999999999998
 50
180.0
 51
270.0
  0
LINE
  5
983E
  8
0
 10
5402.50000000005
 20
1780.0000000000271
 30
0.0
 11
5377.5000000001019
 21
1780.0000000000259
 31
0.0
  0
LINE
  5
983F
  8
0
 10
5372.500000000101
 20
1775.000000000025
 30
0.0
 11
5372.500000000101
 21
1730.0000000000271
 31
0.0
  0
LINE
  5
9840
  8
0
 10
5377.5000000001019
 20
1780.0000000000259
 30
0.0
 11
5372.500000000101
 21
1775.000000000025
 31
0.0
  0
LINE
  5
9841
  8
0
 10
5377.5000000001019
 20
1725.0000000000271
 30
0.0
 11
5402.5000000001019
 21
1725.0000000000271
 31
0.0
  0
LINE
  5
9842
  8
0
 10
5372.500000000101
 20
1730.0000000000271
 30
0.0
 11
5377.5000000001019
 21
1725.0000000000271
 31
0.0
  0
CIRCLE
  5
9843
  8
0
 10
5385.000000000101
 20
1750.000000000005
 30
0.0
 40
6.0
  0
LINE
  5
9844
  8
0
 10
5467.50000000005
 20
1780.0000000000271
 30
0.0
 11
5492.5
 21
1780.0000000000259
 31
0.0
  0
LINE
  5
9845
  8
0
 10
5497.5
 20
1775.000000000025
 30
0.0
 11
5497.5
 21
1730.0000000000271
 31
0.0
  0
LINE
  5
9846
  8
0
 10
5492.5
 20
1780.0000000000259
 30
0.0
 11
5497.5
 21
1775.000000000025
 31
0.0
  0
LINE
  5
9847
  8
0
 10
5492.5
 20
1725.0000000000271
 30
0.0
 11
5467.5000000000009
 21
1725.0000000000271
 31
0.0
  0
LINE
  5
9848
  8
0
 10
5497.5
 20
1730.0000000000271
 30
0.0
 11
5492.5
 21
1725.0000000000271
 31
0.0
  0
CIRCLE
  5
9849
  8
0
 10
5485.0
 20
1750.000000000005
 30
0.0
 40
6.0
  0
LINE
  5
984A
  8
0
 10
5417.5000000001019
 20
1743.000000000005
 30
0.0
 11
5417.5000000001019
 21
1757.000000000005
 31
0.0
  0
ARC
  5
984B
  8
0
 10
5419.5000000001019
 20
1757.000000000005
 30
0.0
 40
2.0
 50
90.0
 51
180.0
  0
LINE
  5
984C
  8
0
 10
5419.5000000001019
 20
1759.000000000005
 30
0.0
 11
5450.5000000001019
 21
1759.000000000005
 31
0.0
  0
ARC
  5
984D
  8
0
 10
5450.5000000001019
 20
1757.000000000005
 30
0.0
 40
2.0
 50
0.0
 51
90.0
  0
LINE
  5
984E
  8
0
 10
5452.5000000001019
 20
1757.000000000005
 30
0.0
 11
5452.5000000001019
 21
1743.000000000005
 31
0.0
  0
ARC
  5
984F
  8
0
 10
5450.5000000001019
 20
1743.000000000005
 30
0.0
 40
2.0
 50
270.0
 51
0.0
  0
LINE
  5
9850
  8
0
 10
5450.5000000001019
 20
1741.000000000005
 30
0.0
 11
5419.5000000001019
 21
1741.000000000005
 31
0.0
  0
ARC
  5
9851
  8
0
 10
5419.5000000001019
 20
1743.000000000005
 30
0.0
 40
2.0
 50
180.0
 51
270.0
  0
TEXT
  5
9852
  8
0
 10
7117.2047612756332
 20
1538.5185434277389
 30
0.0
 40
105.0
  1
光軸
 41
0.8
  7
横文字
 72
     1
 11
7206.8047612756327
 21
1538.5185434277389
 31
0.0
  0
INSERT
  5
9853
  8
0
  2
*U32
 10
0.0
 20
0.0
 30
0.0
  0
DIMENSION
  5
9854
  8
0
  2
*D28
 10
5073.0
 20
1750.000000000005
 30
0.0
 11
4990.5
 21
1867.50000000004
 31
0.0
 70
   128
 13
5173.0
 23
2000.00000000004
 33
0.0
 14
5473.0
 24
1750.000000000005
 34
0.0
 50
90.0
1001
ACAD
1000
DSTYLE
1002
{
1070
    41
1040
1.0
1002
}
  0
TEXT
  5
9855
  8
0
 10
10979.999999999971
 20
47.5
 30
0.0
 40
105.0
  1
バーチカル
 11
10979.999999999971
 21
100.0
 31
0.0
 73
     2
  0
TEXT
  5
9856
  8
0
 10
10229.999999999971
 20
47.5
 30
0.0
 40
105.0
  1
納まり　  :
 11
10229.999999999971
 21
100.0
 31
0.0
 73
     2
  0
TEXT
  5
9857
  8
0
 10
6552.9957445612663
 20
6427.0875098650649
 30
0.0
 40
105.0
  1
パネル
 41
0.8
  7
文字
 72
     1
 11
6692.9957445612672
 21
6427.0875098650649
 31
0.0
  0
INSERT
  5
9858
  8
0
  2
*U33
 10
0.0
 20
0.0
 30
0.0
  0
LINE
  5
9859
  8
0
  6
PHANTOM2
 10
7070.7000000000053
 20
5029.8000000000102
 30
0.0
 11
7095.5000000000073
 21
5029.8000000000102
 31
0.0
  0
LINE
  5
985A
  8
0
  6
PHANTOM2
 10
7070.7000000000053
 20
5222.5000000000073
 30
0.0
 11
7067.5000000000064
 21
5222.5000000000073
 31
0.0
  0
LINE
  5
985B
  8
0
  6
PHANTOM2
 10
7095.5000000000073
 20
5033.0000000000082
 30
0.0
 11
7095.5000000000073
 21
5029.8000000000102
 31
0.0
  0
LINE
  5
985C
  8
0
  6
PHANTOM2
 10
7070.7000000000053
 20
5033.0000000000082
 30
0.0
 11
7095.5000000000073
 21
5033.0000000000082
 31
0.0
  0
ARC
  5
985D
  8
0
  6
PHANTOM2
 10
7070.7000000000053
 20
5033.0000000000082
 30
0.0
 40
3.2000000000000002
 50
180.0
 51
270.0
  0
LINE
  5
985E
  8
0
  6
PHANTOM2
 10
7163.5000000000073
 20
5138.49999999997
 30
0.0
 11
7163.5000000000073
 21
5137.5000000000064
 31
0.0
  0
LINE
  5
985F
  8
0
  6
PHANTOM2
 10
7163.5000000000073
 20
5055.5000000000064
 30
0.0
 11
7158.5952617056382
 21
5055.5000000000064
 31
0.0
  0
LINE
  5
9860
  8
0
  6
PHANTOM2
 10
7136.5000000000082
 20
5055.5000000000064
 30
0.0
 11
7070.7000000000053
 21
5055.5000000000064
 31
0.0
  0
LINE
  5
9861
  8
0
  6
PHANTOM2
 10
7163.5000000000073
 20
5137.5000000000064
 30
0.0
 11
7141.0295766755744
 21
5137.5000000000064
 31
0.0
  0
LINE
  5
9862
  8
0
  6
PHANTOM2
 10
7104.8594262750121
 20
5114.1176127356302
 30
0.0
 11
7138.232212400565
 21
5136.6442433703851
 31
0.0
  0
ARC
  5
9863
  8
0
  6
PHANTOM2
 10
7141.0295766755744
 20
5132.5000000000073
 30
0.0
 40
5.0
 50
90.0
 51
124.0193499896919
  0
LINE
  5
9864
  8
0
  6
PHANTOM2
 10
7163.5000000000073
 20
5058.49999999997
 30
0.0
 11
7163.5000000000073
 21
5055.5000000000064
 31
0.0
  0
LINE
  5
9865
  8
0
  6
PHANTOM2
 10
7163.5000000000073
 20
5138.49999999997
 30
0.0
 11
7166.7000000000053
 21
5138.49999999997
 31
0.0
  0
LINE
  5
9866
  8
0
  6
PHANTOM2
 10
7163.5000000000073
 20
5058.49999999997
 30
0.0
 11
7166.7000000000053
 21
5058.49999999997
 31
0.0
  0
LINE
  5
9867
  8
0
  6
PHANTOM2
 10
7166.7000000000053
 20
5138.49999999997
 30
0.0
 11
7166.7000000000053
 21
5101.7290599168118
 31
0.0
  0
LINE
  5
9868
  8
0
  6
PHANTOM2
 10
7166.7000000000053
 20
5095.3290599168104
 30
0.0
 11
7166.7000000000053
 21
5058.49999999997
 31
0.0
  0
ARC
  5
9869
  8
0
  6
PHANTOM2
 10
7163.5000000000073
 20
5095.3290599168104
 30
0.0
 40
3.2000000000000002
 50
0.0
 51
90.0
  0
ARC
  5
986A
  8
0
  6
PHANTOM2
 10
7163.5000000000073
 20
5101.7290599168118
 30
0.0
 40
3.2000000000000002
 50
270.0
 51
0.0
  0
LINE
  5
986B
  8
0
  6
PHANTOM2
 10
7070.7000000000053
 20
5150.5000000000082
 30
0.0
 11
7104.8594262750121
 21
5114.1176127356366
 31
0.0
  0
LINE
  5
986C
  8
0
  6
PHANTOM2
 10
7070.7000000000053
 20
5055.5000000000064
 30
0.0
 11
7070.7000000000053
 21
5033.0000000000082
 31
0.0
  0
ARC
  5
986D
  8
0
  6
PHANTOM2
 10
7169.5000000000082
 20
5032.8000000000102
 30
0.0
 40
12.5
 50
239.99999999998201
 51
59.999999999981952
  0
LINE
  5
986E
  8
0
  6
PHANTOM2
 10
7163.2500000000082
 20
5021.9746824527028
 30
0.0
 11
7139.0000000000073
 21
5035.9754264805506
 31
0.0
  0
LINE
  5
986F
  8
0
  6
PHANTOM2
 10
7175.7500000000073
 20
5043.6253175473103
 30
0.0
 11
7161.0000000000073
 21
5052.1412340178586
 31
0.0
  0
ARC
  5
9870
  8
0
  6
PHANTOM2
 10
7163.5000000000073
 20
5056.4713610367844
 30
0.0
 40
5.0
 50
191.20221111558769
 51
239.99999999998201
  0
LINE
  5
9871
  8
0
  6
PHANTOM2
 10
7136.5000000000082
 20
5055.5000000000064
 30
0.0
 11
7136.5000000000082
 21
5040.3055534994719
 31
0.0
  0
ARC
  5
9872
  8
0
  6
PHANTOM2
 10
7141.5000000000073
 20
5040.3055534994719
 30
0.0
 40
5.0
 50
180.0
 51
239.99999999998201
  0
LINE
  5
9873
  8
0
  6
PHANTOM2
 10
7204.9000000000087
 20
5120.5000000000437
 30
0.0
 11
7204.9000000000087
 21
5151.1110695100861
 31
0.0
  0
LINE
  5
9874
  8
0
  6
PHANTOM2
 10
7203.7000000000044
 20
5120.5000000000437
 30
0.0
 11
7203.7000000000044
 21
5150.5000000000418
 31
0.0
  0
LINE
  5
9875
  8
0
  6
PHANTOM2
 10
7204.9000000000087
 20
5120.5000000000437
 30
0.0
 11
7203.7000000000044
 21
5120.5000000000437
 31
0.0
  0
LINE
  5
9876
  8
0
  6
PHANTOM2
 10
7148.7000000000053
 20
5190.5000000000418
 30
0.0
 11
7203.7000000000044
 21
5150.5000000000418
 31
0.0
  0
LINE
  5
9877
  8
0
  6
PHANTOM2
 10
7148.7000000000053
 20
5190.5000000000418
 30
0.0
 11
7070.7000000000053
 21
5190.5000000000418
 31
0.0
  0
LINE
  5
9878
  8
0
  6
PHANTOM2
 10
7071.9000000000096
 20
5191.7000000000389
 30
0.0
 11
7071.9000000000096
 21
5224.6040862788577
 31
0.0
  0
LINE
  5
9879
  8
0
  6
PHANTOM2
 10
7149.0902205763186
 20
5191.7000000000389
 30
0.0
 11
7071.9000000000096
 21
5191.7000000000389
 31
0.0
  0
LINE
  5
987A
  8
0
  6
PHANTOM2
 10
7149.0902205763186
 20
5191.7000000000389
 30
0.0
 11
7204.9000000000087
 21
5151.1110695100861
 31
0.0
  0
LINE
  5
987B
  8
0
  6
PHANTOM2
 10
7068.9000000000087
 20
5234.5000000000437
 30
0.0
 11
7070.7000000000053
 21
5224.4969790327668
 31
0.0
  0
LINE
  5
987C
  8
0
  6
PHANTOM2
 10
7070.0810311808236
 20
5234.7125214105599
 30
0.0
 11
7071.9000000000096
 21
5224.6040862788577
 31
0.0
  0
LINE
  5
987D
  8
0
  6
PHANTOM2
 10
7070.0810311808236
 20
5234.7125214105599
 30
0.0
 11
7068.9000000000087
 21
5234.5000000000437
 31
0.0
  0
LINE
  5
987E
  8
0
  6
PHANTOM2
 10
7070.7000000000053
 20
5190.5000000000373
 30
0.0
 11
7070.7000000000053
 21
5150.5000000000082
 31
0.0
  0
LINE
  5
987F
  8
0
  6
PHANTOM2
 10
7070.7000000000053
 20
5222.5000000000073
 30
0.0
 11
7070.7000000000053
 21
5224.4969790327668
 31
0.0
  0
LINE
  5
9880
  8
0
  6
PHANTOM2
 10
7067.5000000000064
 20
5222.5000000000073
 30
0.0
 11
7067.5000000000064
 21
5033.0000000000082
 31
0.0
  0
ENDSEC
  0
EOF
