  0
SECTION
  2
HEADER
  9
$ACADVER
  1
AC1009
  9
$INSBASE
 10
0.0
 20
0.0
 30
0.0
  9
$EXTMIN
 10
-0.4998397926137841
 20
-0.3584016095373954
 30
-0.0015258207003583
  9
$EXTMAX
 10
16380.499916067931
 20
11745.35845630145
 30
0.0000000349246037
  9
$LIMMIN
 10
0.0
 20
0.0
  9
$LIMMAX
 10
420.0
 20
297.0
  9
$ORTHOMODE
 70
     0
  9
$REGENMODE
 70
     1
  9
$FILLMODE
 70
     1
  9
$QTEXTMODE
 70
     0
  9
$MIRRTEXT
 70
     1
  9
$DRAGMODE
 70
     2
  9
$LTSCALE
 40
7.5
  9
$OSMODE
 70
  3071
  9
$ATTMODE
 70
     1
  9
$TEXTSIZE
 40
105.0
  9
$TRACEWID
 40
1.0
  9
$TEXTSTYLE
  7
文字
  9
$CLAYER
  8
0
  9
$CELTYPE
  6
BYLAYER
  9
$CECOLOR
 62
   256
  9
$DIMSCALE
 40
30.0
  9
$DIMASZ
 40
2.0
  9
$DIMEXO
 40
5.0
  9
$DIMDLI
 40
7.5
  9
$DIMRND
 40
0.0
  9
$DIMDLE
 40
0.0
  9
$DIMEXE
 40
1.0
  9
$DIMTP
 40
0.0
  9
$DIMTM
 40
0.0
  9
$DIMTXT
 40
3.5
  9
$DIMCEN
 40
1.0
  9
$DIMTSZ
 40
0.0
  9
$DIMTOL
 70
     0
  9
$DIMLIM
 70
     0
  9
$DIMTIH
 70
     0
  9
$DIMTOH
 70
     0
  9
$DIMSE1
 70
     0
  9
$DIMSE2
 70
     0
  9
$DIMTAD
 70
     1
  9
$DIMZIN
 70
     8
  9
$DIMBLK
  1
ORIGIN
  9
$DIMASO
 70
     1
  9
$DIMSHO
 70
     1
  9
$DIMPOST
  1

  9
$DIMAPOST
  1

  9
$DIMALT
 70
     0
  9
$DIMALTD
 70
     3
  9
$DIMALTF
 40
0.03937007874016
  9
$DIMLFAC
 40
1.0
  9
$DIMTOFL
 70
     1
  9
$DIMTVP
 40
0.0
  9
$DIMTIX
 70
     1
  9
$DIMSOXD
 70
     0
  9
$DIMSAH
 70
     0
  9
$DIMBLK1
  1

  9
$DIMBLK2
  1

  9
$DIMSTYLE
  2
寸法線30
  9
$DIMCLRD
 70
   256
  9
$DIMCLRE
 70
   256
  9
$DIMCLRT
 70
   256
  9
$DIMTFAC
 40
1.0
  9
$DIMGAP
 40
1.0
  9
$LUNITS
 70
     2
  9
$LUPREC
 70
     4
  9
$SKETCHINC
 40
1.0
  9
$FILLETRAD
 40
0.0
  9
$AUNITS
 70
     0
  9
$AUPREC
 70
     0
  9
$MENU
  1
.
  9
$ELEVATION
 40
0.0
  9
$PELEVATION
 40
0.0
  9
$THICKNESS
 40
0.0
  9
$LIMCHECK
 70
     0
  9
$BLIPMODE
 70
     0
  9
$CHAMFERA
 40
10.0
  9
$CHAMFERB
 40
10.0
  9
$SKPOLY
 70
     0
  9
$TDCREATE
 40
2452654.657629028
  9
$TDUPDATE
 40
2456778.705758079
  9
$TDINDWG
 40
0.8001751852
  9
$TDUSRTIMER
 40
0.8001733796
  9
$USRTIMER
 70
     1
  9
$ANGBASE
 50
0.0
  9
$ANGDIR
 70
     0
  9
$PDMODE
 70
     0
  9
$PDSIZE
 40
0.0
  9
$PLINEWID
 40
0.0
  9
$COORDS
 70
     2
  9
$SPLFRAME
 70
     0
  9
$SPLINETYPE
 70
     6
  9
$SPLINESEGS
 70
     8
  9
$ATTDIA
 70
     0
  9
$ATTREQ
 70
     1
  9
$HANDLING
 70
     1
  9
$HANDSEED
  5
8E9D
  9
$SURFTAB1
 70
     6
  9
$SURFTAB2
 70
     6
  9
$SURFTYPE
 70
     6
  9
$SURFU
 70
     6
  9
$SURFV
 70
     6
  9
$UCSNAME
  2

  9
$UCSORG
 10
0.0
 20
0.0
 30
0.0
  9
$UCSXDIR
 10
1.0
 20
0.0
 30
0.0
  9
$UCSYDIR
 10
0.0
 20
1.0
 30
0.0
  9
$PUCSNAME
  2

  9
$PUCSORG
 10
0.0
 20
0.0
 30
0.0
  9
$PUCSXDIR
 10
1.0
 20
0.0
 30
0.0
  9
$PUCSYDIR
 10
0.0
 20
1.0
 30
0.0
  9
$USERI1
 70
     0
  9
$USERI2
 70
     0
  9
$USERI3
 70
     0
  9
$USERI4
 70
     0
  9
$USERI5
 70
     0
  9
$USERR1
 40
0.0
  9
$USERR2
 40
0.0
  9
$USERR3
 40
0.0
  9
$USERR4
 40
0.0
  9
$USERR5
 40
0.0
  9
$WORLDVIEW
 70
     1
  9
$SHADEDGE
 70
     3
  9
$SHADEDIF
 70
    70
  9
$TILEMODE
 70
     1
  9
$MAXACTVP
 70
    64
  9
$PLIMCHECK
 70
     0
  9
$PEXTMIN
 10
1.0000000000000000E+020
 20
1.0000000000000000E+020
 30
1.0000000000000000E+020
  9
$PEXTMAX
 10
-1.0000000000000000E+020
 20
-1.0000000000000000E+020
 30
-1.0000000000000000E+020
  9
$PLIMMIN
 10
0.0
 20
0.0
  9
$PLIMMAX
 10
420.0
 20
297.0
  9
$UNITMODE
 70
     0
  9
$VISRETAIN
 70
     1
  9
$PLINEGEN
 70
     0
  9
$PSLTSCALE
 70
     1
  0
ENDSEC
  0
SECTION
  2
TABLES
  0
TABLE
  2
VPORT
 70
     1
  0
VPORT
  2
*ACTIVE
 70
     0
 10
0.0
 20
0.0
 11
1.0
 21
1.0
 12
8190.0000381376594
 22
5872.5000273459573
 13
0.0
 23
0.0
 14
10.0
 24
10.0
 15
10.0
 25
10.0
 16
0.0
 26
0.0
 36
1.0
 17
0.0
 27
0.0
 37
0.0
 40
11826.443434254021
 41
1.7981651376146781
 42
50.0
 43
0.0
 44
0.0
 50
0.0
 51
0.0
 71
     0
 72
   100
 73
     1
 74
     3
 75
     0
 76
     0
 77
     0
 78
     0
  0
ENDTAB
  0
TABLE
  2
LTYPE
 70
     4
  0
LTYPE
  2
CONTINUOUS
 70
     0
  3
Solid line
 72
    65
 73
     0
 40
0.0
  0
LTYPE
  2
HIDDEN
 70
     0
  3
Hidden __ __ __ __ __ __ __ __ __ __ __ __ __ _
 72
    65
 73
     2
 40
9.5249999999999986
 49
6.3499999999999979
 49
-3.174999999999998
  0
LTYPE
  2
CENTER2
 70
     0
  3
Center (.5x) ___ _ ___ _ ___ _ ___ _ ___ _ ___
 72
    65
 73
     4
 40
28.574999999999999
 49
19.050000000000001
 49
-3.174999999999998
 49
3.174999999999998
 49
-3.174999999999998
  0
LTYPE
  2
PHANTOM2
 70
     0
  3
Phantom (.5x) ___ _ _ ___ _ _ ___ _ _ ___ _ _
 72
    65
 73
     6
 40
31.75
 49
15.875
 49
-3.174999999999998
 49
3.174999999999998
 49
-3.174999999999998
 49
3.174999999999998
 49
-3.174999999999998
  0
ENDTAB
  0
TABLE
  2
LAYER
 70
     2
  0
LAYER
  2
0
 70
     0
 62
     7
  6
CONTINUOUS
  0
LAYER
  2
DEFPOINTS
 70
     0
 62
     7
  6
CONTINUOUS
  0
ENDTAB
  0
TABLE
  2
STYLE
 70
     4
  0
STYLE
  2
STANDARD
 70
     0
 40
0.0
 41
1.0
 50
0.0
 71
     0
 42
105.0
  3
romans.shx
  4
bigfont.shx
  0
STYLE
  2
文字
 70
     0
 40
0.0
 41
0.8
 50
0.0
 71
     0
 42
105.0
  3
romans.shx
  4
extfont.shx
  0
STYLE
  2
横文字
 70
     0
 40
0.0
 41
0.8
 50
0.0
 71
     0
 42
105.0
  3
romans.shx
  4
extfont.shx
  0
ENDTAB
  0
TABLE
  2
VIEW
 70
     0
  0
ENDTAB
  0
TABLE
  2
UCS
 70
     0
  0
ENDTAB
  0
TABLE
  2
APPID
 70
    81
  0
APPID
  2
ACAD
 70
     0
  0
APPID
  2
ACADANNOTATIVE
 70
     0
  0
APPID
  2
ADE
 70
     0
  0
APPID
  2
DCO15
 70
     0
  0
APPID
  2
SETH_MM
 70
     0
  0
APPID
  2
ACAD_PSEXT
 70
     0
  0
APPID
  2
ACAD_EXEMPT_FROM_CAD_STANDARDS
 70
     0
  0
APPID
  2
ACAD_MLEADERVER
 70
     0
  0
APPID
  2
AUTOESSSHUTTERLINE1
 70
     0
  0
APPID
  2
AUTOESSSHUTTERLINE2
 70
     0
  0
APPID
  2
AUTOESSSHUTTERPT
 70
     0
  0
APPID
  2
MAKICIRCLE
 70
     0
  0
APPID
  2
ACAD_DSTYLE_DIMJAG
 70
     0
  0
APPID
  2
ACAD_DSTYLE_DIMTALN
 70
     0
  0
APPID
  2
SETW_MM
 70
     0
  0
APPID
  2
PARADIMLINE
 70
     0
  0
APPID
  2
PARABASEPT
 70
     0
  0
APPID
  2
MIRRORCHK_L
 70
     0
  0
APPID
  2
MIRRORCHK_R
 70
     0
  0
APPID
  2
LINKSPLIT1
 70
     0
  0
APPID
  2
LINKSPLIT2
 70
     0
  0
APPID
  2
LINKSPLIT3
 70
     0
  0
APPID
  2
LINKSPLIT4
 70
     0
  0
APPID
  2
TBANLLINE
 70
     0
  0
APPID
  2
TBANRLINE
 70
     0
  0
APPID
  2
TBANHLINE
 70
     0
  0
APPID
  2
ARCLINEA1
 70
     0
  0
APPID
  2
ARCLINEA2
 70
     0
  0
APPID
  2
ARCLINEB1
 70
     0
  0
APPID
  2
ARCLINEB2
 70
     0
  0
APPID
  2
ODPDW
 70
     0
  0
APPID
  2
ODPDH
 70
     0
  0
APPID
  2
ODWLINE1
 70
     0
  0
APPID
  2
ODWLINE2
 70
     0
  0
APPID
  2
ODSY
 70
     0
  0
APPID
  2
EDWDW
 70
     0
  0
APPID
  2
EDWDH
 70
     0
  0
APPID
  2
LINKSPLIT11
 70
     0
  0
APPID
  2
LINKSPLIT12
 70
     0
  0
APPID
  2
LINKSPLIT13
 70
     0
  0
APPID
  2
LINKSPLIT14
 70
     0
  0
APPID
  2
AUTOESSDOORPTH1
 70
     0
  0
APPID
  2
AUTOESSDOORPTH2
 70
     0
  0
APPID
  2
AUTOESSDOORPTV1
 70
     0
  0
APPID
  2
AUTOESSDOORPTV2
 70
     0
  0
APPID
  2
TBANPT1
 70
     0
  0
APPID
  2
TBANPT2
 70
     0
  0
APPID
  2
SETDH_MM
 70
     0
  0
APPID
  2
SETV1_MM
 70
     0
  0
APPID
  2
SETV2_MM
 70
     0
  0
APPID
  2
KAIKOUDIM
 70
     0
  0
APPID
  2
TBANK
 70
     0
  0
APPID
  2
TBANR
 70
     0
  0
APPID
  2
TBANO
 70
     0
  0
APPID
  2
TBANHATA1
 70
     0
  0
APPID
  2
TBANHATA2
 70
     0
  0
APPID
  2
TBANMEN
 70
     0
  0
APPID
  2
TBANW
 70
     0
  0
APPID
  2
TBANH
 70
     0
  0
APPID
  2
ARCLINEA3
 70
     0
  0
APPID
  2
ARCLINEB3
 70
     0
  0
APPID
  2
WORKNAME_UE
 70
     0
  0
APPID
  2
WORKNAME
 70
     0
  0
APPID
  2
SD1
 70
     0
  0
APPID
  2
SD2
 70
     0
  0
APPID
  2
DELETEOBJ
 70
     0
  0
APPID
  2
TBANTEXT
 70
     0
  0
APPID
  2
MAKITEXT
 70
     0
  0
APPID
  2
N_01
 70
     0
  0
APPID
  2
N_02
 70
     0
  0
APPID
  2
N_03
 70
     0
  0
APPID
  2
N_04
 70
     0
  0
APPID
  2
N_05
 70
     0
  0
APPID
  2
N_06
 70
     0
  0
APPID
  2
N_07
 70
     0
  0
APPID
  2
N_08
 70
     0
  0
APPID
  2
N_09
 70
     0
  0
APPID
  2
N_10
 70
     0
  0
APPID
  2
N_11
 70
     0
  0
APPID
  2
N_12
 70
     0
  0
APPID
  2
N_13
 70
     0
  0
ENDTAB
  0
TABLE
  2
DIMSTYLE
 70
     3
  0
DIMSTYLE
  2
STANDARD
 70
     0
  3

  4

  5

  6

  7

 40
30.0
 41
1.0
 42
5.0
 43
7.5
 44
1.0
 45
0.0
 46
0.0
 47
0.0
 48
0.0
140
3.5
141
2.5
142
0.0
143
25.399999999999999
144
1.0
145
0.0
146
1.0
147
1.0
 71
     0
 72
     0
 73
     0
 74
     0
 75
     0
 76
     0
 77
     1
 78
     8
170
     0
171
     2
172
     1
173
     0
174
     1
175
     0
176
     0
177
     0
178
     0
  0
DIMSTYLE
  2
寸法線30
 70
     0
  3

  4

  5

  6

  7

 40
30.0
 41
2.0
 42
5.0
 43
7.5
 44
1.0
 45
0.0
 46
0.0
 47
0.0
 48
0.0
140
3.5
141
1.0
142
0.0
143
0.03937007874016
144
1.0
145
0.0
146
1.0
147
1.0
 71
     0
 72
     0
 73
     0
 74
     0
 75
     0
 76
     0
 77
     1
 78
     8
170
     0
171
     3
172
     1
173
     0
174
     1
175
     0
176
   256
177
   256
178
   256
  0
ENDTAB
  0
ENDSEC
  0
SECTION
  2
BLOCKS
  0
BLOCK
  8
0
  2
$MODEL_SPACE
 70
     0
 10
0.0
 20
0.0
 30
0.0
  3
$MODEL_SPACE
  1

  0
ENDBLK
  5
8D91
  8
0
  0
BLOCK
 67
     1
  8
0
  2
$PAPER_SPACE
 70
     0
 10
0.0
 20
0.0
 30
0.0
  3
$PAPER_SPACE
  1

  0
ENDBLK
  5
8D8D
 67
     1
  8
0
  0
BLOCK
  8
0
  2
_ORIGIN
 70
     0
 10
0.0
 20
0.0
 30
0.0
  3
_ORIGIN
  1

  0
CIRCLE
  5
A7
  8
0
  6
BYBLOCK
 62
     0
 10
0.0
 20
0.0
 30
0.0
 40
0.5
  0
LINE
  5
A8
  8
0
  6
BYBLOCK
 62
     0
 10
0.0
 20
0.0
 30
0.0
 11
-1.0
 21
0.0
 31
0.0
  0
ENDBLK
  5
AA
  8
0
  0
BLOCK
  8
0
  2
_OPEN30
 70
     0
 10
0.0
 20
0.0
 30
0.0
  3
_OPEN30
  1

  0
LINE
  5
AC
  8
0
  6
BYBLOCK
 62
     0
 10
-1.0
 20
0.26794919
 30
0.0
 11
0.0
 21
0.0
 31
0.0
  0
LINE
  5
AD
  8
0
  6
BYBLOCK
 62
     0
 10
0.0
 20
0.0
 30
0.0
 11
-1.0
 21
-0.26794919
 31
0.0
  0
LINE
  5
AE
  8
0
  6
BYBLOCK
 62
     0
 10
0.0
 20
0.0
 30
0.0
 11
-1.0
 21
0.0
 31
0.0
  0
ENDBLK
  5
B0
  8
0
  0
BLOCK
  8
0
  2
*D4
 70
     1
 10
0.0
 20
0.0
 30
0.0
  3
*D4
  1

  0
LINE
  5
8BAC
  8
0
 10
4750.0
 20
3500.0000000000291
 30
0.0
 11
4750.0
 21
4030.0000000000282
 31
0.0
  0
LINE
  5
8BAD
  8
0
 10
9250.0
 20
3500.0000000000291
 30
0.0
 11
9250.0
 21
4030.0000000000282
 31
0.0
  0
LINE
  5
8BAE
  8
0
 10
4780.0
 20
4000.0000000000291
 30
0.0
 11
9220.0
 21
4000.0000000000291
 31
0.0
  0
INSERT
  5
8BAF
  8
0
  2
_ORIGIN
 10
4750.0
 20
4000.0000000000291
 30
0.0
 41
30.0
 42
30.0
 43
30.0
 50
180.0
  0
INSERT
  5
8BB0
  8
0
  2
_ORIGIN
 10
9250.0
 20
4000.0000000000291
 30
0.0
 41
30.0
 42
30.0
 43
30.0
  0
INSERT
  5
8BB1
  8
0
  2
*U5
 10
0.0
 20
0.0
 30
0.0
  0
POINT
  5
8BB2
  8
DEFPOINTS
 62
     0
 10
4750.0
 20
3350.0000000000291
 30
0.0
  0
POINT
  5
8BB3
  8
DEFPOINTS
 62
     0
 10
9250.0
 20
3350.0000000000291
 30
0.0
  0
POINT
  5
8BB4
  8
DEFPOINTS
 62
     0
 10
9250.0
 20
4000.0000000000291
 30
0.0
  0
ENDBLK
  5
8AFA
  8
0
  0
BLOCK
  8
0
  2
*U5
 70
     1
 10
0.0
 20
0.0
 30
0.0
  3
*U5
  1

  0
TEXT
  5
8CEE
  8
0
 10
6952.0
 20
4030.0000000000282
 30
0.0
 40
105.0
  1
W
 41
0.8
  7
文字
  0
ENDBLK
  5
8CF0
  8
0
  0
BLOCK
  8
0
  2
*D6
 70
     1
 10
0.0
 20
0.0
 30
0.0
  3
*D6
  1

  0
LINE
  5
8BB5
  8
0
 10
6500.0
 20
8800.0
 30
0.0
 11
5495.0
 21
8800.0
 31
0.0
  0
LINE
  5
8BB6
  8
0
 10
5525.0
 20
6000.0
 30
0.0
 11
5495.0
 21
6000.0
 31
0.0
  0
LINE
  5
8BB7
  8
0
 10
5525.0000000000009
 20
8770.0
 30
0.0
 11
5525.0
 21
6030.0
 31
0.0
  0
INSERT
  5
8BB8
  8
0
  2
_ORIGIN
 10
5525.0000000000009
 20
8800.0
 30
0.0
 41
30.0
 42
30.0
 43
30.0
 50
90.0
  0
INSERT
  5
8BB9
  8
0
  2
_ORIGIN
 10
5525.0
 20
6000.0
 30
0.0
 41
30.0
 42
30.0
 43
30.0
 50
270.0
  0
INSERT
  5
8BBA
  8
0
  2
*U7
 10
0.0
 20
0.0
 30
0.0
  0
POINT
  5
8BBB
  8
DEFPOINTS
 62
     0
 10
6650.0
 20
8800.0
 30
0.0
  0
POINT
  5
8BBC
  8
DEFPOINTS
 62
     0
 10
5675.0
 20
6000.0
 30
0.0
  0
POINT
  5
8BBD
  8
DEFPOINTS
 62
     0
 10
5525.0
 20
6000.0
 30
0.0
  0
ENDBLK
  5
8B06
  8
0
  0
BLOCK
  8
0
  2
*U7
 70
     1
 10
0.0
 20
0.0
 30
0.0
  3
*U7
  1

  0
TEXT
  5
8CF2
  8
0
 10
5494.9999999999991
 20
7356.0000000000027
 30
0.0
 40
105.0
  1
H
 50
90.0
 41
0.8
  7
文字
  0
ENDBLK
  5
8CF4
  8
0
  0
BLOCK
  8
0
  2
*D8
 70
     1
 10
0.0
 20
0.0
 30
0.0
  3
*D8
  1

  0
LINE
  5
8BBE
  8
0
 10
6500.0
 20
8800.0
 30
0.0
 11
5495.0
 21
8800.0
 31
0.0
  0
LINE
  5
8BBF
  8
0
 10
6500.0
 20
9450.0
 30
0.0
 11
5495.0
 21
9450.0
 31
0.0
  0
LINE
  5
8BC0
  8
0
 10
5525.0
 20
8770.0
 30
0.0
 11
5525.0
 21
8740.0
 31
0.0
  0
LINE
  5
8BC1
  8
0
 10
5525.0
 20
9480.0
 30
0.0
 11
5525.0
 21
9510.0
 31
0.0
  0
LINE
  5
8BC2
  8
0
 10
5525.0
 20
8800.0
 30
0.0
 11
5525.0
 21
9450.0
 31
0.0
  0
INSERT
  5
8BC3
  8
0
  2
_ORIGIN
 10
5525.0
 20
8800.0
 30
0.0
 41
30.0
 42
30.0
 43
30.0
 50
90.0
  0
INSERT
  5
8BC4
  8
0
  2
_ORIGIN
 10
5525.0
 20
9450.0
 30
0.0
 41
30.0
 42
30.0
 43
30.0
 50
270.0
  0
INSERT
  5
8BC5
  8
0
  2
*U9
 10
0.0
 20
0.0
 30
0.0
  0
POINT
  5
8BC6
  8
DEFPOINTS
 62
     0
 10
6650.0
 20
8800.0
 30
0.0
  0
POINT
  5
8BC7
  8
DEFPOINTS
 62
     0
 10
6650.0
 20
9450.0
 30
0.0
  0
POINT
  5
8BC8
  8
DEFPOINTS
 62
     0
 10
5525.0
 20
9450.0
 30
0.0
  0
ENDBLK
  5
8B12
  8
0
  0
BLOCK
  8
0
  2
*U9
 70
     1
 10
0.0
 20
0.0
 30
0.0
  3
*U9
  1

  0
TEXT
  5
8CF6
  8
0
 10
5494.9999999999991
 20
8694.6000000000022
 30
0.0
 40
105.0
  1
HR=650～715
 50
90.0
 41
0.8
  7
文字
  0
ENDBLK
  5
8CF8
  8
0
  0
BLOCK
  8
0
  2
*D10
 70
     1
 10
0.0
 20
0.0
 30
0.0
  3
*D10
  1

  0
LINE
  5
8BC9
  8
0
 10
6500.0
 20
8800.0
 30
0.0
 11
5720.0
 21
8800.0
 31
0.0
  0
LINE
  5
8BCA
  8
0
 10
6500.0
 20
9230.0
 30
0.0
 11
5720.0
 21
9230.0
 31
0.0
  0
LINE
  5
8BCB
  8
0
 10
5750.0
 20
8830.0
 30
0.0
 11
5750.0
 21
9200.0
 31
0.0
  0
INSERT
  5
8BCC
  8
0
  2
_ORIGIN
 10
5750.0
 20
8800.0
 30
0.0
 41
30.0
 42
30.0
 43
30.0
 50
270.0
  0
INSERT
  5
8BCD
  8
0
  2
_ORIGIN
 10
5750.0
 20
9230.0
 30
0.0
 41
30.0
 42
30.0
 43
30.0
 50
90.0
  0
INSERT
  5
8BCE
  8
0
  2
*U11
 10
0.0
 20
0.0
 30
0.0
  0
POINT
  5
8BCF
  8
DEFPOINTS
 62
     0
 10
6650.0
 20
8800.0
 30
0.0
  0
POINT
  5
8BD0
  8
DEFPOINTS
 62
     0
 10
6650.0
 20
9230.0
 30
0.0
  0
POINT
  5
8BD1
  8
DEFPOINTS
 62
     0
 10
5750.0
 20
9230.0
 30
0.0
  0
ENDBLK
  5
8B20
  8
0
  0
BLOCK
  8
0
  2
*U11
 70
     1
 10
0.0
 20
0.0
 30
0.0
  3
*U11
  1

  0
TEXT
  5
8CFA
  8
0
 10
5719.9999999999973
 20
8895.0000000000018
 30
0.0
 40
105.0
  1
430
 50
90.0
 41
0.8
  7
文字
  0
ENDBLK
  5
8CFC
  8
0
  0
BLOCK
  8
0
  2
*D12
 70
     1
 10
0.0
 20
0.0
 30
0.0
  3
*D12
  1

  0
LINE
  5
8BD2
  8
0
 10
7400.0
 20
6020.0
 30
0.0
 11
8029.9999999999973
 21
6020.0
 31
0.0
  0
LINE
  5
8BD3
  8
0
 10
7400.0
 20
8840.0
 30
0.0
 11
8030.0
 21
8840.0
 31
0.0
  0
LINE
  5
8BD4
  8
0
 10
7999.9999999999973
 20
6050.0
 30
0.0
 11
8000.0
 21
8810.0
 31
0.0
  0
INSERT
  5
8BD5
  8
0
  2
_ORIGIN
 10
7999.9999999999973
 20
6020.0
 30
0.0
 41
30.0
 42
30.0
 43
30.0
 50
270.0
  0
INSERT
  5
8BD6
  8
0
  2
_ORIGIN
 10
8000.0
 20
8840.0
 30
0.0
 41
30.0
 42
30.0
 43
30.0
 50
90.0
  0
INSERT
  5
8BD7
  8
0
  2
*U13
 10
0.0
 20
0.0
 30
0.0
  0
POINT
  5
8BD8
  8
DEFPOINTS
 62
     0
 10
7250.0
 20
6020.0
 30
0.0
  0
POINT
  5
8BD9
  8
DEFPOINTS
 62
     0
 10
7250.0
 20
8840.0
 30
0.0
  0
POINT
  5
8BDA
  8
DEFPOINTS
 62
     0
 10
8000.0
 20
8840.0
 30
0.0
  0
ENDBLK
  5
8B2C
  8
0
  0
BLOCK
  8
0
  2
*U13
 70
     1
 10
0.0
 20
0.0
 30
0.0
  3
*U13
  1

  0
TEXT
  5
8CFE
  8
0
 10
7969.9999999999973
 20
7344.0000000000018
 30
0.0
 40
105.0
  1
DH
 50
90.0
 41
0.8
  7
文字
  0
ENDBLK
  5
8D00
  8
0
  0
BLOCK
  8
0
  2
*D14
 70
     1
 10
0.0
 20
0.0
 30
0.0
  3
*D14
  1

  0
LINE
  5
8BDB
  8
0
 10
10570.00958462708
 20
9208.5226044992596
 30
0.0
 11
10850.0
 21
9208.5226044992596
 31
0.0
  0
LINE
  5
8BDC
  8
0
 10
10570.0
 20
9450.0
 30
0.0
 11
10850.0
 21
9450.0
 31
0.0
  0
LINE
  5
8BDD
  8
0
 10
10820.0
 20
9178.5226044992596
 30
0.0
 11
10820.0
 21
9148.5226044992614
 31
0.0
  0
LINE
  5
8BDE
  8
0
 10
10820.0
 20
9480.0
 30
0.0
 11
10820.0
 21
9510.0
 31
0.0
  0
LINE
  5
8BDF
  8
0
 10
10820.0
 20
9208.5226044992596
 30
0.0
 11
10820.0
 21
9450.0
 31
0.0
  0
INSERT
  5
8BE0
  8
0
  2
_ORIGIN
 10
10820.0
 20
9208.5226044992596
 30
0.0
 41
30.0
 42
30.0
 43
30.0
 50
90.0
  0
INSERT
  5
8BE1
  8
0
  2
_ORIGIN
 10
10820.0
 20
9450.0
 30
0.0
 41
30.0
 42
30.0
 43
30.0
 50
270.0
  0
INSERT
  5
8BE2
  8
0
  2
*U15
 10
0.0
 20
0.0
 30
0.0
  0
POINT
  5
8BE3
  8
DEFPOINTS
 62
     0
 10
10420.00958462708
 20
9208.5226044992596
 30
0.0
  0
POINT
  5
8BE4
  8
DEFPOINTS
 62
     0
 10
10420.0
 20
9450.0
 30
0.0
  0
POINT
  5
8BE5
  8
DEFPOINTS
 62
     0
 10
10820.0
 20
9450.0
 30
0.0
  0
ENDBLK
  5
8B38
  8
0
  0
BLOCK
  8
0
  2
*U15
 70
     1
 10
0.0
 20
0.0
 30
0.0
  3
*U15
  1

  0
TEXT
  5
8D02
  8
0
 10
10790.0
 20
9113.6613022496331
 30
0.0
 40
105.0
  1
200以上
 50
90.0
 41
0.8
  7
文字
  0
ENDBLK
  5
8D04
  8
0
  0
BLOCK
  8
0
  2
*D16
 70
     1
 10
0.0
 20
0.0
 30
0.0
  3
*D16
  1

  0
LINE
  5
8BE6
  8
0
 10
4725.0
 20
2600.0000000000291
 30
0.0
 11
4725.0
 21
2220.0000000000291
 31
0.0
  0
LINE
  5
8BE7
  8
0
 10
9275.0
 20
2600.0000000000291
 30
0.0
 11
9275.0
 21
2220.0000000000291
 31
0.0
  0
LINE
  5
8BE8
  8
0
 10
4755.0
 20
2250.0000000000291
 30
0.0
 11
9245.0
 21
2250.0000000000291
 31
0.0
  0
INSERT
  5
8BE9
  8
0
  2
_ORIGIN
 10
4725.0
 20
2250.0000000000291
 30
0.0
 41
30.0
 42
30.0
 43
30.0
 50
180.0
  0
INSERT
  5
8BEA
  8
0
  2
_ORIGIN
 10
9275.0
 20
2250.0000000000291
 30
0.0
 41
30.0
 42
30.0
 43
30.0
  0
INSERT
  5
8BEB
  8
0
  2
*U17
 10
0.0
 20
0.0
 30
0.0
  0
POINT
  5
8BEC
  8
DEFPOINTS
 62
     0
 10
4725.0
 20
2750.0000000000291
 30
0.0
  0
POINT
  5
8BED
  8
DEFPOINTS
 62
     0
 10
9275.0
 20
2750.0000000000291
 30
0.0
  0
POINT
  5
8BEE
  8
DEFPOINTS
 62
     0
 10
9275.0
 20
2250.0000000000291
 30
0.0
  0
ENDBLK
  5
8B46
  8
0
  0
BLOCK
  8
0
  2
*U17
 70
     1
 10
0.0
 20
0.0
 30
0.0
  3
*U17
  1

  0
TEXT
  5
8D06
  8
0
 10
6906.0
 20
2280.0000000000291
 30
0.0
 40
105.0
  1
DW
 41
0.8
  7
文字
  0
ENDBLK
  5
8D08
  8
0
  0
BLOCK
  8
0
  2
*D18
 70
     1
 10
0.0
 20
0.0
 30
0.0
  3
*D18
  1

  0
LINE
  5
8BEF
  8
0
 10
4750.0
 20
3500.0000000000291
 30
0.0
 11
4750.0
 21
3805.0000000000291
 31
0.0
  0
LINE
  5
8BF0
  8
0
 10
4600.0
 20
3500.0000000000291
 30
0.0
 11
4600.0
 21
3805.0000000000291
 31
0.0
  0
LINE
  5
8BF1
  8
0
 10
4780.0
 20
3775.0000000000291
 30
0.0
 11
4810.0
 21
3775.0000000000291
 31
0.0
  0
LINE
  5
8BF2
  8
0
 10
4570.0
 20
3775.0000000000291
 30
0.0
 11
4540.0
 21
3775.0000000000291
 31
0.0
  0
LINE
  5
8BF3
  8
0
 10
4750.0
 20
3775.0000000000291
 30
0.0
 11
4600.0
 21
3775.0000000000291
 31
0.0
  0
INSERT
  5
8BF4
  8
0
  2
_ORIGIN
 10
4750.0
 20
3775.0000000000291
 30
0.0
 41
30.0
 42
30.0
 43
30.0
 50
180.0
  0
INSERT
  5
8BF5
  8
0
  2
_ORIGIN
 10
4600.0
 20
3775.0000000000291
 30
0.0
 41
30.0
 42
30.0
 43
30.0
  0
INSERT
  5
8BF6
  8
0
  2
*U19
 10
0.0
 20
0.0
 30
0.0
  0
POINT
  5
8BF7
  8
DEFPOINTS
 62
     0
 10
4750.0
 20
3350.0000000000291
 30
0.0
  0
POINT
  5
8BF8
  8
DEFPOINTS
 62
     0
 10
4600.0
 20
3350.0000000000291
 30
0.0
  0
POINT
  5
8BF9
  8
DEFPOINTS
 62
     0
 10
4600.0
 20
3775.0000000000291
 30
0.0
  0
ENDBLK
  5
8B52
  8
0
  0
BLOCK
  8
0
  2
*U19
 70
     1
 10
0.0
 20
0.0
 30
0.0
  3
*U19
  1

  0
TEXT
  5
8D0A
  8
0
 10
4453.3999999999996
 20
3805.0000000000291
 30
0.0
 40
105.0
  1
150以上
 41
0.8
  7
文字
  0
ENDBLK
  5
8D0C
  8
0
  0
BLOCK
  8
0
  2
*D20
 70
     1
 10
0.0
 20
0.0
 30
0.0
  3
*D20
  1

  0
LINE
  5
8BFA
  8
0
 10
9250.0
 20
3500.0000000000291
 30
0.0
 11
9250.0
 21
3805.0000000000291
 31
0.0
  0
LINE
  5
8BFB
  8
0
 10
9650.0
 20
3500.0000000000291
 30
0.0
 11
9650.0
 21
3805.0000000000291
 31
0.0
  0
LINE
  5
8BFC
  8
0
 10
9220.0
 20
3775.0000000000291
 30
0.0
 11
9190.0
 21
3775.0000000000291
 31
0.0
  0
LINE
  5
8BFD
  8
0
 10
9680.0
 20
3775.0000000000291
 30
0.0
 11
9710.0
 21
3775.0000000000291
 31
0.0
  0
LINE
  5
8BFE
  8
0
 10
9250.0
 20
3775.0000000000291
 30
0.0
 11
9650.0
 21
3775.0000000000291
 31
0.0
  0
INSERT
  5
8BFF
  8
0
  2
_ORIGIN
 10
9250.0
 20
3775.0000000000291
 30
0.0
 41
30.0
 42
30.0
 43
30.0
  0
INSERT
  5
8C00
  8
0
  2
_ORIGIN
 10
9650.0
 20
3775.0000000000291
 30
0.0
 41
30.0
 42
30.0
 43
30.0
 50
180.0
  0
INSERT
  5
8C01
  8
0
  2
*U21
 10
0.0
 20
0.0
 30
0.0
  0
POINT
  5
8C02
  8
DEFPOINTS
 62
     0
 10
9250.0
 20
3350.0000000000291
 30
0.0
  0
POINT
  5
8C03
  8
DEFPOINTS
 62
     0
 10
9650.0
 20
3350.0000000000291
 30
0.0
  0
POINT
  5
8C04
  8
DEFPOINTS
 62
     0
 10
9650.0
 20
3775.0000000000291
 30
0.0
  0
ENDBLK
  5
8B60
  8
0
  0
BLOCK
  8
0
  2
*U21
 70
     1
 10
0.0
 20
0.0
 30
0.0
  3
*U21
  1

  0
TEXT
  5
8D0E
  8
0
 10
9234.3999999999996
 20
3805.0000000000291
 30
0.0
 40
105.0
  1
400以上
 41
0.8
  7
文字
  0
ENDBLK
  5
8D10
  8
0
  0
BLOCK
  8
0
  2
*D22
 70
     1
 10
0.0
 20
0.0
 30
0.0
  3
*D22
  1

  0
LINE
  5
8C05
  8
0
 10
7000.0
 20
10250.00000000004
 30
0.0
 11
7000.0
 21
10280.00000000004
 31
0.0
  0
LINE
  5
8C06
  8
0
 10
10420.0
 20
9800.0000000000455
 30
0.0
 11
10420.0
 21
10280.00000000004
 31
0.0
  0
LINE
  5
8C07
  8
0
 10
7030.0
 20
10250.00000000004
 30
0.0
 11
10390.0
 21
10250.00000000004
 31
0.0
  0
INSERT
  5
8C08
  8
0
  2
_ORIGIN
 10
7000.0
 20
10250.00000000004
 30
0.0
 41
30.0
 42
30.0
 43
30.0
 50
180.0
  0
INSERT
  5
8C09
  8
0
  2
_ORIGIN
 10
10420.0
 20
10250.00000000004
 30
0.0
 41
30.0
 42
30.0
 43
30.0
  0
INSERT
  5
8C0A
  8
0
  2
*U23
 10
0.0
 20
0.0
 30
0.0
  0
POINT
  5
8C0B
  8
DEFPOINTS
 62
     0
 10
7000.0
 20
10100.00000000004
 30
0.0
  0
POINT
  5
8C0C
  8
DEFPOINTS
 62
     0
 10
10420.0
 20
9650.0000000000437
 30
0.0
  0
POINT
  5
8C0D
  8
DEFPOINTS
 62
     0
 10
10420.0
 20
10250.00000000004
 30
0.0
  0
ENDBLK
  5
8B6E
  8
0
  0
BLOCK
  8
0
  2
*U23
 70
     1
 10
0.0
 20
0.0
 30
0.0
  3
*U23
  1

  0
TEXT
  5
8D12
  8
0
 10
8450.0
 20
10280.00000000004
 30
0.0
 40
105.0
  1
DH+600
 41
0.8
  7
文字
  0
ENDBLK
  5
8D14
  8
0
  0
BLOCK
  8
0
  2
*D24
 70
     1
 10
0.0
 20
0.0
 30
0.0
  3
*D24
  1

  0
LINE
  5
8C0E
  8
0
 10
7000.0
 20
10025.00000000004
 30
0.0
 11
7000.0
 21
10055.00000000004
 31
0.0
  0
LINE
  5
8C0F
  8
0
 10
7110.0
 20
9800.0000000000455
 30
0.0
 11
7110.0
 21
10055.00000000004
 31
0.0
  0
LINE
  5
8C10
  8
0
 10
6970.0
 20
10025.00000000004
 30
0.0
 11
6940.0
 21
10025.00000000004
 31
0.0
  0
LINE
  5
8C11
  8
0
 10
7140.0
 20
10025.00000000004
 30
0.0
 11
7170.0
 21
10025.00000000004
 31
0.0
  0
LINE
  5
8C12
  8
0
 10
7000.0
 20
10025.00000000004
 30
0.0
 11
7110.0
 21
10025.00000000004
 31
0.0
  0
INSERT
  5
8C13
  8
0
  2
_ORIGIN
 10
7000.0
 20
10025.00000000004
 30
0.0
 41
30.0
 42
30.0
 43
30.0
  0
INSERT
  5
8C14
  8
0
  2
_ORIGIN
 10
7110.0
 20
10025.00000000004
 30
0.0
 41
30.0
 42
30.0
 43
30.0
 50
180.0
  0
INSERT
  5
8C15
  8
0
  2
*U25
 10
0.0
 20
0.0
 30
0.0
  0
POINT
  5
8C16
  8
DEFPOINTS
 62
     0
 10
7000.0
 20
9875.0000000000437
 30
0.0
  0
POINT
  5
8C17
  8
DEFPOINTS
 62
     0
 10
7110.0
 20
9650.0000000000437
 30
0.0
  0
POINT
  5
8C18
  8
DEFPOINTS
 62
     0
 10
7110.0
 20
10025.00000000004
 30
0.0
  0
ENDBLK
  5
8B7A
  8
0
  0
BLOCK
  8
0
  2
*U25
 70
     1
 10
0.0
 20
0.0
 30
0.0
  3
*U25
  1

  0
TEXT
  5
8D16
  8
0
 10
6929.0
 20
10055.00000000004
 30
0.0
 40
105.0
  1
110
 41
0.8
  7
文字
  0
ENDBLK
  5
8D18
  8
0
  0
BLOCK
  8
0
  2
*D26
 70
     1
 10
0.0
 20
0.0
 30
0.0
  3
*D26
  1

  0
LINE
  5
8C19
  8
0
 10
4273.0
 20
3000.0000000000441
 30
0.0
 11
4293.0
 21
3000.0000000000441
 31
0.0
  0
LINE
  5
8C1A
  8
0
 10
4573.0
 20
2750.0000000000068
 30
0.0
 11
4293.0
 21
2750.0000000000068
 31
0.0
  0
LINE
  5
8C1B
  8
0
 10
4323.0
 20
2970.000000000045
 30
0.0
 11
4323.0
 21
2780.0000000000068
 31
0.0
  0
INSERT
  5
8C1C
  8
0
  2
*U27
 10
0.0
 20
0.0
 30
0.0
  0
INSERT
  5
8C1D
  8
0
  2
_ORIGIN
 10
4323.0
 20
3000.0000000000441
 30
0.0
 41
30.0
 42
30.0
 43
30.0
 50
90.0
  0
INSERT
  5
8C1E
  8
0
  2
_ORIGIN
 10
4323.0
 20
2750.0000000000068
 30
0.0
 41
30.0
 42
30.0
 43
30.0
 50
270.0
  0
POINT
  5
8C1F
  8
DEFPOINTS
 62
     0
 10
4423.0
 20
3000.0000000000441
 30
0.0
  0
POINT
  5
8C20
  8
DEFPOINTS
 62
     0
 10
4723.0
 20
2750.0000000000068
 30
0.0
  0
POINT
  5
8C21
  8
DEFPOINTS
 62
     0
 10
4323.0
 20
2750.0000000000068
 30
0.0
  0
ENDBLK
  5
8B88
  8
0
  0
BLOCK
  8
0
  2
*U27
 70
     1
 10
0.0
 20
0.0
 30
0.0
  3
*U27
  1

  0
TEXT
  5
8D1A
  8
0
 10
4293.0
 20
2747.5000000000441
 30
0.0
 40
105.0
  1
250
 50
90.0
 41
0.8
  7
文字
  0
ENDBLK
  5
8D1C
  8
0
  0
BLOCK
  8
0
  2
*D28
 70
     1
 10
0.0
 20
0.0
 30
0.0
  3
*D28
  1

  0
LINE
  5
8C22
  8
0
 10
6500.0
 20
8800.0
 30
0.0
 11
5720.0
 21
8800.0
 31
0.0
  0
LINE
  5
8C23
  8
0
 10
6500.0
 20
8700.0
 30
0.0
 11
5720.0
 21
8700.0
 31
0.0
  0
LINE
  5
8C24
  8
0
 10
5750.0
 20
8830.0
 30
0.0
 11
5750.0
 21
8860.0
 31
0.0
  0
LINE
  5
8C25
  8
0
 10
5750.0
 20
8670.0
 30
0.0
 11
5750.0
 21
8640.0
 31
0.0
  0
LINE
  5
8C26
  8
0
 10
5750.0
 20
8800.0
 30
0.0
 11
5750.0
 21
8700.0
 31
0.0
  0
INSERT
  5
8C27
  8
0
  2
_ORIGIN
 10
5750.0
 20
8800.0
 30
0.0
 41
30.0
 42
30.0
 43
30.0
 50
270.0
  0
INSERT
  5
8C28
  8
0
  2
_ORIGIN
 10
5750.0
 20
8700.0
 30
0.0
 41
30.0
 42
30.0
 43
30.0
 50
90.0
  0
INSERT
  5
8C29
  8
0
  2
*U29
 10
0.0
 20
0.0
 30
0.0
  0
POINT
  5
8C2A
  8
DEFPOINTS
 62
     0
 10
6650.0
 20
8800.0
 30
0.0
  0
POINT
  5
8C2B
  8
DEFPOINTS
 62
     0
 10
6650.0
 20
8700.0
 30
0.0
  0
POINT
  5
8C2C
  8
DEFPOINTS
 62
     0
 10
5750.0
 20
8700.0
 30
0.0
  0
ENDBLK
  5
8B94
  8
0
  0
BLOCK
  8
0
  2
*U29
 70
     1
 10
0.0
 20
0.0
 30
0.0
  3
*U29
  1

  0
TEXT
  5
8D1E
  8
0
 10
5719.9999999999973
 20
8714.0000000000018
 30
0.0
 40
105.0
  1
Y
 50
90.0
 41
0.8
  7
文字
  0
ENDBLK
  5
8D20
  8
0
  0
BLOCK
  8
0
  2
*D30
 70
     1
 10
0.0
 20
0.0
 30
0.0
  3
*D30
  1

  0
LINE
  5
8C2D
  8
0
 10
6500.0
 20
8700.0
 30
0.0
 11
5720.0000000000009
 21
8700.0
 31
0.0
  0
LINE
  5
8C2E
  8
0
 10
5750.0
 20
5999.9999999999918
 30
0.0
 11
5720.0
 21
5999.9999999999918
 31
0.0
  0
LINE
  5
8C2F
  8
0
 10
5750.0
 20
8670.0
 30
0.0
 11
5750.0
 21
6029.9999999999927
 31
0.0
  0
INSERT
  5
8C30
  8
0
  2
_ORIGIN
 10
5750.0
 20
8700.0
 30
0.0
 41
30.0
 42
30.0
 43
30.0
 50
90.0
  0
INSERT
  5
8C31
  8
0
  2
_ORIGIN
 10
5750.0
 20
5999.9999999999918
 30
0.0
 41
30.0
 42
30.0
 43
30.0
 50
270.0
  0
INSERT
  5
8C32
  8
0
  2
*U31
 10
0.0
 20
0.0
 30
0.0
  0
POINT
  5
8C33
  8
DEFPOINTS
 62
     0
 10
6650.0
 20
8700.0
 30
0.0
  0
POINT
  5
8C34
  8
DEFPOINTS
 62
     0
 10
5900.0
 20
5999.9999999999918
 30
0.0
  0
POINT
  5
8C35
  8
DEFPOINTS
 62
     0
 10
5750.0
 20
5999.9999999999918
 30
0.0
  0
ENDBLK
  5
8BA2
  8
0
  0
BLOCK
  8
0
  2
*U31
 70
     1
 10
0.0
 20
0.0
 30
0.0
  3
*U31
  1

  0
TEXT
  5
8D22
  8
0
 10
5719.9999999999973
 20
6915.9999999999964
 30
0.0
 40
105.0
  1
有効開口高=H-Y
 50
90.0
 41
0.8
  7
文字
  0
ENDBLK
  5
8D24
  8
0
  0
BLOCK
  8
0
  2
*U32
 70
     1
 10
0.0
 20
0.0
 30
0.0
  3
*U32
  1

  0
INSERT
  5
8CB8
  8
0
  2
_OPEN30
 10
7171.5570985969662
 20
9162.3079517539936
 30
0.0
 41
60.0
 42
60.0
 43
60.0
 50
105.0000000000001
  0
POLYLINE
  5
8CB9
  8
0
 66
     1
 10
0.0
 20
0.0
 30
0.0
  0
VERTEX
  5
8E49
  8
0
 10
7187.0862413031191
 20
9104.3524021766516
 30
0.0
  0
VERTEX
  5
8E4A
  8
0
 10
7326.8485256584818
 20
8582.7524559805533
 30
0.0
  0
VERTEX
  5
8E4B
  8
0
 10
7907.8485256584809
 20
8582.7524559805533
 30
0.0
  0
SEQEND
  5
8E4C
  8
0
  0
ENDBLK
  5
8CBF
  8
0
  0
BLOCK
  8
0
  2
*U33
 70
     1
 10
0.0
 20
0.0
 30
0.0
  3
*U33
  1

  0
INSERT
  5
8CC1
  8
0
  2
_OPEN30
 10
7475.0272544749478
 20
9415.7867727402481
 30
0.0
 41
60.0
 42
60.0
 43
60.0
 50
254.99999999999969
  0
POLYLINE
  5
8CC2
  8
0
 66
     1
 10
0.0
 20
0.0
 30
0.0
  0
VERTEX
  5
8E4D
  8
0
 10
7490.556397181098
 20
9473.742322317592
 30
0.0
  0
VERTEX
  5
8E4E
  8
0
 10
7565.613920260831
 20
9753.8608119414293
 30
0.0
  0
VERTEX
  5
8E4F
  8
0
 10
7956.2139202608223
 20
9753.8608119414293
 30
0.0
  0
SEQEND
  5
8E50
  8
0
  0
ENDBLK
  5
8CC8
  8
0
  0
BLOCK
  8
0
  2
*U34
 70
     1
 10
0.0
 20
0.0
 30
0.0
  3
*U34
  1

  0
INSERT
  5
8CCA
  8
0
  2
_OPEN30
 10
8250.0000000000418
 20
2750.0000000000068
 30
0.0
 41
60.0
 42
60.0
 43
60.0
 50
105.00000000000109
  0
POLYLINE
  5
8CCB
  8
0
 66
     1
 10
0.0
 20
0.0
 30
0.0
  0
VERTEX
  5
8E51
  8
0
 10
8265.5291427061966
 20
2692.0444504226639
 30
0.0
  0
VERTEX
  5
8E52
  8
0
 10
8314.7047612756778
 20
2508.5185434277369
 30
0.0
  0
VERTEX
  5
8E53
  8
0
 10
8598.9047612756767
 20
2508.5185434277369
 30
0.0
  0
SEQEND
  5
8E54
  8
0
  0
ENDBLK
  5
8CD1
  8
0
  0
BLOCK
  8
0
  2
*U35
 70
     1
 10
0.0
 20
0.0
 30
0.0
  3
*U35
  1

  0
INSERT
  5
8CD3
  8
0
  2
_OPEN30
 10
10091.00252455378
 20
9242.9003069241171
 30
0.0
 41
60.0
 42
60.0
 43
60.0
 50
105.0000000000006
  0
POLYLINE
  5
8CD4
  8
0
 66
     1
 10
0.0
 20
0.0
 30
0.0
  0
VERTEX
  5
8E55
  8
0
 10
10106.531667259929
 20
9184.9447573467733
 30
0.0
  0
VERTEX
  5
8E56
  8
0
 10
10181.58919033967
 20
8904.8262677229413
 30
0.0
  0
VERTEX
  5
8E57
  8
0
 10
10768.189190339661
 20
8904.8262677229413
 30
0.0
  0
SEQEND
  5
8E58
  8
0
  0
ENDBLK
  5
8CDA
  8
0
  0
BLOCK
  8
0
  2
*U36
 70
     1
 10
0.0
 20
0.0
 30
0.0
  3
*U36
  1

  0
INSERT
  5
8CDC
  8
0
  2
_OPEN30
 10
7016.0000000000073
 20
7171.0475088412213
 30
0.0
 41
60.0
 42
60.0
 43
60.0
 50
300.0
  0
POLYLINE
  5
8CDD
  8
0
 66
     1
 10
0.0
 20
0.0
 30
0.0
  0
VERTEX
  5
8E59
  8
0
 10
6986.0000000000073
 20
7223.009033068287
 30
0.0
  0
VERTEX
  5
8E5A
  8
0
 10
6885.4957445612672
 20
7397.0875098650658
 30
0.0
  0
VERTEX
  5
8E5B
  8
0
 10
6500.4957445612672
 20
7397.0875098650658
 30
0.0
  0
SEQEND
  5
8E5C
  8
0
  0
ENDBLK
  5
8CE3
  8
0
  0
BLOCK
  8
0
  2
*U37
 70
     1
 10
0.0
 20
0.0
 30
0.0
  3
*U37
  1

  0
INSERT
  5
8CE5
  8
0
  2
_OPEN30
 10
8422.6469170888668
 20
9075.5859411044075
 30
0.0
 41
60.0
 42
60.0
 43
60.0
 50
105.0000000000003
  0
POLYLINE
  5
8CE6
  8
0
 66
     1
 10
0.0
 20
0.0
 30
0.0
  0
VERTEX
  5
8E5D
  8
0
 10
8438.1760597950197
 20
9017.6303915270637
 30
0.0
  0
VERTEX
  5
8E5E
  8
0
 10
8513.2335828747528
 20
8737.5119019032281
 30
0.0
  0
VERTEX
  5
8E5F
  8
0
 10
9755.8335828747513
 20
8737.5119019032281
 30
0.0
  0
SEQEND
  5
8E60
  8
0
  0
ENDBLK
  5
8CEC
  8
0
  0
ENDSEC
  0
SECTION
  2
ENTITIES
  0
LINE
  5
6011
  8
0
 10
16380.0
 20
0.0
 30
0.0
 11
0.0
 21
0.0
 31
0.0
  0
LINE
  5
6012
  8
0
 10
0.0
 20
11745.0
 30
0.0
 11
16380.0
 21
11745.0
 31
0.0
  0
LINE
  5
6013
  8
0
 10
0.0
 20
11745.0
 30
0.0
 11
0.0
 21
0.0
 31
0.0
  0
LINE
  5
6014
  8
0
 10
16380.0
 20
11745.0
 30
0.0
 11
16380.0
 21
0.0
 31
0.0
  0
LINE
  5
897F
  8
0
 10
10130.0
 20
400.0
 30
0.0
 11
10130.0
 21
0.0
 31
0.0
  0
TEXT
  5
8980
  8
0
 10
10979.99999999996
 20
247.5
 30
0.0
 40
105.0
  1
オーバードア（電動直結式）
 11
10979.99999999996
 21
300.0
 31
0.0
 73
     2
  0
TEXT
  5
8981
  8
0
 10
10229.99999999996
 20
247.5
 30
0.0
 40
105.0
  1
製品名称  :
 11
10229.99999999996
 21
300.0
 31
0.0
 73
     2
  0
LINE
  5
8982
  8
0
 10
10130.0
 20
200.0
 30
0.0
 11
13880.0
 21
200.0
 31
0.0
  0
LINE
  5
8983
  8
0
 10
13880.0
 20
400.0
 30
0.0
 11
13880.0
 21
0.0
 31
0.0
  0
TEXT
  5
8984
  8
0
 10
13998.33333333333
 20
112.5
 30
0.0
 40
175.0
  1
東洋シヤッター株式会社
 72
     1
 11
15130.0
 21
200.0
 31
0.0
 73
     2
  0
LINE
  5
8985
  8
0
 10
10130.0
 20
400.0
 30
0.0
 11
16380.0
 21
400.0
 31
0.0
  0
TEXT
  5
8986
  8
0
 10
12979.99999999996
 20
47.5
 30
0.0
 40
105.0
  1
縮尺:1/30
 11
12979.99999999996
 21
100.0
 31
0.0
 73
     2
  0
LINE
  5
8987
  8
0
 10
4724.9999999999927
 20
2932.5
 30
0.0
 11
9274.9999999999909
 21
2932.5
 31
0.0
  0
LINE
  5
8988
  8
0
 10
9274.9999999999909
 20
2932.5
 30
0.0
 11
9274.9999999999909
 21
2984.0
 31
0.0
  0
LINE
  5
8989
  8
0
 10
9274.9999999999909
 20
2984.0
 30
0.0
 11
4724.9999999999927
 21
2984.0
 31
0.0
  0
LINE
  5
898A
  8
0
 10
4724.9999999999927
 20
2984.0
 30
0.0
 11
4724.9999999999927
 21
2932.5
 31
0.0
  0
ARC
  5
898B
  8
0
 10
9327.2999999999884
 20
2997.7000000000048
 30
0.0
 40
2.299999999999998
 50
90.0
 51
180.0
  0
LINE
  5
898C
  8
0
 10
9364.9999999999909
 20
2997.7000000000048
 30
0.0
 11
9364.9999999999909
 21
3000.0
 31
0.0
  0
LINE
  5
898D
  8
0
 10
9327.2999999999884
 20
2997.7000000000048
 30
0.0
 11
9364.9999999999909
 21
2997.7000000000048
 31
0.0
  0
LINE
  5
898E
  8
0
 10
9327.2999999999884
 20
2884.0
 30
0.0
 11
9327.2999999999884
 21
2997.7000000000048
 31
0.0
  0
LINE
  5
898F
  8
0
 10
9324.9999999999927
 20
2884.0
 30
0.0
 11
9327.2999999999884
 21
2884.0
 31
0.0
  0
LINE
  5
8990
  8
0
 10
9324.9999999999927
 20
2997.7000000000048
 30
0.0
 11
9324.9999999999927
 21
2884.0
 31
0.0
  0
LINE
  5
8991
  8
0
 10
9364.9999999999909
 20
3000.0
 30
0.0
 11
9327.2999999999884
 21
3000.0
 31
0.0
  0
ARC
  5
8992
  8
0
 10
9312.4999999999909
 20
2886.4999999999409
 30
0.0
 40
5.7499999999704414
 50
180.0
 51
0.0
  0
ARC
  5
8993
  8
0
 10
9312.4999999999909
 20
2921.5
 30
0.0
 40
5.7499999999704414
 50
0.0
 51
180.0
  0
LINE
  5
8994
  8
0
 10
9306.75000000002
 20
2886.4999999999409
 30
0.0
 11
9306.75000000002
 21
2921.5
 31
0.0
  0
LINE
  5
8995
  8
0
 10
9318.25000000002
 20
2921.5
 30
0.0
 11
9318.25000000002
 21
2886.4999999999409
 31
0.0
  0
ARC
  5
8996
  8
0
 10
9318.9999999999909
 20
2889.7190997647272
 30
0.0
 40
4.0
 50
329.99999999989421
 51
0.0
  0
ARC
  5
8997
  8
0
 10
9318.9999999999909
 20
2889.719099764734
 30
0.0
 40
6.0
 50
329.99999999989421
 51
0.0
  0
ARC
  5
8998
  8
0
 10
9319.9999999999909
 20
2925.5
 30
0.0
 40
3.0
 50
0.0
 51
90.0
  0
ARC
  5
8999
  8
0
 10
9319.9999999999909
 20
2925.5
 30
0.0
 40
5.0
 50
0.0
 51
90.0
  0
LINE
  5
899A
  8
0
 10
9301.5529946162005
 20
2887.5
 30
0.0
 11
9304.4397459621487
 21
2882.5
 31
0.0
  0
LINE
  5
899B
  8
0
 10
9303.2850454237632
 20
2888.5
 30
0.0
 11
9301.5529946162005
 21
2887.5
 31
0.0
  0
LINE
  5
899C
  8
0
 10
9306.1717967697114
 20
2883.5
 30
0.0
 11
9303.2850454237632
 21
2888.5
 31
0.0
  0
LINE
  5
899D
  8
0
 10
9322.4641016151327
 20
2887.7190997647272
 30
0.0
 11
9320.0282032302348
 21
2883.5000000000209
 31
0.0
  0
LINE
  5
899E
  8
0
 10
9324.1961524227008
 20
2886.719099764734
 30
0.0
 11
9321.760254037792
 21
2882.5
 31
0.0
  0
ARC
  5
899F
  8
0
 10
9313.0999999999913
 20
2887.5
 30
0.0
 40
8.0
 50
210.0000000001059
 51
329.99999999989421
  0
ARC
  5
89A0
  8
0
 10
9313.0999999999913
 20
2887.5
 30
0.0
 40
10.0
 50
210.0000000001059
 51
329.99999999989421
  0
LINE
  5
89A1
  8
0
 10
9322.9999999999909
 20
2925.5
 30
0.0
 11
9322.9999999999909
 21
2889.7190997647272
 31
0.0
  0
LINE
  5
89A2
  8
0
 10
9299.9999999999909
 20
2928.5
 30
0.0
 11
9319.9999999999909
 21
2928.5
 31
0.0
  0
LINE
  5
89A3
  8
0
 10
9299.9999999999909
 20
2930.5
 30
0.0
 11
9299.9999999999909
 21
2928.5
 31
0.0
  0
LINE
  5
89A4
  8
0
 10
9319.9999999999909
 20
2930.5
 30
0.0
 11
9299.9999999999909
 21
2930.5
 31
0.0
  0
LINE
  5
89A5
  8
0
 10
9324.9999999999927
 20
2889.719099764734
 30
0.0
 11
9324.9999999999927
 21
2925.5
 31
0.0
  0
LINE
  5
89A6
  8
0
 10
9265.699999999988
 20
2882.5
 30
0.0
 11
9267.9999999999909
 21
2882.5
 31
0.0
  0
LINE
  5
89A7
  8
0
 10
9201.9999999999909
 20
2882.5
 30
0.0
 11
9204.2999999999865
 21
2882.5
 31
0.0
  0
LINE
  5
89A8
  8
0
 10
9178.2500000000255
 20
2897.5
 30
0.0
 11
9306.75000000002
 21
2897.5
 31
0.0
  0
LINE
  5
89A9
  8
0
 10
9178.2500000000255
 20
2910.5
 30
0.0
 11
9178.2500000000255
 21
2897.5
 31
0.0
  0
LINE
  5
89AA
  8
0
 10
9306.75000000002
 20
2910.5
 30
0.0
 11
9178.2500000000255
 21
2910.5
 31
0.0
  0
LINE
  5
89AB
  8
0
 10
9265.699999999988
 20
2930.2000000000039
 30
0.0
 11
9265.699999999988
 21
2882.5
 31
0.0
  0
LINE
  5
89AC
  8
0
 10
9204.2999999999865
 20
2930.2000000000039
 30
0.0
 11
9265.699999999988
 21
2930.2000000000039
 31
0.0
  0
LINE
  5
89AD
  8
0
 10
9204.2999999999865
 20
2882.5
 30
0.0
 11
9204.2999999999865
 21
2930.2000000000039
 31
0.0
  0
LINE
  5
89AE
  8
0
 10
9201.9999999999909
 20
2932.5
 30
0.0
 11
9201.9999999999909
 21
2882.5
 31
0.0
  0
LINE
  5
89AF
  8
0
 10
9267.9999999999909
 20
2932.5
 30
0.0
 11
9201.9999999999909
 21
2932.5
 31
0.0
  0
LINE
  5
89B0
  8
0
 10
9267.9999999999909
 20
2882.5
 30
0.0
 11
9267.9999999999909
 21
2932.5
 31
0.0
  0
LINE
  5
89B1
  8
0
  6
PHANTOM2
 10
9374.9999999999782
 20
2999.9999999999932
 30
0.0
 11
9374.9999999999782
 21
1500.0000000000221
 31
0.0
  0
LINE
  5
89B2
  8
0
  6
PHANTOM2
 10
9374.9999999999782
 20
1250.0000000000221
 30
0.0
 11
9299.9999999999782
 21
1250.0000000000221
 31
0.0
  0
LINE
  5
89B3
  8
0
  6
PHANTOM2
 10
9299.9999999999782
 20
1250.0000000000221
 30
0.0
 11
9299.9999999999782
 21
1450.0000000000221
 31
0.0
  0
LINE
  5
89B4
  8
0
  6
PHANTOM2
 10
9324.9999999999782
 20
1250.0000000000221
 30
0.0
 11
9324.9999999999782
 21
1450.0000000000221
 31
0.0
  0
ARC
  5
89B5
  8
0
 10
4672.6999999999971
 20
2997.7000000000048
 30
0.0
 40
2.299999999999998
 50
0.0
 51
90.0
  0
LINE
  5
89B6
  8
0
 10
4634.9999999999927
 20
2997.7000000000048
 30
0.0
 11
4634.9999999999927
 21
3000.0
 31
0.0
  0
LINE
  5
89B7
  8
0
 10
4672.6999999999971
 20
2997.7000000000048
 30
0.0
 11
4634.9999999999927
 21
2997.7000000000048
 31
0.0
  0
LINE
  5
89B8
  8
0
 10
4672.6999999999971
 20
2884.0
 30
0.0
 11
4672.6999999999971
 21
2997.7000000000048
 31
0.0
  0
LINE
  5
89B9
  8
0
 10
4674.9999999999918
 20
2884.0
 30
0.0
 11
4672.6999999999971
 21
2884.0
 31
0.0
  0
LINE
  5
89BA
  8
0
 10
4674.9999999999918
 20
2997.7000000000048
 30
0.0
 11
4674.9999999999918
 21
2884.0
 31
0.0
  0
LINE
  5
89BB
  8
0
 10
4634.9999999999927
 20
3000.0
 30
0.0
 11
4672.6999999999971
 21
3000.0
 31
0.0
  0
ARC
  5
89BC
  8
0
 10
4687.4999999999918
 20
2886.4999999999409
 30
0.0
 40
5.7499999999704414
 50
180.0
 51
0.0
  0
ARC
  5
89BD
  8
0
 10
4687.4999999999918
 20
2921.5
 30
0.0
 40
5.7499999999704414
 50
0.0
 51
180.0
  0
LINE
  5
89BE
  8
0
 10
4693.2499999999618
 20
2886.4999999999409
 30
0.0
 11
4693.2499999999618
 21
2921.5
 31
0.0
  0
LINE
  5
89BF
  8
0
 10
4681.7499999999636
 20
2921.5
 30
0.0
 11
4681.7499999999636
 21
2886.4999999999409
 31
0.0
  0
ARC
  5
89C0
  8
0
 10
4680.9999999999918
 20
2889.7190997647272
 30
0.0
 40
4.0
 50
180.0
 51
210.0000000001059
  0
ARC
  5
89C1
  8
0
 10
4680.9999999999918
 20
2889.719099764734
 30
0.0
 40
6.0
 50
180.0
 51
210.0000000001059
  0
ARC
  5
89C2
  8
0
 10
4679.9999999999909
 20
2925.5
 30
0.0
 40
3.0
 50
90.0
 51
180.0
  0
ARC
  5
89C3
  8
0
 10
4679.9999999999909
 20
2925.5
 30
0.0
 40
5.0
 50
90.0
 51
180.0
  0
LINE
  5
89C4
  8
0
 10
4698.4470053837858
 20
2887.5
 30
0.0
 11
4695.5602540378386
 21
2882.5
 31
0.0
  0
LINE
  5
89C5
  8
0
 10
4696.7149545762222
 20
2888.5
 30
0.0
 11
4698.4470053837858
 21
2887.5
 31
0.0
  0
LINE
  5
89C6
  8
0
 10
4693.8282032302741
 20
2883.5
 30
0.0
 11
4696.7149545762222
 21
2888.5
 31
0.0
  0
LINE
  5
89C7
  8
0
 10
4677.5358983848564
 20
2887.7190997647272
 30
0.0
 11
4679.9717967697507
 21
2883.5000000000209
 31
0.0
  0
LINE
  5
89C8
  8
0
 10
4675.8038475772837
 20
2886.719099764734
 30
0.0
 11
4678.2397459621943
 21
2882.5
 31
0.0
  0
ARC
  5
89C9
  8
0
 10
4686.8999999999942
 20
2887.5
 30
0.0
 40
8.0
 50
210.0000000001059
 51
329.99999999989421
  0
ARC
  5
89CA
  8
0
 10
4686.8999999999942
 20
2887.5
 30
0.0
 40
10.0
 50
210.0000000001059
 51
329.99999999989421
  0
LINE
  5
89CB
  8
0
 10
4676.9999999999909
 20
2925.5
 30
0.0
 11
4676.9999999999909
 21
2889.7190997647272
 31
0.0
  0
LINE
  5
89CC
  8
0
 10
4699.9999999999927
 20
2928.5
 30
0.0
 11
4679.9999999999909
 21
2928.5
 31
0.0
  0
LINE
  5
89CD
  8
0
 10
4699.9999999999927
 20
2930.5
 30
0.0
 11
4699.9999999999927
 21
2928.5
 31
0.0
  0
LINE
  5
89CE
  8
0
 10
4679.9999999999909
 20
2930.5
 30
0.0
 11
4699.9999999999927
 21
2930.5
 31
0.0
  0
LINE
  5
89CF
  8
0
 10
4674.9999999999918
 20
2889.719099764734
 30
0.0
 11
4674.9999999999918
 21
2925.5
 31
0.0
  0
LINE
  5
89D0
  8
0
 10
4734.2999999999893
 20
2882.5
 30
0.0
 11
4731.9999999999927
 21
2882.5
 31
0.0
  0
LINE
  5
89D1
  8
0
 10
4797.9999999999918
 20
2882.5
 30
0.0
 11
4795.6999999999971
 21
2882.5
 31
0.0
  0
LINE
  5
89D2
  8
0
 10
4821.7499999999636
 20
2897.5
 30
0.0
 11
4693.2499999999618
 21
2897.5
 31
0.0
  0
LINE
  5
89D3
  8
0
 10
4821.7499999999636
 20
2910.5
 30
0.0
 11
4821.7499999999636
 21
2897.5
 31
0.0
  0
LINE
  5
89D4
  8
0
 10
4693.2499999999618
 20
2910.5
 30
0.0
 11
4821.7499999999636
 21
2910.5
 31
0.0
  0
LINE
  5
89D5
  8
0
 10
4734.2999999999893
 20
2930.2000000000039
 30
0.0
 11
4734.2999999999893
 21
2882.5
 31
0.0
  0
LINE
  5
89D6
  8
0
 10
4795.6999999999971
 20
2930.2000000000039
 30
0.0
 11
4734.2999999999893
 21
2930.2000000000039
 31
0.0
  0
LINE
  5
89D7
  8
0
 10
4795.6999999999971
 20
2882.5
 30
0.0
 11
4795.6999999999971
 21
2930.2000000000039
 31
0.0
  0
LINE
  5
89D8
  8
0
 10
4797.9999999999918
 20
2932.5
 30
0.0
 11
4797.9999999999918
 21
2882.5
 31
0.0
  0
LINE
  5
89D9
  8
0
 10
4731.9999999999927
 20
2932.5
 30
0.0
 11
4797.9999999999918
 21
2932.5
 31
0.0
  0
LINE
  5
89DA
  8
0
 10
4731.9999999999927
 20
2882.5
 30
0.0
 11
4731.9999999999927
 21
2932.5
 31
0.0
  0
LINE
  5
89DB
  8
0
  6
PHANTOM2
 10
4625.0000000000064
 20
2999.9999999999932
 30
0.0
 11
4625.0000000000064
 21
1500.0000000000291
 31
0.0
  0
LINE
  5
89DC
  8
0
  6
PHANTOM2
 10
4625.0000000000064
 20
1250.0000000000291
 30
0.0
 11
4700.0000000000064
 21
1250.0000000000291
 31
0.0
  0
LINE
  5
89DD
  8
0
  6
PHANTOM2
 10
4700.0000000000064
 20
1250.0000000000291
 30
0.0
 11
4700.0000000000064
 21
1450.0000000000291
 31
0.0
  0
LINE
  5
89DE
  8
0
  6
PHANTOM2
 10
4675.0000000000064
 20
1250.0000000000291
 30
0.0
 11
4675.0
 21
1450.0000000000291
 31
0.0
  0
DIMENSION
  5
89DF
  8
0
  2
*D4
 10
9250.0
 20
4000.0000000000291
 30
0.0
 11
7000.0
 21
4082.5000000000291
 31
0.0
  1
W
 13
4750.0
 23
3350.0000000000291
 33
0.0
 14
9250.0
 24
3350.0000000000291
 34
0.0
1001
ACAD
1000
DSTYLE
1002
{
1070
    41
1040
1.0
1002
}
  0
LINE
  5
89E0
  8
0
 10
7016.0000000000073
 20
8839.9999999999709
 30
0.0
 11
7067.5000000000064
 21
8839.9999999999709
 31
0.0
  0
LINE
  5
89E1
  8
0
 10
7067.5000000000064
 20
8839.9999999999709
 30
0.0
 11
7067.5000000000064
 21
6019.9999999999691
 31
0.0
  0
LINE
  5
89E2
  8
0
 10
7067.5000000000064
 20
6019.9999999999691
 30
0.0
 11
7016.0000000000073
 21
6019.9999999999691
 31
0.0
  0
LINE
  5
89E3
  8
0
 10
7016.0000000000073
 20
6019.9999999999691
 30
0.0
 11
7016.0000000000073
 21
8839.9999999999709
 31
0.0
  0
LINE
  5
89E4
  8
0
 10
5250.0
 20
6000.0
 30
0.0
 11
11000.0
 21
6000.0
 31
0.0
  0
LINE
  5
89E5
  8
0
 10
7104.0
 20
6000.0
 30
0.0
 11
7134.9054550059818
 21
8640.1531278376606
 31
0.0
  0
LINE
  5
89E6
  8
0
  6
HIDDEN
 10
7050.9963323068368
 20
6000.0
 30
0.0
 11
7067.5000000000064
 21
7402.8117537458647
 31
0.0
  0
DIMENSION
  5
89E7
  8
0
  2
*D6
 10
5525.0
 20
6000.0
 30
0.0
 11
5442.4999999999991
 21
7400.0000000000027
 31
0.0
  1
H
 13
6650.0
 23
8800.0
 33
0.0
 14
5675.0
 24
6000.0
 34
0.0
 50
90.0
1001
ACAD
1000
DSTYLE
1002
{
1070
    41
1040
1.0
1002
}
  0
DIMENSION
  5
89E8
  8
0
  2
*D8
 10
5525.0
 20
9450.0
 30
0.0
 11
5442.4999999999991
 21
9125.0
 31
0.0
  1
HR=650～715
 13
6650.0
 23
8800.0
 33
0.0
 14
6650.0
 24
9450.0
 34
0.0
 50
90.0
1001
ACAD
1000
DSTYLE
1002
{
1070
    41
1040
1.0
1002
}
  0
DIMENSION
  5
89E9
  8
0
  2
*D10
 10
5750.0
 20
9230.0
 30
0.0
 11
5667.4999999999991
 21
9015.0
 31
0.0
 13
6650.0
 23
8800.0
 33
0.0
 14
6650.0
 24
9230.0
 34
0.0
 50
90.0
1001
ACAD
1000
DSTYLE
1002
{
1070
    41
1040
1.0
1002
}
  0
LINE
  5
89EA
  8
0
 10
7067.5000000000064
 20
7402.8117537458647
 30
0.0
 11
7081.9055950799448
 21
8640.4767880429863
 31
0.0
  0
DIMENSION
  5
89EB
  8
0
  2
*D12
 10
8000.0
 20
8840.0
 30
0.0
 11
7917.5
 21
7430.0000000000027
 31
0.0
  1
DH
 13
7250.0
 23
6020.0
 33
0.0
 14
7250.0
 24
8840.0
 34
0.0
 50
90.0
1001
ACAD
1000
DSTYLE
1002
{
1070
    41
1040
1.0
1002
}
  0
DIMENSION
  5
89EC
  8
0
  2
*D14
 10
10820.0
 20
9450.0
 30
0.0
 11
10737.499999999991
 21
9329.2613022496334
 31
0.0
  1
200以上
 13
10420.00958462708
 23
9208.5226044992596
 33
0.0
 14
10420.0
 24
9450.0
 34
0.0
 50
90.0
1001
ACAD
1000
DSTYLE
1002
{
1070
    41
1040
1.0
1002
}
  0
LINE
  5
89ED
  8
0
 10
4750.0
 20
1500.0000000000291
 30
0.0
 11
4575.0
 21
1500.0000000000291
 31
0.0
  0
LINE
  5
89EE
  8
0
 10
4750.0
 20
1450.0000000000291
 30
0.0
 11
4575.0
 21
1450.0000000000291
 31
0.0
  0
LINE
  5
89EF
  8
0
  6
PHANTOM2
 10
4625.0000000000064
 20
1450.0000000000291
 30
0.0
 11
4625.0000000000064
 21
1250.0000000000291
 31
0.0
  0
LINE
  5
89F0
  8
0
  6
PHANTOM2
 10
4675.0
 20
1500.0000000000221
 30
0.0
 11
4674.9999999999918
 21
2889.719099764734
 31
0.0
  0
LINE
  5
89F1
  8
0
  6
PHANTOM2
 10
4700.0000000000064
 20
1500.0000000000221
 30
0.0
 11
4700.0000000000064
 21
2889.719099764734
 31
0.0
  0
LINE
  5
89F2
  8
0
 10
9424.9999999999745
 20
1500.0000000000221
 30
0.0
 11
9249.9999999999727
 21
1500.0000000000221
 31
0.0
  0
LINE
  5
89F3
  8
0
 10
9424.9999999999745
 20
1450.0000000000221
 30
0.0
 11
9249.9999999999727
 21
1450.0000000000221
 31
0.0
  0
LINE
  5
89F4
  8
0
  6
PHANTOM2
 10
9374.9999999999782
 20
1450.0000000000221
 30
0.0
 11
9374.9999999999782
 21
1250.0000000000221
 31
0.0
  0
LINE
  5
89F5
  8
0
  6
PHANTOM2
 10
9299.9999999999782
 20
1500.0000000000221
 30
0.0
 11
9299.9999999999782
 21
2889.719099764734
 31
0.0
  0
LINE
  5
89F6
  8
0
  6
PHANTOM2
 10
9324.9999999999782
 20
1500.0000000000221
 30
0.0
 11
9324.9999999999927
 21
2889.719099764734
 31
0.0
  0
DIMENSION
  5
89F7
  8
0
  2
*D16
 10
9275.0
 20
2250.0000000000291
 30
0.0
 11
7000.0
 21
2332.5000000000291
 31
0.0
  1
DW
 13
4725.0
 23
2750.0000000000291
 33
0.0
 14
9275.0
 24
2750.0000000000291
 34
0.0
1001
ACAD
1000
DSTYLE
1002
{
1070
    41
1040
1.0
1002
}
  0
LINE
  5
89F8
  8
0
 10
7092.9992387806633
 20
6000.0
 30
0.0
 11
7123.9042368331211
 21
8640.1142867878661
 31
0.0
  0
DIMENSION
  5
89F9
  8
0
  2
*D18
 10
4600.0
 20
3775.0000000000291
 30
0.0
 11
4675.0
 21
3857.50000000003
 31
0.0
  1
150以上
 13
4750.0
 23
3350.0000000000291
 33
0.0
 14
4600.0
 24
3350.0000000000291
 34
0.0
1001
ACAD
1000
DSTYLE
1002
{
1070
    41
1040
1.0
1002
}
  0
DIMENSION
  5
89FA
  8
0
  2
*D20
 10
9650.0
 20
3775.0000000000291
 30
0.0
 11
9450.0
 21
3857.50000000003
 31
0.0
  1
400以上
 13
9250.0
 23
3350.0000000000291
 33
0.0
 14
9650.0
 24
3350.0000000000291
 34
0.0
1001
ACAD
1000
DSTYLE
1002
{
1070
    41
1040
1.0
1002
}
  0
LINE
  5
89FB
  8
0
 10
7000.0
 20
9315.0000000000127
 30
0.0
 11
7000.0
 21
9145.0000000000127
 31
0.0
  0
LINE
  5
89FC
  8
0
 10
7000.0
 20
9145.0000000000127
 30
0.0
 11
7190.0
 21
9145.0000000000127
 31
0.0
  0
LINE
  5
89FD
  8
0
 10
7210.0
 20
9165.0000000000127
 30
0.0
 11
7210.0
 21
9212.5
 31
0.0
  0
LINE
  5
89FE
  8
0
 10
7190.0
 20
9315.0000000000127
 30
0.0
 11
7000.0
 21
9315.0000000000127
 31
0.0
  0
LINE
  5
89FF
  8
0
 10
7190.0
 20
9315.0000000000127
 30
0.0
 11
7210.0
 21
9295.0000000000146
 31
0.0
  0
LINE
  5
8A00
  8
0
 10
7210.0
 20
9165.0000000000127
 30
0.0
 11
7190.0
 21
9145.0000000000127
 31
0.0
  0
LINE
  5
8A01
  8
0
 10
7003.1999999999962
 20
9315.0000000000127
 30
0.0
 11
7003.1999999999962
 21
9145.0000000000127
 31
0.0
  0
LINE
  5
8A02
  8
0
 10
7187.0373286141257
 20
9247.5
 30
0.0
 11
7210.0
 21
9247.5
 31
0.0
  0
LINE
  5
8A03
  8
0
 10
7210.0
 20
9212.5
 30
0.0
 11
7187.0373286141203
 21
9212.5
 31
0.0
  0
LINE
  5
8A04
  8
0
 10
7210.0
 20
9247.5
 30
0.0
 11
7210.0
 21
9295.0000000000146
 31
0.0
  0
CIRCLE
  5
8A05
  8
0
 10
7110.0
 20
9230.0000000000164
 30
0.0
 40
79.0
  0
LINE
  5
8A06
  8
0
  6
CENTER2
 10
7110.0
 20
9330.0000000000164
 30
0.0
 11
7110.0
 21
9130.0000000000127
 31
0.0
  0
LINE
  5
8A07
  8
0
  6
CENTER2
 10
7009.0
 20
9230.0
 30
0.0
 11
7210.0
 21
9230.0
 31
0.0
  0
LINE
  5
8A08
  8
0
 10
10422.11830603248
 20
9155.5645703019236
 30
0.0
 11
10420.0
 21
9208.522221114179
 31
0.0
  0
LINE
  5
8A09
  8
0
  6
HIDDEN
 10
6999.9999999999563
 20
9071.7224474465693
 30
0.0
 11
7002.1183060324474
 21
9018.7647966343138
 31
0.0
  0
LINE
  5
8A0A
  8
0
 10
7534.9054535213891
 20
9051.0850786134906
 30
0.0
 11
10421.6786576104
 21
9166.5557808539888
 31
0.0
  0
LINE
  5
8A0B
  8
0
 10
7534.9054535213891
 20
9040.0762821446842
 30
0.0
 11
10422.11830603216
 21
9155.5645703099817
 31
0.0
  0
LINE
  5
8A0C
  8
0
  6
HIDDEN
 10
7116.0
 20
9023.3200643930177
 30
0.0
 11
7002.1183060324474
 21
9018.7647966343138
 31
0.0
  0
LINE
  5
8A0D
  8
0
 10
7116.0
 20
9023.3200643930177
 30
0.0
 11
7305.799507552103
 21
9030.9120446950983
 31
0.0
  0
LINE
  5
8A0E
  8
0
 10
10420.0
 20
9208.5222211141663
 30
0.0
 11
10167.84107749175
 21
9198.4358839543656
 31
0.0
  0
LINE
  5
8A0F
  8
0
 10
10017.96093321489
 20
9192.4406899168116
 30
0.0
 11
7534.9054535213891
 21
9093.1186651177122
 31
0.0
  0
ARC
  5
8A10
  8
0
 10
7534.9054535213891
 20
8640.1186651177122
 30
0.0
 40
399.9999999999996
 50
90.0
 51
179.9950635791553
  0
ARC
  5
8A11
  8
0
 10
7534.9054535213891
 20
8640.1186651177122
 30
0.0
 40
411.00121671158541
 50
90.0
 51
180.00061036269631
  0
ARC
  5
8A12
  8
0
 10
7534.9054535213891
 20
8640.1186651177122
 30
0.0
 40
452.99999999999272
 50
90.0
 51
179.95470433931951
  0
LINE
  5
8A13
  8
0
 10
7498.7233566006289
 20
9091.6713817105901
 30
0.0
 11
7115.9999882571001
 21
9076.3624469768547
 31
0.0
  0
LINE
  5
8A14
  8
0
 10
7115.9999882571001
 20
9076.3624469768547
 30
0.0
 11
7000.0
 21
9076.3624469768547
 31
0.0
  0
LINE
  5
8A15
  8
0
 10
7116.0
 20
9076.3624469768547
 30
0.0
 11
7116.0
 21
8812.5345025864226
 31
0.0
  0
LINE
  5
8A16
  8
0
  6
HIDDEN
 10
7115.9999882571137
 20
9076.3624469768547
 30
0.0
 11
6999.9999999999563
 21
9071.7224474465693
 31
0.0
  0
DIMENSION
  5
8A17
  8
0
  2
*D22
 10
10420.0
 20
10250.00000000004
 30
0.0
 11
8710.0
 21
10332.50000000004
 31
0.0
  1
DH+600
 13
7000.0
 23
10100.00000000004
 33
0.0
 14
10420.0
 24
9650.0000000000437
 34
0.0
1001
ACAD
1000
DSTYLE
1002
{
1070
    41
1040
1.0
1002
}
  0
DIMENSION
  5
8A18
  8
0
  2
*D24
 10
7110.0
 20
10025.00000000004
 30
0.0
 11
7055.0
 21
10107.50000000004
 31
0.0
 13
7000.0
 23
9875.0000000000437
 33
0.0
 14
7110.0
 24
9650.0000000000437
 34
0.0
1001
ACAD
1000
DSTYLE
1002
{
1070
    41
1040
1.0
1002
}
  0
LINE
  5
8A19
  8
0
 10
7310.0
 20
9260.0
 30
0.0
 11
7510.0
 21
9260.0
 31
0.0
  0
LINE
  5
8A1A
  8
0
 10
7515.0
 20
9265.0
 30
0.0
 11
7515.0
 21
9450.0
 31
0.0
  0
LINE
  5
8A1B
  8
0
 10
7515.0
 20
9450.0
 30
0.0
 11
7305.0
 21
9450.0
 31
0.0
  0
LINE
  5
8A1C
  8
0
 10
7305.0
 20
9450.0
 30
0.0
 11
7305.0
 21
9265.0
 31
0.0
  0
LINE
  5
8A1D
  8
0
 10
7305.0
 20
9265.0
 30
0.0
 11
7310.0
 21
9260.0
 31
0.0
  0
LINE
  5
8A1E
  8
0
 10
7510.0
 20
9260.0
 30
0.0
 11
7515.0
 21
9265.0
 31
0.0
  0
CIRCLE
  5
8A1F
  8
0
 10
7410.0
 20
9330.0000000000236
 30
0.0
 40
52.0
  0
LINE
  5
8A20
  8
0
 10
7409.9999999999782
 20
9390.00000000002
 30
0.0
 11
7410.0000000000218
 21
9270.00000000002
 31
0.0
  0
LINE
  5
8A21
  8
0
 10
7470.0
 20
9330.0000000000236
 30
0.0
 11
7350.0
 21
9330.0000000000236
 31
0.0
  0
CIRCLE
  5
8A22
  8
0
 10
7110.0
 20
9230.0000000000164
 30
0.0
 40
48.0
  0
LINE
  5
8A23
  8
0
  6
HIDDEN
 10
7392.9334717272577
 20
9379.1195848182524
 30
0.0
 11
7094.2462815943863
 21
9275.3411552168418
 31
0.0
  0
LINE
  5
8A24
  8
0
  6
HIDDEN
 10
7124.60171840561
 20
9184.2748447831837
 30
0.0
 11
7425.8185282727491
 21
9280.4644151817938
 31
0.0
  0
TEXT
  5
8A25
  8
0
 10
7379.3485256584827
 20
8612.7524559805533
 30
0.0
 40
105.0
  1
巻取ドラム
 41
0.8
  7
横文字
 72
     1
 11
7617.3485256584818
 21
8612.7524559805533
 31
0.0
  0
INSERT
  5
8A26
  8
0
  2
*U32
 10
0.0
 20
0.0
 30
0.0
  0
LINE
  5
8A27
  8
0
  6
PHANTOM2
 10
9338.0
 20
2527.5000000000218
 30
0.0
 11
9598.0
 21
2527.5000000000218
 31
0.0
  0
LINE
  5
8A28
  8
0
  6
PHANTOM2
 10
9338.0
 20
2652.5000000000218
 30
0.0
 11
9598.0
 21
2652.5000000000218
 31
0.0
  0
LINE
  5
8A29
  8
0
  6
PHANTOM2
 10
9598.0
 20
2652.5000000000218
 30
0.0
 11
9598.0
 21
2527.5000000000218
 31
0.0
  0
LINE
  5
8A2A
  8
0
  6
PHANTOM2
 10
9148.0
 20
2695.0000000000591
 30
0.0
 11
9338.0
 21
2695.0000000000591
 31
0.0
  0
LINE
  5
8A2B
  8
0
  6
PHANTOM2
 10
9338.0
 20
2695.0000000000591
 30
0.0
 11
9338.0
 21
2485.0000000000591
 31
0.0
  0
LINE
  5
8A2C
  8
0
  6
PHANTOM2
 10
9338.0
 20
2485.0000000000591
 30
0.0
 11
9148.0
 21
2485.0000000000591
 31
0.0
  0
LINE
  5
8A2D
  8
0
  6
PHANTOM2
 10
9148.0
 20
2485.0000000000591
 30
0.0
 11
9148.0
 21
2695.0000000000591
 31
0.0
  0
LINE
  5
8A2E
  8
0
  6
PHANTOM2
 10
9116.3999999999996
 20
2642.0000000000591
 30
0.0
 11
9116.3999999999996
 21
2538.0000000000591
 31
0.0
  0
LINE
  5
8A2F
  8
0
  6
PHANTOM2
 10
9116.3999999999996
 20
2538.0000000000591
 30
0.0
 11
9123.5999999999967
 21
2538.0000000000591
 31
0.0
  0
LINE
  5
8A30
  8
0
  6
PHANTOM2
 10
9123.5999999999967
 20
2538.0000000000591
 30
0.0
 11
9123.5999999999967
 21
2642.0000000000591
 31
0.0
  0
LINE
  5
8A31
  8
0
  6
PHANTOM2
 10
9123.5999999999967
 20
2642.0000000000591
 30
0.0
 11
9116.3999999999996
 21
2642.0000000000591
 31
0.0
  0
LINE
  5
8A32
  8
0
  6
PHANTOM2
 10
9148.0
 20
2621.5000000000591
 30
0.0
 11
9123.5999999999967
 21
2621.5000000000591
 31
0.0
  0
LINE
  5
8A33
  8
0
  6
PHANTOM2
 10
9148.0
 20
2558.5000000000591
 30
0.0
 11
9123.5999999999967
 21
2558.5000000000591
 31
0.0
  0
LINE
  5
8A34
  8
0
  6
PHANTOM2
 10
9548.0
 20
2652.5000000000218
 30
0.0
 11
9548.0
 21
2527.5000000000218
 31
0.0
  0
LINE
  5
8A35
  8
0
  6
CENTER2
 10
9048.0
 20
2590.0000000000218
 30
0.0
 11
9698.0
 21
2590.0000000000218
 31
0.0
  0
LINE
  5
8A36
  8
0
 10
8200.0
 20
9119.7223949092222
 30
0.0
 11
8200.0
 21
9450.0
 31
0.0
  0
LINE
  5
8A37
  8
0
 10
8200.0
 20
9450.0
 30
0.0
 11
8240.0
 21
9450.0
 31
0.0
  0
LINE
  5
8A38
  8
0
 10
8240.0
 20
9450.0
 30
0.0
 11
8240.0
 21
9121.3223917777796
 31
0.0
  0
LINE
  5
8A39
  8
0
 10
9400.0
 20
9167.7223009659501
 30
0.0
 11
9400.0
 21
9450.0
 31
0.0
  0
LINE
  5
8A3A
  8
0
 10
9400.0
 20
9450.0
 30
0.0
 11
9440.0
 21
9450.0
 31
0.0
  0
LINE
  5
8A3B
  8
0
 10
9440.0
 20
9450.0
 30
0.0
 11
9440.0
 21
9169.3222978345075
 31
0.0
  0
TEXT
  5
8A3C
  8
0
 10
7618.1139202608256
 20
9783.8608119414275
 30
0.0
 40
105.0
  1
開閉機
 41
0.8
  7
横文字
 72
     1
 11
7760.9139202608258
 21
9783.8608119414275
 31
0.0
  0
INSERT
  5
8A3D
  8
0
  2
*U33
 10
0.0
 20
0.0
 30
0.0
  0
LINE
  5
8A3E
  8
0
  6
PHANTOM2
 10
6850.0
 20
10550.00000000004
 30
0.0
 11
6850.0
 21
8800.0
 31
0.0
  0
LINE
  5
8A3F
  8
0
  6
PHANTOM2
 10
6850.0
 20
8800.0
 30
0.0
 11
7000.0
 21
8800.0
 31
0.0
  0
LINE
  5
8A40
  8
0
  6
PHANTOM2
 10
7000.0
 20
8800.0
 30
0.0
 11
7000.0
 21
9450.0
 31
0.0
  0
LINE
  5
8A41
  8
0
  6
PHANTOM2
 10
7000.0
 20
9450.0
 30
0.0
 11
11250.0
 21
9450.0
 31
0.0
  0
LINE
  5
8A42
  8
0
  6
PHANTOM2
 10
11250.0
 20
9600.0
 30
0.0
 11
7000.0
 21
9600.0
 31
0.0
  0
LINE
  5
8A43
  8
0
  6
PHANTOM2
 10
7000.0
 20
9600.0
 30
0.0
 11
7000.0
 21
10550.00000000004
 31
0.0
  0
LINE
  5
8A44
  8
0
  6
PHANTOM2
 10
10250.0
 20
3150.0
 30
0.0
 11
9250.0
 21
3150.0
 31
0.0
  0
LINE
  5
8A45
  8
0
  6
PHANTOM2
 10
9250.0
 20
3150.0
 30
0.0
 11
9250.0
 21
3000.0
 31
0.0
  0
LINE
  5
8A46
  8
0
  6
PHANTOM2
 10
9250.0
 20
3000.0
 30
0.0
 11
10250.0
 21
3000.0
 31
0.0
  0
LINE
  5
8A47
  8
0
  6
PHANTOM2
 10
3750.0
 20
3000.0
 30
0.0
 11
4750.0
 21
3000.0
 31
0.0
  0
LINE
  5
8A48
  8
0
  6
PHANTOM2
 10
4750.0
 20
3000.0
 30
0.0
 11
4750.0
 21
3150.0
 31
0.0
  0
LINE
  5
8A49
  8
0
  6
PHANTOM2
 10
4750.0
 20
3150.0
 30
0.0
 11
3750.0
 21
3150.0
 31
0.0
  0
LINE
  5
8A4A
  8
0
 10
7350.4995320000016
 20
9191.0
 30
0.0
 11
7469.4995320000025
 21
9191.0
 31
0.0
  0
LINE
  5
8A4B
  8
0
 10
7348.9995320000044
 20
9192.5
 30
0.0
 11
7348.9995320000044
 21
9204.0
 31
0.0
  0
LINE
  5
8A4C
  8
0
 10
7470.9995320000025
 20
9192.5
 30
0.0
 11
7470.9995320000025
 21
9204.0
 31
0.0
  0
LINE
  5
8A4D
  8
0
 10
7349.9996111470609
 20
9204.0
 30
0.0
 11
7348.9995320000044
 21
9204.0
 31
0.0
  0
LINE
  5
8A4E
  8
0
 10
7470.9995320000025
 20
9204.0
 30
0.0
 11
7469.9995319999998
 21
9204.0
 31
0.0
  0
ARC
  5
8A4F
  8
0
 10
7469.4995320000025
 20
9192.5
 30
0.0
 40
1.5
 50
270.00000255881957
 51
359.99999795311089
  0
ARC
  5
8A50
  8
0
 10
7350.4995320000016
 20
9192.5
 30
0.0
 40
1.5
 50
180.00000102344441
 51
270.00000255881957
  0
LINE
  5
8A51
  8
0
 10
7469.9999965588222
 20
9260.0
 30
0.0
 11
7469.9996111470609
 21
9204.0
 31
0.0
  0
LINE
  5
8A52
  8
0
 10
7349.9999965588204
 20
9260.0
 30
0.0
 11
7349.9996111470609
 21
9204.0
 31
0.0
  0
LINE
  5
8A53
  8
0
 10
9282.5000000000455
 20
2780.00000000003
 30
0.0
 11
9282.5000000000455
 21
2722.3000000000329
 31
0.0
  0
LINE
  5
8A54
  8
0
 10
9284.8000000000466
 20
2720.0000000000291
 30
0.0
 11
9345.2000000000407
 21
2720.0000000000291
 31
0.0
  0
LINE
  5
8A55
  8
0
 10
9347.5000000000437
 20
2722.3000000000329
 30
0.0
 11
9347.5000000000437
 21
2780.00000000003
 31
0.0
  0
LINE
  5
8A56
  8
0
 10
9347.5000000000437
 20
2780.00000000003
 30
0.0
 11
9345.2000000000407
 21
2780.00000000003
 31
0.0
  0
LINE
  5
8A57
  8
0
 10
9345.2000000000407
 20
2780.00000000003
 30
0.0
 11
9345.2000000000407
 21
2722.3000000000329
 31
0.0
  0
LINE
  5
8A58
  8
0
 10
9345.2000000000407
 20
2722.3000000000329
 30
0.0
 11
9284.8000000000466
 21
2722.3000000000329
 31
0.0
  0
LINE
  5
8A59
  8
0
 10
9284.8000000000466
 20
2722.3000000000329
 30
0.0
 11
9284.8000000000466
 21
2780.00000000003
 31
0.0
  0
LINE
  5
8A5A
  8
0
 10
9284.8000000000466
 20
2780.00000000003
 30
0.0
 11
9282.5000000000455
 21
2780.00000000003
 31
0.0
  0
ARC
  5
8A5B
  8
0
 10
9284.8000000000466
 20
2722.3000000000329
 30
0.0
 40
2.299999999999998
 50
180.0
 51
270.0
  0
ARC
  5
8A5C
  8
0
 10
9345.2000000000407
 20
2722.3000000000329
 30
0.0
 40
2.299999999999998
 50
270.0
 51
0.0
  0
LINE
  5
8A5D
  8
0
 10
9347.5000000000437
 20
2780.00000000003
 30
0.0
 11
9372.4999999999909
 21
2780.00000000003
 31
0.0
  0
LINE
  5
8A5E
  8
0
 10
9377.4999999999945
 20
2775.0000000000291
 30
0.0
 11
9377.4999999999945
 21
2730.0000000000291
 31
0.0
  0
LINE
  5
8A5F
  8
0
 10
9372.4999999999909
 20
2780.00000000003
 30
0.0
 11
9377.4999999999945
 21
2775.0000000000291
 31
0.0
  0
LINE
  5
8A60
  8
0
 10
9372.4999999999909
 20
2725.0000000000291
 30
0.0
 11
9347.4999999999909
 21
2725.0000000000291
 31
0.0
  0
LINE
  5
8A61
  8
0
 10
9377.4999999999945
 20
2730.0000000000291
 30
0.0
 11
9372.4999999999909
 21
2725.0000000000291
 31
0.0
  0
CIRCLE
  5
8A62
  8
0
 10
9364.9999999999909
 20
2750.0000000000068
 30
0.0
 40
6.0
  0
LINE
  5
8A63
  8
0
 10
9282.5000000000455
 20
2780.00000000003
 30
0.0
 11
9257.5000000000946
 21
2780.00000000003
 31
0.0
  0
LINE
  5
8A64
  8
0
 10
9252.5000000000946
 20
2775.0000000000291
 30
0.0
 11
9252.5000000000946
 21
2730.0000000000291
 31
0.0
  0
LINE
  5
8A65
  8
0
 10
9257.5000000000946
 20
2780.00000000003
 30
0.0
 11
9252.5000000000946
 21
2775.0000000000291
 31
0.0
  0
LINE
  5
8A66
  8
0
 10
9257.5000000000946
 20
2725.0000000000291
 30
0.0
 11
9282.5000000000946
 21
2725.0000000000291
 31
0.0
  0
LINE
  5
8A67
  8
0
 10
9252.5000000000946
 20
2730.0000000000291
 30
0.0
 11
9257.5000000000946
 21
2725.0000000000291
 31
0.0
  0
CIRCLE
  5
8A68
  8
0
 10
9265.0000000000946
 20
2750.0000000000068
 30
0.0
 40
6.0
  0
LINE
  5
8A69
  8
0
 10
9332.4999999999945
 20
2743.0000000000068
 30
0.0
 11
9332.4999999999945
 21
2757.0000000000082
 31
0.0
  0
ARC
  5
8A6A
  8
0
 10
9330.4999999999909
 20
2757.0000000000082
 30
0.0
 40
2.0
 50
0.0
 51
90.0
  0
LINE
  5
8A6B
  8
0
 10
9330.4999999999909
 20
2759.0000000000068
 30
0.0
 11
9299.4999999999909
 21
2759.0000000000068
 31
0.0
  0
ARC
  5
8A6C
  8
0
 10
9299.4999999999909
 20
2757.0000000000082
 30
0.0
 40
2.0
 50
90.0
 51
180.0
  0
LINE
  5
8A6D
  8
0
 10
9297.4999999999909
 20
2757.0000000000082
 30
0.0
 11
9297.4999999999909
 21
2743.0000000000068
 31
0.0
  0
ARC
  5
8A6E
  8
0
 10
9299.4999999999909
 20
2743.0000000000068
 30
0.0
 40
2.0
 50
180.0
 51
270.0
  0
LINE
  5
8A6F
  8
0
 10
9299.4999999999909
 20
2741.0000000000082
 30
0.0
 11
9330.4999999999909
 21
2741.0000000000082
 31
0.0
  0
ARC
  5
8A70
  8
0
 10
9330.4999999999909
 20
2743.0000000000068
 30
0.0
 40
2.0
 50
270.0
 51
0.0
  0
LINE
  5
8A71
  8
0
  6
CENTER2
 10
9297.4999999999909
 20
2750.0000000000068
 30
0.0
 11
4702.5000000001019
 21
2750.0000000000068
 31
0.0
  0
LINE
  5
8A72
  8
0
 10
4717.5000000000491
 20
2780.00000000003
 30
0.0
 11
4717.5000000000491
 21
2722.3000000000329
 31
0.0
  0
LINE
  5
8A73
  8
0
 10
4715.200000000048
 20
2720.0000000000291
 30
0.0
 11
4654.8000000000538
 21
2720.0000000000291
 31
0.0
  0
LINE
  5
8A74
  8
0
 10
4652.50000000005
 20
2722.3000000000329
 30
0.0
 11
4652.50000000005
 21
2780.00000000003
 31
0.0
  0
LINE
  5
8A75
  8
0
 10
4652.50000000005
 20
2780.00000000003
 30
0.0
 11
4654.8000000000538
 21
2780.00000000003
 31
0.0
  0
LINE
  5
8A76
  8
0
 10
4654.8000000000538
 20
2780.00000000003
 30
0.0
 11
4654.8000000000538
 21
2722.3000000000329
 31
0.0
  0
LINE
  5
8A77
  8
0
 10
4654.8000000000538
 20
2722.3000000000329
 30
0.0
 11
4715.200000000048
 21
2722.3000000000329
 31
0.0
  0
LINE
  5
8A78
  8
0
 10
4715.200000000048
 20
2722.3000000000329
 30
0.0
 11
4715.200000000048
 21
2780.00000000003
 31
0.0
  0
LINE
  5
8A79
  8
0
 10
4715.200000000048
 20
2780.00000000003
 30
0.0
 11
4717.5000000000491
 21
2780.00000000003
 31
0.0
  0
ARC
  5
8A7A
  8
0
 10
4715.200000000048
 20
2722.3000000000329
 30
0.0
 40
2.299999999999998
 50
270.0
 51
0.0
  0
ARC
  5
8A7B
  8
0
 10
4654.8000000000538
 20
2722.3000000000329
 30
0.0
 40
2.299999999999998
 50
180.0
 51
270.0
  0
LINE
  5
8A7C
  8
0
 10
4652.50000000005
 20
2780.00000000003
 30
0.0
 11
4627.5000000001019
 21
2780.00000000003
 31
0.0
  0
LINE
  5
8A7D
  8
0
 10
4622.5000000001
 20
2775.0000000000291
 30
0.0
 11
4622.5000000001
 21
2730.0000000000291
 31
0.0
  0
LINE
  5
8A7E
  8
0
 10
4627.5000000001019
 20
2780.00000000003
 30
0.0
 11
4622.5000000001
 21
2775.0000000000291
 31
0.0
  0
LINE
  5
8A7F
  8
0
 10
4627.5000000001019
 20
2725.0000000000291
 30
0.0
 11
4652.500000000101
 21
2725.0000000000291
 31
0.0
  0
LINE
  5
8A80
  8
0
 10
4622.5000000001
 20
2730.0000000000291
 30
0.0
 11
4627.5000000001019
 21
2725.0000000000291
 31
0.0
  0
CIRCLE
  5
8A81
  8
0
 10
4635.000000000101
 20
2750.0000000000068
 30
0.0
 40
6.0
  0
LINE
  5
8A82
  8
0
 10
4717.5000000000491
 20
2780.00000000003
 30
0.0
 11
4742.5
 21
2780.00000000003
 31
0.0
  0
LINE
  5
8A83
  8
0
 10
4747.5
 20
2775.0000000000291
 30
0.0
 11
4747.5
 21
2730.0000000000291
 31
0.0
  0
LINE
  5
8A84
  8
0
 10
4742.5
 20
2780.00000000003
 30
0.0
 11
4747.5
 21
2775.0000000000291
 31
0.0
  0
LINE
  5
8A85
  8
0
 10
4742.5
 20
2725.0000000000291
 30
0.0
 11
4717.5
 21
2725.0000000000291
 31
0.0
  0
LINE
  5
8A86
  8
0
 10
4747.5
 20
2730.0000000000291
 30
0.0
 11
4742.5
 21
2725.0000000000291
 31
0.0
  0
CIRCLE
  5
8A87
  8
0
 10
4735.0
 20
2750.0000000000068
 30
0.0
 40
6.0
  0
LINE
  5
8A88
  8
0
 10
4667.5000000001019
 20
2743.0000000000068
 30
0.0
 11
4667.5000000001019
 21
2757.0000000000082
 31
0.0
  0
ARC
  5
8A89
  8
0
 10
4669.500000000101
 20
2757.0000000000082
 30
0.0
 40
2.0
 50
90.0
 51
180.0
  0
LINE
  5
8A8A
  8
0
 10
4669.500000000101
 20
2759.0000000000068
 30
0.0
 11
4700.5000000001019
 21
2759.0000000000068
 31
0.0
  0
ARC
  5
8A8B
  8
0
 10
4700.5000000001019
 20
2757.0000000000082
 30
0.0
 40
2.0
 50
0.0
 51
90.0
  0
LINE
  5
8A8C
  8
0
 10
4702.5000000001019
 20
2757.0000000000082
 30
0.0
 11
4702.5000000001019
 21
2743.0000000000068
 31
0.0
  0
ARC
  5
8A8D
  8
0
 10
4700.5000000001019
 20
2743.0000000000068
 30
0.0
 40
2.0
 50
270.0
 51
0.0
  0
LINE
  5
8A8E
  8
0
 10
4700.5000000001019
 20
2741.0000000000082
 30
0.0
 11
4669.500000000101
 21
2741.0000000000082
 31
0.0
  0
ARC
  5
8A8F
  8
0
 10
4669.500000000101
 20
2743.0000000000068
 30
0.0
 40
2.0
 50
180.0
 51
270.0
  0
TEXT
  5
8A90
  8
0
 10
8367.2047612756778
 20
2538.5185434277391
 30
0.0
 40
105.0
  1
光軸
 41
0.8
  7
横文字
 72
     1
 11
8456.8047612756782
 21
2538.5185434277391
 31
0.0
  0
INSERT
  5
8A91
  8
0
  2
*U34
 10
0.0
 20
0.0
 30
0.0
  0
DIMENSION
  5
8A92
  8
0
  2
*D26
 10
4323.0
 20
2750.0000000000068
 30
0.0
 11
4240.4999999999991
 21
2867.5000000000441
 31
0.0
 70
   128
 13
4423.0
 23
3000.0000000000441
 33
0.0
 14
4723.0
 24
2750.0000000000068
 34
0.0
 50
90.0
1001
ACAD
1000
DSTYLE
1002
{
1070
    41
1040
1.0
1002
}
  0
LINE
  5
8A93
  8
0
 10
10012.96492967761
 20
9317.3407783488874
 30
0.0
 11
10162.845073485871
 21
9323.3359841012189
 31
0.0
  0
LINE
  5
8A94
  8
0
 10
10162.845073485871
 20
9323.3359841012189
 30
0.0
 11
10169.04011942995
 21
9168.4598354993468
 31
0.0
  0
LINE
  5
8A95
  8
0
 10
10169.04011942995
 20
9168.4598354993468
 30
0.0
 11
10019.15997562168
 21
9162.4646297470117
 31
0.0
  0
LINE
  5
8A96
  8
0
 10
10019.15997562168
 20
9162.4646297470117
 30
0.0
 11
10012.96492967761
 21
9317.3407783488874
 31
0.0
  0
LINE
  5
8A97
  8
0
 10
9664.5255697540706
 20
9271.3275741997477
 30
0.0
 11
10014.2459053067
 21
9285.3163876218587
 31
0.0
  0
LINE
  5
8A98
  8
0
 10
9665.1610615638201
 20
9255.44027895607
 30
0.0
 11
10014.88139711644
 21
9269.4290923781791
 31
0.0
  0
LINE
  5
8A99
  8
0
 10
10184.110068289399
 20
9292.1109541411715
 30
0.0
 11
10184.74556009914
 21
9276.2236588974902
 31
0.0
  0
LINE
  5
8A9A
  8
0
 10
9664.1438749878362
 20
9280.8699433555357
 30
0.0
 11
9665.5427563300473
 21
9245.8979098002728
 31
0.0
  0
LINE
  5
8A9B
  8
0
 10
10164.126049114961
 20
9291.3115933741919
 30
0.0
 11
10184.110068289399
 21
9292.1109541411715
 31
0.0
  0
LINE
  5
8A9C
  8
0
 10
10164.76154092471
 20
9275.4242981305142
 30
0.0
 11
10184.74556009914
 21
9276.2236588974902
 31
0.0
  0
LINE
  5
8A9D
  8
0
 10
10015.96253255378
 20
9242.4007064447505
 30
0.0
 11
9990.9825085857301
 21
9241.4015054860283
 31
0.0
  0
LINE
  5
8A9E
  8
0
 10
9990.9825085857301
 20
9241.4015054860283
 30
0.0
 11
9992.9809105031763
 21
9191.4414575499395
 31
0.0
  0
LINE
  5
8A9F
  8
0
 10
9992.9809105031763
 20
9191.4414575499395
 30
0.0
 11
10017.960934471221
 21
9192.4406585086599
 31
0.0
  0
LINE
  5
8AA0
  8
0
 10
10165.842676362039
 20
9248.3959121970838
 30
0.0
 11
10190.82270033008
 21
9249.395113155806
 31
0.0
  0
LINE
  5
8AA1
  8
0
 10
10190.82270033008
 20
9249.395113155806
 30
0.0
 11
10192.82110224753
 21
9199.4350652197154
 31
0.0
  0
LINE
  5
8AA2
  8
0
 10
10192.82110224753
 20
9199.4350652197154
 30
0.0
 11
10167.841078279491
 21
9198.4358642609986
 31
0.0
  0
LINE
  5
8AA3
  8
0
 10
9661.0463520158028
 20
9278.2440432360163
 30
0.0
 11
9643.0607347588084
 21
9277.5246185457363
 31
0.0
  0
LINE
  5
8AA4
  8
0
 10
9643.0607347588084
 20
9277.5246185457363
 30
0.0
 11
9644.2597759092787
 21
9247.5485897840845
 31
0.0
  0
LINE
  5
8AA5
  8
0
 10
9644.2597759092787
 20
9247.5485897840845
 30
0.0
 11
9662.2453931662676
 21
9248.2680144743645
 31
0.0
  0
LINE
  5
8AA6
  8
0
 10
9662.3453132621362
 20
9245.7700120775626
 30
0.0
 11
9660.9464319199233
 21
9280.7420456328255
 31
0.0
  0
LINE
  5
8AA7
  8
0
 10
9664.1438749878362
 20
9280.8699433555357
 30
0.0
 11
9660.9464319199233
 21
9280.7420456328255
 31
0.0
  0
LINE
  5
8AA8
  8
0
 10
9665.5427563300473
 20
9245.8979098002728
 30
0.0
 11
9662.3453132621362
 21
9245.7700120775626
 31
0.0
  0
LINE
  5
8AA9
  8
0
 10
10022.3574186896
 20
9162.5925274697274
 30
0.0
 11
10016.162372745521
 21
9317.4686760716068
 31
0.0
  0
LINE
  5
8AAA
  8
0
 10
10159.64763041796
 20
9323.2080863785086
 30
0.0
 11
10165.842676362039
 21
9168.3319377766329
 31
0.0
  0
LINE
  5
8AAB
  8
0
 10
10017.443348374611
 20
9285.4442853445707
 30
0.0
 11
10160.928606047049
 21
9291.1836956514744
 31
0.0
  0
LINE
  5
8AAC
  8
0
 10
10018.078840184349
 20
9269.556990100893
 30
0.0
 11
10161.56409785679
 21
9275.2964004077949
 31
0.0
  0
LINE
  5
8AAD
  8
0
  6
HIDDEN
 10
10164.64363521158
 20
9198.3079665382829
 30
0.0
 11
10021.15837753913
 21
9192.5685562313774
 31
0.0
  0
TEXT
  5
8AAE
  8
0
 10
10234.08919033966
 20
8934.8262677229413
 30
0.0
 40
105.0
  1
ストッパー
 41
0.8
  7
横文字
 72
     1
 11
10474.88919033966
 21
8934.8262677229413
 31
0.0
  0
INSERT
  5
8AAF
  8
0
  2
*U35
 10
0.0
 20
0.0
 30
0.0
  0
TEXT
  5
8AB0
  8
0
 10
10979.999999999971
 20
47.5
 30
0.0
 40
105.0
  1
スタンダード
 11
10979.999999999971
 21
100.0
 31
0.0
 73
     2
  0
TEXT
  5
8AB1
  8
0
 10
10229.999999999971
 20
47.5
 30
0.0
 40
105.0
  1
納まり　  :
 11
10229.999999999971
 21
100.0
 31
0.0
 73
     2
  0
TEXT
  5
8AB2
  8
0
 10
6552.9957445612663
 20
7427.0875098650658
 30
0.0
 40
105.0
  1
パネル
 41
0.8
  7
文字
 72
     1
 11
6692.9957445612672
 21
7427.0875098650658
 31
0.0
  0
INSERT
  5
8AB3
  8
0
  2
*U36
 10
0.0
 20
0.0
 30
0.0
  0
TEXT
  5
8AB4
  8
0
 10
8565.7335828747491
 20
8767.5119019032281
 30
0.0
 40
105.0
  1
1／25勾配型水平レール
 41
0.8
  7
横文字
 72
     1
 11
9134.5335828747484
 21
8767.5119019032281
 31
0.0
  0
INSERT
  5
8AB5
  8
0
  2
*U37
 10
0.0
 20
0.0
 30
0.0
  0
DIMENSION
  5
8AB6
  8
0
  2
*D28
 10
5750.0
 20
8700.0
 30
0.0
 11
5667.4999999999991
 21
8750.0000000000018
 31
0.0
  1
Y
 13
6650.0
 23
8800.0
 33
0.0
 14
6650.0
 24
8700.0
 34
0.0
 50
90.0
1001
ACAD
1000
DSTYLE
1002
{
1070
    41
1040
1.0
1002
}
  0
DIMENSION
  5
8AB7
  8
0
  2
*D30
 10
5750.0
 20
5999.9999999999918
 30
0.0
 11
5667.4999999999991
 21
7349.9999999999973
 31
0.0
  1
有効開口高=H-Y
 13
6650.0
 23
8700.0
 33
0.0
 14
5900.0
 24
5999.9999999999918
 34
0.0
 50
90.0
1001
ACAD
1000
DSTYLE
1002
{
1070
    41
1040
1.0
1002
}
  0
TEXT
  5
8AB8
  8
0
 10
13410.0
 20
10647.5
 30
0.0
 40
105.0
  1
パネル
 41
0.8
  7
文字
 72
     1
 11
13550.0
 21
10700.0
 31
0.0
 73
     2
  0
TEXT
  5
8AB9
  8
0
 10
13064.0
 20
10447.5
 30
0.0
 40
105.0
  1
Y
 41
0.8
  7
文字
 72
     1
 11
13100.0
 21
10500.0
 31
0.0
 73
     2
  0
LINE
  5
8ABA
  8
0
 10
15300.0
 20
10800.0
 30
0.0
 11
13800.0
 21
10800.0
 31
0.0
  0
LINE
  5
8ABB
  8
0
 10
12900.0
 20
11000.0
 30
0.0
 11
12900.0
 21
10400.0
 31
0.0
  0
LINE
  5
8ABC
  8
0
 10
15300.0
 20
10600.0
 30
0.0
 11
12900.0
 21
10600.0
 31
0.0
  0
LINE
  5
8ABD
  8
0
 10
12900.0
 20
10400.0
 30
0.0
 11
15300.0
 21
10400.0
 31
0.0
  0
LINE
  5
8ABE
  8
0
 10
13300.0
 20
11000.0
 30
0.0
 11
13300.0
 21
10400.0
 31
0.0
  0
LINE
  5
8ABF
  8
0
 10
13800.0
 20
11000.0
 30
0.0
 11
13800.0
 21
10400.0
 31
0.0
  0
TEXT
  5
8AC0
  8
0
 10
13510.0
 20
10447.5
 30
0.0
 40
105.0
  1
0
 41
0.8
  7
文字
 72
     1
 11
13550.0
 21
10500.0
 31
0.0
 73
     2
  0
TEXT
  5
8AC1
  8
0
 10
13359.6
 20
10847.5
 30
0.0
 40
105.0
  1
スチール
 41
0.8
  7
文字
 72
     1
 11
13550.0
 21
10900.0
 31
0.0
 73
     2
  0
TEXT
  5
8AC2
  8
0
 10
13960.4
 20
10647.5
 30
0.0
 40
105.0
  1
標準
 41
0.8
  7
文字
 72
     1
 11
14050.0
 21
10700.0
 31
0.0
 73
     2
  0
LINE
  5
8AC3
  8
0
 10
14300.0
 20
10800.0
 30
0.0
 11
14300.0
 21
10400.0
 31
0.0
  0
TEXT
  5
8AC4
  8
0
 10
14371.200000000001
 20
10647.5
 30
0.0
 40
105.0
  1
ワイド1
 41
0.8
  7
文字
 72
     1
 11
14550.0
 21
10700.0
 31
0.0
 73
     2
  0
LINE
  5
8AC5
  8
0
 10
14800.0
 20
10800.0
 30
0.0
 11
14800.0
 21
10400.0
 31
0.0
  0
TEXT
  5
8AC6
  8
0
 10
14859.200000000001
 20
10647.5
 30
0.0
 40
105.0
  1
ワイド2
 41
0.8
  7
文字
 72
     1
 11
15050.0
 21
10700.0
 31
0.0
 73
     2
  0
LINE
  5
8AC7
  8
0
 10
15300.0
 20
11000.0
 30
0.0
 11
15300.0
 21
10400.0
 31
0.0
  0
TEXT
  5
8AC8
  8
0
 10
13937.200000000001
 20
10847.5
 30
0.0
 40
105.0
  1
アルミパネル・FRPパネル
 41
0.8
  7
文字
 72
     1
 11
14550.0
 21
10900.0
 31
0.0
 73
     2
  0
LINE
  5
8AC9
  8
0
 10
15300.0
 20
11000.0
 30
0.0
 11
12900.0
 21
11000.0
 31
0.0
  0
TEXT
  5
8ACA
  8
0
 10
14010.0
 20
10447.5
 30
0.0
 40
105.0
  1
0
 41
0.8
  7
文字
 72
     1
 11
14050.0
 21
10500.0
 31
0.0
 73
     2
  0
TEXT
  5
8ACB
  8
0
 10
14470.0
 20
10447.5
 30
0.0
 40
105.0
  1
70
 41
0.8
  7
文字
 72
     1
 11
14550.0
 21
10500.0
 31
0.0
 73
     2
  0
TEXT
  5
8ACC
  8
0
 10
14924.0
 20
10447.5
 30
0.0
 40
105.0
  1
100
 41
0.8
  7
文字
 72
     1
 11
15050.0
 21
10500.0
 31
0.0
 73
     2
  0
LINE
  5
8ACD
  8
0
 10
12900.0
 20
11000.0
 30
0.0
 11
13300.0
 21
10600.0
 31
0.0
  0
TEXT
  5
8ACE
  8
0
 10
12900.0
 20
11047.5
 30
0.0
 40
105.0
  1
有効開口高=H-Y
 41
0.8
  7
文字
 11
12900.0
 21
11100.0
 31
0.0
 73
     2
  0
TEXT
  5
8ACF
  8
0
 10
14931.200000000001
 20
11047.5
 30
0.0
 40
105.0
  1
（mm）
 41
0.8
  7
文字
 72
     2
 11
15300.0
 21
11100.0
 31
0.0
 73
     2
  0
LINE
  5
8AD0
  8
0
  6
PHANTOM2
 10
7070.7000000000053
 20
6029.800000000002
 30
0.0
 11
7095.5000000000073
 21
6029.800000000002
 31
0.0
  0
LINE
  5
8AD1
  8
0
  6
PHANTOM2
 10
7070.7000000000053
 20
6222.5
 30
0.0
 11
7067.5000000000064
 21
6222.5
 31
0.0
  0
LINE
  5
8AD2
  8
0
  6
PHANTOM2
 10
7095.5000000000073
 20
6033.0
 30
0.0
 11
7095.5000000000073
 21
6029.800000000002
 31
0.0
  0
LINE
  5
8AD3
  8
0
  6
PHANTOM2
 10
7070.7000000000053
 20
6033.0
 30
0.0
 11
7095.5000000000073
 21
6033.0
 31
0.0
  0
ARC
  5
8AD4
  8
0
  6
PHANTOM2
 10
7070.7000000000053
 20
6033.0
 30
0.0
 40
3.2000000000000002
 50
180.0
 51
270.0
  0
LINE
  5
8AD5
  8
0
  6
PHANTOM2
 10
7163.5000000000073
 20
6138.4999999999636
 30
0.0
 11
7163.5000000000073
 21
6137.5
 31
0.0
  0
LINE
  5
8AD6
  8
0
  6
PHANTOM2
 10
7163.5000000000073
 20
6055.5
 30
0.0
 11
7158.5952617056382
 21
6055.5
 31
0.0
  0
LINE
  5
8AD7
  8
0
  6
PHANTOM2
 10
7136.5000000000082
 20
6055.5
 30
0.0
 11
7070.7000000000053
 21
6055.5
 31
0.0
  0
LINE
  5
8AD8
  8
0
  6
PHANTOM2
 10
7163.5000000000073
 20
6137.5
 30
0.0
 11
7141.0295766755744
 21
6137.5
 31
0.0
  0
LINE
  5
8AD9
  8
0
  6
PHANTOM2
 10
7104.8594262750121
 20
6114.117612735623
 30
0.0
 11
7138.232212400565
 21
6136.6442433703787
 31
0.0
  0
ARC
  5
8ADA
  8
0
  6
PHANTOM2
 10
7141.0295766755744
 20
6132.5
 30
0.0
 40
5.0
 50
90.0
 51
124.01934998959349
  0
LINE
  5
8ADB
  8
0
  6
PHANTOM2
 10
7163.5000000000073
 20
6058.4999999999636
 30
0.0
 11
7163.5000000000073
 21
6055.5
 31
0.0
  0
LINE
  5
8ADC
  8
0
  6
PHANTOM2
 10
7163.5000000000073
 20
6138.4999999999636
 30
0.0
 11
7166.7000000000053
 21
6138.4999999999636
 31
0.0
  0
LINE
  5
8ADD
  8
0
  6
PHANTOM2
 10
7163.5000000000073
 20
6058.4999999999636
 30
0.0
 11
7166.7000000000053
 21
6058.4999999999636
 31
0.0
  0
LINE
  5
8ADE
  8
0
  6
PHANTOM2
 10
7166.7000000000053
 20
6138.4999999999636
 30
0.0
 11
7166.7000000000053
 21
6101.7290599168064
 31
0.0
  0
LINE
  5
8ADF
  8
0
  6
PHANTOM2
 10
7166.7000000000053
 20
6095.3290599168031
 30
0.0
 11
7166.7000000000053
 21
6058.4999999999636
 31
0.0
  0
ARC
  5
8AE0
  8
0
  6
PHANTOM2
 10
7163.5000000000073
 20
6095.3290599168031
 30
0.0
 40
3.2000000000000002
 50
0.0
 51
90.0
  0
ARC
  5
8AE1
  8
0
  6
PHANTOM2
 10
7163.5000000000073
 20
6101.7290599168064
 30
0.0
 40
3.2000000000000002
 50
270.0
 51
0.0
  0
LINE
  5
8AE2
  8
0
  6
PHANTOM2
 10
7070.7000000000053
 20
6150.5
 30
0.0
 11
7104.8594262750121
 21
6114.1176127356302
 31
0.0
  0
LINE
  5
8AE3
  8
0
  6
PHANTOM2
 10
7070.7000000000053
 20
6055.5
 30
0.0
 11
7070.7000000000053
 21
6033.0
 31
0.0
  0
ARC
  5
8AE4
  8
0
  6
PHANTOM2
 10
7169.5000000000082
 20
6032.800000000002
 30
0.0
 40
12.5
 50
239.9999999999429
 51
59.999999999942858
  0
LINE
  5
8AE5
  8
0
  6
PHANTOM2
 10
7163.2500000000082
 20
6021.9746824526974
 30
0.0
 11
7139.0000000000073
 21
6035.9754264805442
 31
0.0
  0
LINE
  5
8AE6
  8
0
  6
PHANTOM2
 10
7175.7500000000073
 20
6043.6253175473039
 30
0.0
 11
7161.0000000000073
 21
6052.1412340178513
 31
0.0
  0
ARC
  5
8AE7
  8
0
  6
PHANTOM2
 10
7163.5000000000073
 20
6056.4713610367762
 30
0.0
 40
5.0
 50
191.20221111558769
 51
239.9999999999429
  0
LINE
  5
8AE8
  8
0
  6
PHANTOM2
 10
7136.5000000000082
 20
6055.5
 30
0.0
 11
7136.5000000000082
 21
6040.3055534994637
 31
0.0
  0
ARC
  5
8AE9
  8
0
  6
PHANTOM2
 10
7141.5000000000073
 20
6040.3055534994637
 30
0.0
 40
5.0
 50
180.0
 51
239.9999999999429
  0
LINE
  5
8AEA
  8
0
  6
PHANTOM2
 10
7204.9000000000087
 20
6120.5000000000373
 30
0.0
 11
7204.9000000000087
 21
6151.1110695100788
 31
0.0
  0
LINE
  5
8AEB
  8
0
  6
PHANTOM2
 10
7203.7000000000044
 20
6120.5000000000373
 30
0.0
 11
7203.7000000000044
 21
6150.5000000000364
 31
0.0
  0
LINE
  5
8AEC
  8
0
  6
PHANTOM2
 10
7204.9000000000087
 20
6120.5000000000373
 30
0.0
 11
7203.7000000000044
 21
6120.5000000000373
 31
0.0
  0
LINE
  5
8AED
  8
0
  6
PHANTOM2
 10
7148.7000000000053
 20
6190.5000000000364
 30
0.0
 11
7203.7000000000044
 21
6150.5000000000364
 31
0.0
  0
LINE
  5
8AEE
  8
0
  6
PHANTOM2
 10
7148.7000000000053
 20
6190.5000000000364
 30
0.0
 11
7070.7000000000053
 21
6190.5000000000364
 31
0.0
  0
LINE
  5
8AEF
  8
0
  6
PHANTOM2
 10
7071.9000000000096
 20
6191.7000000000317
 30
0.0
 11
7071.9000000000096
 21
6224.6040862788504
 31
0.0
  0
LINE
  5
8AF0
  8
0
  6
PHANTOM2
 10
7149.0902205763186
 20
6191.7000000000317
 30
0.0
 11
7071.9000000000096
 21
6191.7000000000317
 31
0.0
  0
LINE
  5
8AF1
  8
0
  6
PHANTOM2
 10
7149.0902205763186
 20
6191.7000000000317
 30
0.0
 11
7204.9000000000087
 21
6151.1110695100788
 31
0.0
  0
LINE
  5
8AF2
  8
0
  6
PHANTOM2
 10
7068.9000000000087
 20
6234.5000000000373
 30
0.0
 11
7070.7000000000053
 21
6224.4969790327596
 31
0.0
  0
LINE
  5
8AF3
  8
0
  6
PHANTOM2
 10
7070.0810311808236
 20
6234.7125214105536
 30
0.0
 11
7071.9000000000096
 21
6224.6040862788504
 31
0.0
  0
LINE
  5
8AF4
  8
0
  6
PHANTOM2
 10
7070.0810311808236
 20
6234.7125214105536
 30
0.0
 11
7068.9000000000087
 21
6234.5000000000373
 31
0.0
  0
LINE
  5
8AF5
  8
0
  6
PHANTOM2
 10
7070.7000000000053
 20
6190.5000000000291
 30
0.0
 11
7070.7000000000053
 21
6150.5
 31
0.0
  0
LINE
  5
8AF6
  8
0
  6
PHANTOM2
 10
7070.7000000000053
 20
6222.5
 30
0.0
 11
7070.7000000000053
 21
6224.4969790327596
 31
0.0
  0
LINE
  5
8AF7
  8
0
  6
PHANTOM2
 10
7067.5000000000064
 20
6222.5
 30
0.0
 11
7067.5000000000064
 21
6033.0
 31
0.0
  0
ENDSEC
  0
EOF
