  0
SECTION
  2
HEADER
  9
$ACADVER
  1
AC1009
  9
$INSBASE
 10
0.0
 20
0.0
 30
0.0
  9
$EXTMIN
 10
-0.4998397926137841
 20
-0.3584016095373954
 30
-0.0015258207003583
  9
$EXTMAX
 10
16380.499916067931
 20
11745.35845630145
 30
0.0000000349246037
  9
$LIMMIN
 10
0.0
 20
0.0
  9
$LIMMAX
 10
420.0
 20
297.0
  9
$ORTHOMODE
 70
     0
  9
$REGENMODE
 70
     1
  9
$FILLMODE
 70
     1
  9
$QTEXTMODE
 70
     0
  9
$MIRRTEXT
 70
     1
  9
$DRAGMODE
 70
     2
  9
$LTSCALE
 40
7.5
  9
$OSMODE
 70
  3071
  9
$ATTMODE
 70
     1
  9
$TEXTSIZE
 40
105.0
  9
$TRACEWID
 40
1.0
  9
$TEXTSTYLE
  7
文字
  9
$CLAYER
  8
0
  9
$CELTYPE
  6
BYLAYER
  9
$CECOLOR
 62
   256
  9
$DIMSCALE
 40
30.0
  9
$DIMASZ
 40
2.0
  9
$DIMEXO
 40
5.0
  9
$DIMDLI
 40
7.5
  9
$DIMRND
 40
0.0
  9
$DIMDLE
 40
0.0
  9
$DIMEXE
 40
1.0
  9
$DIMTP
 40
0.0
  9
$DIMTM
 40
0.0
  9
$DIMTXT
 40
3.5
  9
$DIMCEN
 40
1.0
  9
$DIMTSZ
 40
0.0
  9
$DIMTOL
 70
     0
  9
$DIMLIM
 70
     0
  9
$DIMTIH
 70
     0
  9
$DIMTOH
 70
     0
  9
$DIMSE1
 70
     0
  9
$DIMSE2
 70
     0
  9
$DIMTAD
 70
     1
  9
$DIMZIN
 70
     8
  9
$DIMBLK
  1
ORIGIN
  9
$DIMASO
 70
     1
  9
$DIMSHO
 70
     1
  9
$DIMPOST
  1

  9
$DIMAPOST
  1

  9
$DIMALT
 70
     0
  9
$DIMALTD
 70
     3
  9
$DIMALTF
 40
0.03937007874016
  9
$DIMLFAC
 40
1.0
  9
$DIMTOFL
 70
     1
  9
$DIMTVP
 40
0.0
  9
$DIMTIX
 70
     1
  9
$DIMSOXD
 70
     0
  9
$DIMSAH
 70
     0
  9
$DIMBLK1
  1

  9
$DIMBLK2
  1

  9
$DIMSTYLE
  2
寸法線30
  9
$DIMCLRD
 70
   256
  9
$DIMCLRE
 70
   256
  9
$DIMCLRT
 70
   256
  9
$DIMTFAC
 40
1.0
  9
$DIMGAP
 40
1.0
  9
$LUNITS
 70
     2
  9
$LUPREC
 70
     4
  9
$SKETCHINC
 40
1.0
  9
$FILLETRAD
 40
0.0
  9
$AUNITS
 70
     0
  9
$AUPREC
 70
     0
  9
$MENU
  1
.
  9
$ELEVATION
 40
0.0
  9
$PELEVATION
 40
0.0
  9
$THICKNESS
 40
0.0
  9
$LIMCHECK
 70
     0
  9
$BLIPMODE
 70
     0
  9
$CHAMFERA
 40
10.0
  9
$CHAMFERB
 40
10.0
  9
$SKPOLY
 70
     0
  9
$TDCREATE
 40
2452654.657629028
  9
$TDUPDATE
 40
2456778.7064456372
  9
$TDINDWG
 40
0.8003570486
  9
$TDUSRTIMER
 40
0.8003552546
  9
$USRTIMER
 70
     1
  9
$ANGBASE
 50
0.0
  9
$ANGDIR
 70
     0
  9
$PDMODE
 70
     0
  9
$PDSIZE
 40
0.0
  9
$PLINEWID
 40
0.0
  9
$COORDS
 70
     2
  9
$SPLFRAME
 70
     0
  9
$SPLINETYPE
 70
     6
  9
$SPLINESEGS
 70
     8
  9
$ATTDIA
 70
     0
  9
$ATTREQ
 70
     1
  9
$HANDLING
 70
     1
  9
$HANDSEED
  5
8551
  9
$SURFTAB1
 70
     6
  9
$SURFTAB2
 70
     6
  9
$SURFTYPE
 70
     6
  9
$SURFU
 70
     6
  9
$SURFV
 70
     6
  9
$UCSNAME
  2

  9
$UCSORG
 10
0.0
 20
0.0
 30
0.0
  9
$UCSXDIR
 10
1.0
 20
0.0
 30
0.0
  9
$UCSYDIR
 10
0.0
 20
1.0
 30
0.0
  9
$PUCSNAME
  2

  9
$PUCSORG
 10
0.0
 20
0.0
 30
0.0
  9
$PUCSXDIR
 10
1.0
 20
0.0
 30
0.0
  9
$PUCSYDIR
 10
0.0
 20
1.0
 30
0.0
  9
$USERI1
 70
     0
  9
$USERI2
 70
     0
  9
$USERI3
 70
     0
  9
$USERI4
 70
     0
  9
$USERI5
 70
     0
  9
$USERR1
 40
0.0
  9
$USERR2
 40
0.0
  9
$USERR3
 40
0.0
  9
$USERR4
 40
0.0
  9
$USERR5
 40
0.0
  9
$WORLDVIEW
 70
     1
  9
$SHADEDGE
 70
     3
  9
$SHADEDIF
 70
    70
  9
$TILEMODE
 70
     1
  9
$MAXACTVP
 70
    64
  9
$PLIMCHECK
 70
     0
  9
$PEXTMIN
 10
1.0000000000000000E+020
 20
1.0000000000000000E+020
 30
1.0000000000000000E+020
  9
$PEXTMAX
 10
-1.0000000000000000E+020
 20
-1.0000000000000000E+020
 30
-1.0000000000000000E+020
  9
$PLIMMIN
 10
0.0
 20
0.0
  9
$PLIMMAX
 10
420.0
 20
297.0
  9
$UNITMODE
 70
     0
  9
$VISRETAIN
 70
     1
  9
$PLINEGEN
 70
     0
  9
$PSLTSCALE
 70
     1
  0
ENDSEC
  0
SECTION
  2
TABLES
  0
TABLE
  2
VPORT
 70
     1
  0
VPORT
  2
*ACTIVE
 70
     0
 10
0.0
 20
0.0
 11
1.0
 21
1.0
 12
8190.0000381376594
 22
5872.5000273459573
 13
0.0
 23
0.0
 14
10.0
 24
10.0
 15
10.0
 25
10.0
 16
0.0
 26
0.0
 36
1.0
 17
0.0
 27
0.0
 37
0.0
 40
11826.443434254021
 41
1.7981651376146781
 42
50.0
 43
0.0
 44
0.0
 50
0.0
 51
0.0
 71
     0
 72
   100
 73
     1
 74
     3
 75
     0
 76
     0
 77
     0
 78
     0
  0
ENDTAB
  0
TABLE
  2
LTYPE
 70
     4
  0
LTYPE
  2
CONTINUOUS
 70
     0
  3
Solid line
 72
    65
 73
     0
 40
0.0
  0
LTYPE
  2
HIDDEN
 70
     0
  3
Hidden __ __ __ __ __ __ __ __ __ __ __ __ __ _
 72
    65
 73
     2
 40
9.5249999999999986
 49
6.3499999999999979
 49
-3.174999999999998
  0
LTYPE
  2
CENTER2
 70
     0
  3
Center (.5x) ___ _ ___ _ ___ _ ___ _ ___ _ ___
 72
    65
 73
     4
 40
28.574999999999999
 49
19.050000000000001
 49
-3.174999999999998
 49
3.174999999999998
 49
-3.174999999999998
  0
LTYPE
  2
PHANTOM2
 70
     0
  3
Phantom (.5x) ___ _ _ ___ _ _ ___ _ _ ___ _ _
 72
    65
 73
     6
 40
31.75
 49
15.875
 49
-3.174999999999998
 49
3.174999999999998
 49
-3.174999999999998
 49
3.174999999999998
 49
-3.174999999999998
  0
ENDTAB
  0
TABLE
  2
LAYER
 70
     2
  0
LAYER
  2
0
 70
     0
 62
     7
  6
CONTINUOUS
  0
LAYER
  2
DEFPOINTS
 70
     0
 62
     7
  6
CONTINUOUS
  0
ENDTAB
  0
TABLE
  2
STYLE
 70
     4
  0
STYLE
  2
STANDARD
 70
     0
 40
0.0
 41
1.0
 50
0.0
 71
     0
 42
105.0
  3
romans.shx
  4
bigfont.shx
  0
STYLE
  2
文字
 70
     0
 40
0.0
 41
0.8
 50
0.0
 71
     0
 42
105.0
  3
romans.shx
  4
extfont.shx
  0
STYLE
  2
横文字
 70
     0
 40
0.0
 41
0.8
 50
0.0
 71
     0
 42
105.0
  3
romans.shx
  4
extfont.shx
  0
ENDTAB
  0
TABLE
  2
VIEW
 70
     0
  0
ENDTAB
  0
TABLE
  2
UCS
 70
     0
  0
ENDTAB
  0
TABLE
  2
APPID
 70
    81
  0
APPID
  2
ACAD
 70
     0
  0
APPID
  2
ACADANNOTATIVE
 70
     0
  0
APPID
  2
ADE
 70
     0
  0
APPID
  2
DCO15
 70
     0
  0
APPID
  2
SETH_MM
 70
     0
  0
APPID
  2
ACAD_PSEXT
 70
     0
  0
APPID
  2
ACAD_EXEMPT_FROM_CAD_STANDARDS
 70
     0
  0
APPID
  2
ACAD_MLEADERVER
 70
     0
  0
APPID
  2
AUTOESSSHUTTERLINE1
 70
     0
  0
APPID
  2
AUTOESSSHUTTERLINE2
 70
     0
  0
APPID
  2
AUTOESSSHUTTERPT
 70
     0
  0
APPID
  2
MAKICIRCLE
 70
     0
  0
APPID
  2
ACAD_DSTYLE_DIMJAG
 70
     0
  0
APPID
  2
ACAD_DSTYLE_DIMTALN
 70
     0
  0
APPID
  2
SETW_MM
 70
     0
  0
APPID
  2
PARADIMLINE
 70
     0
  0
APPID
  2
PARABASEPT
 70
     0
  0
APPID
  2
MIRRORCHK_L
 70
     0
  0
APPID
  2
MIRRORCHK_R
 70
     0
  0
APPID
  2
LINKSPLIT1
 70
     0
  0
APPID
  2
LINKSPLIT2
 70
     0
  0
APPID
  2
LINKSPLIT3
 70
     0
  0
APPID
  2
LINKSPLIT4
 70
     0
  0
APPID
  2
TBANLLINE
 70
     0
  0
APPID
  2
TBANRLINE
 70
     0
  0
APPID
  2
TBANHLINE
 70
     0
  0
APPID
  2
ARCLINEA1
 70
     0
  0
APPID
  2
ARCLINEA2
 70
     0
  0
APPID
  2
ARCLINEB1
 70
     0
  0
APPID
  2
ARCLINEB2
 70
     0
  0
APPID
  2
ODPDW
 70
     0
  0
APPID
  2
ODPDH
 70
     0
  0
APPID
  2
ODWLINE1
 70
     0
  0
APPID
  2
ODWLINE2
 70
     0
  0
APPID
  2
ODSY
 70
     0
  0
APPID
  2
EDWDW
 70
     0
  0
APPID
  2
EDWDH
 70
     0
  0
APPID
  2
LINKSPLIT11
 70
     0
  0
APPID
  2
LINKSPLIT12
 70
     0
  0
APPID
  2
LINKSPLIT13
 70
     0
  0
APPID
  2
LINKSPLIT14
 70
     0
  0
APPID
  2
AUTOESSDOORPTH1
 70
     0
  0
APPID
  2
AUTOESSDOORPTH2
 70
     0
  0
APPID
  2
AUTOESSDOORPTV1
 70
     0
  0
APPID
  2
AUTOESSDOORPTV2
 70
     0
  0
APPID
  2
TBANPT1
 70
     0
  0
APPID
  2
TBANPT2
 70
     0
  0
APPID
  2
SETDH_MM
 70
     0
  0
APPID
  2
SETV1_MM
 70
     0
  0
APPID
  2
SETV2_MM
 70
     0
  0
APPID
  2
KAIKOUDIM
 70
     0
  0
APPID
  2
TBANK
 70
     0
  0
APPID
  2
TBANR
 70
     0
  0
APPID
  2
TBANO
 70
     0
  0
APPID
  2
TBANHATA1
 70
     0
  0
APPID
  2
TBANHATA2
 70
     0
  0
APPID
  2
TBANMEN
 70
     0
  0
APPID
  2
TBANW
 70
     0
  0
APPID
  2
TBANH
 70
     0
  0
APPID
  2
ARCLINEA3
 70
     0
  0
APPID
  2
ARCLINEB3
 70
     0
  0
APPID
  2
WORKNAME_UE
 70
     0
  0
APPID
  2
WORKNAME
 70
     0
  0
APPID
  2
SD1
 70
     0
  0
APPID
  2
SD2
 70
     0
  0
APPID
  2
DELETEOBJ
 70
     0
  0
APPID
  2
TBANTEXT
 70
     0
  0
APPID
  2
MAKITEXT
 70
     0
  0
APPID
  2
N_01
 70
     0
  0
APPID
  2
N_02
 70
     0
  0
APPID
  2
N_03
 70
     0
  0
APPID
  2
N_04
 70
     0
  0
APPID
  2
N_05
 70
     0
  0
APPID
  2
N_06
 70
     0
  0
APPID
  2
N_07
 70
     0
  0
APPID
  2
N_08
 70
     0
  0
APPID
  2
N_09
 70
     0
  0
APPID
  2
N_10
 70
     0
  0
APPID
  2
N_11
 70
     0
  0
APPID
  2
N_12
 70
     0
  0
APPID
  2
N_13
 70
     0
  0
ENDTAB
  0
TABLE
  2
DIMSTYLE
 70
     3
  0
DIMSTYLE
  2
STANDARD
 70
     0
  3

  4

  5

  6

  7

 40
30.0
 41
1.0
 42
5.0
 43
7.5
 44
1.0
 45
0.0
 46
0.0
 47
0.0
 48
0.0
140
3.5
141
2.5
142
0.0
143
25.399999999999999
144
1.0
145
0.0
146
1.0
147
1.0
 71
     0
 72
     0
 73
     0
 74
     0
 75
     0
 76
     0
 77
     1
 78
     8
170
     0
171
     2
172
     1
173
     0
174
     1
175
     0
176
     0
177
     0
178
     0
  0
DIMSTYLE
  2
寸法線30
 70
     0
  3

  4

  5

  6

  7

 40
30.0
 41
2.0
 42
5.0
 43
7.5
 44
1.0
 45
0.0
 46
0.0
 47
0.0
 48
0.0
140
3.5
141
1.0
142
0.0
143
0.03937007874016
144
1.0
145
0.0
146
1.0
147
1.0
 71
     0
 72
     0
 73
     0
 74
     0
 75
     0
 76
     0
 77
     1
 78
     8
170
     0
171
     3
172
     1
173
     0
174
     1
175
     0
176
   256
177
   256
178
   256
  0
ENDTAB
  0
ENDSEC
  0
SECTION
  2
BLOCKS
  0
BLOCK
  8
0
  2
$MODEL_SPACE
 70
     0
 10
0.0
 20
0.0
 30
0.0
  3
$MODEL_SPACE
  1

  0
ENDBLK
  5
8455
  8
0
  0
BLOCK
 67
     1
  8
0
  2
$PAPER_SPACE
 70
     0
 10
0.0
 20
0.0
 30
0.0
  3
$PAPER_SPACE
  1

  0
ENDBLK
  5
8451
 67
     1
  8
0
  0
BLOCK
  8
0
  2
_ORIGIN
 70
     0
 10
0.0
 20
0.0
 30
0.0
  3
_ORIGIN
  1

  0
CIRCLE
  5
A7
  8
0
  6
BYBLOCK
 62
     0
 10
0.0
 20
0.0
 30
0.0
 40
0.5
  0
LINE
  5
A8
  8
0
  6
BYBLOCK
 62
     0
 10
0.0
 20
0.0
 30
0.0
 11
-1.0
 21
0.0
 31
0.0
  0
ENDBLK
  5
AA
  8
0
  0
BLOCK
  8
0
  2
_OPEN30
 70
     0
 10
0.0
 20
0.0
 30
0.0
  3
_OPEN30
  1

  0
LINE
  5
AC
  8
0
  6
BYBLOCK
 62
     0
 10
-1.0
 20
0.26794919
 30
0.0
 11
0.0
 21
0.0
 31
0.0
  0
LINE
  5
AD
  8
0
  6
BYBLOCK
 62
     0
 10
0.0
 20
0.0
 30
0.0
 11
-1.0
 21
-0.26794919
 31
0.0
  0
LINE
  5
AE
  8
0
  6
BYBLOCK
 62
     0
 10
0.0
 20
0.0
 30
0.0
 11
-1.0
 21
0.0
 31
0.0
  0
ENDBLK
  5
B0
  8
0
  0
BLOCK
  8
0
  2
*D4
 70
     1
 10
0.0
 20
0.0
 30
0.0
  3
*D4
  1

  0
LINE
  5
8291
  8
0
 10
5500.0
 20
3500.0000000000259
 30
0.0
 11
5500.0
 21
4030.000000000025
 31
0.0
  0
LINE
  5
8292
  8
0
 10
8500.0
 20
3500.0000000000259
 30
0.0
 11
8500.0
 21
4030.000000000025
 31
0.0
  0
LINE
  5
8293
  8
0
 10
5530.0
 20
4000.0000000000241
 30
0.0
 11
8470.0
 21
4000.0000000000241
 31
0.0
  0
INSERT
  5
8294
  8
0
  2
_ORIGIN
 10
5500.0
 20
4000.0000000000241
 30
0.0
 41
30.0
 42
30.0
 43
30.0
 50
180.0
  0
INSERT
  5
8295
  8
0
  2
_ORIGIN
 10
8500.0
 20
4000.0000000000241
 30
0.0
 41
30.0
 42
30.0
 43
30.0
  0
INSERT
  5
8296
  8
0
  2
*U5
 10
0.0
 20
0.0
 30
0.0
  0
POINT
  5
8297
  8
DEFPOINTS
 62
     0
 10
5500.0
 20
3350.0000000000259
 30
0.0
  0
POINT
  5
8298
  8
DEFPOINTS
 62
     0
 10
8500.0
 20
3350.0000000000259
 30
0.0
  0
POINT
  5
8299
  8
DEFPOINTS
 62
     0
 10
8500.0
 20
4000.0000000000241
 30
0.0
  0
ENDBLK
  5
81ED
  8
0
  0
BLOCK
  8
0
  2
*U5
 70
     1
 10
0.0
 20
0.0
 30
0.0
  3
*U5
  1

  0
TEXT
  5
83B6
  8
0
 10
6952.0
 20
4030.000000000025
 30
0.0
 40
105.0
  1
W
 41
0.8
  7
文字
  0
ENDBLK
  5
83B8
  8
0
  0
BLOCK
  8
0
  2
*D6
 70
     1
 10
0.0
 20
0.0
 30
0.0
  3
*D6
  1

  0
LINE
  5
829A
  8
0
 10
6500.0
 20
8300.0
 30
0.0
 11
5720.0000000000009
 21
8300.0
 31
0.0
  0
LINE
  5
829B
  8
0
 10
5700.0
 20
6000.0
 30
0.0
 11
5720.0
 21
6000.0
 31
0.0
  0
LINE
  5
829C
  8
0
 10
5750.0
 20
8270.0
 30
0.0
 11
5750.0
 21
6030.0
 31
0.0
  0
INSERT
  5
829D
  8
0
  2
_ORIGIN
 10
5750.0
 20
8300.0
 30
0.0
 41
30.0
 42
30.0
 43
30.0
 50
90.0
  0
INSERT
  5
829E
  8
0
  2
_ORIGIN
 10
5750.0
 20
6000.0
 30
0.0
 41
30.0
 42
30.0
 43
30.0
 50
270.0
  0
INSERT
  5
829F
  8
0
  2
*U7
 10
0.0
 20
0.0
 30
0.0
  0
POINT
  5
82A0
  8
DEFPOINTS
 62
     0
 10
6650.0
 20
8300.0
 30
0.0
  0
POINT
  5
82A1
  8
DEFPOINTS
 62
     0
 10
5850.0
 20
6000.0
 30
0.0
  0
POINT
  5
82A2
  8
DEFPOINTS
 62
     0
 10
5750.0
 20
6000.0
 30
0.0
  0
ENDBLK
  5
81F9
  8
0
  0
BLOCK
  8
0
  2
*U7
 70
     1
 10
0.0
 20
0.0
 30
0.0
  3
*U7
  1

  0
TEXT
  5
83BA
  8
0
 10
5719.9999999999973
 20
7106.0000000000009
 30
0.0
 40
105.0
  1
H
 50
90.0
 41
0.8
  7
文字
  0
ENDBLK
  5
83BC
  8
0
  0
BLOCK
  8
0
  2
*D8
 70
     1
 10
0.0
 20
0.0
 30
0.0
  3
*D8
  1

  0
LINE
  5
82A3
  8
0
 10
6500.0
 20
8300.0
 30
0.0
 11
5720.0
 21
8300.0
 31
0.0
  0
LINE
  5
82A4
  8
0
 10
6500.0
 20
8920.0
 30
0.0
 11
5720.0
 21
8920.0
 31
0.0
  0
LINE
  5
82A5
  8
0
 10
5750.0
 20
8270.0
 30
0.0
 11
5750.0
 21
8240.0
 31
0.0
  0
LINE
  5
82A6
  8
0
 10
5750.0
 20
8950.0
 30
0.0
 11
5750.0
 21
8980.0
 31
0.0
  0
LINE
  5
82A7
  8
0
 10
5750.0
 20
8300.0
 30
0.0
 11
5750.0
 21
8920.0
 31
0.0
  0
INSERT
  5
82A8
  8
0
  2
_ORIGIN
 10
5750.0
 20
8300.0
 30
0.0
 41
30.0
 42
30.0
 43
30.0
 50
90.0
  0
INSERT
  5
82A9
  8
0
  2
_ORIGIN
 10
5750.0
 20
8920.0
 30
0.0
 41
30.0
 42
30.0
 43
30.0
 50
270.0
  0
INSERT
  5
82AA
  8
0
  2
*U9
 10
0.0
 20
0.0
 30
0.0
  0
POINT
  5
82AB
  8
DEFPOINTS
 62
     0
 10
6650.0
 20
8300.0
 30
0.0
  0
POINT
  5
82AC
  8
DEFPOINTS
 62
     0
 10
6650.0
 20
8920.0
 30
0.0
  0
POINT
  5
82AD
  8
DEFPOINTS
 62
     0
 10
5750.0
 20
8920.0
 30
0.0
  0
ENDBLK
  5
8205
  8
0
  0
BLOCK
  8
0
  2
*U9
 70
     1
 10
0.0
 20
0.0
 30
0.0
  3
*U9
  1

  0
TEXT
  5
83BE
  8
0
 10
5719.9999999999973
 20
8254.4000000000033
 30
0.0
 40
105.0
  1
HR=620以上
 50
90.0
 41
0.8
  7
文字
  0
ENDBLK
  5
83C0
  8
0
  0
BLOCK
  8
0
  2
*D10
 70
     1
 10
0.0
 20
0.0
 30
0.0
  3
*D10
  1

  0
LINE
  5
82AE
  8
0
 10
7400.0
 20
6020.0
 30
0.0
 11
8029.9999999999973
 21
6020.0
 31
0.0
  0
LINE
  5
82AF
  8
0
 10
7400.0
 20
8415.0
 30
0.0
 11
8030.0
 21
8415.0
 31
0.0
  0
LINE
  5
82B0
  8
0
 10
7999.9999999999973
 20
6050.0
 30
0.0
 11
8000.0
 21
8385.0
 31
0.0
  0
INSERT
  5
82B1
  8
0
  2
_ORIGIN
 10
7999.9999999999973
 20
6020.0
 30
0.0
 41
30.0
 42
30.0
 43
30.0
 50
270.0
  0
INSERT
  5
82B2
  8
0
  2
_ORIGIN
 10
8000.0
 20
8415.0
 30
0.0
 41
30.0
 42
30.0
 43
30.0
 50
90.0
  0
INSERT
  5
82B3
  8
0
  2
*U11
 10
0.0
 20
0.0
 30
0.0
  0
POINT
  5
82B4
  8
DEFPOINTS
 62
     0
 10
7250.0
 20
6020.0
 30
0.0
  0
POINT
  5
82B5
  8
DEFPOINTS
 62
     0
 10
7250.0
 20
8415.0
 30
0.0
  0
POINT
  5
82B6
  8
DEFPOINTS
 62
     0
 10
8000.0
 20
8415.0
 30
0.0
  0
ENDBLK
  5
8213
  8
0
  0
BLOCK
  8
0
  2
*U11
 70
     1
 10
0.0
 20
0.0
 30
0.0
  3
*U11
  1

  0
TEXT
  5
83C2
  8
0
 10
7969.9999999999973
 20
7131.5000000000009
 30
0.0
 40
105.0
  1
DH
 50
90.0
 41
0.8
  7
文字
  0
ENDBLK
  5
83C4
  8
0
  0
BLOCK
  8
0
  2
*D12
 70
     1
 10
0.0
 20
0.0
 30
0.0
  3
*D12
  1

  0
LINE
  5
82B7
  8
0
 10
7000.0
 20
9395.0
 30
0.0
 11
7000.0
 21
9425.0
 31
0.0
  0
LINE
  5
82B8
  8
0
 10
7110.0
 20
9170.0
 30
0.0
 11
7110.0
 21
9425.0
 31
0.0
  0
LINE
  5
82B9
  8
0
 10
6970.0
 20
9395.0
 30
0.0
 11
6940.0
 21
9395.0
 31
0.0
  0
LINE
  5
82BA
  8
0
 10
7140.0
 20
9395.0
 30
0.0
 11
7170.0
 21
9395.0
 31
0.0
  0
LINE
  5
82BB
  8
0
 10
7000.0
 20
9395.0
 30
0.0
 11
7110.0
 21
9395.0
 31
0.0
  0
INSERT
  5
82BC
  8
0
  2
_ORIGIN
 10
7000.0
 20
9395.0
 30
0.0
 41
30.0
 42
30.0
 43
30.0
  0
INSERT
  5
82BD
  8
0
  2
_ORIGIN
 10
7110.0
 20
9395.0
 30
0.0
 41
30.0
 42
30.0
 43
30.0
 50
180.0
  0
INSERT
  5
82BE
  8
0
  2
*U13
 10
0.0
 20
0.0
 30
0.0
  0
POINT
  5
82BF
  8
DEFPOINTS
 62
     0
 10
7000.0
 20
9245.0
 30
0.0
  0
POINT
  5
82C0
  8
DEFPOINTS
 62
     0
 10
7110.0
 20
9020.0
 30
0.0
  0
POINT
  5
82C1
  8
DEFPOINTS
 62
     0
 10
7110.0
 20
9395.0
 30
0.0
  0
ENDBLK
  5
821F
  8
0
  0
BLOCK
  8
0
  2
*U13
 70
     1
 10
0.0
 20
0.0
 30
0.0
  3
*U13
  1

  0
TEXT
  5
83C6
  8
0
 10
6929.0
 20
9425.0
 30
0.0
 40
105.0
  1
110
 41
0.8
  7
文字
  0
ENDBLK
  5
83C8
  8
0
  0
BLOCK
  8
0
  2
*D14
 70
     1
 10
0.0
 20
0.0
 30
0.0
  3
*D14
  1

  0
LINE
  5
82C2
  8
0
 10
5475.0
 20
2600.0000000000259
 30
0.0
 11
5475.0
 21
2220.0000000000241
 31
0.0
  0
LINE
  5
82C3
  8
0
 10
8525.0
 20
2600.0000000000259
 30
0.0
 11
8525.0
 21
2220.0000000000241
 31
0.0
  0
LINE
  5
82C4
  8
0
 10
5505.0
 20
2250.0000000000241
 30
0.0
 11
8495.0
 21
2250.0000000000241
 31
0.0
  0
INSERT
  5
82C5
  8
0
  2
_ORIGIN
 10
5475.0
 20
2250.0000000000241
 30
0.0
 41
30.0
 42
30.0
 43
30.0
 50
180.0
  0
INSERT
  5
82C6
  8
0
  2
_ORIGIN
 10
8525.0
 20
2250.0000000000241
 30
0.0
 41
30.0
 42
30.0
 43
30.0
  0
INSERT
  5
82C7
  8
0
  2
*U15
 10
0.0
 20
0.0
 30
0.0
  0
POINT
  5
82C8
  8
DEFPOINTS
 62
     0
 10
5475.0
 20
2750.0000000000259
 30
0.0
  0
POINT
  5
82C9
  8
DEFPOINTS
 62
     0
 10
8525.0
 20
2750.0000000000259
 30
0.0
  0
POINT
  5
82CA
  8
DEFPOINTS
 62
     0
 10
8525.0
 20
2250.0000000000241
 30
0.0
  0
ENDBLK
  5
822D
  8
0
  0
BLOCK
  8
0
  2
*U15
 70
     1
 10
0.0
 20
0.0
 30
0.0
  3
*U15
  1

  0
TEXT
  5
83CA
  8
0
 10
6906.0
 20
2280.0000000000241
 30
0.0
 40
105.0
  1
DW
 41
0.8
  7
文字
  0
ENDBLK
  5
83CC
  8
0
  0
BLOCK
  8
0
  2
*D16
 70
     1
 10
0.0
 20
0.0
 30
0.0
  3
*D16
  1

  0
LINE
  5
82CB
  8
0
 10
5500.0
 20
3500.0000000000259
 30
0.0
 11
5500.0
 21
3805.0000000000259
 31
0.0
  0
LINE
  5
82CC
  8
0
 10
5350.0
 20
3500.0000000000259
 30
0.0
 11
5350.0
 21
3805.0000000000259
 31
0.0
  0
LINE
  5
82CD
  8
0
 10
5530.0
 20
3775.0000000000259
 30
0.0
 11
5560.0
 21
3775.0000000000259
 31
0.0
  0
LINE
  5
82CE
  8
0
 10
5320.0
 20
3775.0000000000259
 30
0.0
 11
5290.0
 21
3775.0000000000259
 31
0.0
  0
LINE
  5
82CF
  8
0
 10
5500.0
 20
3775.0000000000259
 30
0.0
 11
5350.0
 21
3775.0000000000259
 31
0.0
  0
INSERT
  5
82D0
  8
0
  2
_ORIGIN
 10
5500.0
 20
3775.0000000000259
 30
0.0
 41
30.0
 42
30.0
 43
30.0
 50
180.0
  0
INSERT
  5
82D1
  8
0
  2
_ORIGIN
 10
5350.0
 20
3775.0000000000259
 30
0.0
 41
30.0
 42
30.0
 43
30.0
  0
INSERT
  5
82D2
  8
0
  2
*U17
 10
0.0
 20
0.0
 30
0.0
  0
POINT
  5
82D3
  8
DEFPOINTS
 62
     0
 10
5500.0
 20
3350.0000000000259
 30
0.0
  0
POINT
  5
82D4
  8
DEFPOINTS
 62
     0
 10
5350.0
 20
3350.0000000000259
 30
0.0
  0
POINT
  5
82D5
  8
DEFPOINTS
 62
     0
 10
5350.0
 20
3775.0000000000259
 30
0.0
  0
ENDBLK
  5
8239
  8
0
  0
BLOCK
  8
0
  2
*U17
 70
     1
 10
0.0
 20
0.0
 30
0.0
  3
*U17
  1

  0
TEXT
  5
83CE
  8
0
 10
5203.3999999999996
 20
3805.0000000000259
 30
0.0
 40
105.0
  1
150以上
 41
0.8
  7
文字
  0
ENDBLK
  5
83D0
  8
0
  0
BLOCK
  8
0
  2
*D18
 70
     1
 10
0.0
 20
0.0
 30
0.0
  3
*D18
  1

  0
LINE
  5
82D6
  8
0
 10
8500.0
 20
3500.0000000000259
 30
0.0
 11
8500.0
 21
3805.0000000000259
 31
0.0
  0
LINE
  5
82D7
  8
0
 10
8770.0
 20
3500.0000000000259
 30
0.0
 11
8770.0
 21
3805.0000000000259
 31
0.0
  0
LINE
  5
82D8
  8
0
 10
8470.0
 20
3775.0000000000259
 30
0.0
 11
8440.0
 21
3775.0000000000259
 31
0.0
  0
LINE
  5
82D9
  8
0
 10
8800.0
 20
3775.0000000000259
 30
0.0
 11
8830.0
 21
3775.0000000000259
 31
0.0
  0
LINE
  5
82DA
  8
0
 10
8500.0
 20
3775.0000000000259
 30
0.0
 11
8770.0
 21
3775.0000000000259
 31
0.0
  0
INSERT
  5
82DB
  8
0
  2
_ORIGIN
 10
8500.0
 20
3775.0000000000259
 30
0.0
 41
30.0
 42
30.0
 43
30.0
  0
INSERT
  5
82DC
  8
0
  2
_ORIGIN
 10
8770.0
 20
3775.0000000000259
 30
0.0
 41
30.0
 42
30.0
 43
30.0
 50
180.0
  0
INSERT
  5
82DD
  8
0
  2
*U19
 10
0.0
 20
0.0
 30
0.0
  0
POINT
  5
82DE
  8
DEFPOINTS
 62
     0
 10
8500.0
 20
3350.0000000000259
 30
0.0
  0
POINT
  5
82DF
  8
DEFPOINTS
 62
     0
 10
8770.0
 20
3350.0000000000259
 30
0.0
  0
POINT
  5
82E0
  8
DEFPOINTS
 62
     0
 10
8770.0
 20
3775.0000000000259
 30
0.0
  0
ENDBLK
  5
8247
  8
0
  0
BLOCK
  8
0
  2
*U19
 70
     1
 10
0.0
 20
0.0
 30
0.0
  3
*U19
  1

  0
TEXT
  5
83D2
  8
0
 10
8419.4000000000033
 20
3805.0000000000259
 30
0.0
 40
105.0
  1
270以上
 41
0.8
  7
文字
  0
ENDBLK
  5
83D4
  8
0
  0
BLOCK
  8
0
  2
*D20
 70
     1
 10
0.0
 20
0.0
 30
0.0
  3
*D20
  1

  0
LINE
  5
82E1
  8
0
 10
6928.1630286081918
 20
8756.6564976417321
 30
0.0
 11
6790.2360435359642
 21
9216.4131145477404
 31
0.0
  0
LINE
  5
82E2
  8
0
 10
9796.8527528448722
 20
9617.2634149154073
 30
0.0
 11
9658.9257677726437
 21
10077.02003182141
 31
0.0
  0
LINE
  5
82E3
  8
0
 10
6827.5912686596039
 20
9196.2987625581263
 30
0.0
 11
9638.8114157830314
 21
10039.66480669777
 31
0.0
  0
INSERT
  5
82E4
  8
0
  2
_ORIGIN
 10
6798.8564801029797
 20
9187.6783259911135
 30
0.0
 41
30.0
 42
30.0
 43
30.0
 50
196.69924423404251
  0
INSERT
  5
82E5
  8
0
  2
_ORIGIN
 10
9667.5462043396565
 20
10048.28524326478
 30
0.0
 41
30.0
 42
30.0
 43
30.0
 50
16.69924423404251
  0
INSERT
  5
82E6
  8
0
  2
*U21
 10
0.0
 20
0.0
 30
0.0
  0
POINT
  5
82E7
  8
DEFPOINTS
 62
     0
 10
6971.2652114432667
 20
8612.9825548585977
 30
0.0
  0
POINT
  5
82E8
  8
DEFPOINTS
 62
     0
 10
9839.9549356799434
 20
9473.5894721322711
 30
0.0
  0
POINT
  5
82E9
  8
DEFPOINTS
 62
     0
 10
9667.5462043396565
 20
10048.28524326478
 30
0.0
  0
ENDBLK
  5
8255
  8
0
  0
BLOCK
  8
0
  2
*U21
 70
     1
 10
0.0
 20
0.0
 30
0.0
  3
*U21
  1

  0
TEXT
  5
83D6
  8
0
 10
7975.5460714968694
 20
9572.0061229371113
 30
0.0
 40
105.0
  1
DH+600
 50
16.69924423404251
 41
0.8
  7
文字
  0
ENDBLK
  5
83D8
  8
0
  0
BLOCK
  8
0
  2
*D22
 70
     1
 10
0.0
 20
0.0
 30
0.0
  3
*D22
  1

  0
LINE
  5
82EA
  8
0
 10
7400.0
 20
8789.9999999999836
 30
0.0
 11
7805.0
 21
8789.9999999999836
 31
0.0
  0
LINE
  5
82EB
  8
0
 10
7400.0
 20
8290.0000000000109
 30
0.0
 11
7805.0
 21
8290.0000000000109
 31
0.0
  0
LINE
  5
82EC
  8
0
 10
7775.0
 20
8759.9999999999891
 30
0.0
 11
7775.0
 21
8320.0000000000127
 31
0.0
  0
INSERT
  5
82ED
  8
0
  2
_ORIGIN
 10
7775.0
 20
8789.9999999999836
 30
0.0
 41
30.0
 42
30.0
 43
30.0
 50
90.0
  0
INSERT
  5
82EE
  8
0
  2
_ORIGIN
 10
7775.0
 20
8290.0000000000109
 30
0.0
 41
30.0
 42
30.0
 43
30.0
 50
270.0
  0
INSERT
  5
82EF
  8
0
  2
*U23
 10
0.0
 20
0.0
 30
0.0
  0
POINT
  5
82F0
  8
DEFPOINTS
 62
     0
 10
7250.0
 20
8789.9999999999836
 30
0.0
  0
POINT
  5
82F1
  8
DEFPOINTS
 62
     0
 10
7250.0
 20
8290.0000000000109
 30
0.0
  0
POINT
  5
82F2
  8
DEFPOINTS
 62
     0
 10
7775.0
 20
8290.0000000000109
 30
0.0
  0
ENDBLK
  5
8261
  8
0
  0
BLOCK
  8
0
  2
*U23
 70
     1
 10
0.0
 20
0.0
 30
0.0
  3
*U23
  1

  0
TEXT
  5
83DA
  8
0
 10
7744.9999999999973
 20
8327.2000000000007
 30
0.0
 40
105.0
  1
500以内
 50
90.0
 41
0.8
  7
文字
  0
ENDBLK
  5
83DC
  8
0
  0
BLOCK
  8
0
  2
*D24
 70
     1
 10
0.0
 20
0.0
 30
0.0
  3
*D24
  1

  0
LINE
  5
82F3
  8
0
 10
6500.0
 20
8300.0
 30
0.0
 11
5945.0
 21
8300.0
 31
0.0
  0
LINE
  5
82F4
  8
0
 10
6500.0
 20
8790.0
 30
0.0
 11
5945.0
 21
8790.0
 31
0.0
  0
LINE
  5
82F5
  8
0
 10
5975.0
 20
8330.0
 30
0.0
 11
5975.0
 21
8760.0
 31
0.0
  0
INSERT
  5
82F6
  8
0
  2
_ORIGIN
 10
5975.0
 20
8300.0
 30
0.0
 41
30.0
 42
30.0
 43
30.0
 50
270.0
  0
INSERT
  5
82F7
  8
0
  2
_ORIGIN
 10
5975.0
 20
8790.0
 30
0.0
 41
30.0
 42
30.0
 43
30.0
 50
90.0
  0
INSERT
  5
82F8
  8
0
  2
*U25
 10
0.0
 20
0.0
 30
0.0
  0
POINT
  5
82F9
  8
DEFPOINTS
 62
     0
 10
6650.0
 20
8300.0
 30
0.0
  0
POINT
  5
82FA
  8
DEFPOINTS
 62
     0
 10
6650.0
 20
8790.0
 30
0.0
  0
POINT
  5
82FB
  8
DEFPOINTS
 62
     0
 10
5975.0
 20
8790.0
 30
0.0
  0
ENDBLK
  5
826D
  8
0
  0
BLOCK
  8
0
  2
*U25
 70
     1
 10
0.0
 20
0.0
 30
0.0
  3
*U25
  1

  0
TEXT
  5
83DE
  8
0
 10
5944.9999999999991
 20
8333.0000000000036
 30
0.0
 40
105.0
  1
h=490
 50
90.0
 41
0.8
  7
文字
  0
ENDBLK
  5
83E0
  8
0
  0
BLOCK
  8
0
  2
*D26
 70
     1
 10
0.0
 20
0.0
 30
0.0
  3
*D26
  1

  0
LINE
  5
82FC
  8
0
 10
6500.0
 20
8300.0
 30
0.0
 11
5945.0
 21
8300.0
 31
0.0
  0
LINE
  5
82FD
  8
0
 10
6500.0
 20
8200.0
 30
0.0
 11
5945.0
 21
8200.0
 31
0.0
  0
LINE
  5
82FE
  8
0
 10
5975.0
 20
8330.0
 30
0.0
 11
5975.0
 21
8360.0
 31
0.0
  0
LINE
  5
82FF
  8
0
 10
5975.0
 20
8170.0000000000027
 30
0.0
 11
5975.0
 21
8140.0
 31
0.0
  0
LINE
  5
8300
  8
0
 10
5975.0
 20
8300.0
 30
0.0
 11
5975.0
 21
8200.0
 31
0.0
  0
INSERT
  5
8301
  8
0
  2
_ORIGIN
 10
5975.0
 20
8300.0
 30
0.0
 41
30.0
 42
30.0
 43
30.0
 50
270.0
  0
INSERT
  5
8302
  8
0
  2
_ORIGIN
 10
5975.0
 20
8200.0
 30
0.0
 41
30.0
 42
30.0
 43
30.0
 50
90.0
  0
INSERT
  5
8303
  8
0
  2
*U27
 10
0.0
 20
0.0
 30
0.0
  0
POINT
  5
8304
  8
DEFPOINTS
 62
     0
 10
6650.0
 20
8300.0
 30
0.0
  0
POINT
  5
8305
  8
DEFPOINTS
 62
     0
 10
6650.0
 20
8200.0
 30
0.0
  0
POINT
  5
8306
  8
DEFPOINTS
 62
     0
 10
5975.0
 20
8200.0
 30
0.0
  0
ENDBLK
  5
8279
  8
0
  0
BLOCK
  8
0
  2
*U27
 70
     1
 10
0.0
 20
0.0
 30
0.0
  3
*U27
  1

  0
TEXT
  5
83E2
  8
0
 10
5944.9999999999991
 20
8214.0000000000018
 30
0.0
 40
105.0
  1
Y
 50
90.0
 41
0.8
  7
文字
  0
ENDBLK
  5
83E4
  8
0
  0
BLOCK
  8
0
  2
*D28
 70
     1
 10
0.0
 20
0.0
 30
0.0
  3
*D28
  1

  0
LINE
  5
8307
  8
0
 10
6500.0
 20
8200.0
 30
0.0
 11
5945.0000000000009
 21
8200.0
 31
0.0
  0
LINE
  5
8308
  8
0
 10
5975.0
 20
6000.0
 30
0.0
 11
5945.0
 21
6000.0
 31
0.0
  0
LINE
  5
8309
  8
0
 10
5975.0000000000009
 20
8170.0000000000027
 30
0.0
 11
5975.0
 21
6030.0
 31
0.0
  0
INSERT
  5
830A
  8
0
  2
_ORIGIN
 10
5975.0000000000009
 20
8200.0
 30
0.0
 41
30.0
 42
30.0
 43
30.0
 50
90.0
  0
INSERT
  5
830B
  8
0
  2
_ORIGIN
 10
5975.0
 20
6000.0
 30
0.0
 41
30.0
 42
30.0
 43
30.0
 50
270.0
  0
INSERT
  5
830C
  8
0
  2
*U29
 10
0.0
 20
0.0
 30
0.0
  0
POINT
  5
830D
  8
DEFPOINTS
 62
     0
 10
6650.0
 20
8200.0
 30
0.0
  0
POINT
  5
830E
  8
DEFPOINTS
 62
     0
 10
6125.0
 20
6000.0
 30
0.0
  0
POINT
  5
830F
  8
DEFPOINTS
 62
     0
 10
5975.0
 20
6000.0
 30
0.0
  0
ENDBLK
  5
8287
  8
0
  0
BLOCK
  8
0
  2
*U29
 70
     1
 10
0.0
 20
0.0
 30
0.0
  3
*U29
  1

  0
TEXT
  5
83E6
  8
0
 10
5944.9999999999991
 20
6666.0000000000027
 30
0.0
 40
105.0
  1
有効開口高=H-Y
 50
90.0
 41
0.8
  7
文字
  0
ENDBLK
  5
83E8
  8
0
  0
BLOCK
  8
0
  2
*U30
 70
     1
 10
0.0
 20
0.0
 30
0.0
  3
*U30
  1

  0
INSERT
  5
8392
  8
0
  2
_OPEN30
 10
7135.0
 20
8814.9999999999873
 30
0.0
 41
60.0
 42
60.0
 43
60.0
 50
239.99999999999989
  0
POLYLINE
  5
8393
  8
0
 66
     1
 10
0.0
 20
0.0
 30
0.0
  0
VERTEX
  5
8505
  8
0
 10
7165.0
 20
8866.961524227052
 30
0.0
  0
VERTEX
  5
8506
  8
0
 10
7292.8814486738256
 20
9088.4586906756304
 30
0.0
  0
VERTEX
  5
8507
  8
0
 10
7873.8814486738256
 20
9088.4586906756304
 30
0.0
  0
SEQEND
  5
8508
  8
0
  0
ENDBLK
  5
8399
  8
0
  0
BLOCK
  8
0
  2
*U31
 70
     1
 10
0.0
 20
0.0
 30
0.0
  3
*U31
  1

  0
INSERT
  5
839B
  8
0
  2
_OPEN30
 10
7234.2517461696098
 20
8251.5010773206195
 30
0.0
 41
60.0
 42
60.0
 43
60.0
 50
119.9999999999999
  0
POLYLINE
  5
839C
  8
0
 66
     1
 10
0.0
 20
0.0
 30
0.0
  0
VERTEX
  5
8509
  8
0
 10
7264.2517461696098
 20
8199.5395530935493
 30
0.0
  0
VERTEX
  5
850A
  8
0
 10
7359.2517461696098
 20
8034.9947263745098
 30
0.0
  0
VERTEX
  5
850B
  8
0
 10
8242.651746169613
 20
8034.9947263745098
 30
0.0
  0
SEQEND
  5
850C
  8
0
  0
ENDBLK
  5
83A2
  8
0
  0
BLOCK
  8
0
  2
*U32
 70
     1
 10
0.0
 20
0.0
 30
0.0
  3
*U32
  1

  0
INSERT
  5
83A4
  8
0
  2
_OPEN30
 10
7016.0000000000073
 20
7171.0475088412213
 30
0.0
 41
60.0
 42
60.0
 43
60.0
 50
300.0
  0
POLYLINE
  5
83A5
  8
0
 66
     1
 10
0.0
 20
0.0
 30
0.0
  0
VERTEX
  5
850D
  8
0
 10
6986.0000000000073
 20
7223.009033068287
 30
0.0
  0
VERTEX
  5
850E
  8
0
 10
6885.4957445612672
 20
7397.0875098650658
 30
0.0
  0
VERTEX
  5
850F
  8
0
 10
6500.4957445612672
 20
7397.0875098650658
 30
0.0
  0
SEQEND
  5
8510
  8
0
  0
ENDBLK
  5
83AB
  8
0
  0
BLOCK
  8
0
  2
*U33
 70
     1
 10
0.0
 20
0.0
 30
0.0
  3
*U33
  1

  0
INSERT
  5
83AD
  8
0
  2
_OPEN30
 10
8417.4656705427333
 20
8887.1060030034241
 30
0.0
 41
60.0
 42
60.0
 43
60.0
 50
104.9999999999999
  0
POLYLINE
  5
83AE
  8
0
 66
     1
 10
0.0
 20
0.0
 30
0.0
  0
VERTEX
  5
8511
  8
0
 10
8432.9948132488826
 20
8829.1504534260803
 30
0.0
  0
VERTEX
  5
8512
  8
0
 10
8508.0523363286138
 20
8549.0319638022484
 30
0.0
  0
VERTEX
  5
8513
  8
0
 10
10096.252336328611
 20
8549.0319638022484
 30
0.0
  0
SEQEND
  5
8514
  8
0
  0
ENDBLK
  5
83B4
  8
0
  0
ENDSEC
  0
SECTION
  2
ENTITIES
  0
LINE
  5
6011
  8
0
 10
16380.0
 20
0.0
 30
0.0
 11
0.0
 21
0.0
 31
0.0
  0
LINE
  5
6012
  8
0
 10
0.0
 20
11745.0
 30
0.0
 11
16380.0
 21
11745.0
 31
0.0
  0
LINE
  5
6013
  8
0
 10
0.0
 20
11745.0
 30
0.0
 11
0.0
 21
0.0
 31
0.0
  0
LINE
  5
6014
  8
0
 10
16380.0
 20
11745.0
 30
0.0
 11
16380.0
 21
0.0
 31
0.0
  0
LINE
  5
80BD
  8
0
 10
10130.0
 20
400.0
 30
0.0
 11
10130.0
 21
0.0
 31
0.0
  0
TEXT
  5
80BE
  8
0
 10
10979.99999999996
 20
247.5
 30
0.0
 40
105.0
  1
オーバードア（チェーンホイスト式）
 11
10979.99999999996
 21
300.0
 31
0.0
 73
     2
  0
TEXT
  5
80BF
  8
0
 10
10229.99999999996
 20
247.5
 30
0.0
 40
105.0
  1
製品名称  :
 11
10229.99999999996
 21
300.0
 31
0.0
 73
     2
  0
LINE
  5
80C0
  8
0
 10
10130.0
 20
200.0
 30
0.0
 11
13880.0
 21
200.0
 31
0.0
  0
LINE
  5
80C1
  8
0
 10
13880.0
 20
400.0
 30
0.0
 11
13880.0
 21
0.0
 31
0.0
  0
TEXT
  5
80C2
  8
0
 10
13998.33333333333
 20
112.5
 30
0.0
 40
175.0
  1
東洋シヤッター株式会社
 72
     1
 11
15130.0
 21
200.0
 31
0.0
 73
     2
  0
LINE
  5
80C3
  8
0
 10
10130.0
 20
400.0
 30
0.0
 11
16380.0
 21
400.0
 31
0.0
  0
TEXT
  5
80C4
  8
0
 10
12979.99999999996
 20
47.5
 30
0.0
 40
105.0
  1
縮尺:1/30
 11
12979.99999999996
 21
100.0
 31
0.0
 73
     2
  0
LINE
  5
80C5
  8
0
 10
5474.9999999999936
 20
2932.5
 30
0.0
 11
8524.9999999999909
 21
2932.5
 31
0.0
  0
LINE
  5
80C6
  8
0
 10
8524.9999999999909
 20
2932.5
 30
0.0
 11
8524.9999999999909
 21
2984.0
 31
0.0
  0
LINE
  5
80C7
  8
0
 10
8524.9999999999909
 20
2984.0
 30
0.0
 11
5474.9999999999936
 21
2984.0
 31
0.0
  0
LINE
  5
80C8
  8
0
 10
5474.9999999999936
 20
2984.0
 30
0.0
 11
5474.9999999999936
 21
2932.5
 31
0.0
  0
ARC
  5
80C9
  8
0
 10
8577.299999999992
 20
2997.6999999999971
 30
0.0
 40
2.299999999999998
 50
90.0
 51
180.0
  0
LINE
  5
80CA
  8
0
 10
8614.9999999999909
 20
2997.6999999999971
 30
0.0
 11
8614.9999999999909
 21
3000.0
 31
0.0
  0
LINE
  5
80CB
  8
0
 10
8577.299999999992
 20
2997.6999999999971
 30
0.0
 11
8614.9999999999909
 21
2997.6999999999971
 31
0.0
  0
LINE
  5
80CC
  8
0
 10
8577.299999999992
 20
2884.0
 30
0.0
 11
8577.299999999992
 21
2997.6999999999971
 31
0.0
  0
LINE
  5
80CD
  8
0
 10
8574.9999999999927
 20
2884.0
 30
0.0
 11
8577.299999999992
 21
2884.0
 31
0.0
  0
LINE
  5
80CE
  8
0
 10
8574.9999999999927
 20
2997.6999999999971
 30
0.0
 11
8574.9999999999927
 21
2884.0
 31
0.0
  0
LINE
  5
80CF
  8
0
 10
8614.9999999999909
 20
3000.0
 30
0.0
 11
8577.299999999992
 21
3000.0
 31
0.0
  0
ARC
  5
80D0
  8
0
 10
8562.4999999999909
 20
2886.4999999999391
 30
0.0
 40
5.7499999999704414
 50
180.0
 51
0.0
  0
ARC
  5
80D1
  8
0
 10
8562.4999999999909
 20
2921.5
 30
0.0
 40
5.7499999999704414
 50
0.0
 51
180.0
  0
LINE
  5
80D2
  8
0
 10
8556.7500000000218
 20
2886.4999999999391
 30
0.0
 11
8556.7500000000218
 21
2921.5
 31
0.0
  0
LINE
  5
80D3
  8
0
 10
8568.2500000000218
 20
2921.5
 30
0.0
 11
8568.2500000000218
 21
2886.4999999999391
 31
0.0
  0
ARC
  5
80D4
  8
0
 10
8568.9999999999909
 20
2889.7190997647272
 30
0.0
 40
4.0
 50
330.00000000001052
 51
0.0
  0
ARC
  5
80D5
  8
0
 10
8568.9999999999909
 20
2889.719099764734
 30
0.0
 40
6.0
 50
330.00000000001052
 51
0.0
  0
ARC
  5
80D6
  8
0
 10
8569.9999999999909
 20
2925.5
 30
0.0
 40
3.0
 50
0.0
 51
90.0
  0
ARC
  5
80D7
  8
0
 10
8569.9999999999909
 20
2925.5
 30
0.0
 40
5.0
 50
0.0
 51
90.0
  0
LINE
  5
80D8
  8
0
 10
8551.5529946162005
 20
2887.4999999999968
 30
0.0
 11
8554.4397459621468
 21
2882.4999999999968
 31
0.0
  0
LINE
  5
80D9
  8
0
 10
8553.2850454237632
 20
2888.4999999999959
 30
0.0
 11
8551.5529946162005
 21
2887.4999999999968
 31
0.0
  0
LINE
  5
80DA
  8
0
 10
8556.1717967697077
 20
2883.4999999999968
 30
0.0
 11
8553.2850454237632
 21
2888.4999999999959
 31
0.0
  0
LINE
  5
80DB
  8
0
 10
8572.4641016151309
 20
2887.7190997647272
 30
0.0
 11
8570.0282032302384
 21
2883.5000000000182
 31
0.0
  0
LINE
  5
80DC
  8
0
 10
8574.1961524227008
 20
2886.719099764734
 30
0.0
 11
8571.760254037792
 21
2882.5
 31
0.0
  0
ARC
  5
80DD
  8
0
 10
8563.0999999999894
 20
2887.5
 30
0.0
 40
8.0
 50
209.9999999999896
 51
330.00000000001052
  0
ARC
  5
80DE
  8
0
 10
8563.0999999999894
 20
2887.5
 30
0.0
 40
10.0
 50
209.9999999999896
 51
329.99999999989421
  0
LINE
  5
80DF
  8
0
 10
8572.9999999999909
 20
2925.5
 30
0.0
 11
8572.9999999999909
 21
2889.7190997647272
 31
0.0
  0
LINE
  5
80E0
  8
0
 10
8549.9999999999909
 20
2928.5
 30
0.0
 11
8569.9999999999909
 21
2928.5
 31
0.0
  0
LINE
  5
80E1
  8
0
 10
8549.9999999999909
 20
2930.5
 30
0.0
 11
8549.9999999999909
 21
2928.5
 31
0.0
  0
LINE
  5
80E2
  8
0
 10
8569.9999999999909
 20
2930.5
 30
0.0
 11
8549.9999999999909
 21
2930.5
 31
0.0
  0
LINE
  5
80E3
  8
0
 10
8574.9999999999927
 20
2889.719099764734
 30
0.0
 11
8574.9999999999927
 21
2925.5
 31
0.0
  0
LINE
  5
80E4
  8
0
 10
8515.6999999999935
 20
2882.5
 30
0.0
 11
8517.9999999999909
 21
2882.5
 31
0.0
  0
LINE
  5
80E5
  8
0
 10
8451.9999999999909
 20
2882.5
 30
0.0
 11
8454.299999999992
 21
2882.5
 31
0.0
  0
LINE
  5
80E6
  8
0
 10
8428.2500000000236
 20
2897.5
 30
0.0
 11
8556.7500000000218
 21
2897.5
 31
0.0
  0
LINE
  5
80E7
  8
0
 10
8428.2500000000236
 20
2910.5
 30
0.0
 11
8428.2500000000236
 21
2897.5
 31
0.0
  0
LINE
  5
80E8
  8
0
 10
8556.7500000000218
 20
2910.5
 30
0.0
 11
8428.2500000000236
 21
2910.5
 31
0.0
  0
LINE
  5
80E9
  8
0
 10
8515.6999999999935
 20
2930.1999999999971
 30
0.0
 11
8515.6999999999935
 21
2882.5
 31
0.0
  0
LINE
  5
80EA
  8
0
 10
8454.299999999992
 20
2930.1999999999971
 30
0.0
 11
8515.6999999999935
 21
2930.1999999999971
 31
0.0
  0
LINE
  5
80EB
  8
0
 10
8454.299999999992
 20
2882.5
 30
0.0
 11
8454.299999999992
 21
2930.1999999999971
 31
0.0
  0
LINE
  5
80EC
  8
0
 10
8451.9999999999909
 20
2932.5
 30
0.0
 11
8451.9999999999909
 21
2882.5
 31
0.0
  0
LINE
  5
80ED
  8
0
 10
8517.9999999999909
 20
2932.5
 30
0.0
 11
8451.9999999999909
 21
2932.5
 31
0.0
  0
LINE
  5
80EE
  8
0
 10
8517.9999999999909
 20
2882.5
 30
0.0
 11
8517.9999999999909
 21
2932.5
 31
0.0
  0
LINE
  5
80EF
  8
0
  6
PHANTOM2
 10
8624.9999999999782
 20
2999.9999999999891
 30
0.0
 11
8624.9999999999782
 21
1500.0000000000221
 31
0.0
  0
LINE
  5
80F0
  8
0
  6
PHANTOM2
 10
8624.9999999999782
 20
1250.0000000000221
 30
0.0
 11
8549.9999999999782
 21
1250.0000000000221
 31
0.0
  0
LINE
  5
80F1
  8
0
  6
PHANTOM2
 10
8549.9999999999782
 20
1250.0000000000221
 30
0.0
 11
8549.9999999999782
 21
1450.0000000000221
 31
0.0
  0
LINE
  5
80F2
  8
0
  6
PHANTOM2
 10
8574.9999999999782
 20
1250.0000000000221
 30
0.0
 11
8574.9999999999782
 21
1450.0000000000221
 31
0.0
  0
ARC
  5
80F3
  8
0
 10
5422.6999999999935
 20
2997.7000000000012
 30
0.0
 40
2.299999999999998
 50
0.0
 51
90.0
  0
LINE
  5
80F4
  8
0
 10
5384.9999999999936
 20
2997.7000000000012
 30
0.0
 11
5384.9999999999936
 21
3000.0
 31
0.0
  0
LINE
  5
80F5
  8
0
 10
5422.6999999999935
 20
2997.7000000000012
 30
0.0
 11
5384.9999999999936
 21
2997.7000000000012
 31
0.0
  0
LINE
  5
80F6
  8
0
 10
5422.6999999999935
 20
2884.0
 30
0.0
 11
5422.6999999999935
 21
2997.7000000000012
 31
0.0
  0
LINE
  5
80F7
  8
0
 10
5424.9999999999927
 20
2884.0
 30
0.0
 11
5422.6999999999935
 21
2884.0
 31
0.0
  0
LINE
  5
80F8
  8
0
 10
5424.9999999999927
 20
2997.7000000000012
 30
0.0
 11
5424.9999999999927
 21
2884.0
 31
0.0
  0
LINE
  5
80F9
  8
0
 10
5384.9999999999936
 20
3000.0
 30
0.0
 11
5422.6999999999935
 21
3000.0
 31
0.0
  0
ARC
  5
80FA
  8
0
 10
5437.4999999999918
 20
2886.4999999999409
 30
0.0
 40
5.7499999999704414
 50
180.0
 51
0.0
  0
ARC
  5
80FB
  8
0
 10
5437.4999999999918
 20
2921.5
 30
0.0
 40
5.7499999999704414
 50
0.0
 51
180.0
  0
LINE
  5
80FC
  8
0
 10
5443.2499999999618
 20
2886.4999999999409
 30
0.0
 11
5443.2499999999618
 21
2921.5
 31
0.0
  0
LINE
  5
80FD
  8
0
 10
5431.7499999999636
 20
2921.5
 30
0.0
 11
5431.7499999999636
 21
2886.4999999999409
 31
0.0
  0
ARC
  5
80FE
  8
0
 10
5430.9999999999927
 20
2889.7190997647272
 30
0.0
 40
4.0
 50
180.0
 51
209.9999999999896
  0
ARC
  5
80FF
  8
0
 10
5430.9999999999927
 20
2889.719099764734
 30
0.0
 40
6.0
 50
180.0
 51
209.9999999999896
  0
ARC
  5
8100
  8
0
 10
5429.9999999999918
 20
2925.5
 30
0.0
 40
3.0
 50
90.0
 51
180.0
  0
ARC
  5
8101
  8
0
 10
5429.9999999999918
 20
2925.5
 30
0.0
 40
5.0
 50
90.0
 51
180.0
  0
LINE
  5
8102
  8
0
 10
5448.4470053837858
 20
2887.5
 30
0.0
 11
5445.5602540378386
 21
2882.5
 31
0.0
  0
LINE
  5
8103
  8
0
 10
5446.7149545762222
 20
2888.4999999999959
 30
0.0
 11
5448.4470053837858
 21
2887.5
 31
0.0
  0
LINE
  5
8104
  8
0
 10
5443.828203230275
 20
2883.4999999999968
 30
0.0
 11
5446.7149545762222
 21
2888.4999999999959
 31
0.0
  0
LINE
  5
8105
  8
0
 10
5427.5358983848564
 20
2887.7190997647272
 30
0.0
 11
5429.971796769747
 21
2883.5000000000182
 31
0.0
  0
LINE
  5
8106
  8
0
 10
5425.8038475772837
 20
2886.719099764734
 30
0.0
 11
5428.2397459621943
 21
2882.5
 31
0.0
  0
ARC
  5
8107
  8
0
 10
5436.8999999999942
 20
2887.5
 30
0.0
 40
8.0
 50
209.9999999999896
 51
330.00000000001052
  0
ARC
  5
8108
  8
0
 10
5436.8999999999942
 20
2887.5
 30
0.0
 40
10.0
 50
210.0000000001059
 51
330.00000000001052
  0
LINE
  5
8109
  8
0
 10
5426.9999999999918
 20
2925.5
 30
0.0
 11
5426.9999999999918
 21
2889.7190997647272
 31
0.0
  0
LINE
  5
810A
  8
0
 10
5449.9999999999927
 20
2928.5
 30
0.0
 11
5429.9999999999918
 21
2928.5
 31
0.0
  0
LINE
  5
810B
  8
0
 10
5449.9999999999927
 20
2930.5
 30
0.0
 11
5449.9999999999927
 21
2928.5
 31
0.0
  0
LINE
  5
810C
  8
0
 10
5429.9999999999918
 20
2930.5
 30
0.0
 11
5449.9999999999927
 21
2930.5
 31
0.0
  0
LINE
  5
810D
  8
0
 10
5424.9999999999927
 20
2889.719099764734
 30
0.0
 11
5424.9999999999927
 21
2925.5
 31
0.0
  0
LINE
  5
810E
  8
0
 10
5484.299999999992
 20
2882.5
 30
0.0
 11
5481.9999999999927
 21
2882.5
 31
0.0
  0
LINE
  5
810F
  8
0
 10
5547.9999999999918
 20
2882.5
 30
0.0
 11
5545.6999999999935
 21
2882.5
 31
0.0
  0
LINE
  5
8110
  8
0
 10
5571.7499999999654
 20
2897.5
 30
0.0
 11
5443.2499999999618
 21
2897.5
 31
0.0
  0
LINE
  5
8111
  8
0
 10
5571.7499999999654
 20
2910.5
 30
0.0
 11
5571.7499999999654
 21
2897.5
 31
0.0
  0
LINE
  5
8112
  8
0
 10
5443.2499999999618
 20
2910.5
 30
0.0
 11
5571.7499999999654
 21
2910.5
 31
0.0
  0
LINE
  5
8113
  8
0
 10
5484.299999999992
 20
2930.2000000000012
 30
0.0
 11
5484.299999999992
 21
2882.5
 31
0.0
  0
LINE
  5
8114
  8
0
 10
5545.6999999999935
 20
2930.2000000000012
 30
0.0
 11
5484.299999999992
 21
2930.2000000000012
 31
0.0
  0
LINE
  5
8115
  8
0
 10
5545.6999999999935
 20
2882.5
 30
0.0
 11
5545.6999999999935
 21
2930.2000000000012
 31
0.0
  0
LINE
  5
8116
  8
0
 10
5547.9999999999918
 20
2932.5
 30
0.0
 11
5547.9999999999918
 21
2882.5
 31
0.0
  0
LINE
  5
8117
  8
0
 10
5481.9999999999927
 20
2932.5
 30
0.0
 11
5547.9999999999918
 21
2932.5
 31
0.0
  0
LINE
  5
8118
  8
0
 10
5481.9999999999927
 20
2882.5
 30
0.0
 11
5481.9999999999927
 21
2932.5
 31
0.0
  0
LINE
  5
8119
  8
0
  6
PHANTOM2
 10
5375.0000000000073
 20
2999.9999999999891
 30
0.0
 11
5375.0000000000073
 21
1500.0000000000221
 31
0.0
  0
LINE
  5
811A
  8
0
  6
PHANTOM2
 10
5375.0000000000073
 20
1250.0000000000221
 30
0.0
 11
5450.0000000000064
 21
1250.0000000000221
 31
0.0
  0
LINE
  5
811B
  8
0
  6
PHANTOM2
 10
5450.0000000000064
 20
1250.0000000000221
 30
0.0
 11
5450.0000000000064
 21
1450.0000000000221
 31
0.0
  0
LINE
  5
811C
  8
0
  6
PHANTOM2
 10
5425.0000000000064
 20
1250.0000000000221
 30
0.0
 11
5425.0000000000045
 21
1450.0000000000221
 31
0.0
  0
DIMENSION
  5
811D
  8
0
  2
*D4
 10
8500.0
 20
4000.0000000000241
 30
0.0
 11
7000.0
 21
4082.5000000000259
 31
0.0
  1
W
 13
5500.0
 23
3350.0000000000259
 33
0.0
 14
8500.0
 24
3350.0000000000259
 34
0.0
1001
ACAD
1000
DSTYLE
1002
{
1070
    41
1040
1.0
1002
}
  0
LINE
  5
811E
  8
0
 10
7016.0000000000073
 20
8414.9999999999709
 30
0.0
 11
7067.5000000000064
 21
8414.9999999999709
 31
0.0
  0
LINE
  5
811F
  8
0
 10
7067.5000000000064
 20
8414.9999999999709
 30
0.0
 11
7067.5000000000064
 21
6019.9999999999691
 31
0.0
  0
LINE
  5
8120
  8
0
 10
7067.5000000000064
 20
6019.9999999999691
 30
0.0
 11
7016.0000000000073
 21
6019.9999999999691
 31
0.0
  0
LINE
  5
8121
  8
0
 10
7016.0000000000073
 20
6019.9999999999691
 30
0.0
 11
7016.0000000000073
 21
8414.9999999999709
 31
0.0
  0
LINE
  5
8122
  8
0
 10
5250.0
 20
6000.0
 30
0.0
 11
11745.0
 21
6000.0
 31
0.0
  0
LINE
  5
8123
  8
0
 10
7104.0
 20
6000.0
 30
0.0
 11
7135.8198617225571
 21
8205.0000000000036
 31
0.0
  0
LINE
  5
8124
  8
0
  6
HIDDEN
 10
7050.9963323068368
 20
6000.0
 30
0.0
 11
7067.5000000000064
 21
7402.8117537458647
 31
0.0
  0
DIMENSION
  5
8125
  8
0
  2
*D6
 10
5750.0
 20
6000.0
 30
0.0
 11
5667.4999999999991
 21
7150.0000000000027
 31
0.0
  1
H
 13
6650.0
 23
8300.0
 33
0.0
 14
5850.0
 24
6000.0
 34
0.0
 50
90.0
1001
ACAD
1000
DSTYLE
1002
{
1070
    41
1040
1.0
1002
}
  0
DIMENSION
  5
8126
  8
0
  2
*D8
 10
5750.0
 20
8920.0
 30
0.0
 11
5667.4999999999991
 21
8610.0000000000018
 31
0.0
  1
HR=620以上
 13
6650.0
 23
8300.0
 33
0.0
 14
6650.0
 24
8920.0
 34
0.0
 50
90.0
1001
ACAD
1000
DSTYLE
1002
{
1070
    41
1040
1.0
1002
}
  0
LINE
  5
8127
  8
0
 10
7136.0
 20
8557.9999263366371
 30
0.0
 11
7136.0
 21
8417.9626215376084
 31
0.0
  0
LINE
  5
8128
  8
0
 10
7067.5000000000064
 20
7402.8117537458647
 30
0.0
 11
7082.8198617225416
 21
8205.0
 31
0.0
  0
DIMENSION
  5
8129
  8
0
  2
*D10
 10
8000.0
 20
8415.0
 30
0.0
 11
7917.4999999999964
 21
7217.5000000000018
 31
0.0
  1
DH
 13
7250.0
 23
6020.0
 33
0.0
 14
7250.0
 24
8415.0
 34
0.0
 50
90.0
1001
ACAD
1000
DSTYLE
1002
{
1070
    41
1040
1.0
1002
}
  0
DIMENSION
  5
812A
  8
0
  2
*D12
 10
7110.0
 20
9395.0
 30
0.0
 11
7055.0
 21
9477.5
 31
0.0
 13
7000.0
 23
9245.0
 33
0.0
 14
7110.0
 24
9020.0
 34
0.0
1001
ACAD
1000
DSTYLE
1002
{
1070
    41
1040
1.0
1002
}
  0
TEXT
  5
812B
  8
0
 10
7345.3814486738247
 20
9118.4586906756304
 30
0.0
 40
105.0
  1
巻取ドラム
 41
0.8
  7
横文字
 72
     1
 11
7583.3814486738256
 21
9118.4586906756304
 31
0.0
  0
INSERT
  5
812C
  8
0
  2
*U30
 10
0.0
 20
0.0
 30
0.0
  0
LINE
  5
812D
  8
0
 10
5500.0
 20
1500.0000000000221
 30
0.0
 11
5325.0
 21
1500.0000000000221
 31
0.0
  0
LINE
  5
812E
  8
0
 10
5500.0
 20
1450.0000000000221
 30
0.0
 11
5325.0
 21
1450.0000000000221
 31
0.0
  0
LINE
  5
812F
  8
0
  6
PHANTOM2
 10
5375.0000000000073
 20
1450.0000000000221
 30
0.0
 11
5375.0000000000073
 21
1250.0000000000221
 31
0.0
  0
LINE
  5
8130
  8
0
  6
PHANTOM2
 10
5425.0000000000045
 20
1500.0000000000221
 30
0.0
 11
5424.9999999999927
 21
2889.719099764734
 31
0.0
  0
LINE
  5
8131
  8
0
  6
PHANTOM2
 10
5450.0000000000064
 20
1500.0000000000221
 30
0.0
 11
5450.0000000000064
 21
2889.719099764734
 31
0.0
  0
LINE
  5
8132
  8
0
 10
8674.9999999999727
 20
1500.0000000000221
 30
0.0
 11
8499.9999999999709
 21
1500.0000000000221
 31
0.0
  0
LINE
  5
8133
  8
0
 10
8674.9999999999727
 20
1450.0000000000221
 30
0.0
 11
8499.9999999999709
 21
1450.0000000000221
 31
0.0
  0
LINE
  5
8134
  8
0
  6
PHANTOM2
 10
8624.9999999999782
 20
1450.0000000000221
 30
0.0
 11
8624.9999999999782
 21
1250.0000000000221
 31
0.0
  0
LINE
  5
8135
  8
0
  6
PHANTOM2
 10
8549.9999999999782
 20
1500.0000000000221
 30
0.0
 11
8549.9999999999782
 21
2889.719099764734
 31
0.0
  0
LINE
  5
8136
  8
0
  6
PHANTOM2
 10
8574.9999999999782
 20
1500.0000000000221
 30
0.0
 11
8574.9999999999927
 21
2889.719099764734
 31
0.0
  0
DIMENSION
  5
8137
  8
0
  2
*D14
 10
8525.0
 20
2250.0000000000241
 30
0.0
 11
7000.0
 21
2332.5000000000241
 31
0.0
  1
DW
 13
5475.0
 23
2750.0000000000259
 33
0.0
 14
8525.0
 24
2750.0000000000259
 34
0.0
1001
ACAD
1000
DSTYLE
1002
{
1070
    41
1040
1.0
1002
}
  0
LINE
  5
8138
  8
0
 10
7092.9992387806633
 20
6000.0
 30
0.0
 11
7124.8198617225562
 21
8205.0
 31
0.0
  0
DIMENSION
  5
8139
  8
0
  2
*D16
 10
5350.0
 20
3775.0000000000259
 30
0.0
 11
5425.0
 21
3857.5000000000259
 31
0.0
  1
150以上
 13
5500.0
 23
3350.0000000000259
 33
0.0
 14
5350.0
 24
3350.0000000000259
 34
0.0
1001
ACAD
1000
DSTYLE
1002
{
1070
    41
1040
1.0
1002
}
  0
DIMENSION
  5
813A
  8
0
  2
*D18
 10
8770.0
 20
3775.0000000000259
 30
0.0
 11
8635.0
 21
3857.5000000000259
 31
0.0
  1
270以上
 13
8500.0
 23
3350.0000000000259
 33
0.0
 14
8770.0
 24
3350.0000000000259
 34
0.0
1001
ACAD
1000
DSTYLE
1002
{
1070
    41
1040
1.0
1002
}
  0
LINE
  5
813B
  8
0
 10
9883.9191621717346
 20
9327.0420504934791
 30
0.0
 11
9868.6897242366667
 21
9377.8068436101821
 31
0.0
  0
LINE
  5
813C
  8
0
 10
7417.7198807544337
 20
8598.6666032257926
 30
0.0
 11
9880.7583354304898
 21
9337.5781396309067
 31
0.0
  0
LINE
  5
813D
  8
0
 10
7420.8807074956658
 20
8588.1305140883705
 30
0.0
 11
9883.9191621717346
 21
9327.0420504934791
 31
0.0
  0
ARC
  5
813E
  8
0
 10
7535.8198617225407
 20
8205.0000000000055
 30
0.0
 40
399.9999999999855
 50
106.6992442339225
 51
180.0
  0
ARC
  5
813F
  8
0
 10
7535.8198617225407
 20
8205.0000000000055
 30
0.0
 40
453.0
 50
106.6992442339225
 51
180.0
  0
ARC
  5
8140
  8
0
 10
7535.8198617225407
 20
8205.0000000000055
 30
0.0
 40
410.99999999998528
 50
106.6992442339225
 51
180.0
  0
LINE
  5
8141
  8
0
 10
7405.6512695606107
 20
8638.8953072050826
 30
0.0
 11
7136.0
 21
8557.9999263366426
 31
0.0
  0
LINE
  5
8142
  8
0
  6
HIDDEN
 10
7000.0
 20
8517.1999263365142
 30
0.0
 11
7014.3673942783607
 21
8469.3086120754597
 31
0.0
  0
LINE
  5
8143
  8
0
  6
HIDDEN
 10
7014.3673942783607
 20
8469.3086120754597
 30
0.0
 11
7136.0
 21
8505.7983937920653
 31
0.0
  0
LINE
  5
8144
  8
0
 10
7136.0
 20
8557.999926336639
 30
0.0
 11
7000.0
 21
8557.9999263366371
 31
0.0
  0
LINE
  5
8145
  8
0
 10
7136.0
 20
8505.798393792069
 30
0.0
 11
7221.8620211396783
 21
8531.5570001340529
 31
0.0
  0
LINE
  5
8146
  8
0
  6
HIDDEN
 10
7136.0
 20
8557.9999263366426
 30
0.0
 11
7000.0
 21
8517.1999263365142
 31
0.0
  0
DIMENSION
  5
8147
  8
0
  2
*D20
 10
9667.5462043396565
 20
10048.28524326478
 30
0.0
 11
8209.4951416620297
 21
9697.0024531586714
 31
0.0
 70
     1
  1
DH+600
 13
6971.2652114432667
 23
8612.9825548586014
 33
0.0
 14
9839.9549356799507
 24
9473.5894721322748
 34
0.0
1001
ACAD
1000
DSTYLE
1002
{
1070
    41
1040
1.0
1002
}
  0
LINE
  5
8148
  8
0
 10
9868.6897242366667
 20
9377.8068436101876
 30
0.0
 11
7405.651269560607
 21
8638.8953072050754
 31
0.0
  0
LINE
  5
8149
  8
0
 10
7000.0
 20
8875.0
 30
0.0
 11
7000.0
 21
8705.0
 31
0.0
  0
LINE
  5
814A
  8
0
 10
7000.0
 20
8705.0
 30
0.0
 11
7190.0
 21
8705.0
 31
0.0
  0
LINE
  5
814B
  8
0
 10
7210.0
 20
8725.0
 30
0.0
 11
7210.0
 21
8772.4999999999836
 31
0.0
  0
LINE
  5
814C
  8
0
 10
7190.0
 20
8875.0
 30
0.0
 11
7000.0
 21
8875.0
 31
0.0
  0
LINE
  5
814D
  8
0
 10
7190.0
 20
8875.0
 30
0.0
 11
7210.0
 21
8855.0
 31
0.0
  0
LINE
  5
814E
  8
0
 10
7210.0
 20
8725.0
 30
0.0
 11
7190.0
 21
8705.0
 31
0.0
  0
LINE
  5
814F
  8
0
 10
7003.2000000000025
 20
8875.0
 30
0.0
 11
7003.2000000000025
 21
8705.0
 31
0.0
  0
LINE
  5
8150
  8
0
 10
7187.0373286141257
 20
8807.4999999999873
 30
0.0
 11
7210.0
 21
8807.4999999999873
 31
0.0
  0
LINE
  5
8151
  8
0
 10
7210.0
 20
8772.4999999999836
 30
0.0
 11
7187.0373286141203
 21
8772.4999999999836
 31
0.0
  0
LINE
  5
8152
  8
0
 10
7210.0
 20
8807.4999999999873
 30
0.0
 11
7210.0
 21
8855.0
 31
0.0
  0
CIRCLE
  5
8153
  8
0
 10
7110.0
 20
8790.0
 30
0.0
 40
79.0
  0
LINE
  5
8154
  8
0
  6
CENTER2
 10
7110.0
 20
8890.0
 30
0.0
 11
7110.0
 21
8690.0
 31
0.0
  0
LINE
  5
8155
  8
0
  6
CENTER2
 10
7010.0
 20
8789.9999999999836
 30
0.0
 11
7210.0
 21
8789.9999999999836
 31
0.0
  0
LINE
  5
8156
  8
0
 10
8690.9999999999654
 20
2747.5000000000218
 30
0.0
 11
8690.9999999999654
 21
2912.5000000000209
 31
0.0
  0
LINE
  5
8157
  8
0
 10
8690.9999999999654
 20
2912.5000000000209
 30
0.0
 11
8698.9999999999909
 21
2912.5000000000209
 31
0.0
  0
LINE
  5
8158
  8
0
 10
8718.9999999999636
 20
2912.5000000000209
 30
0.0
 11
8718.99999999996
 21
2747.5000000000218
 31
0.0
  0
LINE
  5
8159
  8
0
 10
8695.4999999999654
 20
2747.5000000000218
 30
0.0
 11
8695.4999999999654
 21
2912.5000000000209
 31
0.0
  0
LINE
  5
815A
  8
0
 10
8714.4999999999636
 20
2912.5000000000209
 30
0.0
 11
8714.49999999996
 21
2747.5000000000218
 31
0.0
  0
LINE
  5
815B
  8
0
 10
8699.0
 20
2912.4999999999959
 30
0.0
 11
8702.0
 21
2904.257567741633
 31
0.0
  0
LINE
  5
815C
  8
0
 10
8702.0
 20
2904.257567741633
 30
0.0
 11
8702.0
 21
2896.9999999999968
 31
0.0
  0
LINE
  5
815D
  8
0
 10
8708.0
 20
2896.9999999999968
 30
0.0
 11
8708.0
 21
2904.257567741633
 31
0.0
  0
LINE
  5
815E
  8
0
 10
8708.0
 20
2904.257567741633
 30
0.0
 11
8711.0
 21
2912.4999999999959
 31
0.0
  0
LINE
  5
815F
  8
0
 10
8711.0000000000091
 20
2912.5000000000209
 30
0.0
 11
8718.9999999999636
 21
2912.5000000000209
 31
0.0
  0
ARC
  5
8160
  8
0
 10
8705.0
 20
2896.9999999999968
 30
0.0
 40
3.0
 50
180.0
 51
0.0
  0
LINE
  5
8161
  8
0
 10
8690.9999999999582
 20
2747.5000000000218
 30
0.0
 11
8698.9999999999891
 21
2747.5000000000218
 31
0.0
  0
LINE
  5
8162
  8
0
 10
8699.0000000000036
 20
2747.5000000000482
 30
0.0
 11
8702.0000000000036
 21
2755.742432258412
 31
0.0
  0
LINE
  5
8163
  8
0
 10
8702.0000000000036
 20
2755.742432258412
 30
0.0
 11
8702.0000000000036
 21
2763.0000000000482
 31
0.0
  0
LINE
  5
8164
  8
0
 10
8708.0000000000036
 20
2763.0000000000482
 30
0.0
 11
8708.0000000000036
 21
2755.742432258412
 31
0.0
  0
LINE
  5
8165
  8
0
 10
8708.0000000000036
 20
2755.742432258412
 30
0.0
 11
8711.0000000000018
 21
2747.5000000000482
 31
0.0
  0
LINE
  5
8166
  8
0
 10
8711.0000000000091
 20
2747.5000000000218
 30
0.0
 11
8718.99999999996
 21
2747.5000000000218
 31
0.0
  0
ARC
  5
8167
  8
0
 10
8705.0000000000036
 20
2763.0000000000482
 30
0.0
 40
3.0
 50
0.0
 51
180.0
  0
LINE
  5
8168
  8
0
 10
8673.6000000000022
 20
2955.0000000000209
 30
0.0
 11
8673.6000000000022
 21
2996.800000000022
 31
0.0
  0
LINE
  5
8169
  8
0
 10
8676.7999999999975
 20
3000.0000000000209
 30
0.0
 11
8733.2000000000007
 21
3000.0000000000209
 31
0.0
  0
LINE
  5
816A
  8
0
 10
8736.4000000000033
 20
2996.800000000022
 30
0.0
 11
8736.4000000000033
 21
2955.0000000000209
 31
0.0
  0
LINE
  5
816B
  8
0
 10
8736.4000000000033
 20
2955.0000000000209
 30
0.0
 11
8733.2000000000007
 21
2955.0000000000209
 31
0.0
  0
LINE
  5
816C
  8
0
 10
8733.2000000000007
 20
2955.0000000000209
 30
0.0
 11
8733.2000000000007
 21
2996.800000000022
 31
0.0
  0
LINE
  5
816D
  8
0
 10
8733.2000000000007
 20
2996.800000000022
 30
0.0
 11
8676.7999999999975
 21
2996.800000000022
 31
0.0
  0
LINE
  5
816E
  8
0
 10
8676.7999999999975
 20
2996.800000000022
 30
0.0
 11
8676.7999999999975
 21
2955.0000000000209
 31
0.0
  0
LINE
  5
816F
  8
0
 10
8676.7999999999975
 20
2955.0000000000209
 30
0.0
 11
8673.6000000000022
 21
2955.0000000000209
 31
0.0
  0
ARC
  5
8170
  8
0
 10
8676.7999999999975
 20
2996.800000000022
 30
0.0
 40
3.2000000000000002
 50
90.0
 51
180.0
  0
ARC
  5
8171
  8
0
 10
8733.2000000000007
 20
2996.800000000022
 30
0.0
 40
3.2000000000000002
 50
0.0
 51
90.0
  0
LINE
  5
8172
  8
0
 10
8676.7999999999975
 20
2995.0000000000218
 30
0.0
 11
8676.7999999999975
 21
2730.0000000000218
 31
0.0
  0
LINE
  5
8173
  8
0
 10
8676.7999999999975
 20
2730.0000000000218
 30
0.0
 11
8680.0
 21
2730.0000000000218
 31
0.0
  0
LINE
  5
8174
  8
0
 10
8680.0
 20
2730.0000000000218
 30
0.0
 11
8680.0
 21
2995.0000000000218
 31
0.0
  0
LINE
  5
8175
  8
0
 10
8680.0
 20
2995.0000000000218
 30
0.0
 11
8676.7999999999975
 21
2995.0000000000218
 31
0.0
  0
LINE
  5
8176
  8
0
 10
8730.0
 20
2995.0000000000218
 30
0.0
 11
8730.0
 21
2730.0000000000218
 31
0.0
  0
LINE
  5
8177
  8
0
 10
8730.0
 20
2730.0000000000218
 30
0.0
 11
8733.2000000000007
 21
2730.0000000000218
 31
0.0
  0
LINE
  5
8178
  8
0
 10
8733.2000000000007
 20
2730.0000000000218
 30
0.0
 11
8733.2000000000007
 21
2995.0000000000218
 31
0.0
  0
LINE
  5
8179
  8
0
 10
8733.2000000000007
 20
2995.0000000000218
 30
0.0
 11
8730.0
 21
2995.0000000000218
 31
0.0
  0
LINE
  5
817A
  8
0
  6
CENTER2
 10
8705.0
 20
3100.0000000000209
 30
0.0
 11
8705.0
 21
2640.0000000000218
 31
0.0
  0
LINE
  5
817B
  8
0
 10
7000.0
 20
8420.0000000000182
 30
0.0
 11
7000.0
 21
8160.0000000000173
 31
0.0
  0
LINE
  5
817C
  8
0
 10
7000.0
 20
8160.0000000000173
 30
0.0
 11
7009.0
 21
8160.0000000000173
 31
0.0
  0
LINE
  5
817D
  8
0
 10
7009.0
 20
8160.0000000000173
 30
0.0
 11
7045.0
 21
8200.0000000000182
 31
0.0
  0
LINE
  5
817E
  8
0
 10
7045.0
 20
8200.0000000000182
 30
0.0
 11
7045.0
 21
8380.0000000000182
 31
0.0
  0
LINE
  5
817F
  8
0
 10
7000.0
 20
8420.0000000000182
 30
0.0
 11
7009.0
 21
8420.0000000000182
 31
0.0
  0
LINE
  5
8180
  8
0
 10
7009.0
 20
8420.0000000000182
 30
0.0
 11
7045.0
 21
8380.0000000000182
 31
0.0
  0
LINE
  5
8181
  8
0
 10
7036.2500000000064
 20
8390.0000000000109
 30
0.0
 11
7269.9999999999918
 21
8390.0000000000109
 31
0.0
  0
LINE
  5
8182
  8
0
 10
7269.9999999999918
 20
8390.0000000000109
 30
0.0
 11
7269.9999999999918
 21
8190.00000000001
 31
0.0
  0
LINE
  5
8183
  8
0
 10
7269.9999999999918
 20
8190.00000000001
 30
0.0
 11
7036.2499999999918
 21
8190.00000000001
 31
0.0
  0
LINE
  5
8184
  8
0
 10
7269.9999999999918
 20
8227.300000000012
 30
0.0
 11
7274.9999999999909
 21
8227.300000000012
 31
0.0
  0
LINE
  5
8185
  8
0
 10
7274.9999999999909
 20
8227.300000000012
 30
0.0
 11
7274.9999999999909
 21
8190.00000000001
 31
0.0
  0
LINE
  5
8186
  8
0
 10
7274.9999999999909
 20
8190.00000000001
 30
0.0
 11
7269.9999999999918
 21
8190.00000000001
 31
0.0
  0
CIRCLE
  5
8187
  8
0
 10
7169.9999999999891
 20
8290.0000000000109
 30
0.0
 40
25.5
  0
LINE
  5
8188
  8
0
  6
CENTER2
 10
7219.9999999999909
 20
8290.0000000000109
 30
0.0
 11
7119.9999999999927
 21
8290.0000000000109
 31
0.0
  0
LINE
  5
8189
  8
0
  6
CENTER2
 10
7169.9999999999927
 20
8240.0000000000091
 30
0.0
 11
7169.9999999999927
 21
8340.0000000000073
 31
0.0
  0
LINE
  5
818A
  8
0
  6
HIDDEN
 10
7093.0000000000173
 20
8190.00000000001
 30
0.0
 11
7093.0000000000173
 21
6477.0
 31
0.0
  0
LINE
  5
818B
  8
0
  6
HIDDEN
 10
7247.0000000000182
 20
6477.0
 30
0.0
 11
7247.0000000000182
 21
8190.00000000001
 31
0.0
  0
ARC
  5
818C
  8
0
  6
HIDDEN
 10
7170.0000000000191
 20
6477.0
 30
0.0
 40
77.0
 50
180.0
 51
0.0
  0
LINE
  5
818D
  8
0
  6
PHANTOM2
 10
4500.0
 20
3000.0
 30
0.0
 11
5500.0
 21
3000.0
 31
0.0
  0
LINE
  5
818E
  8
0
  6
PHANTOM2
 10
8500.0
 20
3150.0
 30
0.0
 11
8500.0
 21
3000.0
 31
0.0
  0
LINE
  5
818F
  8
0
  6
PHANTOM2
 10
5500.0
 20
3150.0
 30
0.0
 11
5500.0
 21
3000.0
 31
0.0
  0
LINE
  5
8190
  8
0
  6
PHANTOM2
 10
4500.0
 20
3150.0
 30
0.0
 11
5500.0
 21
3150.0
 31
0.0
  0
LINE
  5
8191
  8
0
  6
PHANTOM2
 10
8500.0
 20
3150.0
 30
0.0
 11
9500.0
 21
3150.0
 31
0.0
  0
LINE
  5
8192
  8
0
  6
PHANTOM2
 10
8500.0
 20
3000.0
 30
0.0
 11
9500.0
 21
3000.0
 31
0.0
  0
LINE
  5
8193
  8
0
  6
PHANTOM2
 10
6850.0
 20
10350.08524326481
 30
0.0
 11
6850.0
 21
8300.0
 31
0.0
  0
LINE
  5
8194
  8
0
  6
PHANTOM2
 10
6850.0
 20
8300.0
 30
0.0
 11
7000.0
 21
8300.0
 31
0.0
  0
LINE
  5
8195
  8
0
  6
PHANTOM2
 10
7000.0
 20
8300.0
 30
0.0
 11
7000.0
 21
10350.08524326481
 31
0.0
  0
LINE
  5
8196
  8
0
  6
HIDDEN
 10
7145.1476956497754
 20
8284.2892234780011
 30
0.0
 11
7033.0065417298301
 21
8772.3079853142881
 31
0.0
  0
LINE
  5
8197
  8
0
  6
HIDDEN
 10
7188.9933346127673
 20
8791.0262001534611
 30
0.0
 11
7195.497850441755
 21
8290.3310934479232
 31
0.0
  0
TEXT
  5
8198
  8
0
 10
7411.7517461696134
 20
8064.9947263745107
 30
0.0
 40
105.0
  1
チェーンホイスト
 41
0.8
  7
横文字
 72
     1
 11
7800.9517461696132
 21
8064.9947263745107
 31
0.0
  0
INSERT
  5
8199
  8
0
  2
*U31
 10
0.0
 20
0.0
 30
0.0
  0
DIMENSION
  5
819A
  8
0
  2
*D22
 10
7775.0
 20
8290.0000000000109
 30
0.0
 11
7692.4999999999973
 21
8540.0
 31
0.0
  1
500以内
 13
7250.0
 23
8789.9999999999836
 33
0.0
 14
7250.0
 24
8290.0000000000109
 34
0.0
 50
90.0
1001
ACAD
1000
DSTYLE
1002
{
1070
    41
1040
1.0
1002
}
  0
TEXT
  5
819B
  8
0
 10
10979.999999999971
 20
47.5
 30
0.0
 40
105.0
  1
勾配
 11
10979.999999999971
 21
100.0
 31
0.0
 73
     2
  0
TEXT
  5
819C
  8
0
 10
10229.999999999971
 20
47.5
 30
0.0
 40
105.0
  1
納まり　  :
 11
10229.999999999971
 21
100.0
 31
0.0
 73
     2
  0
TEXT
  5
819D
  8
0
 10
6552.9957445612663
 20
7427.0875098650658
 30
0.0
 40
105.0
  1
パネル
 41
0.8
  7
文字
 72
     1
 11
6692.9957445612672
 21
7427.0875098650658
 31
0.0
  0
INSERT
  5
819E
  8
0
  2
*U32
 10
0.0
 20
0.0
 30
0.0
  0
TEXT
  5
819F
  8
0
 10
8915.7523363286182
 20
8579.0319638022484
 30
0.0
 40
105.0
  1
勾配型水平レール
 41
0.8
  7
横文字
 72
     1
 11
9302.1523363286178
 21
8579.0319638022484
 31
0.0
  0
INSERT
  5
81A0
  8
0
  2
*U33
 10
0.0
 20
0.0
 30
0.0
  0
TEXT
  5
81A1
  8
0
 10
8560.5523363286175
 20
8399.0319638022484
 30
0.0
 40
105.0
  1
（3／10・6／10・10／10）
 41
0.8
  7
横文字
 72
     1
 11
9302.1523363286178
 21
8399.0319638022484
 31
0.0
  0
DIMENSION
  5
81A2
  8
0
  2
*D24
 10
5975.0
 20
8790.0
 30
0.0
 11
5892.4999999999991
 21
8545.0000000000018
 31
0.0
  1
h=490
 13
6650.0
 23
8300.0
 33
0.0
 14
6650.0
 24
8790.0
 34
0.0
 50
90.0
1001
ACAD
1000
DSTYLE
1002
{
1070
    41
1040
1.0
1002
}
  0
DIMENSION
  5
81A3
  8
0
  2
*D26
 10
5975.0
 20
8200.0
 30
0.0
 11
5892.4999999999991
 21
8250.0000000000018
 31
0.0
  1
Y
 13
6650.0
 23
8300.0
 33
0.0
 14
6650.0
 24
8200.0
 34
0.0
 50
90.0
1001
ACAD
1000
DSTYLE
1002
{
1070
    41
1040
1.0
1002
}
  0
DIMENSION
  5
81A4
  8
0
  2
*D28
 10
5975.0
 20
6000.0
 30
0.0
 11
5892.4999999999991
 21
7100.0000000000009
 31
0.0
  1
有効開口高=H-Y
 13
6650.0
 23
8200.0
 33
0.0
 14
6125.0
 24
6000.0
 34
0.0
 50
90.0
1001
ACAD
1000
DSTYLE
1002
{
1070
    41
1040
1.0
1002
}
  0
TEXT
  5
81A5
  8
0
 10
13410.0
 20
10647.5
 30
0.0
 40
105.0
  1
パネル
 41
0.8
  7
文字
 72
     1
 11
13550.0
 21
10700.0
 31
0.0
 73
     2
  0
TEXT
  5
81A6
  8
0
 10
13064.0
 20
10247.5
 30
0.0
 40
105.0
  1
Y
 41
0.8
  7
文字
 72
     1
 11
13100.0
 21
10300.0
 31
0.0
 73
     2
  0
LINE
  5
81A7
  8
0
 10
15900.0
 20
10800.0
 30
0.0
 11
13800.0
 21
10800.0
 31
0.0
  0
LINE
  5
81A8
  8
0
 10
12900.0
 20
11000.0
 30
0.0
 11
12900.0
 21
10000.0
 31
0.0
  0
LINE
  5
81A9
  8
0
 10
15900.0
 20
10600.0
 30
0.0
 11
12900.0
 21
10600.0
 31
0.0
  0
LINE
  5
81AA
  8
0
 10
14300.0
 20
10400.0
 30
0.0
 11
15900.0
 21
10400.0
 31
0.0
  0
LINE
  5
81AB
  8
0
 10
13300.0
 20
11000.0
 30
0.0
 11
13300.0
 21
10000.0
 31
0.0
  0
LINE
  5
81AC
  8
0
 10
13800.0
 20
11000.0
 30
0.0
 11
13800.0
 21
10000.0
 31
0.0
  0
TEXT
  5
81AD
  8
0
 10
13510.0
 20
10247.5
 30
0.0
 40
105.0
  1
0
 41
0.8
  7
文字
 72
     1
 11
13550.0
 21
10300.0
 31
0.0
 73
     2
  0
TEXT
  5
81AE
  8
0
 10
13359.6
 20
10847.5
 30
0.0
 40
105.0
  1
スチール
 41
0.8
  7
文字
 72
     1
 11
13550.0
 21
10900.0
 31
0.0
 73
     2
  0
TEXT
  5
81AF
  8
0
 10
13960.4
 20
10647.5
 30
0.0
 40
105.0
  1
標準
 41
0.8
  7
文字
 72
     1
 11
14050.0
 21
10700.0
 31
0.0
 73
     2
  0
LINE
  5
81B0
  8
0
 10
14300.0
 20
10800.0
 30
0.0
 11
14300.0
 21
10000.0
 31
0.0
  0
TEXT
  5
81B1
  8
0
 10
14521.200000000001
 20
10647.5
 30
0.0
 40
105.0
  1
ワイド1
 41
0.8
  7
文字
 72
     1
 11
14700.0
 21
10700.0
 31
0.0
 73
     2
  0
LINE
  5
81B2
  8
0
 10
15100.0
 20
10800.0
 30
0.0
 11
15100.0
 21
10000.0
 31
0.0
  0
TEXT
  5
81B3
  8
0
 10
15309.200000000001
 20
10647.5
 30
0.0
 40
105.0
  1
ワイド2
 41
0.8
  7
文字
 72
     1
 11
15500.0
 21
10700.0
 31
0.0
 73
     2
  0
LINE
  5
81B4
  8
0
 10
15900.0
 20
11000.0
 30
0.0
 11
15900.0
 21
10000.0
 31
0.0
  0
TEXT
  5
81B5
  8
0
 10
14087.200000000001
 20
10847.5
 30
0.0
 40
105.0
  1
アルミパネル・FRPパネル
 41
0.8
  7
文字
 72
     1
 11
14700.0
 21
10900.0
 31
0.0
 73
     2
  0
LINE
  5
81B6
  8
0
 10
15900.0
 20
11000.0
 30
0.0
 11
12900.0
 21
11000.0
 31
0.0
  0
TEXT
  5
81B7
  8
0
 10
14010.0
 20
10247.5
 30
0.0
 40
105.0
  1
0
 41
0.8
  7
文字
 72
     1
 11
14050.0
 21
10300.0
 31
0.0
 73
     2
  0
TEXT
  5
81B8
  8
0
 10
14379.200000000001
 20
10447.5
 30
0.0
 40
105.0
  1
70（3／10）
 41
0.8
  7
文字
 72
     1
 11
14700.0
 21
10500.0
 31
0.0
 73
     2
  0
LINE
  5
81B9
  8
0
 10
12900.0
 20
11000.0
 30
0.0
 11
13300.0
 21
10600.0
 31
0.0
  0
TEXT
  5
81BA
  8
0
 10
12900.0
 20
11047.5
 30
0.0
 40
105.0
  1
有効開口高=H-Y
 41
0.8
  7
文字
 11
12900.0
 21
11100.0
 31
0.0
 73
     2
  0
TEXT
  5
81BB
  8
0
 10
14377.200000000001
 20
10247.5
 30
0.0
 40
105.0
  1
65（6／10）
 41
0.8
  7
文字
 72
     1
 11
14700.0
 21
10300.0
 31
0.0
 73
     2
  0
TEXT
  5
81BC
  8
0
 10
14337.200000000001
 20
10047.5
 30
0.0
 40
105.0
  1
60（10／10）
 41
0.8
  7
文字
 72
     1
 11
14700.0
 21
10100.0
 31
0.0
 73
     2
  0
TEXT
  5
81BD
  8
0
 10
15133.200000000001
 20
10447.5
 30
0.0
 40
105.0
  1
100（3／10）
 41
0.8
  7
文字
 72
     1
 11
15500.0
 21
10500.0
 31
0.0
 73
     2
  0
TEXT
  5
81BE
  8
0
 10
15179.200000000001
 20
10247.5
 30
0.0
 40
105.0
  1
95（6／10）
 41
0.8
  7
文字
 72
     1
 11
15500.0
 21
10300.0
 31
0.0
 73
     2
  0
TEXT
  5
81BF
  8
0
 10
15139.200000000001
 20
10047.5
 30
0.0
 40
105.0
  1
90（10／10）
 41
0.8
  7
文字
 72
     1
 11
15500.0
 21
10100.0
 31
0.0
 73
     2
  0
LINE
  5
81C0
  8
0
 10
12900.0
 20
10000.0
 30
0.0
 11
15900.0
 21
10000.0
 31
0.0
  0
LINE
  5
81C1
  8
0
 10
14300.0
 20
10200.0
 30
0.0
 11
15900.0
 21
10200.0
 31
0.0
  0
TEXT
  5
81C2
  8
0
 10
15531.200000000001
 20
11047.5
 30
0.0
 40
105.0
  1
（mm）
 41
0.8
  7
文字
 72
     2
 11
15900.0
 21
11100.0
 31
0.0
 73
     2
  0
LINE
  5
81C3
  8
0
  6
PHANTOM2
 10
7070.7000000000053
 20
6029.8000000000102
 30
0.0
 11
7095.5000000000073
 21
6029.8000000000102
 31
0.0
  0
LINE
  5
81C4
  8
0
  6
PHANTOM2
 10
7070.7000000000053
 20
6222.5000000000073
 30
0.0
 11
7067.5000000000064
 21
6222.5000000000073
 31
0.0
  0
LINE
  5
81C5
  8
0
  6
PHANTOM2
 10
7095.5000000000073
 20
6033.0000000000082
 30
0.0
 11
7095.5000000000073
 21
6029.8000000000102
 31
0.0
  0
LINE
  5
81C6
  8
0
  6
PHANTOM2
 10
7070.7000000000053
 20
6033.0000000000082
 30
0.0
 11
7095.5000000000073
 21
6033.0000000000082
 31
0.0
  0
ARC
  5
81C7
  8
0
  6
PHANTOM2
 10
7070.7000000000053
 20
6033.0000000000082
 30
0.0
 40
3.2000000000000002
 50
180.0
 51
270.0
  0
LINE
  5
81C8
  8
0
  6
PHANTOM2
 10
7163.5000000000073
 20
6138.4999999999691
 30
0.0
 11
7163.5000000000073
 21
6137.5000000000073
 31
0.0
  0
LINE
  5
81C9
  8
0
  6
PHANTOM2
 10
7163.5000000000073
 20
6055.5000000000073
 30
0.0
 11
7158.5952617056382
 21
6055.5000000000073
 31
0.0
  0
LINE
  5
81CA
  8
0
  6
PHANTOM2
 10
7136.5000000000082
 20
6055.5000000000073
 30
0.0
 11
7070.7000000000053
 21
6055.5000000000073
 31
0.0
  0
LINE
  5
81CB
  8
0
  6
PHANTOM2
 10
7163.5000000000073
 20
6137.5000000000073
 30
0.0
 11
7141.0295766755744
 21
6137.5000000000073
 31
0.0
  0
LINE
  5
81CC
  8
0
  6
PHANTOM2
 10
7104.8594262750121
 20
6114.1176127356302
 30
0.0
 11
7138.232212400565
 21
6136.6442433703842
 31
0.0
  0
ARC
  5
81CD
  8
0
  6
PHANTOM2
 10
7141.0295766755744
 20
6132.5000000000073
 30
0.0
 40
5.0
 50
90.0
 51
124.01934998959349
  0
LINE
  5
81CE
  8
0
  6
PHANTOM2
 10
7163.5000000000073
 20
6058.49999999997
 30
0.0
 11
7163.5000000000073
 21
6055.5000000000073
 31
0.0
  0
LINE
  5
81CF
  8
0
  6
PHANTOM2
 10
7163.5000000000073
 20
6138.4999999999691
 30
0.0
 11
7166.7000000000053
 21
6138.4999999999691
 31
0.0
  0
LINE
  5
81D0
  8
0
  6
PHANTOM2
 10
7163.5000000000073
 20
6058.49999999997
 30
0.0
 11
7166.7000000000089
 21
6058.49999999997
 31
0.0
  0
LINE
  5
81D1
  8
0
  6
PHANTOM2
 10
7166.7000000000053
 20
6138.4999999999691
 30
0.0
 11
7166.7000000000053
 21
6101.7290599168118
 31
0.0
  0
LINE
  5
81D2
  8
0
  6
PHANTOM2
 10
7166.7000000000089
 20
6095.3290599168104
 30
0.0
 11
7166.7000000000089
 21
6058.49999999997
 31
0.0
  0
ARC
  5
81D3
  8
0
  6
PHANTOM2
 10
7163.5000000000073
 20
6095.3290599168104
 30
0.0
 40
3.2000000000000002
 50
0.0
 51
90.0
  0
ARC
  5
81D4
  8
0
  6
PHANTOM2
 10
7163.5000000000073
 20
6101.7290599168118
 30
0.0
 40
3.2000000000000002
 50
270.0
 51
0.0
  0
LINE
  5
81D5
  8
0
  6
PHANTOM2
 10
7070.7000000000053
 20
6150.5000000000082
 30
0.0
 11
7104.8594262750121
 21
6114.1176127356366
 31
0.0
  0
LINE
  5
81D6
  8
0
  6
PHANTOM2
 10
7070.7000000000053
 20
6055.5000000000073
 30
0.0
 11
7070.7000000000053
 21
6033.0000000000082
 31
0.0
  0
ARC
  5
81D7
  8
0
  6
PHANTOM2
 10
7169.5000000000082
 20
6032.8000000000102
 30
0.0
 40
12.5
 50
239.9999999999429
 51
59.999999999942858
  0
LINE
  5
81D8
  8
0
  6
PHANTOM2
 10
7163.2500000000082
 20
6021.9746824527028
 30
0.0
 11
7139.0000000000073
 21
6035.9754264805506
 31
0.0
  0
LINE
  5
81D9
  8
0
  6
PHANTOM2
 10
7175.7500000000073
 20
6043.6253175473094
 30
0.0
 11
7161.0000000000073
 21
6052.1412340178576
 31
0.0
  0
ARC
  5
81DA
  8
0
  6
PHANTOM2
 10
7163.5000000000073
 20
6056.4713610367844
 30
0.0
 40
5.0
 50
191.20221111558621
 51
239.9999999999429
  0
LINE
  5
81DB
  8
0
  6
PHANTOM2
 10
7136.5000000000082
 20
6055.5000000000073
 30
0.0
 11
7136.5000000000082
 21
6040.3055534994719
 31
0.0
  0
ARC
  5
81DC
  8
0
  6
PHANTOM2
 10
7141.5000000000073
 20
6040.3055534994719
 30
0.0
 40
5.0
 50
180.0
 51
239.9999999999429
  0
LINE
  5
81DD
  8
0
  6
PHANTOM2
 10
7204.9000000000087
 20
6120.5000000000437
 30
0.0
 11
7204.9000000000087
 21
6151.1110695100851
 31
0.0
  0
LINE
  5
81DE
  8
0
  6
PHANTOM2
 10
7203.7000000000044
 20
6120.5000000000437
 30
0.0
 11
7203.7000000000044
 21
6150.5000000000418
 31
0.0
  0
LINE
  5
81DF
  8
0
  6
PHANTOM2
 10
7204.9000000000087
 20
6120.5000000000437
 30
0.0
 11
7203.7000000000044
 21
6120.5000000000437
 31
0.0
  0
LINE
  5
81E0
  8
0
  6
PHANTOM2
 10
7148.7000000000053
 20
6190.5000000000418
 30
0.0
 11
7203.7000000000044
 21
6150.5000000000418
 31
0.0
  0
LINE
  5
81E1
  8
0
  6
PHANTOM2
 10
7148.7000000000053
 20
6190.5000000000418
 30
0.0
 11
7070.7000000000053
 21
6190.5000000000418
 31
0.0
  0
LINE
  5
81E2
  8
0
  6
PHANTOM2
 10
7071.9000000000096
 20
6191.7000000000389
 30
0.0
 11
7071.9000000000096
 21
6224.6040862788577
 31
0.0
  0
LINE
  5
81E3
  8
0
  6
PHANTOM2
 10
7149.0902205763159
 20
6191.7000000000389
 30
0.0
 11
7071.9000000000096
 21
6191.7000000000389
 31
0.0
  0
LINE
  5
81E4
  8
0
  6
PHANTOM2
 10
7149.0902205763159
 20
6191.7000000000389
 30
0.0
 11
7204.9000000000087
 21
6151.1110695100851
 31
0.0
  0
LINE
  5
81E5
  8
0
  6
PHANTOM2
 10
7068.9000000000087
 20
6234.5000000000437
 30
0.0
 11
7070.7000000000053
 21
6224.4969790327668
 31
0.0
  0
LINE
  5
81E6
  8
0
  6
PHANTOM2
 10
7070.0810311808264
 20
6234.7125214105608
 30
0.0
 11
7071.9000000000096
 21
6224.6040862788577
 31
0.0
  0
LINE
  5
81E7
  8
0
  6
PHANTOM2
 10
7070.0810311808264
 20
6234.7125214105608
 30
0.0
 11
7068.9000000000087
 21
6234.5000000000437
 31
0.0
  0
LINE
  5
81E8
  8
0
  6
PHANTOM2
 10
7070.7000000000053
 20
6190.5000000000364
 30
0.0
 11
7070.7000000000053
 21
6150.5000000000082
 31
0.0
  0
LINE
  5
81E9
  8
0
  6
PHANTOM2
 10
7070.7000000000053
 20
6222.5000000000073
 30
0.0
 11
7070.7000000000053
 21
6224.4969790327668
 31
0.0
  0
LINE
  5
81EA
  8
0
  6
PHANTOM2
 10
7067.5000000000064
 20
6222.5000000000073
 30
0.0
 11
7067.5000000000064
 21
6033.0000000000082
 31
0.0
  0
ENDSEC
  0
EOF
