  0
SECTION
  2
HEADER
  9
$ACADVER
  1
AC1009
  9
$INSBASE
 10
0.0
 20
0.0
 30
0.0
  9
$EXTMIN
 10
-0.4998397926137841
 20
-0.3584016095373954
 30
-0.0015258207003583
  9
$EXTMAX
 10
16380.499916067931
 20
11745.35845630145
 30
0.0000000349246037
  9
$LIMMIN
 10
0.0
 20
0.0
  9
$LIMMAX
 10
420.0
 20
297.0
  9
$ORTHOMODE
 70
     0
  9
$REGENMODE
 70
     1
  9
$FILLMODE
 70
     1
  9
$QTEXTMODE
 70
     0
  9
$MIRRTEXT
 70
     1
  9
$DRAGMODE
 70
     2
  9
$LTSCALE
 40
7.5
  9
$OSMODE
 70
  3071
  9
$ATTMODE
 70
     1
  9
$TEXTSIZE
 40
105.0
  9
$TRACEWID
 40
1.0
  9
$TEXTSTYLE
  7
文字
  9
$CLAYER
  8
0
  9
$CELTYPE
  6
BYLAYER
  9
$CECOLOR
 62
   256
  9
$DIMSCALE
 40
30.0
  9
$DIMASZ
 40
2.0
  9
$DIMEXO
 40
5.0
  9
$DIMDLI
 40
7.5
  9
$DIMRND
 40
0.0
  9
$DIMDLE
 40
0.0
  9
$DIMEXE
 40
1.0
  9
$DIMTP
 40
0.0
  9
$DIMTM
 40
0.0
  9
$DIMTXT
 40
3.5
  9
$DIMCEN
 40
1.0
  9
$DIMTSZ
 40
0.0
  9
$DIMTOL
 70
     0
  9
$DIMLIM
 70
     0
  9
$DIMTIH
 70
     0
  9
$DIMTOH
 70
     0
  9
$DIMSE1
 70
     0
  9
$DIMSE2
 70
     0
  9
$DIMTAD
 70
     1
  9
$DIMZIN
 70
     8
  9
$DIMBLK
  1
ORIGIN
  9
$DIMASO
 70
     1
  9
$DIMSHO
 70
     1
  9
$DIMPOST
  1

  9
$DIMAPOST
  1

  9
$DIMALT
 70
     0
  9
$DIMALTD
 70
     3
  9
$DIMALTF
 40
0.03937007874016
  9
$DIMLFAC
 40
1.0
  9
$DIMTOFL
 70
     1
  9
$DIMTVP
 40
0.0
  9
$DIMTIX
 70
     1
  9
$DIMSOXD
 70
     0
  9
$DIMSAH
 70
     0
  9
$DIMBLK1
  1

  9
$DIMBLK2
  1

  9
$DIMSTYLE
  2
寸法線30
  9
$DIMCLRD
 70
   256
  9
$DIMCLRE
 70
   256
  9
$DIMCLRT
 70
   256
  9
$DIMTFAC
 40
1.0
  9
$DIMGAP
 40
1.0
  9
$LUNITS
 70
     2
  9
$LUPREC
 70
     4
  9
$SKETCHINC
 40
1.0
  9
$FILLETRAD
 40
0.0
  9
$AUNITS
 70
     0
  9
$AUPREC
 70
     0
  9
$MENU
  1
.
  9
$ELEVATION
 40
0.0
  9
$PELEVATION
 40
0.0
  9
$THICKNESS
 40
0.0
  9
$LIMCHECK
 70
     0
  9
$BLIPMODE
 70
     0
  9
$CHAMFERA
 40
10.0
  9
$CHAMFERB
 40
10.0
  9
$SKPOLY
 70
     0
  9
$TDCREATE
 40
2452654.657629028
  9
$TDUPDATE
 40
2456778.7068833802
  9
$TDINDWG
 40
0.799744213
  9
$TDUSRTIMER
 40
0.7997424074
  9
$USRTIMER
 70
     1
  9
$ANGBASE
 50
0.0
  9
$ANGDIR
 70
     0
  9
$PDMODE
 70
     0
  9
$PDSIZE
 40
0.0
  9
$PLINEWID
 40
0.0
  9
$COORDS
 70
     2
  9
$SPLFRAME
 70
     0
  9
$SPLINETYPE
 70
     6
  9
$SPLINESEGS
 70
     8
  9
$ATTDIA
 70
     0
  9
$ATTREQ
 70
     1
  9
$HANDLING
 70
     1
  9
$HANDSEED
  5
70CA
  9
$SURFTAB1
 70
     6
  9
$SURFTAB2
 70
     6
  9
$SURFTYPE
 70
     6
  9
$SURFU
 70
     6
  9
$SURFV
 70
     6
  9
$UCSNAME
  2

  9
$UCSORG
 10
0.0
 20
0.0
 30
0.0
  9
$UCSXDIR
 10
1.0
 20
0.0
 30
0.0
  9
$UCSYDIR
 10
0.0
 20
1.0
 30
0.0
  9
$PUCSNAME
  2

  9
$PUCSORG
 10
0.0
 20
0.0
 30
0.0
  9
$PUCSXDIR
 10
1.0
 20
0.0
 30
0.0
  9
$PUCSYDIR
 10
0.0
 20
1.0
 30
0.0
  9
$USERI1
 70
     0
  9
$USERI2
 70
     0
  9
$USERI3
 70
     0
  9
$USERI4
 70
     0
  9
$USERI5
 70
     0
  9
$USERR1
 40
0.0
  9
$USERR2
 40
0.0
  9
$USERR3
 40
0.0
  9
$USERR4
 40
0.0
  9
$USERR5
 40
0.0
  9
$WORLDVIEW
 70
     1
  9
$SHADEDGE
 70
     3
  9
$SHADEDIF
 70
    70
  9
$TILEMODE
 70
     1
  9
$MAXACTVP
 70
    64
  9
$PLIMCHECK
 70
     0
  9
$PEXTMIN
 10
1.0000000000000000E+020
 20
1.0000000000000000E+020
 30
1.0000000000000000E+020
  9
$PEXTMAX
 10
-1.0000000000000000E+020
 20
-1.0000000000000000E+020
 30
-1.0000000000000000E+020
  9
$PLIMMIN
 10
0.0
 20
0.0
  9
$PLIMMAX
 10
420.0
 20
297.0
  9
$UNITMODE
 70
     0
  9
$VISRETAIN
 70
     1
  9
$PLINEGEN
 70
     0
  9
$PSLTSCALE
 70
     1
  0
ENDSEC
  0
SECTION
  2
TABLES
  0
TABLE
  2
VPORT
 70
     1
  0
VPORT
  2
*ACTIVE
 70
     0
 10
0.0
 20
0.0
 11
1.0
 21
1.0
 12
8190.0000381376594
 22
5872.5000273459573
 13
0.0
 23
0.0
 14
10.0
 24
10.0
 15
10.0
 25
10.0
 16
0.0
 26
0.0
 36
1.0
 17
0.0
 27
0.0
 37
0.0
 40
11826.443434254021
 41
1.7981651376146781
 42
50.0
 43
0.0
 44
0.0
 50
0.0
 51
0.0
 71
     0
 72
   100
 73
     1
 74
     3
 75
     0
 76
     0
 77
     0
 78
     0
  0
ENDTAB
  0
TABLE
  2
LTYPE
 70
     5
  0
LTYPE
  2
CONTINUOUS
 70
     0
  3
Solid line
 72
    65
 73
     0
 40
0.0
  0
LTYPE
  2
HIDDEN
 70
     0
  3
Hidden __ __ __ __ __ __ __ __ __ __ __ __ __ _
 72
    65
 73
     2
 40
9.5249999999999986
 49
6.3499999999999979
 49
-3.174999999999998
  0
LTYPE
  2
CENTER2
 70
     0
  3
Center (.5x) ___ _ ___ _ ___ _ ___ _ ___ _ ___
 72
    65
 73
     4
 40
28.574999999999999
 49
19.050000000000001
 49
-3.174999999999998
 49
3.174999999999998
 49
-3.174999999999998
  0
LTYPE
  2
PHANTOM2
 70
     0
  3
Phantom (.5x) ___ _ _ ___ _ _ ___ _ _ ___ _ _
 72
    65
 73
     6
 40
31.75
 49
15.875
 49
-3.174999999999998
 49
3.174999999999998
 49
-3.174999999999998
 49
3.174999999999998
 49
-3.174999999999998
  0
LTYPE
  2
HIDDEN2
 70
     0
  3
Hidden (.5x) _ _ _ _ _ _ _ _ _ _ _ _ _ _ _ _ _
 72
    65
 73
     2
 40
4.7624999999999993
 49
3.174999999999998
 49
-1.587499999999999
  0
ENDTAB
  0
TABLE
  2
LAYER
 70
     2
  0
LAYER
  2
0
 70
     0
 62
     7
  6
CONTINUOUS
  0
LAYER
  2
DEFPOINTS
 70
     0
 62
     7
  6
CONTINUOUS
  0
ENDTAB
  0
TABLE
  2
STYLE
 70
     4
  0
STYLE
  2
STANDARD
 70
     0
 40
0.0
 41
1.0
 50
0.0
 71
     0
 42
105.0
  3
romans.shx
  4
bigfont.shx
  0
STYLE
  2
文字
 70
     0
 40
0.0
 41
0.8
 50
0.0
 71
     0
 42
105.0
  3
romans.shx
  4
extfont.shx
  0
STYLE
  2
横文字
 70
     0
 40
0.0
 41
0.8
 50
0.0
 71
     0
 42
105.0
  3
romans.shx
  4
extfont.shx
  0
ENDTAB
  0
TABLE
  2
VIEW
 70
     0
  0
ENDTAB
  0
TABLE
  2
UCS
 70
     0
  0
ENDTAB
  0
TABLE
  2
APPID
 70
    81
  0
APPID
  2
ACAD
 70
     0
  0
APPID
  2
ACADANNOTATIVE
 70
     0
  0
APPID
  2
ADE
 70
     0
  0
APPID
  2
DCO15
 70
     0
  0
APPID
  2
SETH_MM
 70
     0
  0
APPID
  2
ACAD_PSEXT
 70
     0
  0
APPID
  2
ACAD_EXEMPT_FROM_CAD_STANDARDS
 70
     0
  0
APPID
  2
ACAD_MLEADERVER
 70
     0
  0
APPID
  2
AUTOESSSHUTTERLINE1
 70
     0
  0
APPID
  2
AUTOESSSHUTTERLINE2
 70
     0
  0
APPID
  2
AUTOESSSHUTTERPT
 70
     0
  0
APPID
  2
MAKICIRCLE
 70
     0
  0
APPID
  2
ACAD_DSTYLE_DIMJAG
 70
     0
  0
APPID
  2
ACAD_DSTYLE_DIMTALN
 70
     0
  0
APPID
  2
SETW_MM
 70
     0
  0
APPID
  2
PARADIMLINE
 70
     0
  0
APPID
  2
PARABASEPT
 70
     0
  0
APPID
  2
MIRRORCHK_L
 70
     0
  0
APPID
  2
MIRRORCHK_R
 70
     0
  0
APPID
  2
LINKSPLIT1
 70
     0
  0
APPID
  2
LINKSPLIT2
 70
     0
  0
APPID
  2
LINKSPLIT3
 70
     0
  0
APPID
  2
LINKSPLIT4
 70
     0
  0
APPID
  2
TBANLLINE
 70
     0
  0
APPID
  2
TBANRLINE
 70
     0
  0
APPID
  2
TBANHLINE
 70
     0
  0
APPID
  2
ARCLINEA1
 70
     0
  0
APPID
  2
ARCLINEA2
 70
     0
  0
APPID
  2
ARCLINEB1
 70
     0
  0
APPID
  2
ARCLINEB2
 70
     0
  0
APPID
  2
ODPDW
 70
     0
  0
APPID
  2
ODPDH
 70
     0
  0
APPID
  2
ODWLINE1
 70
     0
  0
APPID
  2
ODWLINE2
 70
     0
  0
APPID
  2
ODSY
 70
     0
  0
APPID
  2
EDWDW
 70
     0
  0
APPID
  2
EDWDH
 70
     0
  0
APPID
  2
LINKSPLIT11
 70
     0
  0
APPID
  2
LINKSPLIT12
 70
     0
  0
APPID
  2
LINKSPLIT13
 70
     0
  0
APPID
  2
LINKSPLIT14
 70
     0
  0
APPID
  2
AUTOESSDOORPTH1
 70
     0
  0
APPID
  2
AUTOESSDOORPTH2
 70
     0
  0
APPID
  2
AUTOESSDOORPTV1
 70
     0
  0
APPID
  2
AUTOESSDOORPTV2
 70
     0
  0
APPID
  2
TBANPT1
 70
     0
  0
APPID
  2
TBANPT2
 70
     0
  0
APPID
  2
SETDH_MM
 70
     0
  0
APPID
  2
SETV1_MM
 70
     0
  0
APPID
  2
SETV2_MM
 70
     0
  0
APPID
  2
KAIKOUDIM
 70
     0
  0
APPID
  2
TBANK
 70
     0
  0
APPID
  2
TBANR
 70
     0
  0
APPID
  2
TBANO
 70
     0
  0
APPID
  2
TBANHATA1
 70
     0
  0
APPID
  2
TBANHATA2
 70
     0
  0
APPID
  2
TBANMEN
 70
     0
  0
APPID
  2
TBANW
 70
     0
  0
APPID
  2
TBANH
 70
     0
  0
APPID
  2
ARCLINEA3
 70
     0
  0
APPID
  2
ARCLINEB3
 70
     0
  0
APPID
  2
WORKNAME_UE
 70
     0
  0
APPID
  2
WORKNAME
 70
     0
  0
APPID
  2
SD1
 70
     0
  0
APPID
  2
SD2
 70
     0
  0
APPID
  2
DELETEOBJ
 70
     0
  0
APPID
  2
TBANTEXT
 70
     0
  0
APPID
  2
MAKITEXT
 70
     0
  0
APPID
  2
N_01
 70
     0
  0
APPID
  2
N_02
 70
     0
  0
APPID
  2
N_03
 70
     0
  0
APPID
  2
N_04
 70
     0
  0
APPID
  2
N_05
 70
     0
  0
APPID
  2
N_06
 70
     0
  0
APPID
  2
N_07
 70
     0
  0
APPID
  2
N_08
 70
     0
  0
APPID
  2
N_09
 70
     0
  0
APPID
  2
N_10
 70
     0
  0
APPID
  2
N_11
 70
     0
  0
APPID
  2
N_12
 70
     0
  0
APPID
  2
N_13
 70
     0
  0
ENDTAB
  0
TABLE
  2
DIMSTYLE
 70
     3
  0
DIMSTYLE
  2
STANDARD
 70
     0
  3

  4

  5

  6

  7

 40
30.0
 41
1.0
 42
5.0
 43
7.5
 44
1.0
 45
0.0
 46
0.0
 47
0.0
 48
0.0
140
3.5
141
2.5
142
0.0
143
25.399999999999999
144
1.0
145
0.0
146
1.0
147
1.0
 71
     0
 72
     0
 73
     0
 74
     0
 75
     0
 76
     0
 77
     1
 78
     8
170
     0
171
     2
172
     1
173
     0
174
     1
175
     0
176
     0
177
     0
178
     0
  0
DIMSTYLE
  2
寸法線30
 70
     0
  3

  4

  5

  6

  7

 40
30.0
 41
2.0
 42
5.0
 43
7.5
 44
1.0
 45
0.0
 46
0.0
 47
0.0
 48
0.0
140
3.5
141
1.0
142
0.0
143
0.03937007874016
144
1.0
145
0.0
146
1.0
147
1.0
 71
     0
 72
     0
 73
     0
 74
     0
 75
     0
 76
     0
 77
     1
 78
     8
170
     0
171
     3
172
     1
173
     0
174
     1
175
     0
176
   256
177
   256
178
   256
  0
ENDTAB
  0
ENDSEC
  0
SECTION
  2
BLOCKS
  0
BLOCK
  8
0
  2
$MODEL_SPACE
 70
     0
 10
0.0
 20
0.0
 30
0.0
  3
$MODEL_SPACE
  1

  0
ENDBLK
  5
6FD5
  8
0
  0
BLOCK
 67
     1
  8
0
  2
$PAPER_SPACE
 70
     0
 10
0.0
 20
0.0
 30
0.0
  3
$PAPER_SPACE
  1

  0
ENDBLK
  5
6FD1
 67
     1
  8
0
  0
BLOCK
  8
0
  2
_ORIGIN
 70
     0
 10
0.0
 20
0.0
 30
0.0
  3
_ORIGIN
  1

  0
CIRCLE
  5
A7
  8
0
  6
BYBLOCK
 62
     0
 10
0.0
 20
0.0
 30
0.0
 40
0.5
  0
LINE
  5
A8
  8
0
  6
BYBLOCK
 62
     0
 10
0.0
 20
0.0
 30
0.0
 11
-1.0
 21
0.0
 31
0.0
  0
ENDBLK
  5
AA
  8
0
  0
BLOCK
  8
0
  2
_OPEN30
 70
     0
 10
0.0
 20
0.0
 30
0.0
  3
_OPEN30
  1

  0
LINE
  5
AC
  8
0
  6
BYBLOCK
 62
     0
 10
-1.0
 20
0.26794919
 30
0.0
 11
0.0
 21
0.0
 31
0.0
  0
LINE
  5
AD
  8
0
  6
BYBLOCK
 62
     0
 10
0.0
 20
0.0
 30
0.0
 11
-1.0
 21
-0.26794919
 31
0.0
  0
LINE
  5
AE
  8
0
  6
BYBLOCK
 62
     0
 10
0.0
 20
0.0
 30
0.0
 11
-1.0
 21
0.0
 31
0.0
  0
ENDBLK
  5
B0
  8
0
  0
BLOCK
  8
0
  2
*D4
 70
     1
 10
0.0
 20
0.0
 30
0.0
  3
*D4
  1

  0
LINE
  5
6E2D
  8
0
 10
5500.0
 20
3500.0000000000291
 30
0.0
 11
5500.0
 21
4030.0000000000282
 31
0.0
  0
LINE
  5
6E2E
  8
0
 10
8500.0
 20
3500.0000000000291
 30
0.0
 11
8500.0
 21
4030.0000000000282
 31
0.0
  0
LINE
  5
6E2F
  8
0
 10
5530.0
 20
4000.0000000000291
 30
0.0
 11
8470.0
 21
4000.0000000000291
 31
0.0
  0
INSERT
  5
6E30
  8
0
  2
_ORIGIN
 10
5500.0
 20
4000.0000000000291
 30
0.0
 41
30.0
 42
30.0
 43
30.0
 50
180.0
  0
INSERT
  5
6E31
  8
0
  2
_ORIGIN
 10
8500.0
 20
4000.0000000000291
 30
0.0
 41
30.0
 42
30.0
 43
30.0
  0
INSERT
  5
6E32
  8
0
  2
*U5
 10
0.0
 20
0.0
 30
0.0
  0
POINT
  5
6E33
  8
DEFPOINTS
 62
     0
 10
5500.0
 20
3350.0000000000291
 30
0.0
  0
POINT
  5
6E34
  8
DEFPOINTS
 62
     0
 10
8500.0
 20
3350.0000000000291
 30
0.0
  0
POINT
  5
6E35
  8
DEFPOINTS
 62
     0
 10
8500.0
 20
4000.0000000000291
 30
0.0
  0
ENDBLK
  5
6DA3
  8
0
  0
BLOCK
  8
0
  2
*U5
 70
     1
 10
0.0
 20
0.0
 30
0.0
  3
*U5
  1

  0
TEXT
  5
6F3E
  8
0
 10
6952.0
 20
4030.0000000000282
 30
0.0
 40
105.0
  1
W
 41
0.8
  7
文字
  0
ENDBLK
  5
6F40
  8
0
  0
BLOCK
  8
0
  2
*D6
 70
     1
 10
0.0
 20
0.0
 30
0.0
  3
*D6
  1

  0
LINE
  5
6E36
  8
0
 10
5475.0
 20
2600.0000000000291
 30
0.0
 11
5475.0
 21
2220.0000000000291
 31
0.0
  0
LINE
  5
6E37
  8
0
 10
8525.0
 20
2600.0000000000291
 30
0.0
 11
8525.0
 21
2220.0000000000291
 31
0.0
  0
LINE
  5
6E38
  8
0
 10
5505.0
 20
2250.0000000000291
 30
0.0
 11
8495.0
 21
2250.0000000000291
 31
0.0
  0
INSERT
  5
6E39
  8
0
  2
_ORIGIN
 10
5475.0
 20
2250.0000000000291
 30
0.0
 41
30.0
 42
30.0
 43
30.0
 50
180.0
  0
INSERT
  5
6E3A
  8
0
  2
_ORIGIN
 10
8525.0
 20
2250.0000000000291
 30
0.0
 41
30.0
 42
30.0
 43
30.0
  0
INSERT
  5
6E3B
  8
0
  2
*U7
 10
0.0
 20
0.0
 30
0.0
  0
POINT
  5
6E3C
  8
DEFPOINTS
 62
     0
 10
5475.0
 20
2750.0000000000291
 30
0.0
  0
POINT
  5
6E3D
  8
DEFPOINTS
 62
     0
 10
8525.0
 20
2750.0000000000291
 30
0.0
  0
POINT
  5
6E3E
  8
DEFPOINTS
 62
     0
 10
8525.0
 20
2250.0000000000291
 30
0.0
  0
ENDBLK
  5
6DAF
  8
0
  0
BLOCK
  8
0
  2
*U7
 70
     1
 10
0.0
 20
0.0
 30
0.0
  3
*U7
  1

  0
TEXT
  5
6F42
  8
0
 10
6906.0
 20
2280.0000000000291
 30
0.0
 40
105.0
  1
DW
 41
0.8
  7
文字
  0
ENDBLK
  5
6F44
  8
0
  0
BLOCK
  8
0
  2
*D8
 70
     1
 10
0.0
 20
0.0
 30
0.0
  3
*D8
  1

  0
LINE
  5
6E3F
  8
0
 10
5500.0
 20
3500.0000000000291
 30
0.0
 11
5500.0
 21
3805.0000000000291
 31
0.0
  0
LINE
  5
6E40
  8
0
 10
5330.0
 20
3500.0000000000291
 30
0.0
 11
5330.0
 21
3805.0000000000291
 31
0.0
  0
LINE
  5
6E41
  8
0
 10
5530.0
 20
3775.0000000000291
 30
0.0
 11
5560.0
 21
3775.0000000000291
 31
0.0
  0
LINE
  5
6E42
  8
0
 10
5300.0
 20
3775.0000000000291
 30
0.0
 11
5270.0
 21
3775.0000000000291
 31
0.0
  0
LINE
  5
6E43
  8
0
 10
5500.0
 20
3775.0000000000291
 30
0.0
 11
5330.0
 21
3775.0000000000291
 31
0.0
  0
INSERT
  5
6E44
  8
0
  2
_ORIGIN
 10
5500.0
 20
3775.0000000000291
 30
0.0
 41
30.0
 42
30.0
 43
30.0
 50
180.0
  0
INSERT
  5
6E45
  8
0
  2
_ORIGIN
 10
5330.0
 20
3775.0000000000291
 30
0.0
 41
30.0
 42
30.0
 43
30.0
  0
INSERT
  5
6E46
  8
0
  2
*U9
 10
0.0
 20
0.0
 30
0.0
  0
POINT
  5
6E47
  8
DEFPOINTS
 62
     0
 10
5500.0
 20
3350.0000000000291
 30
0.0
  0
POINT
  5
6E48
  8
DEFPOINTS
 62
     0
 10
5330.0
 20
3350.0000000000291
 30
0.0
  0
POINT
  5
6E49
  8
DEFPOINTS
 62
     0
 10
5330.0
 20
3775.0000000000291
 30
0.0
  0
ENDBLK
  5
6DBB
  8
0
  0
BLOCK
  8
0
  2
*U9
 70
     1
 10
0.0
 20
0.0
 30
0.0
  3
*U9
  1

  0
TEXT
  5
6F46
  8
0
 10
5193.3999999999996
 20
3805.0000000000291
 30
0.0
 40
105.0
  1
170以上
 41
0.8
  7
文字
  0
ENDBLK
  5
6F48
  8
0
  0
BLOCK
  8
0
  2
*D10
 70
     1
 10
0.0
 20
0.0
 30
0.0
  3
*D10
  1

  0
LINE
  5
6E4A
  8
0
 10
8500.0
 20
3500.0000000000291
 30
0.0
 11
8500.0
 21
3805.0000000000291
 31
0.0
  0
LINE
  5
6E4B
  8
0
 10
8670.0
 20
3500.0000000000291
 30
0.0
 11
8670.0
 21
3805.0000000000291
 31
0.0
  0
LINE
  5
6E4C
  8
0
 10
8470.0
 20
3775.0000000000291
 30
0.0
 11
8440.0
 21
3775.0000000000291
 31
0.0
  0
LINE
  5
6E4D
  8
0
 10
8700.0
 20
3775.0000000000291
 30
0.0
 11
8730.0
 21
3775.0000000000291
 31
0.0
  0
LINE
  5
6E4E
  8
0
 10
8500.0
 20
3775.0000000000291
 30
0.0
 11
8670.0
 21
3775.0000000000291
 31
0.0
  0
INSERT
  5
6E4F
  8
0
  2
_ORIGIN
 10
8500.0
 20
3775.0000000000291
 30
0.0
 41
30.0
 42
30.0
 43
30.0
  0
INSERT
  5
6E50
  8
0
  2
_ORIGIN
 10
8670.0
 20
3775.0000000000291
 30
0.0
 41
30.0
 42
30.0
 43
30.0
 50
180.0
  0
INSERT
  5
6E51
  8
0
  2
*U11
 10
0.0
 20
0.0
 30
0.0
  0
POINT
  5
6E52
  8
DEFPOINTS
 62
     0
 10
8500.0
 20
3350.0000000000291
 30
0.0
  0
POINT
  5
6E53
  8
DEFPOINTS
 62
     0
 10
8670.0
 20
3350.0000000000291
 30
0.0
  0
POINT
  5
6E54
  8
DEFPOINTS
 62
     0
 10
8670.0
 20
3775.0000000000291
 30
0.0
  0
ENDBLK
  5
6DC9
  8
0
  0
BLOCK
  8
0
  2
*U11
 70
     1
 10
0.0
 20
0.0
 30
0.0
  3
*U11
  1

  0
TEXT
  5
6F4A
  8
0
 10
8363.3999999999978
 20
3805.0000000000291
 30
0.0
 40
105.0
  1
170以上
 41
0.8
  7
文字
  0
ENDBLK
  5
6F4C
  8
0
  0
BLOCK
  8
0
  2
*D12
 70
     1
 10
0.0
 20
0.0
 30
0.0
  3
*D12
  1

  0
LINE
  5
6E55
  8
0
 10
6500.0
 20
8300.0
 30
0.0
 11
5720.0000000000009
 21
8300.0
 31
0.0
  0
LINE
  5
6E56
  8
0
 10
5700.0
 20
5500.0
 30
0.0
 11
5720.0
 21
5500.0
 31
0.0
  0
LINE
  5
6E57
  8
0
 10
5750.0
 20
8270.0
 30
0.0
 11
5750.0
 21
5530.0
 31
0.0
  0
INSERT
  5
6E58
  8
0
  2
_ORIGIN
 10
5750.0
 20
8300.0
 30
0.0
 41
30.0
 42
30.0
 43
30.0
 50
90.0
  0
INSERT
  5
6E59
  8
0
  2
_ORIGIN
 10
5750.0
 20
5500.0
 30
0.0
 41
30.0
 42
30.0
 43
30.0
 50
270.0
  0
INSERT
  5
6E5A
  8
0
  2
*U13
 10
0.0
 20
0.0
 30
0.0
  0
POINT
  5
6E5B
  8
DEFPOINTS
 62
     0
 10
6650.0
 20
8300.0
 30
0.0
  0
POINT
  5
6E5C
  8
DEFPOINTS
 62
     0
 10
5850.0
 20
5500.0
 30
0.0
  0
POINT
  5
6E5D
  8
DEFPOINTS
 62
     0
 10
5750.0
 20
5500.0
 30
0.0
  0
ENDBLK
  5
6DD7
  8
0
  0
BLOCK
  8
0
  2
*U13
 70
     1
 10
0.0
 20
0.0
 30
0.0
  3
*U13
  1

  0
TEXT
  5
6F4E
  8
0
 10
5719.9999999999973
 20
6856.0000000000009
 30
0.0
 40
105.0
  1
H
 50
90.0
 41
0.8
  7
文字
  0
ENDBLK
  5
6F50
  8
0
  0
BLOCK
  8
0
  2
*D14
 70
     1
 10
0.0
 20
0.0
 30
0.0
  3
*D14
  1

  0
LINE
  5
6E5E
  8
0
 10
6500.0
 20
8300.0
 30
0.0
 11
5720.0
 21
8300.0
 31
0.0
  0
LINE
  5
6E5F
  8
0
 10
6500.0
 20
9630.0
 30
0.0
 11
5720.0
 21
9630.0
 31
0.0
  0
LINE
  5
6E60
  8
0
 10
5750.0
 20
8330.0
 30
0.0
 11
5750.0
 21
9600.0
 31
0.0
  0
INSERT
  5
6E61
  8
0
  2
_ORIGIN
 10
5750.0
 20
8300.0
 30
0.0
 41
30.0
 42
30.0
 43
30.0
 50
270.0
  0
INSERT
  5
6E62
  8
0
  2
_ORIGIN
 10
5750.0
 20
9630.0
 30
0.0
 41
30.0
 42
30.0
 43
30.0
 50
90.0
  0
INSERT
  5
6E63
  8
0
  2
*U15
 10
0.0
 20
0.0
 30
0.0
  0
POINT
  5
6E64
  8
DEFPOINTS
 62
     0
 10
6650.0
 20
8300.0
 30
0.0
  0
POINT
  5
6E65
  8
DEFPOINTS
 62
     0
 10
6650.0
 20
9630.0
 30
0.0
  0
POINT
  5
6E66
  8
DEFPOINTS
 62
     0
 10
5750.0
 20
9630.0
 30
0.0
  0
ENDBLK
  5
6DE3
  8
0
  0
BLOCK
  8
0
  2
*U15
 70
     1
 10
0.0
 20
0.0
 30
0.0
  3
*U15
  1

  0
TEXT
  5
6F52
  8
0
 10
5719.9999999999973
 20
8519.4000000000015
 30
0.0
 40
105.0
  1
HR=h+130以上
 50
90.0
 41
0.8
  7
文字
  0
ENDBLK
  5
6F54
  8
0
  0
BLOCK
  8
0
  2
*D16
 70
     1
 10
0.0
 20
0.0
 30
0.0
  3
*D16
  1

  0
LINE
  5
6E67
  8
0
 10
6500.0
 20
8300.0
 30
0.0
 11
5945.0
 21
8300.0
 31
0.0
  0
LINE
  5
6E68
  8
0
 10
6500.0
 20
9500.0
 30
0.0
 11
5945.0
 21
9500.0
 31
0.0
  0
LINE
  5
6E69
  8
0
 10
5975.0
 20
8330.0
 30
0.0
 11
5975.0
 21
9470.0
 31
0.0
  0
INSERT
  5
6E6A
  8
0
  2
_ORIGIN
 10
5975.0
 20
8300.0
 30
0.0
 41
30.0
 42
30.0
 43
30.0
 50
270.0
  0
INSERT
  5
6E6B
  8
0
  2
_ORIGIN
 10
5975.0
 20
9500.0
 30
0.0
 41
30.0
 42
30.0
 43
30.0
 50
90.0
  0
INSERT
  5
6E6C
  8
0
  2
*U17
 10
0.0
 20
0.0
 30
0.0
  0
POINT
  5
6E6D
  8
DEFPOINTS
 62
     0
 10
6650.0
 20
8300.0
 30
0.0
  0
POINT
  5
6E6E
  8
DEFPOINTS
 62
     0
 10
6650.0
 20
9500.0
 30
0.0
  0
POINT
  5
6E6F
  8
DEFPOINTS
 62
     0
 10
5975.0
 20
9500.0
 30
0.0
  0
ENDBLK
  5
6DEF
  8
0
  0
BLOCK
  8
0
  2
*U17
 70
     1
 10
0.0
 20
0.0
 30
0.0
  3
*U17
  1

  0
TEXT
  5
6F56
  8
0
 10
5944.9999999999991
 20
8477.6000000000022
 30
0.0
 40
105.0
  1
h=491～1990
 50
90.0
 41
0.8
  7
文字
  0
ENDBLK
  5
6F58
  8
0
  0
BLOCK
  8
0
  2
*D18
 70
     1
 10
0.0
 20
0.0
 30
0.0
  3
*D18
  1

  0
LINE
  5
6E70
  8
0
 10
7400.0
 20
5520.0
 30
0.0
 11
8029.9999999999973
 21
5520.0
 31
0.0
  0
LINE
  5
6E71
  8
0
 10
7400.0
 20
8340.0
 30
0.0
 11
8030.0
 21
8340.0
 31
0.0
  0
LINE
  5
6E72
  8
0
 10
7999.9999999999973
 20
5550.0
 30
0.0
 11
8000.0
 21
8310.0
 31
0.0
  0
INSERT
  5
6E73
  8
0
  2
_ORIGIN
 10
7999.9999999999973
 20
5520.0
 30
0.0
 41
30.0
 42
30.0
 43
30.0
 50
270.0
  0
INSERT
  5
6E74
  8
0
  2
_ORIGIN
 10
8000.0
 20
8340.0
 30
0.0
 41
30.0
 42
30.0
 43
30.0
 50
90.0
  0
INSERT
  5
6E75
  8
0
  2
*U19
 10
0.0
 20
0.0
 30
0.0
  0
POINT
  5
6E76
  8
DEFPOINTS
 62
     0
 10
7250.0
 20
5520.0
 30
0.0
  0
POINT
  5
6E77
  8
DEFPOINTS
 62
     0
 10
7250.0
 20
8340.0
 30
0.0
  0
POINT
  5
6E78
  8
DEFPOINTS
 62
     0
 10
8000.0
 20
8340.0
 30
0.0
  0
ENDBLK
  5
6DFB
  8
0
  0
BLOCK
  8
0
  2
*U19
 70
     1
 10
0.0
 20
0.0
 30
0.0
  3
*U19
  1

  0
TEXT
  5
6F5A
  8
0
 10
7969.9999999999973
 20
6844.0000000000009
 30
0.0
 40
105.0
  1
DH
 50
90.0
 41
0.8
  7
文字
  0
ENDBLK
  5
6F5C
  8
0
  0
BLOCK
  8
0
  2
*D20
 70
     1
 10
0.0
 20
0.0
 30
0.0
  3
*D20
  1

  0
LINE
  5
6E79
  8
0
 10
7000.0
 20
10205.0
 30
0.0
 11
7000.0
 21
10235.0
 31
0.0
  0
LINE
  5
6E7A
  8
0
 10
7130.0
 20
9980.0
 30
0.0
 11
7130.0
 21
10235.0
 31
0.0
  0
LINE
  5
6E7B
  8
0
 10
6970.0
 20
10205.0
 30
0.0
 11
6940.0
 21
10205.0
 31
0.0
  0
LINE
  5
6E7C
  8
0
 10
7160.0
 20
10205.0
 30
0.0
 11
7190.0
 21
10205.0
 31
0.0
  0
LINE
  5
6E7D
  8
0
 10
7000.0
 20
10205.0
 30
0.0
 11
7130.0
 21
10205.0
 31
0.0
  0
INSERT
  5
6E7E
  8
0
  2
_ORIGIN
 10
7000.0
 20
10205.0
 30
0.0
 41
30.0
 42
30.0
 43
30.0
  0
INSERT
  5
6E7F
  8
0
  2
_ORIGIN
 10
7130.0
 20
10205.0
 30
0.0
 41
30.0
 42
30.0
 43
30.0
 50
180.0
  0
INSERT
  5
6E80
  8
0
  2
*U21
 10
0.0
 20
0.0
 30
0.0
  0
POINT
  5
6E81
  8
DEFPOINTS
 62
     0
 10
7000.0
 20
10055.0
 30
0.0
  0
POINT
  5
6E82
  8
DEFPOINTS
 62
     0
 10
7130.0
 20
9830.0
 30
0.0
  0
POINT
  5
6E83
  8
DEFPOINTS
 62
     0
 10
7130.0
 20
10205.0
 30
0.0
  0
ENDBLK
  5
6E07
  8
0
  0
BLOCK
  8
0
  2
*U21
 70
     1
 10
0.0
 20
0.0
 30
0.0
  3
*U21
  1

  0
TEXT
  5
6F5E
  8
0
 10
6939.0
 20
10235.0
 30
0.0
 40
105.0
  1
130
 41
0.8
  7
文字
  0
ENDBLK
  5
6F60
  8
0
  0
BLOCK
  8
0
  2
*D22
 70
     1
 10
0.0
 20
0.0
 30
0.0
  3
*D22
  1

  0
LINE
  5
6E84
  8
0
 10
7000.0
 20
10655.0
 30
0.0
 11
7000.0
 21
10685.0
 31
0.0
  0
LINE
  5
6E85
  8
0
 10
9850.0
 20
9980.0
 30
0.0
 11
9850.0
 21
10685.0
 31
0.0
  0
LINE
  5
6E86
  8
0
 10
7030.0
 20
10655.0
 30
0.0
 11
9820.0
 21
10655.0
 31
0.0
  0
INSERT
  5
6E87
  8
0
  2
_ORIGIN
 10
7000.0
 20
10655.0
 30
0.0
 41
30.0
 42
30.0
 43
30.0
 50
180.0
  0
INSERT
  5
6E88
  8
0
  2
_ORIGIN
 10
9850.0
 20
10655.0
 30
0.0
 41
30.0
 42
30.0
 43
30.0
  0
INSERT
  5
6E89
  8
0
  2
*U23
 10
0.0
 20
0.0
 30
0.0
  0
POINT
  5
6E8A
  8
DEFPOINTS
 62
     0
 10
7000.0
 20
10505.0
 30
0.0
  0
POINT
  5
6E8B
  8
DEFPOINTS
 62
     0
 10
9850.0
 20
9830.0
 30
0.0
  0
POINT
  5
6E8C
  8
DEFPOINTS
 62
     0
 10
9850.0
 20
10655.0
 30
0.0
  0
ENDBLK
  5
6E15
  8
0
  0
BLOCK
  8
0
  2
*U23
 70
     1
 10
0.0
 20
0.0
 30
0.0
  3
*U23
  1

  0
TEXT
  5
6F62
  8
0
 10
8035.0
 20
10685.0
 30
0.0
 40
105.0
  1
DH-h+1030
 41
0.8
  7
文字
  0
ENDBLK
  5
6F64
  8
0
  0
BLOCK
  8
0
  2
*D24
 70
     1
 10
0.0
 20
0.0
 30
0.0
  3
*D24
  1

  0
LINE
  5
6E8D
  8
0
 10
10225.0
 20
9360.0
 30
0.0
 11
10530.0
 21
9360.0
 31
0.0
  0
LINE
  5
6E8E
  8
0
 10
10500.0
 20
9630.0
 30
0.0
 11
10530.0
 21
9630.0
 31
0.0
  0
LINE
  5
6E8F
  8
0
 10
10500.0
 20
9330.0
 30
0.0
 11
10500.0
 21
9300.0
 31
0.0
  0
LINE
  5
6E90
  8
0
 10
10500.0
 20
9660.0
 30
0.0
 11
10500.0
 21
9690.0
 31
0.0
  0
LINE
  5
6E91
  8
0
 10
10500.0
 20
9360.0
 30
0.0
 11
10500.0
 21
9630.0
 31
0.0
  0
INSERT
  5
6E92
  8
0
  2
_ORIGIN
 10
10500.0
 20
9360.0
 30
0.0
 41
30.0
 42
30.0
 43
30.0
 50
90.0
  0
INSERT
  5
6E93
  8
0
  2
_ORIGIN
 10
10500.0
 20
9630.0
 30
0.0
 41
30.0
 42
30.0
 43
30.0
 50
270.0
  0
INSERT
  5
6E94
  8
0
  2
*U25
 10
0.0
 20
0.0
 30
0.0
  0
POINT
  5
6E95
  8
DEFPOINTS
 62
     0
 10
10075.0
 20
9360.0
 30
0.0
  0
POINT
  5
6E96
  8
DEFPOINTS
 62
     0
 10
10350.0
 20
9630.0
 30
0.0
  0
POINT
  5
6E97
  8
DEFPOINTS
 62
     0
 10
10500.0
 20
9630.0
 30
0.0
  0
ENDBLK
  5
6E21
  8
0
  0
BLOCK
  8
0
  2
*U25
 70
     1
 10
0.0
 20
0.0
 30
0.0
  3
*U25
  1

  0
TEXT
  5
6F66
  8
0
 10
10470.0
 20
9279.3999999999996
 30
0.0
 40
105.0
  1
270以上
 50
90.0
 41
0.8
  7
文字
  0
ENDBLK
  5
6F68
  8
0
  0
BLOCK
  8
0
  2
*U26
 70
     1
 10
0.0
 20
0.0
 30
0.0
  3
*U26
  1

  0
INSERT
  5
6F1A
  8
0
  2
_OPEN30
 10
7155.0
 20
9525.0
 30
0.0
 41
60.0
 42
60.0
 43
60.0
 50
239.9999999999996
  0
POLYLINE
  5
6F1B
  8
0
 66
     1
 10
0.0
 20
0.0
 30
0.0
  0
VERTEX
  5
707E
  8
0
 10
7185.0
 20
9576.9615242270647
 30
0.0
  0
VERTEX
  5
707F
  8
0
 10
7380.0
 20
9914.7114317029918
 30
0.0
  0
VERTEX
  5
7080
  8
0
 10
7961.0
 20
9914.7114317029918
 30
0.0
  0
SEQEND
  5
7081
  8
0
  0
ENDBLK
  5
6F21
  8
0
  0
BLOCK
  8
0
  2
*U27
 70
     1
 10
0.0
 20
0.0
 30
0.0
  3
*U27
  1

  0
INSERT
  5
6F23
  8
0
  2
_OPEN30
 10
8142.8564378081064
 20
9307.0
 30
0.0
 41
60.0
 42
60.0
 43
60.0
 50
105.0000000000001
  0
POLYLINE
  5
6F24
  8
0
 66
     1
 10
0.0
 20
0.0
 30
0.0
  0
VERTEX
  5
7082
  8
0
 10
8158.3855805142557
 20
9249.0444504226562
 30
0.0
  0
VERTEX
  5
7083
  8
0
 10
8233.443103593987
 20
8968.9259607988315
 30
0.0
  0
VERTEX
  5
7084
  8
0
 10
8808.8431035939902
 20
8968.9259607988315
 30
0.0
  0
SEQEND
  5
7085
  8
0
  0
ENDBLK
  5
6F2A
  8
0
  0
BLOCK
  8
0
  2
*U28
 70
     1
 10
0.0
 20
0.0
 30
0.0
  3
*U28
  1

  0
INSERT
  5
6F2C
  8
0
  2
_OPEN30
 10
9524.9999999999982
 20
9407.0
 30
0.0
 41
60.0
 42
60.0
 43
60.0
 50
105.0000000000001
  0
POLYLINE
  5
6F2D
  8
0
 66
     1
 10
0.0
 20
0.0
 30
0.0
  0
VERTEX
  5
7086
  8
0
 10
9540.5291427061456
 20
9349.0444504226562
 30
0.0
  0
VERTEX
  5
7087
  8
0
 10
9615.5866657858805
 20
9068.9259607988297
 30
0.0
  0
VERTEX
  5
7088
  8
0
 10
10202.186665785881
 20
9068.9259607988297
 30
0.0
  0
SEQEND
  5
7089
  8
0
  0
ENDBLK
  5
6F33
  8
0
  0
BLOCK
  8
0
  2
*U29
 70
     1
 10
0.0
 20
0.0
 30
0.0
  3
*U29
  1

  0
INSERT
  5
6F35
  8
0
  2
_OPEN30
 10
7016.0000000000073
 20
6671.0475088412213
 30
0.0
 41
60.0
 42
60.0
 43
60.0
 50
300.00000000000028
  0
POLYLINE
  5
6F36
  8
0
 66
     1
 10
0.0
 20
0.0
 30
0.0
  0
VERTEX
  5
708A
  8
0
 10
6986.0000000000073
 20
6723.009033068287
 30
0.0
  0
VERTEX
  5
708B
  8
0
 10
6885.4957445612672
 20
6897.0875098650649
 30
0.0
  0
VERTEX
  5
708C
  8
0
 10
6500.4957445612663
 20
6897.0875098650649
 30
0.0
  0
SEQEND
  5
708D
  8
0
  0
ENDBLK
  5
6F3C
  8
0
  0
ENDSEC
  0
SECTION
  2
ENTITIES
  0
LINE
  5
6011
  8
0
 10
16380.0
 20
0.0
 30
0.0
 11
0.0
 21
0.0
 31
0.0
  0
LINE
  5
6012
  8
0
 10
0.0
 20
11745.0
 30
0.0
 11
16380.0
 21
11745.0
 31
0.0
  0
LINE
  5
6013
  8
0
 10
0.0
 20
11745.0
 30
0.0
 11
0.0
 21
0.0
 31
0.0
  0
LINE
  5
6014
  8
0
 10
16380.0
 20
11745.0
 30
0.0
 11
16380.0
 21
0.0
 31
0.0
  0
LINE
  5
6CAE
  8
0
 10
10130.0
 20
400.0
 30
0.0
 11
10130.0
 21
0.0
 31
0.0
  0
TEXT
  5
6CAF
  8
0
 10
10979.99999999996
 20
247.5
 30
0.0
 40
105.0
  1
オーバードア（バランス式）
 11
10979.99999999996
 21
300.0
 31
0.0
 73
     2
  0
TEXT
  5
6CB0
  8
0
 10
10229.99999999996
 20
247.5
 30
0.0
 40
105.0
  1
製品名称  :
 11
10229.99999999996
 21
300.0
 31
0.0
 73
     2
  0
LINE
  5
6CB1
  8
0
 10
10130.0
 20
200.0
 30
0.0
 11
13880.0
 21
200.0
 31
0.0
  0
LINE
  5
6CB2
  8
0
 10
13880.0
 20
400.0
 30
0.0
 11
13880.0
 21
0.0
 31
0.0
  0
TEXT
  5
6CB3
  8
0
 10
13998.33333333333
 20
112.5
 30
0.0
 40
175.0
  1
東洋シヤッター株式会社
 72
     1
 11
15130.0
 21
200.0
 31
0.0
 73
     2
  0
LINE
  5
6CB4
  8
0
 10
10130.0
 20
400.0
 30
0.0
 11
16380.0
 21
400.0
 31
0.0
  0
TEXT
  5
6CB5
  8
0
 10
12979.99999999996
 20
47.5
 30
0.0
 40
105.0
  1
縮尺:1/30
 11
12979.99999999996
 21
100.0
 31
0.0
 73
     2
  0
LINE
  5
6CB6
  8
0
 10
5474.9999999999936
 20
2932.5000000000041
 30
0.0
 11
8524.9999999999909
 21
2932.5000000000041
 31
0.0
  0
LINE
  5
6CB7
  8
0
 10
8524.9999999999909
 20
2932.5000000000041
 30
0.0
 11
8524.9999999999909
 21
2984.0000000000032
 31
0.0
  0
LINE
  5
6CB8
  8
0
 10
8524.9999999999909
 20
2984.0000000000032
 30
0.0
 11
5474.9999999999936
 21
2984.0000000000032
 31
0.0
  0
LINE
  5
6CB9
  8
0
 10
5474.9999999999936
 20
2984.0000000000032
 30
0.0
 11
5474.9999999999936
 21
2932.5000000000041
 31
0.0
  0
ARC
  5
6CBA
  8
0
 10
8577.299999999992
 20
2997.7000000000012
 30
0.0
 40
2.299999999999998
 50
90.0
 51
180.0
  0
LINE
  5
6CBB
  8
0
 10
8614.9999999999909
 20
2997.7000000000012
 30
0.0
 11
8614.9999999999909
 21
3000.0000000000032
 31
0.0
  0
LINE
  5
6CBC
  8
0
 10
8577.299999999992
 20
2997.7000000000012
 30
0.0
 11
8614.9999999999909
 21
2997.7000000000012
 31
0.0
  0
LINE
  5
6CBD
  8
0
 10
8577.299999999992
 20
2884.0000000000041
 30
0.0
 11
8577.299999999992
 21
2997.7000000000012
 31
0.0
  0
LINE
  5
6CBE
  8
0
 10
8574.9999999999927
 20
2884.0000000000041
 30
0.0
 11
8577.299999999992
 21
2884.0000000000041
 31
0.0
  0
LINE
  5
6CBF
  8
0
 10
8574.9999999999927
 20
2997.7000000000012
 30
0.0
 11
8574.9999999999927
 21
2884.0000000000041
 31
0.0
  0
LINE
  5
6CC0
  8
0
 10
8614.9999999999909
 20
3000.0000000000032
 30
0.0
 11
8577.299999999992
 21
3000.0000000000032
 31
0.0
  0
ARC
  5
6CC1
  8
0
 10
8562.4999999999909
 20
2886.4999999999409
 30
0.0
 40
5.7499999999704414
 50
180.0
 51
0.0
  0
ARC
  5
6CC2
  8
0
 10
8562.4999999999909
 20
2921.5000000000032
 30
0.0
 40
5.7499999999704414
 50
0.0
 51
180.0
  0
LINE
  5
6CC3
  8
0
 10
8556.7500000000218
 20
2886.4999999999409
 30
0.0
 11
8556.7500000000218
 21
2921.5000000000032
 31
0.0
  0
LINE
  5
6CC4
  8
0
 10
8568.25000000002
 20
2921.5000000000032
 30
0.0
 11
8568.25000000002
 21
2886.4999999999409
 31
0.0
  0
ARC
  5
6CC5
  8
0
 10
8568.9999999999909
 20
2889.7190997647308
 30
0.0
 40
4.0
 50
330.0
 51
0.0
  0
ARC
  5
6CC6
  8
0
 10
8568.9999999999909
 20
2889.7190997647381
 30
0.0
 40
6.0
 50
330.0
 51
0.0
  0
ARC
  5
6CC7
  8
0
 10
8569.9999999999909
 20
2925.5000000000041
 30
0.0
 40
3.0
 50
0.0
 51
90.0
  0
ARC
  5
6CC8
  8
0
 10
8569.9999999999909
 20
2925.5000000000041
 30
0.0
 40
5.0
 50
0.0
 51
90.0
  0
LINE
  5
6CC9
  8
0
 10
8551.5529946162005
 20
2887.5
 30
0.0
 11
8554.4397459621468
 21
2882.5
 31
0.0
  0
LINE
  5
6CCA
  8
0
 10
8553.2850454237632
 20
2888.5
 30
0.0
 11
8551.5529946162005
 21
2887.5
 31
0.0
  0
LINE
  5
6CCB
  8
0
 10
8556.1717967697077
 20
2883.5
 30
0.0
 11
8553.2850454237632
 21
2888.5
 31
0.0
  0
LINE
  5
6CCC
  8
0
 10
8572.4641016151309
 20
2887.7190997647299
 30
0.0
 11
8570.0282032302384
 21
2883.5000000000209
 31
0.0
  0
LINE
  5
6CCD
  8
0
 10
8574.196152422699
 20
2886.7190997647381
 30
0.0
 11
8571.760254037792
 21
2882.5000000000041
 31
0.0
  0
ARC
  5
6CCE
  8
0
 10
8563.0999999999894
 20
2887.5000000000041
 30
0.0
 40
8.0
 50
210.0
 51
330.0
  0
ARC
  5
6CCF
  8
0
 10
8563.0999999999894
 20
2887.5000000000041
 30
0.0
 40
10.0
 50
210.0
 51
329.99999999998681
  0
LINE
  5
6CD0
  8
0
 10
8572.9999999999909
 20
2925.5000000000041
 30
0.0
 11
8572.9999999999909
 21
2889.7190997647308
 31
0.0
  0
LINE
  5
6CD1
  8
0
 10
8549.9999999999909
 20
2928.5000000000041
 30
0.0
 11
8569.9999999999909
 21
2928.5000000000041
 31
0.0
  0
LINE
  5
6CD2
  8
0
 10
8549.9999999999909
 20
2930.5000000000041
 30
0.0
 11
8549.9999999999909
 21
2928.5000000000041
 31
0.0
  0
LINE
  5
6CD3
  8
0
 10
8569.9999999999909
 20
2930.5000000000041
 30
0.0
 11
8549.9999999999909
 21
2930.5000000000041
 31
0.0
  0
LINE
  5
6CD4
  8
0
 10
8574.9999999999927
 20
2889.7190997647381
 30
0.0
 11
8574.9999999999927
 21
2925.5000000000041
 31
0.0
  0
LINE
  5
6CD5
  8
0
 10
8515.6999999999935
 20
2882.5000000000041
 30
0.0
 11
8517.9999999999909
 21
2882.5000000000041
 31
0.0
  0
LINE
  5
6CD6
  8
0
 10
8451.9999999999909
 20
2882.5000000000041
 30
0.0
 11
8454.299999999992
 21
2882.5000000000041
 31
0.0
  0
LINE
  5
6CD7
  8
0
 10
8428.2500000000182
 20
2897.5000000000041
 30
0.0
 11
8556.7500000000218
 21
2897.5000000000041
 31
0.0
  0
LINE
  5
6CD8
  8
0
 10
8428.2500000000182
 20
2910.5000000000041
 30
0.0
 11
8428.2500000000182
 21
2897.5000000000041
 31
0.0
  0
LINE
  5
6CD9
  8
0
 10
8556.7500000000218
 20
2910.5000000000041
 30
0.0
 11
8428.2500000000182
 21
2910.5000000000041
 31
0.0
  0
LINE
  5
6CDA
  8
0
 10
8515.6999999999935
 20
2930.2000000000012
 30
0.0
 11
8515.6999999999935
 21
2882.5000000000041
 31
0.0
  0
LINE
  5
6CDB
  8
0
 10
8454.299999999992
 20
2930.2000000000012
 30
0.0
 11
8515.6999999999935
 21
2930.2000000000012
 31
0.0
  0
LINE
  5
6CDC
  8
0
 10
8454.299999999992
 20
2882.5000000000041
 30
0.0
 11
8454.299999999992
 21
2930.2000000000012
 31
0.0
  0
LINE
  5
6CDD
  8
0
 10
8451.9999999999909
 20
2932.5000000000041
 30
0.0
 11
8451.9999999999909
 21
2882.5000000000041
 31
0.0
  0
LINE
  5
6CDE
  8
0
 10
8517.9999999999909
 20
2932.5000000000041
 30
0.0
 11
8451.9999999999909
 21
2932.5000000000041
 31
0.0
  0
LINE
  5
6CDF
  8
0
 10
8517.9999999999909
 20
2882.5000000000041
 30
0.0
 11
8517.9999999999909
 21
2932.5000000000041
 31
0.0
  0
LINE
  5
6CE0
  8
0
  6
PHANTOM2
 10
8624.9999999999782
 20
2999.9999999999932
 30
0.0
 11
8624.9999999999782
 21
1500.000000000025
 31
0.0
  0
LINE
  5
6CE1
  8
0
  6
PHANTOM2
 10
8624.9999999999782
 20
1250.000000000025
 30
0.0
 11
8549.9999999999782
 21
1250.000000000025
 31
0.0
  0
LINE
  5
6CE2
  8
0
  6
PHANTOM2
 10
8549.9999999999782
 20
1250.000000000025
 30
0.0
 11
8549.9999999999782
 21
1450.000000000025
 31
0.0
  0
LINE
  5
6CE3
  8
0
  6
PHANTOM2
 10
8574.9999999999782
 20
1250.000000000025
 30
0.0
 11
8574.9999999999782
 21
1450.000000000025
 31
0.0
  0
ARC
  5
6CE4
  8
0
 10
5422.6999999999935
 20
2997.7000000000048
 30
0.0
 40
2.299999999999998
 50
0.0
 51
90.0
  0
LINE
  5
6CE5
  8
0
 10
5384.9999999999936
 20
2997.7000000000048
 30
0.0
 11
5384.9999999999936
 21
3000.0000000000032
 31
0.0
  0
LINE
  5
6CE6
  8
0
 10
5422.6999999999935
 20
2997.7000000000048
 30
0.0
 11
5384.9999999999936
 21
2997.7000000000048
 31
0.0
  0
LINE
  5
6CE7
  8
0
 10
5422.6999999999935
 20
2884.0000000000041
 30
0.0
 11
5422.6999999999935
 21
2997.7000000000048
 31
0.0
  0
LINE
  5
6CE8
  8
0
 10
5424.9999999999927
 20
2884.0000000000041
 30
0.0
 11
5422.6999999999935
 21
2884.0000000000041
 31
0.0
  0
LINE
  5
6CE9
  8
0
 10
5424.9999999999927
 20
2997.7000000000048
 30
0.0
 11
5424.9999999999927
 21
2884.0000000000041
 31
0.0
  0
LINE
  5
6CEA
  8
0
 10
5384.9999999999936
 20
3000.0000000000032
 30
0.0
 11
5422.6999999999935
 21
3000.0000000000032
 31
0.0
  0
ARC
  5
6CEB
  8
0
 10
5437.4999999999918
 20
2886.4999999999459
 30
0.0
 40
5.7499999999704414
 50
180.0
 51
0.0
  0
ARC
  5
6CEC
  8
0
 10
5437.4999999999918
 20
2921.5000000000032
 30
0.0
 40
5.7499999999704414
 50
0.0
 51
180.0
  0
LINE
  5
6CED
  8
0
 10
5443.2499999999618
 20
2886.4999999999459
 30
0.0
 11
5443.2499999999618
 21
2921.5000000000032
 31
0.0
  0
LINE
  5
6CEE
  8
0
 10
5431.7499999999636
 20
2921.5000000000032
 30
0.0
 11
5431.7499999999636
 21
2886.4999999999459
 31
0.0
  0
ARC
  5
6CEF
  8
0
 10
5430.9999999999927
 20
2889.7190997647308
 30
0.0
 40
4.0
 50
180.0
 51
210.0
  0
ARC
  5
6CF0
  8
0
 10
5430.9999999999927
 20
2889.7190997647381
 30
0.0
 40
6.0
 50
180.0
 51
210.0
  0
ARC
  5
6CF1
  8
0
 10
5429.9999999999918
 20
2925.5000000000041
 30
0.0
 40
3.0
 50
90.0
 51
180.0
  0
ARC
  5
6CF2
  8
0
 10
5429.9999999999918
 20
2925.5000000000041
 30
0.0
 40
5.0
 50
90.0
 51
180.0
  0
LINE
  5
6CF3
  8
0
 10
5448.4470053837858
 20
2887.5000000000041
 30
0.0
 11
5445.5602540378386
 21
2882.5000000000041
 31
0.0
  0
LINE
  5
6CF4
  8
0
 10
5446.7149545762222
 20
2888.5
 30
0.0
 11
5448.4470053837858
 21
2887.5000000000041
 31
0.0
  0
LINE
  5
6CF5
  8
0
 10
5443.828203230275
 20
2883.5
 30
0.0
 11
5446.7149545762222
 21
2888.5
 31
0.0
  0
LINE
  5
6CF6
  8
0
 10
5427.5358983848564
 20
2887.7190997647299
 30
0.0
 11
5429.971796769747
 21
2883.5000000000209
 31
0.0
  0
LINE
  5
6CF7
  8
0
 10
5425.8038475772837
 20
2886.7190997647381
 30
0.0
 11
5428.2397459621943
 21
2882.5000000000041
 31
0.0
  0
ARC
  5
6CF8
  8
0
 10
5436.8999999999942
 20
2887.5000000000041
 30
0.0
 40
8.0
 50
210.0
 51
330.0
  0
ARC
  5
6CF9
  8
0
 10
5436.8999999999942
 20
2887.5000000000041
 30
0.0
 40
10.0
 50
210.0000000000131
 51
330.0
  0
LINE
  5
6CFA
  8
0
 10
5426.9999999999918
 20
2925.5000000000041
 30
0.0
 11
5426.9999999999918
 21
2889.7190997647308
 31
0.0
  0
LINE
  5
6CFB
  8
0
 10
5449.9999999999927
 20
2928.5000000000041
 30
0.0
 11
5429.9999999999918
 21
2928.5000000000041
 31
0.0
  0
LINE
  5
6CFC
  8
0
 10
5449.9999999999927
 20
2930.5000000000041
 30
0.0
 11
5449.9999999999927
 21
2928.5000000000041
 31
0.0
  0
LINE
  5
6CFD
  8
0
 10
5429.9999999999918
 20
2930.5000000000041
 30
0.0
 11
5449.9999999999927
 21
2930.5000000000041
 31
0.0
  0
LINE
  5
6CFE
  8
0
 10
5424.9999999999927
 20
2889.7190997647381
 30
0.0
 11
5424.9999999999927
 21
2925.5000000000041
 31
0.0
  0
LINE
  5
6CFF
  8
0
 10
5484.299999999992
 20
2882.5000000000041
 30
0.0
 11
5481.9999999999927
 21
2882.5000000000041
 31
0.0
  0
LINE
  5
6D00
  8
0
 10
5547.9999999999918
 20
2882.5000000000041
 30
0.0
 11
5545.6999999999935
 21
2882.5000000000041
 31
0.0
  0
LINE
  5
6D01
  8
0
 10
5571.7499999999654
 20
2897.5000000000041
 30
0.0
 11
5443.2499999999618
 21
2897.5000000000041
 31
0.0
  0
LINE
  5
6D02
  8
0
 10
5571.7499999999654
 20
2910.5000000000041
 30
0.0
 11
5571.7499999999654
 21
2897.5000000000041
 31
0.0
  0
LINE
  5
6D03
  8
0
 10
5443.2499999999618
 20
2910.5000000000041
 30
0.0
 11
5571.7499999999654
 21
2910.5000000000041
 31
0.0
  0
LINE
  5
6D04
  8
0
 10
5484.299999999992
 20
2930.2000000000039
 30
0.0
 11
5484.299999999992
 21
2882.5000000000041
 31
0.0
  0
LINE
  5
6D05
  8
0
 10
5545.6999999999935
 20
2930.2000000000039
 30
0.0
 11
5484.299999999992
 21
2930.2000000000039
 31
0.0
  0
LINE
  5
6D06
  8
0
 10
5545.6999999999935
 20
2882.5000000000041
 30
0.0
 11
5545.6999999999935
 21
2930.2000000000039
 31
0.0
  0
LINE
  5
6D07
  8
0
 10
5547.9999999999918
 20
2932.5000000000041
 30
0.0
 11
5547.9999999999918
 21
2882.5000000000041
 31
0.0
  0
LINE
  5
6D08
  8
0
 10
5481.9999999999927
 20
2932.5000000000041
 30
0.0
 11
5547.9999999999918
 21
2932.5000000000041
 31
0.0
  0
LINE
  5
6D09
  8
0
 10
5481.9999999999927
 20
2882.5000000000041
 30
0.0
 11
5481.9999999999927
 21
2932.5000000000041
 31
0.0
  0
LINE
  5
6D0A
  8
0
  6
PHANTOM2
 10
5375.0000000000073
 20
2999.9999999999932
 30
0.0
 11
5375.0000000000082
 21
1500.000000000025
 31
0.0
  0
LINE
  5
6D0B
  8
0
  6
PHANTOM2
 10
5375.0000000000073
 20
1250.000000000025
 30
0.0
 11
5450.0000000000064
 21
1250.000000000025
 31
0.0
  0
LINE
  5
6D0C
  8
0
  6
PHANTOM2
 10
5450.0000000000064
 20
1250.000000000025
 30
0.0
 11
5450.0000000000064
 21
1450.000000000025
 31
0.0
  0
LINE
  5
6D0D
  8
0
  6
PHANTOM2
 10
5425.0000000000064
 20
1250.000000000025
 30
0.0
 11
5425.0000000000045
 21
1450.000000000025
 31
0.0
  0
DIMENSION
  5
6D0E
  8
0
  2
*D4
 10
8500.0
 20
4000.0000000000291
 30
0.0
 11
7000.0
 21
4082.5000000000291
 31
0.0
  1
W
 13
5500.0
 23
3350.0000000000291
 33
0.0
 14
8500.0
 24
3350.0000000000291
 34
0.0
1001
ACAD
1000
DSTYLE
1002
{
1070
    41
1040
1.0
1002
}
  0
LINE
  5
6D0F
  8
0
 10
5250.0
 20
5500.0
 30
0.0
 11
11000.0
 21
5500.0
 31
0.0
  0
LINE
  5
6D10
  8
0
 10
5500.0
 20
1500.000000000025
 30
0.0
 11
5325.0
 21
1500.000000000025
 31
0.0
  0
LINE
  5
6D11
  8
0
 10
5500.0
 20
1450.000000000025
 30
0.0
 11
5325.0
 21
1450.000000000025
 31
0.0
  0
LINE
  5
6D12
  8
0
  6
PHANTOM2
 10
5375.0000000000082
 20
1450.000000000025
 30
0.0
 11
5375.0000000000073
 21
1250.000000000025
 31
0.0
  0
LINE
  5
6D13
  8
0
  6
PHANTOM2
 10
5425.0000000000018
 20
1500.000000000025
 30
0.0
 11
5424.9999999999927
 21
2889.7190997647381
 31
0.0
  0
LINE
  5
6D14
  8
0
  6
PHANTOM2
 10
5450.0000000000064
 20
1500.000000000025
 30
0.0
 11
5450.0000000000064
 21
2889.7190997647381
 31
0.0
  0
LINE
  5
6D15
  8
0
 10
8674.9999999999727
 20
1500.000000000025
 30
0.0
 11
8499.9999999999709
 21
1500.000000000025
 31
0.0
  0
LINE
  5
6D16
  8
0
 10
8674.9999999999727
 20
1450.000000000025
 30
0.0
 11
8499.9999999999709
 21
1450.000000000025
 31
0.0
  0
LINE
  5
6D17
  8
0
  6
PHANTOM2
 10
8624.9999999999782
 20
1450.000000000025
 30
0.0
 11
8624.9999999999782
 21
1250.000000000025
 31
0.0
  0
LINE
  5
6D18
  8
0
  6
PHANTOM2
 10
8549.9999999999818
 20
1500.000000000025
 30
0.0
 11
8549.9999999999782
 21
2889.7190997647381
 31
0.0
  0
LINE
  5
6D19
  8
0
  6
PHANTOM2
 10
8574.9999999999782
 20
1500.000000000025
 30
0.0
 11
8574.9999999999927
 21
2889.7190997647381
 31
0.0
  0
DIMENSION
  5
6D1A
  8
0
  2
*D6
 10
8525.0
 20
2250.0000000000291
 30
0.0
 11
7000.0
 21
2332.5000000000291
 31
0.0
  1
DW
 13
5475.0
 23
2750.0000000000291
 33
0.0
 14
8525.0
 24
2750.0000000000291
 34
0.0
1001
ACAD
1000
DSTYLE
1002
{
1070
    41
1040
1.0
1002
}
  0
DIMENSION
  5
6D1B
  8
0
  2
*D8
 10
5330.0
 20
3775.0000000000291
 30
0.0
 11
5415.0
 21
3857.50000000003
 31
0.0
  1
170以上
 13
5500.0
 23
3350.0000000000291
 33
0.0
 14
5330.0
 24
3350.0000000000291
 34
0.0
1001
ACAD
1000
DSTYLE
1002
{
1070
    41
1040
1.0
1002
}
  0
DIMENSION
  5
6D1C
  8
0
  2
*D10
 10
8670.0
 20
3775.0000000000291
 30
0.0
 11
8585.0
 21
3857.50000000003
 31
0.0
  1
170以上
 13
8500.0
 23
3350.0000000000291
 33
0.0
 14
8670.0
 24
3350.0000000000291
 34
0.0
1001
ACAD
1000
DSTYLE
1002
{
1070
    41
1040
1.0
1002
}
  0
LINE
  5
6D1D
  8
0
  6
PHANTOM2
 10
6850.0
 20
10730.0
 30
0.0
 11
6850.0
 21
8300.0
 31
0.0
  0
LINE
  5
6D1E
  8
0
  6
PHANTOM2
 10
6850.0
 20
8300.0
 30
0.0
 11
7000.0
 21
8300.0
 31
0.0
  0
LINE
  5
6D1F
  8
0
  6
PHANTOM2
 10
7000.0
 20
8300.0
 30
0.0
 11
7000.0
 21
9630.0
 31
0.0
  0
LINE
  5
6D20
  8
0
  6
PHANTOM2
 10
7000.0
 20
9630.0
 30
0.0
 11
11000.0
 21
9630.0
 31
0.0
  0
LINE
  5
6D21
  8
0
  6
PHANTOM2
 10
11000.0
 20
9780.0
 30
0.0
 11
7000.0
 21
9780.0
 31
0.0
  0
LINE
  5
6D22
  8
0
  6
PHANTOM2
 10
7000.0
 20
9780.0
 30
0.0
 11
7000.0
 21
10730.0
 31
0.0
  0
LINE
  5
6D23
  8
0
  6
PHANTOM2
 10
4500.0
 20
3000.0
 30
0.0
 11
5500.0
 21
3000.0
 31
0.0
  0
LINE
  5
6D24
  8
0
  6
PHANTOM2
 10
4500.0
 20
3150.0
 30
0.0
 11
5500.0
 21
3150.0
 31
0.0
  0
LINE
  5
6D25
  8
0
  6
PHANTOM2
 10
8500.0
 20
3150.0
 30
0.0
 11
8500.0
 21
3000.0
 31
0.0
  0
LINE
  5
6D26
  8
0
  6
PHANTOM2
 10
5500.0
 20
3150.0
 30
0.0
 11
5500.0
 21
3000.0
 31
0.0
  0
LINE
  5
6D27
  8
0
  6
PHANTOM2
 10
8500.0
 20
3150.0
 30
0.0
 11
9500.0
 21
3150.0
 31
0.0
  0
LINE
  5
6D28
  8
0
  6
PHANTOM2
 10
8500.0
 20
3000.0
 30
0.0
 11
9500.0
 21
3000.0
 31
0.0
  0
LINE
  5
6D29
  8
0
 10
7016.0000000000073
 20
8339.9999999999709
 30
0.0
 11
7067.5000000000064
 21
8339.9999999999709
 31
0.0
  0
LINE
  5
6D2A
  8
0
 10
7067.5000000000064
 20
8339.9999999999709
 30
0.0
 11
7067.5000000000064
 21
5519.9999999999691
 31
0.0
  0
LINE
  5
6D2B
  8
0
 10
7067.5000000000064
 20
5519.9999999999691
 30
0.0
 11
7016.0000000000073
 21
5519.9999999999691
 31
0.0
  0
LINE
  5
6D2C
  8
0
 10
7016.0000000000073
 20
5519.9999999999691
 30
0.0
 11
7016.0000000000073
 21
8339.9999999999709
 31
0.0
  0
LINE
  5
6D2D
  8
0
 10
7104.0
 20
5500.0
 30
0.0
 11
7141.7148030280068
 21
8905.7582569840106
 31
0.0
  0
LINE
  5
6D2E
  8
0
  6
HIDDEN
 10
7050.9963323068368
 20
5500.0
 30
0.0
 11
7067.5000000000064
 21
6902.8117537458647
 31
0.0
  0
DIMENSION
  5
6D2F
  8
0
  2
*D12
 10
5750.0
 20
5500.0
 30
0.0
 11
5667.4999999999991
 21
6900.0000000000027
 31
0.0
  1
H
 13
6650.0
 23
8300.0
 33
0.0
 14
5850.0
 24
5500.0
 34
0.0
 50
90.0
1001
ACAD
1000
DSTYLE
1002
{
1070
    41
1040
1.0
1002
}
  0
DIMENSION
  5
6D30
  8
0
  2
*D14
 10
5750.0
 20
9630.0
 30
0.0
 11
5667.4999999999991
 21
8965.0000000000018
 31
0.0
  1
HR=h+130以上
 13
6650.0
 23
8300.0
 33
0.0
 14
6650.0
 24
9630.0
 34
0.0
 50
90.0
1001
ACAD
1000
DSTYLE
1002
{
1070
    41
1040
1.0
1002
}
  0
DIMENSION
  5
6D31
  8
0
  2
*D16
 10
5975.0
 20
9500.0
 30
0.0
 11
5892.4999999999991
 21
8900.0000000000018
 31
0.0
  1
h=491～1990
 13
6650.0
 23
8300.0
 33
0.0
 14
6650.0
 24
9500.0
 34
0.0
 50
90.0
1001
ACAD
1000
DSTYLE
1002
{
1070
    41
1040
1.0
1002
}
  0
LINE
  5
6D32
  8
0
  6
HIDDEN2
 10
7110.0
 20
9310.0
 30
0.0
 11
7000.0
 21
9310.0
 31
0.0
  0
LINE
  5
6D33
  8
0
 10
7067.5000000000064
 20
6902.8117537458647
 30
0.0
 11
7088.7139793703291
 21
8906.0
 31
0.0
  0
DIMENSION
  5
6D34
  8
0
  2
*D18
 10
8000.0
 20
8340.0
 30
0.0
 11
7917.4999999999964
 21
6930.0000000000009
 31
0.0
  1
DH
 13
7250.0
 23
5520.0
 33
0.0
 14
7250.0
 24
8340.0
 34
0.0
 50
90.0
1001
ACAD
1000
DSTYLE
1002
{
1070
    41
1040
1.0
1002
}
  0
DIMENSION
  5
6D35
  8
0
  2
*D20
 10
7130.0
 20
10205.0
 30
0.0
 11
7065.0
 21
10287.5
 31
0.0
 13
7000.0
 23
10055.0
 33
0.0
 14
7130.0
 24
9830.0
 34
0.0
1001
ACAD
1000
DSTYLE
1002
{
1070
    41
1040
1.0
1002
}
  0
TEXT
  5
6D36
  8
0
 10
7432.5
 20
9944.7114317029918
 30
0.0
 40
105.0
  1
巻取ドラム
 41
0.8
  7
横文字
 72
     1
 11
7670.5
 21
9944.7114317029918
 31
0.0
  0
INSERT
  5
6D37
  8
0
  2
*U26
 10
0.0
 20
0.0
 30
0.0
  0
LINE
  5
6D38
  8
0
 10
7092.9992387806633
 20
5500.0
 30
0.0
 11
7130.7136394717818
 21
8905.7240583485363
 31
0.0
  0
LINE
  5
6D39
  8
0
 10
7110.0
 20
9310.0
 30
0.0
 11
7328.8312669604529
 21
9310.0
 31
0.0
  0
ARC
  5
6D3A
  8
0
 10
7541.7128756162192
 20
8907.0
 30
0.0
 40
452.99999999999261
 50
90.0
 51
180.1264808520846
  0
ARC
  5
6D3B
  8
0
 10
7541.7128756162192
 20
8907.0
 30
0.0
 40
411.00121671158911
 50
90.0
 51
180.1778734123572
  0
ARC
  5
6D3C
  8
0
 10
7541.7128756162192
 20
8907.0
 30
0.0
 40
400.00000000000068
 50
90.0
 51
180.17786687103549
  0
LINE
  5
6D3D
  8
0
 10
7540.7128064145818
 20
9360.0
 30
0.0
 11
7110.0
 21
9360.0
 31
0.0
  0
LINE
  5
6D3E
  8
0
 10
7000.0
 20
9585.0000000000127
 30
0.0
 11
7000.0
 21
9415.0000000000127
 31
0.0
  0
LINE
  5
6D3F
  8
0
 10
7000.0
 20
9415.0000000000127
 30
0.0
 11
7210.0
 21
9415.0000000000127
 31
0.0
  0
LINE
  5
6D40
  8
0
 10
7230.0
 20
9435.0000000000127
 30
0.0
 11
7230.0
 21
9482.4999999999982
 31
0.0
  0
LINE
  5
6D41
  8
0
 10
7210.0
 20
9585.0000000000127
 30
0.0
 11
7000.0
 21
9585.0000000000127
 31
0.0
  0
LINE
  5
6D42
  8
0
 10
7210.0
 20
9585.0000000000127
 30
0.0
 11
7230.0
 21
9565.0000000000127
 31
0.0
  0
LINE
  5
6D43
  8
0
 10
7230.0
 20
9435.0000000000127
 30
0.0
 11
7210.0
 21
9415.0000000000127
 31
0.0
  0
LINE
  5
6D44
  8
0
 10
7003.2000000000025
 20
9585.0000000000127
 30
0.0
 11
7003.2000000000025
 21
9415.0000000000127
 31
0.0
  0
LINE
  5
6D45
  8
0
 10
7207.0373286141239
 20
9517.5
 30
0.0
 11
7230.0
 21
9517.5
 31
0.0
  0
LINE
  5
6D46
  8
0
 10
7230.0
 20
9482.4999999999982
 30
0.0
 11
7207.0373286141148
 21
9482.4999999999982
 31
0.0
  0
LINE
  5
6D47
  8
0
 10
7230.0
 20
9517.5
 30
0.0
 11
7230.0
 21
9565.0000000000127
 31
0.0
  0
CIRCLE
  5
6D48
  8
0
 10
7130.0
 20
9500.0000000000127
 30
0.0
 40
79.0
  0
LINE
  5
6D49
  8
0
  6
CENTER2
 10
7130.0
 20
9600.0000000000127
 30
0.0
 11
7130.0
 21
9400.0000000000127
 31
0.0
  0
LINE
  5
6D4A
  8
0
  6
CENTER2
 10
7030.0
 20
9500.0
 30
0.0
 11
7230.0
 21
9500.0
 31
0.0
1001
ODSY
1071
        1
  0
LINE
  5
6D4B
  8
0
 10
7000.0
 20
9400.0
 30
0.0
 11
7110.0
 21
9400.0
 31
0.0
  0
LINE
  5
6D4C
  8
0
 10
7110.0
 20
9400.0
 30
0.0
 11
7110.0
 21
9270.0
 31
0.0
  0
LINE
  5
6D4D
  8
0
 10
7110.0
 20
9270.0
 30
0.0
 11
7000.0
 21
9270.0
 31
0.0
  0
LINE
  5
6D4E
  8
0
 10
7000.0
 20
9270.0
 30
0.0
 11
7000.0
 21
9400.0
 31
0.0
  0
LINE
  5
6D4F
  8
0
  6
HIDDEN2
 10
7110.0
 20
9360.0
 30
0.0
 11
7000.0
 21
9360.0
 31
0.0
  0
LINE
  5
6D50
  8
0
 10
9849.9999999999982
 20
9307.0
 30
0.0
 11
9849.9999999999982
 21
9360.0
 31
0.0
  0
LINE
  5
6D51
  8
0
 10
9849.9999999999982
 20
9360.0
 30
0.0
 11
9600.0
 21
9360.0
 31
0.0
  0
LINE
  5
6D52
  8
0
 10
7540.7128064144463
 20
9318.0
 30
0.0
 11
9849.9999999999982
 21
9318.0
 31
0.0
  0
LINE
  5
6D53
  8
0
 10
7541.7128756162192
 20
9307.0
 30
0.0
 11
9849.9999999999982
 21
9307.0
 31
0.0
  0
DIMENSION
  5
6D54
  8
0
  2
*D22
 10
9850.0
 20
10655.0
 30
0.0
 11
8425.0
 21
10737.5
 31
0.0
  1
DH-h+1030
 13
7000.0
 23
10505.0
 33
0.0
 14
9850.0
 24
9830.0
 34
0.0
1001
ACAD
1000
DSTYLE
1002
{
1070
    41
1040
1.0
1002
}
  0
DIMENSION
  5
6D55
  8
0
  2
*D24
 10
10500.0
 20
9630.0
 30
0.0
 11
10417.5
 21
9495.0
 31
0.0
  1
270以上
 13
10075.0
 23
9360.0
 33
0.0
 14
10350.0
 24
9630.0
 34
0.0
 50
90.0
1001
ACAD
1000
DSTYLE
1002
{
1070
    41
1040
1.0
1002
}
  0
TEXT
  5
6D56
  8
0
 10
8285.9431035939888
 20
8998.9259607988297
 30
0.0
 40
105.0
  1
水平レール
 41
0.8
  7
横文字
 72
     1
 11
8521.1431035939895
 21
8998.9259607988297
 31
0.0
  0
INSERT
  5
6D57
  8
0
  2
*U27
 10
0.0
 20
0.0
 30
0.0
  0
TEXT
  5
6D58
  8
0
 10
9668.0866657858842
 20
9098.9259607988297
 30
0.0
 40
105.0
  1
ストッパー
 41
0.8
  7
横文字
 72
     1
 11
9908.8866657858835
 21
9098.9259607988297
 31
0.0
  0
INSERT
  5
6D59
  8
0
  2
*U28
 10
0.0
 20
0.0
 30
0.0
  0
LINE
  5
6D5A
  8
0
 10
9450.0
 20
9360.0
 30
0.0
 11
7541.7128756162192
 21
9360.0
 31
0.0
  0
LINE
  5
6D5B
  8
0
  6
HIDDEN
 10
9450.0
 20
9360.0
 30
0.0
 11
9600.0
 21
9360.0
 31
0.0
  0
LINE
  5
6D5C
  8
0
 10
9612.9999999999982
 20
9434.0500000000047
 30
0.0
 11
9599.9999999999982
 21
9434.0500000000047
 31
0.0
  0
LINE
  5
6D5D
  8
0
 10
9612.9999999999982
 20
9449.9499999999971
 30
0.0
 11
9612.9999999999982
 21
9434.0500000000047
 31
0.0
  0
LINE
  5
6D5E
  8
0
 10
9599.9999999999982
 20
9449.9499999999971
 30
0.0
 11
9612.9999999999982
 21
9449.9499999999971
 31
0.0
  0
LINE
  5
6D5F
  8
0
 10
9596.7999999990006
 20
9449.9499999999971
 30
0.0
 11
9453.2000000000007
 21
9449.9499999999971
 31
0.0
  0
LINE
  5
6D60
  8
0
 10
9453.2000000000007
 20
9434.0500000000047
 30
0.0
 11
9596.7999999990006
 21
9434.0500000000047
 31
0.0
  0
LINE
  5
6D61
  8
0
 10
9312.9999999999982
 20
9434.0500000000047
 30
0.0
 11
9449.9999999999982
 21
9434.0500000000047
 31
0.0
  0
LINE
  5
6D62
  8
0
 10
9312.9999999999982
 20
9449.9499999999971
 30
0.0
 11
9449.9999999999982
 21
9449.9499999999971
 31
0.0
  0
LINE
  5
6D63
  8
0
 10
9596.7999999990006
 20
9482.0
 30
0.0
 11
9596.7999999990006
 21
9327.0
 31
0.0
  0
LINE
  5
6D64
  8
0
 10
9453.2000000000007
 20
9327.0
 30
0.0
 11
9453.2000000000007
 21
9482.0
 31
0.0
  0
LINE
  5
6D65
  8
0
 10
9449.9999999999982
 20
9327.0
 30
0.0
 11
9449.9999999999982
 21
9482.0
 31
0.0
  0
LINE
  5
6D66
  8
0
 10
9599.9999999999982
 20
9327.0
 30
0.0
 11
9449.9999999999982
 21
9327.0
 31
0.0
  0
LINE
  5
6D67
  8
0
 10
9599.9999999999982
 20
9482.0
 30
0.0
 11
9599.9999999999982
 21
9327.0
 31
0.0
  0
LINE
  5
6D68
  8
0
 10
9449.9999999999982
 20
9482.0
 30
0.0
 11
9599.9999999999982
 21
9482.0
 31
0.0
  0
LINE
  5
6D69
  8
0
 10
9309.7999999990006
 20
9457.0
 30
0.0
 11
9309.7999999990006
 21
9427.0
 31
0.0
  0
LINE
  5
6D6A
  8
0
 10
9291.7999999990006
 20
9427.0
 30
0.0
 11
9291.7999999990006
 21
9457.0
 31
0.0
  0
LINE
  5
6D6B
  8
0
 10
9312.9999999999982
 20
9427.0
 30
0.0
 11
9291.7999999990006
 21
9427.0
 31
0.0
  0
LINE
  5
6D6C
  8
0
 10
9312.9999999999982
 20
9457.0
 30
0.0
 11
9312.9999999999982
 21
9427.0
 31
0.0
  0
LINE
  5
6D6D
  8
0
 10
9291.7999999990006
 20
9457.0
 30
0.0
 11
9312.9999999999982
 21
9457.0
 31
0.0
  0
LINE
  5
6D6E
  8
0
 10
8000.0
 20
9360.0
 30
0.0
 11
8000.0
 21
9630.0
 31
0.0
  0
LINE
  5
6D6F
  8
0
 10
8000.0
 20
9630.0
 30
0.0
 11
8040.0
 21
9630.0
 31
0.0
  0
LINE
  5
6D70
  8
0
 10
8040.0
 20
9630.0
 30
0.0
 11
8040.0
 21
9360.0
 31
0.0
  0
LINE
  5
6D71
  8
0
 10
9400.0
 20
9360.0
 30
0.0
 11
9400.0
 21
9630.0
 31
0.0
  0
LINE
  5
6D72
  8
0
 10
9400.0
 20
9630.0
 30
0.0
 11
9440.0
 21
9630.0
 31
0.0
  0
LINE
  5
6D73
  8
0
 10
9440.0
 20
9630.0
 30
0.0
 11
9440.0
 21
9360.0
 31
0.0
  0
TEXT
  5
6D74
  8
0
 10
10979.999999999971
 20
47.5
 30
0.0
 40
105.0
  1
ハイリフト
 11
10979.999999999971
 21
100.0
 31
0.0
 73
     2
  0
TEXT
  5
6D75
  8
0
 10
10229.999999999971
 20
47.5
 30
0.0
 40
105.0
  1
納まり　  :
 11
10229.999999999971
 21
100.0
 31
0.0
 73
     2
  0
TEXT
  5
6D76
  8
0
 10
6552.9957445612663
 20
6927.0875098650649
 30
0.0
 40
105.0
  1
パネル
 41
0.8
  7
文字
 72
     1
 11
6692.9957445612654
 21
6927.0875098650649
 31
0.0
  0
INSERT
  5
6D77
  8
0
  2
*U29
 10
0.0
 20
0.0
 30
0.0
  0
TEXT
  5
6D78
  8
0
 10
7460.1999999999998
 20
10520.0
 30
0.0
 40
105.0
  1
（h=790超えの場合 DH-h+1230）
 41
0.8
  7
文字
 72
     1
 11
8425.0
 21
10572.5
 31
0.0
 73
     2
  0
LINE
  5
6D79
  8
0
  6
PHANTOM2
 10
7070.7000000000062
 20
5529.8000000000102
 30
0.0
 11
7095.5000000000073
 21
5529.8000000000102
 31
0.0
  0
LINE
  5
6D7A
  8
0
  6
PHANTOM2
 10
7070.7000000000062
 20
5722.5000000000073
 30
0.0
 11
7067.5000000000064
 21
5722.5000000000073
 31
0.0
  0
LINE
  5
6D7B
  8
0
  6
PHANTOM2
 10
7095.5000000000073
 20
5533.0000000000082
 30
0.0
 11
7095.5000000000073
 21
5529.8000000000102
 31
0.0
  0
LINE
  5
6D7C
  8
0
  6
PHANTOM2
 10
7070.7000000000062
 20
5533.0000000000082
 30
0.0
 11
7095.5000000000073
 21
5533.0000000000082
 31
0.0
  0
ARC
  5
6D7D
  8
0
  6
PHANTOM2
 10
7070.7000000000062
 20
5533.0000000000082
 30
0.0
 40
3.2000000000000002
 50
180.0
 51
270.0
  0
LINE
  5
6D7E
  8
0
  6
PHANTOM2
 10
7163.5000000000073
 20
5638.4999999999691
 30
0.0
 11
7163.5000000000073
 21
5637.5000000000073
 31
0.0
  0
LINE
  5
6D7F
  8
0
  6
PHANTOM2
 10
7163.5000000000073
 20
5555.5000000000073
 30
0.0
 11
7158.595261705641
 21
5555.5000000000073
 31
0.0
  0
LINE
  5
6D80
  8
0
  6
PHANTOM2
 10
7136.5000000000082
 20
5555.5000000000073
 30
0.0
 11
7070.7000000000062
 21
5555.5000000000073
 31
0.0
  0
LINE
  5
6D81
  8
0
  6
PHANTOM2
 10
7163.5000000000073
 20
5637.5000000000073
 30
0.0
 11
7141.0295766755717
 21
5637.5000000000073
 31
0.0
  0
LINE
  5
6D82
  8
0
  6
PHANTOM2
 10
7104.8594262750121
 20
5614.1176127356302
 30
0.0
 11
7138.2322124005677
 21
5636.6442433703842
 31
0.0
  0
ARC
  5
6D83
  8
0
  6
PHANTOM2
 10
7141.0295766755717
 20
5632.5000000000073
 30
0.0
 40
5.0
 50
90.0
 51
124.0193499895759
  0
LINE
  5
6D84
  8
0
  6
PHANTOM2
 10
7163.5000000000073
 20
5558.49999999997
 30
0.0
 11
7163.5000000000073
 21
5555.5000000000073
 31
0.0
  0
LINE
  5
6D85
  8
0
  6
PHANTOM2
 10
7163.5000000000073
 20
5638.4999999999691
 30
0.0
 11
7166.7000000000053
 21
5638.4999999999691
 31
0.0
  0
LINE
  5
6D86
  8
0
  6
PHANTOM2
 10
7163.5000000000073
 20
5558.49999999997
 30
0.0
 11
7166.7000000000071
 21
5558.49999999997
 31
0.0
  0
LINE
  5
6D87
  8
0
  6
PHANTOM2
 10
7166.7000000000053
 20
5638.4999999999691
 30
0.0
 11
7166.7000000000053
 21
5601.7290599168118
 31
0.0
  0
LINE
  5
6D88
  8
0
  6
PHANTOM2
 10
7166.7000000000071
 20
5595.3290599168104
 30
0.0
 11
7166.7000000000071
 21
5558.49999999997
 31
0.0
  0
ARC
  5
6D89
  8
0
  6
PHANTOM2
 10
7163.5000000000073
 20
5595.3290599168104
 30
0.0
 40
3.2000000000000002
 50
0.0
 51
90.0
  0
ARC
  5
6D8A
  8
0
  6
PHANTOM2
 10
7163.5000000000073
 20
5601.7290599168118
 30
0.0
 40
3.2000000000000002
 50
270.0
 51
0.0
  0
LINE
  5
6D8B
  8
0
  6
PHANTOM2
 10
7070.7000000000062
 20
5650.5000000000082
 30
0.0
 11
7104.8594262750103
 21
5614.1176127356366
 31
0.0
  0
LINE
  5
6D8C
  8
0
  6
PHANTOM2
 10
7070.7000000000062
 20
5555.5000000000073
 30
0.0
 11
7070.7000000000062
 21
5533.0000000000082
 31
0.0
  0
ARC
  5
6D8D
  8
0
  6
PHANTOM2
 10
7169.5000000000082
 20
5532.8000000000102
 30
0.0
 40
12.5
 50
239.9999999998048
 51
59.999999999804878
  0
LINE
  5
6D8E
  8
0
  6
PHANTOM2
 10
7163.2500000000082
 20
5521.9746824527028
 30
0.0
 11
7139.0000000000073
 21
5535.9754264805506
 31
0.0
  0
LINE
  5
6D8F
  8
0
  6
PHANTOM2
 10
7175.7500000000073
 20
5543.6253175473094
 30
0.0
 11
7161.0000000000073
 21
5552.1412340178576
 31
0.0
  0
ARC
  5
6D90
  8
0
  6
PHANTOM2
 10
7163.5000000000073
 20
5556.4713610367844
 30
0.0
 40
5.0
 50
191.20221111558681
 51
239.9999999998048
  0
LINE
  5
6D91
  8
0
  6
PHANTOM2
 10
7136.5000000000082
 20
5555.5000000000073
 30
0.0
 11
7136.5000000000082
 21
5540.3055534994719
 31
0.0
  0
ARC
  5
6D92
  8
0
  6
PHANTOM2
 10
7141.5000000000073
 20
5540.3055534994719
 30
0.0
 40
5.0
 50
180.0
 51
239.9999999998048
  0
LINE
  5
6D93
  8
0
  6
PHANTOM2
 10
7204.9000000000087
 20
5620.5000000000437
 30
0.0
 11
7204.9000000000087
 21
5651.1110695100851
 31
0.0
  0
LINE
  5
6D94
  8
0
  6
PHANTOM2
 10
7203.7000000000062
 20
5620.5000000000437
 30
0.0
 11
7203.7000000000062
 21
5650.5000000000418
 31
0.0
  0
LINE
  5
6D95
  8
0
  6
PHANTOM2
 10
7204.9000000000087
 20
5620.5000000000437
 30
0.0
 11
7203.7000000000062
 21
5620.5000000000437
 31
0.0
  0
LINE
  5
6D96
  8
0
  6
PHANTOM2
 10
7148.7000000000062
 20
5690.5000000000418
 30
0.0
 11
7203.7000000000062
 21
5650.5000000000418
 31
0.0
  0
LINE
  5
6D97
  8
0
  6
PHANTOM2
 10
7148.7000000000062
 20
5690.5000000000418
 30
0.0
 11
7070.7000000000062
 21
5690.5000000000418
 31
0.0
  0
LINE
  5
6D98
  8
0
  6
PHANTOM2
 10
7071.900000000006
 20
5691.7000000000389
 30
0.0
 11
7071.900000000006
 21
5724.6040862788577
 31
0.0
  0
LINE
  5
6D99
  8
0
  6
PHANTOM2
 10
7149.0902205763159
 20
5691.7000000000389
 30
0.0
 11
7071.900000000006
 21
5691.7000000000389
 31
0.0
  0
LINE
  5
6D9A
  8
0
  6
PHANTOM2
 10
7149.0902205763159
 20
5691.7000000000389
 30
0.0
 11
7204.9000000000087
 21
5651.1110695100851
 31
0.0
  0
LINE
  5
6D9B
  8
0
  6
PHANTOM2
 10
7068.900000000006
 20
5734.5000000000437
 30
0.0
 11
7070.7000000000062
 21
5724.4969790327668
 31
0.0
  0
LINE
  5
6D9C
  8
0
  6
PHANTOM2
 10
7070.0810311808264
 20
5734.7125214105608
 30
0.0
 11
7071.900000000006
 21
5724.6040862788577
 31
0.0
  0
LINE
  5
6D9D
  8
0
  6
PHANTOM2
 10
7070.0810311808264
 20
5734.7125214105608
 30
0.0
 11
7068.900000000006
 21
5734.5000000000437
 31
0.0
  0
LINE
  5
6D9E
  8
0
  6
PHANTOM2
 10
7070.7000000000062
 20
5690.5000000000364
 30
0.0
 11
7070.7000000000062
 21
5650.5000000000082
 31
0.0
  0
LINE
  5
6D9F
  8
0
  6
PHANTOM2
 10
7070.7000000000062
 20
5722.5000000000073
 30
0.0
 11
7070.7000000000062
 21
5724.4969790327668
 31
0.0
  0
LINE
  5
6DA0
  8
0
  6
PHANTOM2
 10
7067.5000000000064
 20
5722.5000000000073
 30
0.0
 11
7067.5000000000064
 21
5533.0000000000082
 31
0.0
  0
ENDSEC
  0
EOF
