  0
SECTION
  2
HEADER
  9
$ACADVER
  1
AC1009
  9
$INSBASE
 10
0.0
 20
0.0
 30
0.0
  9
$EXTMIN
 10
0.0
 20
0.0
 30
0.0
  9
$EXTMAX
 10
1638.0
 20
1174.5
 30
0.0
  9
$LIMMIN
 10
0.0
 20
0.0
  9
$LIMMAX
 10
420.0
 20
297.0
  9
$ORTHOMODE
 70
     1
  9
$REGENMODE
 70
     1
  9
$FILLMODE
 70
     1
  9
$QTEXTMODE
 70
     0
  9
$MIRRTEXT
 70
     0
  9
$DRAGMODE
 70
     2
  9
$LTSCALE
 40
0.75
  9
$OSMODE
 70
  3071
  9
$ATTMODE
 70
     1
  9
$TEXTSIZE
 40
10.5
  9
$TRACEWID
 40
1.0
  9
$TEXTSTYLE
  7
横文字
  9
$CLAYER
  8
0
  9
$CELTYPE
  6
BYLAYER
  9
$CECOLOR
 62
   256
  9
$DIMSCALE
 40
3.0
  9
$DIMASZ
 40
1.0
  9
$DIMEXO
 40
5.0
  9
$DIMDLI
 40
7.5
  9
$DIMRND
 40
0.0
  9
$DIMDLE
 40
0.0
  9
$DIMEXE
 40
1.0
  9
$DIMTP
 40
0.0
  9
$DIMTM
 40
0.0
  9
$DIMTXT
 40
3.5
  9
$DIMCEN
 40
1.0
  9
$DIMTSZ
 40
0.0
  9
$DIMTOL
 70
     0
  9
$DIMLIM
 70
     0
  9
$DIMTIH
 70
     0
  9
$DIMTOH
 70
     0
  9
$DIMSE1
 70
     0
  9
$DIMSE2
 70
     0
  9
$DIMTAD
 70
     1
  9
$DIMZIN
 70
     8
  9
$DIMBLK
  1
ORIGIN
  9
$DIMASO
 70
     1
  9
$DIMSHO
 70
     1
  9
$DIMPOST
  1

  9
$DIMAPOST
  1

  9
$DIMALT
 70
     0
  9
$DIMALTD
 70
     3
  9
$DIMALTF
 40
0.03937007874016
  9
$DIMLFAC
 40
1.0
  9
$DIMTOFL
 70
     1
  9
$DIMTVP
 40
0.0
  9
$DIMTIX
 70
     1
  9
$DIMSOXD
 70
     0
  9
$DIMSAH
 70
     0
  9
$DIMBLK1
  1

  9
$DIMBLK2
  1

  9
$DIMSTYLE
  2
寸法線03
  9
$DIMCLRD
 70
   256
  9
$DIMCLRE
 70
   256
  9
$DIMCLRT
 70
   256
  9
$DIMTFAC
 40
1.0
  9
$DIMGAP
 40
1.0
  9
$LUNITS
 70
     2
  9
$LUPREC
 70
     4
  9
$SKETCHINC
 40
1.0
  9
$FILLETRAD
 40
0.0
  9
$AUNITS
 70
     0
  9
$AUPREC
 70
     0
  9
$MENU
  1
.
  9
$ELEVATION
 40
0.0
  9
$PELEVATION
 40
0.0
  9
$THICKNESS
 40
0.0
  9
$LIMCHECK
 70
     0
  9
$BLIPMODE
 70
     0
  9
$CHAMFERA
 40
0.0
  9
$CHAMFERB
 40
0.0
  9
$SKPOLY
 70
     0
  9
$TDCREATE
 40
2456769.6746121412
  9
$TDUPDATE
 40
2456776.5693336921
  9
$TDINDWG
 40
0.0427702199
  9
$TDUSRTIMER
 40
0.0427702199
  9
$USRTIMER
 70
     1
  9
$ANGBASE
 50
0.0
  9
$ANGDIR
 70
     0
  9
$PDMODE
 70
     0
  9
$PDSIZE
 40
0.0
  9
$PLINEWID
 40
0.0
  9
$COORDS
 70
     1
  9
$SPLFRAME
 70
     0
  9
$SPLINETYPE
 70
     6
  9
$SPLINESEGS
 70
     8
  9
$ATTDIA
 70
     0
  9
$ATTREQ
 70
     1
  9
$HANDLING
 70
     1
  9
$HANDSEED
  5
CF82
  9
$SURFTAB1
 70
     6
  9
$SURFTAB2
 70
     6
  9
$SURFTYPE
 70
     6
  9
$SURFU
 70
     6
  9
$SURFV
 70
     6
  9
$UCSNAME
  2

  9
$UCSORG
 10
0.0
 20
0.0
 30
0.0
  9
$UCSXDIR
 10
1.0
 20
0.0
 30
0.0
  9
$UCSYDIR
 10
0.0
 20
1.0
 30
0.0
  9
$PUCSNAME
  2

  9
$PUCSORG
 10
0.0
 20
0.0
 30
0.0
  9
$PUCSXDIR
 10
1.0
 20
0.0
 30
0.0
  9
$PUCSYDIR
 10
0.0
 20
1.0
 30
0.0
  9
$USERI1
 70
     0
  9
$USERI2
 70
     0
  9
$USERI3
 70
     0
  9
$USERI4
 70
     0
  9
$USERI5
 70
     0
  9
$USERR1
 40
0.0
  9
$USERR2
 40
0.0
  9
$USERR3
 40
0.0
  9
$USERR4
 40
0.0
  9
$USERR5
 40
0.0
  9
$WORLDVIEW
 70
     1
  9
$SHADEDGE
 70
     3
  9
$SHADEDIF
 70
    70
  9
$TILEMODE
 70
     1
  9
$MAXACTVP
 70
    64
  9
$PLIMCHECK
 70
     0
  9
$PEXTMIN
 10
1.0000000000000000E+020
 20
1.0000000000000000E+020
 30
1.0000000000000000E+020
  9
$PEXTMAX
 10
-1.0000000000000000E+020
 20
-1.0000000000000000E+020
 30
-1.0000000000000000E+020
  9
$PLIMMIN
 10
0.0
 20
0.0
  9
$PLIMMAX
 10
420.0
 20
297.0
  9
$UNITMODE
 70
     0
  9
$VISRETAIN
 70
     1
  9
$PLINEGEN
 70
     0
  9
$PSLTSCALE
 70
     1
  0
ENDSEC
  0
SECTION
  2
TABLES
  0
TABLE
  2
VPORT
 70
     1
  0
VPORT
  2
*ACTIVE
 70
     0
 10
0.0
 20
0.0
 11
1.0
 21
1.0
 12
1129.813573413333
 22
587.24715747142545
 13
0.0
 23
0.0
 14
10.0
 24
10.0
 15
10.0
 25
10.0
 16
0.0
 26
0.0
 36
1.0
 17
0.0
 27
0.0
 37
0.0
 40
1184.7050513689339
 41
3.2307692307692299
 42
50.0
 43
0.0
 44
0.0
 50
0.0
 51
0.0
 71
     0
 72
  1000
 73
     1
 74
     3
 75
     0
 76
     0
 77
     0
 78
     0
  0
ENDTAB
  0
TABLE
  2
LTYPE
 70
     4
  0
LTYPE
  2
CONTINUOUS
 70
     0
  3
Solid line
 72
    65
 73
     0
 40
0.0
  0
LTYPE
  2
CENTER2
 70
     0
  3
Center (.5x) ___ _ ___ _ ___ _ ___ _ ___ _ ___
 72
    65
 73
     4
 40
28.574999999999999
 49
19.050000000000001
 49
-3.1749999999999989
 49
3.1749999999999989
 49
-3.1749999999999989
  0
LTYPE
  2
PHANTOM2
 70
     0
  3
Phantom (.5x) ___ _ _ ___ _ _ ___ _ _ ___ _ _
 72
    65
 73
     6
 40
31.75
 49
15.875
 49
-3.1749999999999989
 49
3.1749999999999989
 49
-3.1749999999999989
 49
3.1749999999999989
 49
-3.1749999999999989
  0
LTYPE
  2
HIDDEN
 70
     0
  3
Hidden __ __ __ __ __ __ __ __ __ __ __ __ __ _
 72
    65
 73
     2
 40
9.5249999999999986
 49
6.3499999999999988
 49
-3.1749999999999989
  0
ENDTAB
  0
TABLE
  2
LAYER
 70
     2
  0
LAYER
  2
0
 70
     0
 62
     7
  6
CONTINUOUS
  0
LAYER
  2
DEFPOINTS
 70
     0
 62
     7
  6
CONTINUOUS
  0
ENDTAB
  0
TABLE
  2
STYLE
 70
     2
  0
STYLE
  2
STANDARD
 70
     0
 40
0.0
 41
1.0
 50
0.0
 71
     0
 42
2.5
  3
romans.shx
  4
bigfont.shx
  0
STYLE
  2
横文字
 70
     0
 40
0.0
 41
0.8
 50
0.0
 71
     0
 42
10.5
  3
romans.shx
  4
extfont.shx
  0
ENDTAB
  0
TABLE
  2
VIEW
 70
     0
  0
ENDTAB
  0
TABLE
  2
UCS
 70
     0
  0
ENDTAB
  0
TABLE
  2
APPID
 70
    11
  0
APPID
  2
ACAD
 70
     0
  0
APPID
  2
ACADANNOTATIVE
 70
     0
  0
APPID
  2
ACAD_PSEXT
 70
     0
  0
APPID
  2
ACAD_DSTYLE_DIMJAG
 70
     0
  0
APPID
  2
ACAD_DSTYLE_DIMTALN
 70
     0
  0
APPID
  2
ACADANNOPO
 70
     0
  0
APPID
  2
ADE
 70
     0
  0
APPID
  2
DCO15
 70
     0
  0
APPID
  2
ACAD_MLEADERVER
 70
     0
  0
APPID
  2
ACAD_EXEMPT_FROM_CAD_STANDARDS
 70
     0
  0
APPID
  2
N_10
 70
     0
  0
ENDTAB
  0
TABLE
  2
DIMSTYLE
 70
     2
  0
DIMSTYLE
  2
STANDARD
 70
     0
  3

  4

  5
ORIGIN
  6

  7

 40
30.0
 41
1.0
 42
5.0
 43
7.5
 44
1.0
 45
0.0
 46
0.0
 47
0.0
 48
0.0
140
3.5
141
2.5
142
0.0
143
25.399999999999999
144
1.0
145
0.0
146
1.0
147
1.0
 71
     0
 72
     0
 73
     0
 74
     0
 75
     0
 76
     0
 77
     1
 78
     8
170
     0
171
     2
172
     1
173
     0
174
     1
175
     0
176
     0
177
     0
178
     0
  0
DIMSTYLE
  2
寸法線03
 70
     0
  3

  4

  5
ORIGIN
  6

  7

 40
3.0
 41
1.0
 42
5.0
 43
7.5
 44
1.0
 45
0.0
 46
0.0
 47
0.0
 48
0.0
140
3.5
141
1.0
142
0.0
143
0.03937007874016
144
1.0
145
0.0
146
1.0
147
1.0
 71
     0
 72
     0
 73
     0
 74
     0
 75
     0
 76
     0
 77
     1
 78
     8
170
     0
171
     3
172
     1
173
     0
174
     1
175
     0
176
   256
177
   256
178
   256
  0
ENDTAB
  0
ENDSEC
  0
SECTION
  2
BLOCKS
  0
BLOCK
  8
0
  2
$MODEL_SPACE
 70
     0
 10
0.0
 20
0.0
 30
0.0
  3
$MODEL_SPACE
  1

  0
ENDBLK
  5
6E
  8
0
  0
BLOCK
 67
     1
  8
0
  2
$PAPER_SPACE
 70
     0
 10
0.0
 20
0.0
 30
0.0
  3
$PAPER_SPACE
  1

  0
ENDBLK
  5
6A
 67
     1
  8
0
  0
BLOCK
  8
0
  2
_ORIGIN
 70
     0
 10
0.0
 20
0.0
 30
0.0
  3
_ORIGIN
  1

  0
CIRCLE
  5
7A
  8
0
  6
BYBLOCK
 62
     0
 10
0.0
 20
0.0
 30
0.0
 40
0.5
  0
LINE
  5
7B
  8
0
  6
BYBLOCK
 62
     0
 10
0.0
 20
0.0
 30
0.0
 11
-1.0
 21
0.0
 31
0.0
  0
ENDBLK
  5
7C
  8
0
  0
BLOCK
  8
0
  2
_OPEN30
 70
     0
 10
0.0
 20
0.0
 30
0.0
  3
_OPEN30
  1

  0
LINE
  5
7F
  8
0
  6
BYBLOCK
 62
     0
 10
-1.0
 20
0.26794919
 30
0.0
 11
0.0
 21
0.0
 31
0.0
  0
LINE
  5
80
  8
0
  6
BYBLOCK
 62
     0
 10
0.0
 20
0.0
 30
0.0
 11
-1.0
 21
-0.26794919
 31
0.0
  0
LINE
  5
81
  8
0
  6
BYBLOCK
 62
     0
 10
0.0
 20
0.0
 30
0.0
 11
-1.0
 21
0.0
 31
0.0
  0
ENDBLK
  5
82
  8
0
  0
BLOCK
  8
0
  2
_NONE
 70
     0
 10
0.0
 20
0.0
 30
0.0
  3
_NONE
  1

  0
ENDBLK
  5
4B8F
  8
0
  0
BLOCK
  8
0
  2
*D4
 70
     1
 10
0.0
 20
0.0
 30
0.0
  3
*D4
  1

  0
LINE
  5
CCDF
  8
0
 10
430.000000000005
 20
792.76258918570784
 30
0.0
 11
347.00000000000512
 21
792.76258918570784
 31
0.0
  0
LINE
  5
CCE0
  8
0
 10
429.99999999997311
 20
530.762589185651
 30
0.0
 11
347.000000000005
 21
530.762589185651
 31
0.0
  0
LINE
  5
CCE1
  8
0
 10
350.00000000000512
 20
789.76258918570784
 30
0.0
 11
350.000000000005
 21
533.762589185651
 31
0.0
  0
INSERT
  5
CCE2
  8
0
  2
_ORIGIN
 10
350.00000000000512
 20
792.76258918570784
 30
0.0
 41
3.0
 42
3.0
 43
3.0
 50
90.0
  0
INSERT
  5
CCE3
  8
0
  2
_ORIGIN
 10
350.000000000005
 20
530.762589185651
 30
0.0
 41
3.0
 42
3.0
 43
3.0
 50
270.0
  0
INSERT
  5
CCE4
  8
0
  2
*U41
 10
0.0
 20
0.0
 30
0.0
  0
POINT
  5
CCE5
  8
DEFPOINTS
 62
     0
 10
445.00000000000489
 20
792.76258918570784
 30
0.0
  0
POINT
  5
CCE6
  8
DEFPOINTS
 62
     0
 10
444.99999999997311
 20
530.762589185651
 30
0.0
  0
POINT
  5
CCE7
  8
DEFPOINTS
 62
     0
 10
350.000000000005
 20
530.762589185651
 30
0.0
  0
ENDBLK
  5
BAE0
  8
0
  0
BLOCK
  8
0
  2
*D5
 70
     1
 10
0.0
 20
0.0
 30
0.0
  3
*D5
  1

  0
LINE
  5
CCD6
  8
0
 10
430.000000000005
 20
590.76258918565145
 30
0.0
 11
369.500000000005
 21
590.76258918565145
 31
0.0
  0
LINE
  5
CCD7
  8
0
 10
429.99999999997311
 20
530.762589185651
 30
0.0
 11
369.500000000005
 21
530.762589185651
 31
0.0
  0
LINE
  5
CCD8
  8
0
 10
372.500000000005
 20
587.76258918565145
 30
0.0
 11
372.500000000005
 21
533.762589185651
 31
0.0
  0
INSERT
  5
CCD9
  8
0
  2
_ORIGIN
 10
372.500000000005
 20
590.76258918565145
 30
0.0
 41
3.0
 42
3.0
 43
3.0
 50
90.0
  0
INSERT
  5
CCDA
  8
0
  2
_ORIGIN
 10
372.500000000005
 20
530.762589185651
 30
0.0
 41
3.0
 42
3.0
 43
3.0
 50
270.0
  0
INSERT
  5
CCDB
  8
0
  2
*U40
 10
0.0
 20
0.0
 30
0.0
  0
POINT
  5
CCDC
  8
DEFPOINTS
 62
     0
 10
445.00000000000489
 20
590.76258918565145
 30
0.0
  0
POINT
  5
CCDD
  8
DEFPOINTS
 62
     0
 10
444.99999999997311
 20
530.762589185651
 30
0.0
  0
POINT
  5
CCDE
  8
DEFPOINTS
 62
     0
 10
372.500000000005
 20
530.762589185651
 30
0.0
  0
ENDBLK
  5
BAEC
  8
0
  0
BLOCK
  8
0
  2
*D6
 70
     1
 10
0.0
 20
0.0
 30
0.0
  3
*D6
  1

  0
LINE
  5
CCCD
  8
0
 10
570.00000000000125
 20
268.76258918570761
 30
0.0
 11
608.00000000000125
 21
268.76258918570761
 31
0.0
  0
LINE
  5
CCCE
  8
0
 10
570.00000000000125
 20
280.7625891857611
 30
0.0
 11
608.00000000000125
 21
280.7625891857611
 31
0.0
  0
LINE
  5
CCCF
  8
0
 10
605.00000000000136
 20
271.76258918570761
 30
0.0
 11
605.00000000000136
 21
277.76258918576099
 31
0.0
  0
INSERT
  5
CCD0
  8
0
  2
*U39
 10
0.0
 20
0.0
 30
0.0
  0
INSERT
  5
CCD1
  8
0
  2
_ORIGIN
 10
605.00000000000136
 20
268.76258918570761
 30
0.0
 41
3.0
 42
3.0
 43
3.0
 50
270.0
  0
INSERT
  5
CCD2
  8
0
  2
_ORIGIN
 10
605.00000000000136
 20
280.7625891857611
 30
0.0
 41
3.0
 42
3.0
 43
3.0
 50
90.0
  0
POINT
  5
CCD3
  8
DEFPOINTS
 62
     0
 10
555.00000000000136
 20
268.76258918570761
 30
0.0
  0
POINT
  5
CCD4
  8
DEFPOINTS
 62
     0
 10
555.00000000000136
 20
280.7625891857611
 30
0.0
  0
POINT
  5
CCD5
  8
DEFPOINTS
 62
     0
 10
605.00000000000136
 20
280.7625891857611
 30
0.0
  0
ENDBLK
  5
BAF8
  8
0
  0
BLOCK
  8
0
  2
*D7
 70
     1
 10
0.0
 20
0.0
 30
0.0
  3
*D7
  1

  0
LINE
  5
CCC4
  8
0
 10
1330.0
 20
291.0
 30
0.0
 11
1330.0
 21
265.0
 31
0.0
  0
LINE
  5
CCC5
  8
0
 10
1250.0
 20
291.0
 30
0.0
 11
1250.0
 21
265.0
 31
0.0
  0
LINE
  5
CCC6
  8
0
 10
1327.0
 20
268.0
 30
0.0
 11
1253.0
 21
268.0
 31
0.0
  0
INSERT
  5
CCC7
  8
0
  2
_ORIGIN
 10
1330.0
 20
268.0
 30
0.0
 41
3.0
 42
3.0
 43
3.0
  0
INSERT
  5
CCC8
  8
0
  2
_ORIGIN
 10
1250.0
 20
268.0
 30
0.0
 41
3.0
 42
3.0
 43
3.0
 50
180.0
  0
INSERT
  5
CCC9
  8
0
  2
*U38
 10
0.0
 20
0.0
 30
0.0
  0
POINT
  5
CCCA
  8
DEFPOINTS
 62
     0
 10
1330.0
 20
306.0
 30
0.0
  0
POINT
  5
CCCB
  8
DEFPOINTS
 62
     0
 10
1250.0
 20
306.0
 30
0.0
  0
POINT
  5
CCCC
  8
DEFPOINTS
 62
     0
 10
1250.0
 20
268.0
 30
0.0
  0
ENDBLK
  5
BB1E
  8
0
  0
BLOCK
  8
0
  2
*D8
 70
     1
 10
0.0
 20
0.0
 30
0.0
  3
*D8
  1

  0
LINE
  5
CF11
  8
0
 10
1250.0
 20
291.0
 30
0.0
 11
1250.0
 21
265.0
 31
0.0
  0
LINE
  5
CF12
  8
0
 10
1247.0
 20
268.0
 30
0.0
 11
1100.0
 21
268.0
 31
0.0
  0
INSERT
  5
CF13
  8
0
  2
_ORIGIN
 10
1250.0
 20
268.0
 30
0.0
 41
3.0
 42
3.0
 43
3.0
  0
TEXT
  8
0
  40
10.5
  5
CF81
  72
0
  71
0
 10
1173.50
 20
262.600
 30
0.000000
  1
 W
  7
横文字
  0
POINT
  5
CF15
  8
DEFPOINTS
 62
     0
 10
1250.0
 20
306.0
 30
0.0
  0
POINT
  5
CF16
  8
DEFPOINTS
 62
     0
 10
1100.0
 20
306.0
 30
0.0
  0
POINT
  5
CF17
  8
DEFPOINTS
 62
     0
 10
1100.0
 20
268.0
 30
0.0
  0
ENDBLK
  5
BB2A
  8
0
  0
BLOCK
  8
0
  2
*D9
 70
     1
 10
0.0
 20
0.0
 30
0.0
  3
*D9
  1

  0
LINE
  5
CCB4
  8
0
 10
1225.0
 20
361.0
 30
0.0
 11
1199.5
 21
361.0
 31
0.0
  0
LINE
  5
CCB5
  8
0
 10
1225.0
 20
321.0
 30
0.0
 11
1199.5
 21
321.0
 31
0.0
  0
LINE
  5
CCB6
  8
0
 10
1202.5
 20
358.0
 30
0.0
 11
1202.5
 21
324.0
 31
0.0
  0
INSERT
  5
CCB7
  8
0
  2
_ORIGIN
 10
1202.5
 20
361.0
 30
0.0
 41
3.0
 42
3.0
 43
3.0
 50
90.0
  0
INSERT
  5
CCB8
  8
0
  2
_ORIGIN
 10
1202.5
 20
321.0
 30
0.0
 41
3.0
 42
3.0
 43
3.0
 50
270.0
  0
INSERT
  5
CCB9
  8
0
  2
*U37
 10
0.0
 20
0.0
 30
0.0
  0
POINT
  5
CCBA
  8
DEFPOINTS
 62
     0
 10
1240.0
 20
361.0
 30
0.0
  0
POINT
  5
CCBB
  8
DEFPOINTS
 62
     0
 10
1240.0
 20
321.0
 30
0.0
  0
POINT
  5
CCBC
  8
DEFPOINTS
 62
     0
 10
1202.5
 20
321.0
 30
0.0
  0
ENDBLK
  5
BB5D
  8
0
  0
BLOCK
  8
0
  2
*D10
 70
     1
 10
0.0
 20
0.0
 30
0.0
  3
*D10
  1

  0
LINE
  5
CCAB
  8
0
 10
1130.0
 20
386.0
 30
0.0
 11
1132.0
 21
386.0
 31
0.0
  0
LINE
  5
CCAC
  8
0
 10
1130.0
 20
366.0
 30
0.0
 11
1132.0
 21
366.0
 31
0.0
  0
LINE
  5
CCAD
  8
0
 10
1135.0
 20
383.0
 30
0.0
 11
1135.0
 21
369.0
 31
0.0
  0
INSERT
  5
CCAE
  8
0
  2
_ORIGIN
 10
1135.0
 20
386.0
 30
0.0
 41
3.0
 42
3.0
 43
3.0
 50
90.0
  0
INSERT
  5
CCAF
  8
0
  2
_ORIGIN
 10
1135.0
 20
366.0
 30
0.0
 41
3.0
 42
3.0
 43
3.0
 50
270.0
  0
INSERT
  5
CCB0
  8
0
  2
*U36
 10
0.0
 20
0.0
 30
0.0
  0
POINT
  5
CCB1
  8
DEFPOINTS
 62
     0
 10
1145.0
 20
386.0
 30
0.0
  0
POINT
  5
CCB2
  8
DEFPOINTS
 62
     0
 10
1145.0
 20
366.0
 30
0.0
  0
POINT
  5
CCB3
  8
DEFPOINTS
 62
     0
 10
1135.0
 20
366.0
 30
0.0
  0
ENDBLK
  5
BB75
  8
0
  0
BLOCK
  8
0
  2
*D11
 70
     1
 10
0.0
 20
0.0
 30
0.0
  3
*D11
  1

  0
LINE
  5
CCA2
  8
0
 10
1130.0
 20
366.0
 30
0.0
 11
1132.0
 21
366.0
 31
0.0
  0
LINE
  5
CCA3
  8
0
 10
1130.0
 20
316.0
 30
0.0
 11
1132.0
 21
316.0
 31
0.0
  0
LINE
  5
CCA4
  8
0
 10
1135.0
 20
363.0
 30
0.0
 11
1135.0
 21
319.0
 31
0.0
  0
INSERT
  5
CCA5
  8
0
  2
_ORIGIN
 10
1135.0
 20
366.0
 30
0.0
 41
3.0
 42
3.0
 43
3.0
 50
90.0
  0
INSERT
  5
CCA6
  8
0
  2
_ORIGIN
 10
1135.0
 20
316.0
 30
0.0
 41
3.0
 42
3.0
 43
3.0
 50
270.0
  0
INSERT
  5
CCA7
  8
0
  2
*U35
 10
0.0
 20
0.0
 30
0.0
  0
POINT
  5
CCA8
  8
DEFPOINTS
 62
     0
 10
1145.0
 20
366.0
 30
0.0
  0
POINT
  5
CCA9
  8
DEFPOINTS
 62
     0
 10
1145.0
 20
316.0
 30
0.0
  0
POINT
  5
CCAA
  8
DEFPOINTS
 62
     0
 10
1135.0
 20
316.0
 30
0.0
  0
ENDBLK
  5
BB81
  8
0
  0
BLOCK
  8
0
  2
*D12
 70
     1
 10
0.0
 20
0.0
 30
0.0
  3
*D12
  1

  0
LINE
  5
CC99
  8
0
 10
1130.0
 20
316.0
 30
0.0
 11
1132.0
 21
316.0
 31
0.0
  0
LINE
  5
CC9A
  8
0
 10
1130.0
 20
296.0
 30
0.0
 11
1132.0
 21
296.0
 31
0.0
  0
LINE
  5
CC9B
  8
0
 10
1135.0
 20
313.0
 30
0.0
 11
1135.0
 21
299.0
 31
0.0
  0
INSERT
  5
CC9C
  8
0
  2
_ORIGIN
 10
1135.0
 20
316.0
 30
0.0
 41
3.0
 42
3.0
 43
3.0
 50
90.0
  0
INSERT
  5
CC9D
  8
0
  2
_ORIGIN
 10
1135.0
 20
296.0
 30
0.0
 41
3.0
 42
3.0
 43
3.0
 50
270.0
  0
INSERT
  5
CC9E
  8
0
  2
*U34
 10
0.0
 20
0.0
 30
0.0
  0
POINT
  5
CC9F
  8
DEFPOINTS
 62
     0
 10
1145.0
 20
316.0
 30
0.0
  0
POINT
  5
CCA0
  8
DEFPOINTS
 62
     0
 10
1145.0
 20
296.0
 30
0.0
  0
POINT
  5
CCA1
  8
DEFPOINTS
 62
     0
 10
1135.0
 20
296.0
 30
0.0
  0
ENDBLK
  5
BB8D
  8
0
  0
BLOCK
  8
0
  2
*D13
 70
     1
 10
0.0
 20
0.0
 30
0.0
  3
*D13
  1

  0
LINE
  5
CC8E
  8
0
 10
570.00000000003035
 20
530.76258918570784
 30
0.0
 11
608.00000000003035
 21
530.76258918570784
 31
0.0
  0
LINE
  5
CC8F
  8
0
 10
610.00000000003047
 20
540.76258918562189
 30
0.0
 11
608.00000000003035
 21
540.76258918562189
 31
0.0
  0
LINE
  5
CC90
  8
0
 10
605.00000000003035
 20
527.76258918570784
 30
0.0
 11
605.00000000003035
 21
524.76258918570784
 31
0.0
  0
LINE
  5
CC91
  8
0
 10
605.00000000003035
 20
543.76258918562178
 30
0.0
 11
605.00000000003035
 21
546.76258918562189
 31
0.0
  0
INSERT
  5
CC92
  8
0
  2
*U33
 10
0.0
 20
0.0
 30
0.0
  0
LINE
  5
CC93
  8
0
 10
605.00000000003035
 20
530.76258918570784
 30
0.0
 11
605.00000000003035
 21
540.76258918562189
 31
0.0
  0
INSERT
  5
CC94
  8
0
  2
_ORIGIN
 10
605.00000000003035
 20
530.76258918570784
 30
0.0
 41
3.0
 42
3.0
 43
3.0
 50
90.0
  0
INSERT
  5
CC95
  8
0
  2
_ORIGIN
 10
605.00000000003035
 20
540.76258918562189
 30
0.0
 41
3.0
 42
3.0
 43
3.0
 50
270.0
  0
POINT
  5
CC96
  8
DEFPOINTS
 62
     0
 10
555.00000000003035
 20
530.76258918570784
 30
0.0
  0
POINT
  5
CC97
  8
DEFPOINTS
 62
     0
 10
595.00000000003035
 20
540.76258918562189
 30
0.0
  0
POINT
  5
CC98
  8
DEFPOINTS
 62
     0
 10
605.00000000003035
 20
540.76258918562189
 30
0.0
  0
ENDBLK
  5
BB99
  8
0
  0
BLOCK
  8
0
  2
*D14
 70
     1
 10
0.0
 20
0.0
 30
0.0
  3
*D14
  1

  0
LINE
  5
CC83
  8
0
 10
835.39999999999645
 20
776.76258918570738
 30
0.0
 11
860.89999999999657
 21
776.76258918570738
 31
0.0
  0
LINE
  5
CC84
  8
0
 10
648.49999999997317
 20
765.76258918570727
 30
0.0
 11
860.89999999999645
 21
765.76258918570716
 31
0.0
  0
LINE
  5
CC85
  8
0
 10
857.89999999999645
 20
779.76258918570738
 30
0.0
 11
857.89999999999645
 21
782.76258918570727
 31
0.0
  0
LINE
  5
CC86
  8
0
 10
857.89999999999645
 20
762.76258918570716
 30
0.0
 11
857.89999999999645
 21
759.76258918570716
 31
0.0
  0
INSERT
  5
CC87
  8
0
  2
*U32
 10
0.0
 20
0.0
 30
0.0
  0
LINE
  5
CC88
  8
0
 10
857.89999999999645
 20
776.76258918570738
 30
0.0
 11
857.89999999999645
 21
765.76258918570716
 31
0.0
  0
INSERT
  5
CC89
  8
0
  2
_ORIGIN
 10
857.89999999999645
 20
776.76258918570738
 30
0.0
 41
3.0
 42
3.0
 43
3.0
 50
270.0
  0
INSERT
  5
CC8A
  8
0
  2
_ORIGIN
 10
857.89999999999645
 20
765.76258918570716
 30
0.0
 41
3.0
 42
3.0
 43
3.0
 50
90.0
  0
POINT
  5
CC8B
  8
DEFPOINTS
 62
     0
 10
820.39999999999645
 20
776.76258918570738
 30
0.0
  0
POINT
  5
CC8C
  8
DEFPOINTS
 62
     0
 10
633.49999999997306
 20
765.76258918570727
 30
0.0
  0
POINT
  5
CC8D
  8
DEFPOINTS
 62
     0
 10
857.89999999999645
 20
765.76258918570716
 30
0.0
  0
ENDBLK
  5
BBA7
  8
0
  0
BLOCK
  8
0
  2
*D15
 70
     1
 10
0.0
 20
0.0
 30
0.0
  3
*D15
  1

  0
LINE
  5
CC7A
  8
0
 10
446.4000000000014
 20
1005.762589185707
 30
0.0
 11
446.4000000000014
 21
1056.2625891857069
 31
0.0
  0
LINE
  5
CC7B
  8
0
 10
802.64770951435321
 20
1005.762589185707
 30
0.0
 11
802.64770951435321
 21
1056.2625891857069
 31
0.0
  0
LINE
  5
CC7C
  8
0
 10
449.4000000000014
 20
1053.2625891857069
 30
0.0
 11
799.64770951435321
 21
1053.2625891857069
 31
0.0
  0
INSERT
  5
CC7D
  8
0
  2
_ORIGIN
 10
446.4000000000014
 20
1053.2625891857069
 30
0.0
 41
3.0
 42
3.0
 43
3.0
 50
180.0
  0
INSERT
  5
CC7E
  8
0
  2
_ORIGIN
 10
802.64770951435321
 20
1053.2625891857069
 30
0.0
 41
3.0
 42
3.0
 43
3.0
  0
INSERT
  5
CC7F
  8
0
  2
*U31
 10
0.0
 20
0.0
 30
0.0
  0
POINT
  5
CC80
  8
DEFPOINTS
 62
     0
 10
446.4000000000014
 20
990.76258918570738
 30
0.0
  0
POINT
  5
CC81
  8
DEFPOINTS
 62
     0
 10
802.64770951435321
 20
990.76258918570738
 30
0.0
  0
POINT
  5
CC82
  8
DEFPOINTS
 62
     0
 10
802.64770951435321
 20
1053.2625891857069
 30
0.0
  0
ENDBLK
  5
BBB5
  8
0
  0
BLOCK
  8
0
  2
*D16
 70
     1
 10
0.0
 20
0.0
 30
0.0
  3
*D16
  1

  0
LINE
  5
CC71
  8
0
 10
448.39999999996007
 20
807.76258918570761
 30
0.0
 11
448.39999999996007
 21
830.76258918570761
 31
0.0
  0
LINE
  5
CC72
  8
0
 10
613.49999999995998
 20
807.76258918570761
 30
0.0
 11
613.49999999995998
 21
830.76258918570761
 31
0.0
  0
LINE
  5
CC73
  8
0
 10
451.39999999996002
 20
827.7625891857075
 30
0.0
 11
610.49999999995987
 21
827.7625891857075
 31
0.0
  0
INSERT
  5
CC74
  8
0
  2
*U30
 10
0.0
 20
0.0
 30
0.0
  0
INSERT
  5
CC75
  8
0
  2
_ORIGIN
 10
448.39999999996007
 20
827.7625891857075
 30
0.0
 41
3.0
 42
3.0
 43
3.0
 50
180.0
  0
INSERT
  5
CC76
  8
0
  2
_ORIGIN
 10
613.49999999995998
 20
827.7625891857075
 30
0.0
 41
3.0
 42
3.0
 43
3.0
  0
POINT
  5
CC77
  8
DEFPOINTS
 62
     0
 10
448.39999999996007
 20
792.76258918570761
 30
0.0
  0
POINT
  5
CC78
  8
DEFPOINTS
 62
     0
 10
613.49999999995998
 20
792.76258918570761
 30
0.0
  0
POINT
  5
CC79
  8
DEFPOINTS
 62
     0
 10
613.49999999995998
 20
827.7625891857075
 30
0.0
  0
ENDBLK
  5
BBC1
  8
0
  0
BLOCK
  8
0
  2
*D17
 70
     1
 10
0.0
 20
0.0
 30
0.0
  3
*D17
  1

  0
LINE
  5
CD4D
  8
0
 10
455.000000000005
 20
505.76258918562172
 30
0.0
 11
455.000000000005
 21
477.76258918562161
 31
0.0
  0
LINE
  5
CD4E
  8
0
 10
475.00000000000489
 20
505.76258918562172
 30
0.0
 11
475.00000000000489
 21
477.76258918562161
 31
0.0
  0
LINE
  5
CD4F
  8
0
 10
458.00000000000489
 20
480.76258918562172
 30
0.0
 11
472.000000000005
 21
480.76258918562172
 31
0.0
  0
INSERT
  5
CD50
  8
0
  2
_ORIGIN
 10
455.000000000005
 20
480.76258918562172
 30
0.0
 41
3.0
 42
3.0
 43
3.0
 50
180.0
  0
INSERT
  5
CD51
  8
0
  2
_ORIGIN
 10
475.00000000000489
 20
480.76258918562172
 30
0.0
 41
3.0
 42
3.0
 43
3.0
  0
INSERT
  5
CD52
  8
0
  2
*U53
 10
0.0
 20
0.0
 30
0.0
  0
POINT
  5
CD53
  8
DEFPOINTS
 62
     0
 10
455.000000000005
 20
520.76258918562155
 30
0.0
  0
POINT
  5
CD54
  8
DEFPOINTS
 62
     0
 10
475.00000000000489
 20
520.76258918562155
 30
0.0
  0
POINT
  5
CD55
  8
DEFPOINTS
 62
     0
 10
475.00000000000489
 20
480.76258918562172
 30
0.0
  0
ENDBLK
  5
BBCD
  8
0
  0
BLOCK
  8
0
  2
*D18
 70
     1
 10
0.0
 20
0.0
 30
0.0
  3
*D18
  1

  0
LINE
  5
CD44
  8
0
 10
475.00000000000489
 20
505.76258918562172
 30
0.0
 11
475.00000000000489
 21
477.76258918562161
 31
0.0
  0
LINE
  5
CD45
  8
0
 10
525.00000000000489
 20
505.76258918562172
 30
0.0
 11
525.00000000000489
 21
477.76258918562161
 31
0.0
  0
LINE
  5
CD46
  8
0
 10
478.00000000000489
 20
480.76258918562172
 30
0.0
 11
522.000000000005
 21
480.76258918562172
 31
0.0
  0
INSERT
  5
CD47
  8
0
  2
_ORIGIN
 10
475.00000000000489
 20
480.76258918562172
 30
0.0
 41
3.0
 42
3.0
 43
3.0
 50
180.0
  0
INSERT
  5
CD48
  8
0
  2
_ORIGIN
 10
525.00000000000489
 20
480.76258918562172
 30
0.0
 41
3.0
 42
3.0
 43
3.0
  0
INSERT
  5
CD49
  8
0
  2
*U52
 10
0.0
 20
0.0
 30
0.0
  0
POINT
  5
CD4A
  8
DEFPOINTS
 62
     0
 10
475.00000000000489
 20
520.76258918562155
 30
0.0
  0
POINT
  5
CD4B
  8
DEFPOINTS
 62
     0
 10
525.00000000000489
 20
520.76258918562155
 30
0.0
  0
POINT
  5
CD4C
  8
DEFPOINTS
 62
     0
 10
525.00000000000489
 20
480.76258918562172
 30
0.0
  0
ENDBLK
  5
BBD9
  8
0
  0
BLOCK
  8
0
  2
*D19
 70
     1
 10
0.0
 20
0.0
 30
0.0
  3
*D19
  1

  0
LINE
  5
CD3B
  8
0
 10
525.00000000000489
 20
505.76258918562172
 30
0.0
 11
525.00000000000489
 21
477.76258918562161
 31
0.0
  0
LINE
  5
CD3C
  8
0
 10
545.00000000000489
 20
505.76258918562172
 30
0.0
 11
545.00000000000489
 21
477.76258918562161
 31
0.0
  0
LINE
  5
CD3D
  8
0
 10
528.00000000000489
 20
480.76258918562172
 30
0.0
 11
542.000000000005
 21
480.76258918562172
 31
0.0
  0
INSERT
  5
CD3E
  8
0
  2
_ORIGIN
 10
525.00000000000489
 20
480.76258918562172
 30
0.0
 41
3.0
 42
3.0
 43
3.0
 50
180.0
  0
INSERT
  5
CD3F
  8
0
  2
_ORIGIN
 10
545.00000000000489
 20
480.76258918562172
 30
0.0
 41
3.0
 42
3.0
 43
3.0
  0
INSERT
  5
CD40
  8
0
  2
*U51
 10
0.0
 20
0.0
 30
0.0
  0
POINT
  5
CD41
  8
DEFPOINTS
 62
     0
 10
525.00000000000489
 20
520.76258918562155
 30
0.0
  0
POINT
  5
CD42
  8
DEFPOINTS
 62
     0
 10
545.00000000000489
 20
520.76258918562155
 30
0.0
  0
POINT
  5
CD43
  8
DEFPOINTS
 62
     0
 10
545.00000000000489
 20
480.76258918562172
 30
0.0
  0
ENDBLK
  5
BBE5
  8
0
  0
BLOCK
  8
0
  2
*D20
 70
     1
 10
0.0
 20
0.0
 30
0.0
  3
*D20
  1

  0
LINE
  5
CD32
  8
0
 10
835.39999999999645
 20
980.7625891857075
 30
0.0
 11
905.89999999999645
 21
980.7625891857075
 31
0.0
  0
LINE
  5
CD33
  8
0
 10
570.00000000003035
 20
530.76258918570784
 30
0.0
 11
905.89999999999645
 21
530.76258918570772
 31
0.0
  0
LINE
  5
CD34
  8
0
 10
902.89999999999657
 20
977.7625891857075
 30
0.0
 11
902.89999999999645
 21
533.76258918570772
 31
0.0
  0
INSERT
  5
CD35
  8
0
  2
_ORIGIN
 10
902.89999999999657
 20
980.7625891857075
 30
0.0
 41
3.0
 42
3.0
 43
3.0
 50
90.0
  0
INSERT
  5
CD36
  8
0
  2
_ORIGIN
 10
902.89999999999645
 20
530.76258918570772
 30
0.0
 41
3.0
 42
3.0
 43
3.0
 50
270.0
  0
INSERT
  5
CD37
  8
0
  2
*U50
 10
0.0
 20
0.0
 30
0.0
  0
POINT
  5
CD38
  8
DEFPOINTS
 62
     0
 10
820.39999999999645
 20
980.7625891857075
 30
0.0
  0
POINT
  5
CD39
  8
DEFPOINTS
 62
     0
 10
555.00000000003035
 20
530.76258918570784
 30
0.0
  0
POINT
  5
CD3A
  8
DEFPOINTS
 62
     0
 10
902.89999999999645
 20
530.76258918570772
 30
0.0
  0
ENDBLK
  5
BBF1
  8
0
  0
BLOCK
  8
0
  2
*D21
 70
     1
 10
0.0
 20
0.0
 30
0.0
  3
*D21
  1

  0
LINE
  5
CD29
  8
0
 10
835.39999999999645
 20
980.7625891857075
 30
0.0
 11
883.39999999999645
 21
980.7625891857075
 31
0.0
  0
LINE
  5
CD2A
  8
0
 10
835.39999999999645
 20
776.76258918570738
 30
0.0
 11
883.39999999999645
 21
776.76258918570738
 31
0.0
  0
LINE
  5
CD2B
  8
0
 10
880.39999999999645
 20
977.7625891857075
 30
0.0
 11
880.39999999999645
 21
779.76258918570738
 31
0.0
  0
INSERT
  5
CD2C
  8
0
  2
_ORIGIN
 10
880.39999999999645
 20
980.7625891857075
 30
0.0
 41
3.0
 42
3.0
 43
3.0
 50
90.0
  0
INSERT
  5
CD2D
  8
0
  2
_ORIGIN
 10
880.39999999999645
 20
776.76258918570738
 30
0.0
 41
3.0
 42
3.0
 43
3.0
 50
270.0
  0
INSERT
  5
CD2E
  8
0
  2
*U49
 10
0.0
 20
0.0
 30
0.0
  0
POINT
  5
CD2F
  8
DEFPOINTS
 62
     0
 10
820.39999999999645
 20
980.7625891857075
 30
0.0
  0
POINT
  5
CD30
  8
DEFPOINTS
 62
     0
 10
820.39999999999645
 20
776.76258918570738
 30
0.0
  0
POINT
  5
CD31
  8
DEFPOINTS
 62
     0
 10
880.39999999999645
 20
776.76258918570738
 30
0.0
  0
ENDBLK
  5
BBFD
  8
0
  0
BLOCK
  8
0
  2
*D22
 70
     1
 10
0.0
 20
0.0
 30
0.0
  3
*D22
  1

  0
LINE
  5
CD20
  8
0
 10
835.39999999999645
 20
776.76258918570738
 30
0.0
 11
883.39999999999645
 21
776.76258918570738
 31
0.0
  0
LINE
  5
CD21
  8
0
 10
570.00000000003035
 20
530.76258918570784
 30
0.0
 11
883.39999999999645
 21
530.76258918570772
 31
0.0
  0
LINE
  5
CD22
  8
0
 10
880.39999999999657
 20
773.76258918570727
 30
0.0
 11
880.39999999999645
 21
533.76258918570772
 31
0.0
  0
INSERT
  5
CD23
  8
0
  2
_ORIGIN
 10
880.39999999999657
 20
776.76258918570738
 30
0.0
 41
3.0
 42
3.0
 43
3.0
 50
90.0
  0
INSERT
  5
CD24
  8
0
  2
_ORIGIN
 10
880.39999999999645
 20
530.76258918570772
 30
0.0
 41
3.0
 42
3.0
 43
3.0
 50
270.0
  0
INSERT
  5
CD25
  8
0
  2
*U48
 10
0.0
 20
0.0
 30
0.0
  0
POINT
  5
CD26
  8
DEFPOINTS
 62
     0
 10
820.39999999999645
 20
776.76258918570738
 30
0.0
  0
POINT
  5
CD27
  8
DEFPOINTS
 62
     0
 10
555.00000000003035
 20
530.76258918570784
 30
0.0
  0
POINT
  5
CD28
  8
DEFPOINTS
 62
     0
 10
880.39999999999645
 20
530.76258918570772
 30
0.0
  0
ENDBLK
  5
BC09
  8
0
  0
BLOCK
  8
0
  2
*D23
 70
     1
 10
0.0
 20
0.0
 30
0.0
  3
*D23
  1

  0
LINE
  5
CD17
  8
0
 10
480.00000000000142
 20
209.16258918576111
 30
0.0
 11
480.00000000000142
 21
183.66258918576111
 31
0.0
  0
LINE
  5
CD18
  8
0
 10
520.00000000000125
 20
209.16258918576111
 30
0.0
 11
520.00000000000125
 21
183.66258918576111
 31
0.0
  0
LINE
  5
CD19
  8
0
 10
483.00000000000131
 20
186.66258918576111
 30
0.0
 11
517.00000000000136
 21
186.66258918576111
 31
0.0
  0
INSERT
  5
CD1A
  8
0
  2
_ORIGIN
 10
480.00000000000142
 20
186.66258918576111
 30
0.0
 41
3.0
 42
3.0
 43
3.0
 50
180.0
  0
INSERT
  5
CD1B
  8
0
  2
_ORIGIN
 10
520.00000000000125
 20
186.66258918576111
 30
0.0
 41
3.0
 42
3.0
 43
3.0
  0
INSERT
  5
CD1C
  8
0
  2
*U47
 10
0.0
 20
0.0
 30
0.0
  0
POINT
  5
CD1D
  8
DEFPOINTS
 62
     0
 10
480.00000000000142
 20
224.16258918576111
 30
0.0
  0
POINT
  5
CD1E
  8
DEFPOINTS
 62
     0
 10
520.00000000000125
 20
224.16258918576111
 30
0.0
  0
POINT
  5
CD1F
  8
DEFPOINTS
 62
     0
 10
520.00000000000125
 20
186.66258918576111
 30
0.0
  0
ENDBLK
  5
BC15
  8
0
  0
BLOCK
  8
0
  2
*D24
 70
     1
 10
0.0
 20
0.0
 30
0.0
  3
*D24
  1

  0
LINE
  5
CD0E
  8
0
 10
570.00000000003035
 20
530.76258918570784
 30
0.0
 11
905.899999999996
 21
530.76258918570772
 31
0.0
  0
LINE
  5
CD0F
  8
0
 10
570.00000000000125
 20
280.7625891857611
 30
0.0
 11
905.899999999996
 21
280.76258918576087
 31
0.0
  0
LINE
  5
CD10
  8
0
 10
902.899999999996
 20
527.76258918570772
 30
0.0
 11
902.899999999996
 21
283.76258918576087
 31
0.0
  0
INSERT
  5
CD11
  8
0
  2
_ORIGIN
 10
902.899999999996
 20
530.76258918570772
 30
0.0
 41
3.0
 42
3.0
 43
3.0
 50
90.0
  0
INSERT
  5
CD12
  8
0
  2
_ORIGIN
 10
902.899999999996
 20
280.76258918576087
 30
0.0
 41
3.0
 42
3.0
 43
3.0
 50
270.0
  0
INSERT
  5
CD13
  8
0
  2
*U46
 10
0.0
 20
0.0
 30
0.0
  0
POINT
  5
CD14
  8
DEFPOINTS
 62
     0
 10
555.00000000003035
 20
530.76258918570784
 30
0.0
  0
POINT
  5
CD15
  8
DEFPOINTS
 62
     0
 10
555.00000000000136
 20
280.7625891857611
 30
0.0
  0
POINT
  5
CD16
  8
DEFPOINTS
 62
     0
 10
902.899999999996
 20
280.76258918576087
 30
0.0
  0
ENDBLK
  5
BC21
  8
0
  0
BLOCK
  8
0
  2
*D25
 70
     1
 10
0.0
 20
0.0
 30
0.0
  3
*D25
  1

  0
LINE
  5
CD05
  8
0
 10
570.00000000000125
 20
280.7625891857611
 30
0.0
 11
630.50000000000136
 21
280.7625891857611
 31
0.0
  0
LINE
  5
CD06
  8
0
 10
570.00000000000125
 20
245.7625891857611
 30
0.0
 11
630.50000000000125
 21
245.76258918576099
 31
0.0
  0
LINE
  5
CD07
  8
0
 10
627.50000000000136
 20
277.76258918576099
 30
0.0
 11
627.50000000000125
 21
248.76258918576099
 31
0.0
  0
INSERT
  5
CD08
  8
0
  2
_ORIGIN
 10
627.50000000000136
 20
280.7625891857611
 30
0.0
 41
3.0
 42
3.0
 43
3.0
 50
90.0
  0
INSERT
  5
CD09
  8
0
  2
_ORIGIN
 10
627.50000000000125
 20
245.76258918576099
 30
0.0
 41
3.0
 42
3.0
 43
3.0
 50
270.0
  0
INSERT
  5
CD0A
  8
0
  2
*U45
 10
0.0
 20
0.0
 30
0.0
  0
POINT
  5
CD0B
  8
DEFPOINTS
 62
     0
 10
555.00000000000136
 20
280.7625891857611
 30
0.0
  0
POINT
  5
CD0C
  8
DEFPOINTS
 62
     0
 10
555.00000000000136
 20
245.7625891857611
 30
0.0
  0
POINT
  5
CD0D
  8
DEFPOINTS
 62
     0
 10
627.50000000000125
 20
245.76258918576099
 30
0.0
  0
ENDBLK
  5
BC2C
  8
0
  0
BLOCK
  8
0
  2
*D26
 70
     1
 10
0.0
 20
0.0
 30
0.0
  3
*D26
  1

  0
LINE
  5
CCFC
  8
0
 10
570.00000000000125
 20
245.7625891857611
 30
0.0
 11
608.00000000000125
 21
245.76258918576099
 31
0.0
  0
LINE
  5
CCFD
  8
0
 10
570.00000000000125
 20
268.76258918570761
 30
0.0
 11
608.00000000000125
 21
268.76258918570761
 31
0.0
  0
LINE
  5
CCFE
  8
0
 10
605.00000000000125
 20
248.76258918576099
 30
0.0
 11
605.00000000000136
 21
265.76258918570761
 31
0.0
  0
INSERT
  5
CCFF
  8
0
  2
_ORIGIN
 10
605.00000000000125
 20
245.76258918576099
 30
0.0
 41
3.0
 42
3.0
 43
3.0
 50
270.0
  0
INSERT
  5
CD00
  8
0
  2
_ORIGIN
 10
605.00000000000136
 20
268.76258918570761
 30
0.0
 41
3.0
 42
3.0
 43
3.0
 50
90.0
  0
INSERT
  5
CD01
  8
0
  2
*U44
 10
0.0
 20
0.0
 30
0.0
  0
POINT
  5
CD02
  8
DEFPOINTS
 62
     0
 10
555.00000000000136
 20
245.7625891857611
 30
0.0
  0
POINT
  5
CD03
  8
DEFPOINTS
 62
     0
 10
555.00000000000136
 20
268.76258918570761
 30
0.0
  0
POINT
  5
CD04
  8
DEFPOINTS
 62
     0
 10
605.00000000000136
 20
268.76258918570761
 30
0.0
  0
ENDBLK
  5
BC38
  8
0
  0
BLOCK
  8
0
  2
*D27
 70
     1
 10
0.0
 20
0.0
 30
0.0
  3
*D27
  1

  0
LINE
  5
CCF3
  8
0
 10
446.4000000000014
 20
1005.762589185707
 30
0.0
 11
446.4000000000014
 21
1033.7625891857069
 31
0.0
  0
LINE
  5
CCF4
  8
0
 10
660.39999999999645
 20
1005.762589185707
 30
0.0
 11
660.39999999999645
 21
1033.7625891857069
 31
0.0
  0
LINE
  5
CCF5
  8
0
 10
449.4000000000014
 20
1030.7625891857069
 30
0.0
 11
657.39999999999645
 21
1030.7625891857069
 31
0.0
  0
INSERT
  5
CCF6
  8
0
  2
_ORIGIN
 10
446.4000000000014
 20
1030.7625891857069
 30
0.0
 41
3.0
 42
3.0
 43
3.0
 50
180.0
  0
INSERT
  5
CCF7
  8
0
  2
_ORIGIN
 10
660.39999999999645
 20
1030.7625891857069
 30
0.0
 41
3.0
 42
3.0
 43
3.0
  0
INSERT
  5
CCF8
  8
0
  2
*U43
 10
0.0
 20
0.0
 30
0.0
  0
POINT
  5
CCF9
  8
DEFPOINTS
 62
     0
 10
446.4000000000014
 20
990.76258918570738
 30
0.0
  0
POINT
  5
CCFA
  8
DEFPOINTS
 62
     0
 10
660.39999999999645
 20
990.76258918570738
 30
0.0
  0
POINT
  5
CCFB
  8
DEFPOINTS
 62
     0
 10
660.39999999999645
 20
1030.7625891857069
 30
0.0
  0
ENDBLK
  5
BC44
  8
0
  0
BLOCK
  8
0
  2
*D28
 70
     1
 10
0.0
 20
0.0
 30
0.0
  3
*D28
  1

  0
LINE
  5
CCE8
  8
0
 10
389.99999999997323
 20
540.76258918565145
 30
0.0
 11
391.99999999997323
 21
540.76258918565145
 31
0.0
  0
LINE
  5
CCE9
  8
0
 10
429.99999999997311
 20
530.762589185651
 30
0.0
 11
391.99999999997323
 21
530.762589185651
 31
0.0
  0
LINE
  5
CCEA
  8
0
 10
394.99999999997323
 20
543.76258918565145
 30
0.0
 11
394.99999999997323
 21
546.76258918565145
 31
0.0
  0
LINE
  5
CCEB
  8
0
 10
394.99999999997323
 20
527.76258918565088
 30
0.0
 11
394.99999999997323
 21
524.76258918565088
 31
0.0
  0
INSERT
  5
CCEC
  8
0
  2
*U42
 10
0.0
 20
0.0
 30
0.0
  0
LINE
  5
CCED
  8
0
 10
394.99999999997323
 20
540.76258918565145
 30
0.0
 11
394.99999999997323
 21
530.762589185651
 31
0.0
  0
INSERT
  5
CCEE
  8
0
  2
_ORIGIN
 10
394.99999999997323
 20
540.76258918565145
 30
0.0
 41
3.0
 42
3.0
 43
3.0
 50
270.0
  0
INSERT
  5
CCEF
  8
0
  2
_ORIGIN
 10
394.99999999997323
 20
530.762589185651
 30
0.0
 41
3.0
 42
3.0
 43
3.0
 50
90.0
  0
POINT
  5
CCF0
  8
DEFPOINTS
 62
     0
 10
404.99999999997311
 20
540.76258918565145
 30
0.0
  0
POINT
  5
CCF1
  8
DEFPOINTS
 62
     0
 10
444.99999999997311
 20
530.762589185651
 30
0.0
  0
POINT
  5
CCF2
  8
DEFPOINTS
 62
     0
 10
394.99999999997323
 20
530.762589185651
 30
0.0
  0
ENDBLK
  5
BC50
  8
0
  0
BLOCK
  8
0
  2
*U29
 70
     1
 10
0.0
 20
0.0
 30
0.0
  3
*U29
  1

  0
INSERT
  5
CF19
  8
0
  2
_OPEN30
 10
455.3999999999059
 20
1056.7625891857069
 30
0.0
 41
6.0
 42
6.0
 43
6.0
 50
299.9999999999996
  0
POLYLINE
  5
CF1A
  8
0
 66
     1
 10
0.0
 20
0.0
 30
0.0
  0
VERTEX
  5
CF1B
  8
0
 10
452.39999999990602
 20
1061.9587416084139
 30
0.0
  0
VERTEX
  5
CF1C
  8
0
 10
440.3999999999059
 20
1082.7433512992411
 30
0.0
  0
VERTEX
  5
CF1D
  8
0
 10
377.57999999990619
 20
1082.7433512992411
 30
0.0
  0
SEQEND
  5
CF1E
  8
0
  0
ENDBLK
  5
CF20
  8
0
  0
BLOCK
  8
0
  2
*U30
 70
     1
 10
0.0
 20
0.0
 30
0.0
  3
*U30
  1

  0
TEXT
  5
CF22
  8
0
 10
498.34999999996
 20
830.76258918570761
 30
0.0
 40
10.5
  1
165
 41
0.8
  7
横文字
  0
ENDBLK
  5
CF24
  8
0
  0
BLOCK
  8
0
  2
*U31
 70
     1
 10
0.0
 20
0.0
 30
0.0
  3
*U31
  1

  0
TEXT
  5
CF26
  8
0
 10
603.56385475717741
 20
1056.2625891857069
 30
0.0
 40
10.5
  1
（357）
 41
0.8
  7
横文字
  0
ENDBLK
  5
CF28
  8
0
  0
BLOCK
  8
0
  2
*U32
 70
     1
 10
0.0
 20
0.0
 30
0.0
  3
*U32
  1

  0
TEXT
  5
CF2A
  8
0
 10
854.899999999996
 20
758.36258918570741
 30
0.0
 40
10.5
  1
11
 50
90.0
 41
0.8
  7
横文字
  0
ENDBLK
  5
CF2C
  8
0
  0
BLOCK
  8
0
  2
*U33
 70
     1
 10
0.0
 20
0.0
 30
0.0
  3
*U33
  1

  0
TEXT
  5
CF2E
  8
0
 10
602.00000000003047
 20
523.81840422039693
 30
0.0
 40
10.5
  1
10
 50
90.0
 41
0.8
  7
横文字
  0
ENDBLK
  5
CF30
  8
0
  0
BLOCK
  8
0
  2
*U34
 70
     1
 10
0.0
 20
0.0
 30
0.0
  3
*U34
  1

  0
TEXT
  5
CF32
  8
0
 10
1132.0
 20
298.00000000000023
 30
0.0
 40
10.5
  1
20
 50
90.0
 41
0.8
  7
横文字
  0
ENDBLK
  5
CF34
  8
0
  0
BLOCK
  8
0
  2
*U35
 70
     1
 10
0.0
 20
0.0
 30
0.0
  3
*U35
  1

  0
TEXT
  5
CF36
  8
0
 10
1132.0
 20
333.00000000000023
 30
0.0
 40
10.5
  1
50
 50
90.0
 41
0.8
  7
横文字
  0
ENDBLK
  5
CF38
  8
0
  0
BLOCK
  8
0
  2
*U36
 70
     1
 10
0.0
 20
0.0
 30
0.0
  3
*U36
  1

  0
TEXT
  5
CF3A
  8
0
 10
1132.0
 20
368.00000000000023
 30
0.0
 40
10.5
  1
20
 50
90.0
 41
0.8
  7
横文字
  0
ENDBLK
  5
CF3C
  8
0
  0
BLOCK
  8
0
  2
*U37
 70
     1
 10
0.0
 20
0.0
 30
0.0
  3
*U37
  1

  0
TEXT
  5
CF3E
  8
0
 10
1199.5
 20
333.00000000000023
 30
0.0
 40
10.5
  1
40
 50
90.0
 41
0.8
  7
横文字
  0
ENDBLK
  5
CF40
  8
0
  0
BLOCK
  8
0
  2
*U38
 70
     1
 10
0.0
 20
0.0
 30
0.0
  3
*U38
  1

  0
TEXT
  5
CF42
  8
0
 10
1282.0
 20
271.0
 30
0.0
 40
10.5
  1
80
 41
0.8
  7
横文字
  0
ENDBLK
  5
CF44
  8
0
  0
BLOCK
  8
0
  2
*U39
 70
     1
 10
0.0
 20
0.0
 30
0.0
  3
*U39
  1

  0
TEXT
  5
CF46
  8
0
 10
602.00000000000125
 20
273.5064462342238
 30
0.0
 40
10.5
  1
12
 50
90.0
 41
0.8
  7
横文字
  0
ENDBLK
  5
CF48
  8
0
  0
BLOCK
  8
0
  2
*U40
 70
     1
 10
0.0
 20
0.0
 30
0.0
  3
*U40
  1

  0
TEXT
  5
CF4A
  8
0
 10
369.500000000005
 20
552.56258918565118
 30
0.0
 40
10.5
  1
60
 50
90.0
 41
0.8
  7
横文字
  0
ENDBLK
  5
CF4C
  8
0
  0
BLOCK
  8
0
  2
*U41
 70
     1
 10
0.0
 20
0.0
 30
0.0
  3
*U41
  1

  0
TEXT
  5
CF4E
  8
0
 10
347.00000000000489
 20
649.76258918567953
 30
0.0
 40
10.5
  1
262
 50
90.0
 41
0.8
  7
横文字
  0
ENDBLK
  5
CF50
  8
0
  0
BLOCK
  8
0
  2
*U42
 70
     1
 10
0.0
 20
0.0
 30
0.0
  3
*U42
  1

  0
TEXT
  5
CF52
  8
0
 10
391.99999999997272
 20
523.31165528548479
 30
0.0
 40
10.5
  1
10
 50
90.0
 41
0.8
  7
横文字
  0
ENDBLK
  5
CF54
  8
0
  0
BLOCK
  8
0
  2
*U43
 70
     1
 10
0.0
 20
0.0
 30
0.0
  3
*U43
  1

  0
TEXT
  5
CF56
  8
0
 10
541.19999999999891
 20
1033.7625891857069
 30
0.0
 40
10.5
  1
214
 41
0.8
  7
横文字
  0
ENDBLK
  5
CF58
  8
0
  0
BLOCK
  8
0
  2
*U44
 70
     1
 10
0.0
 20
0.0
 30
0.0
  3
*U44
  1

  0
TEXT
  5
CF5A
  8
0
 10
602.00000000000125
 20
249.26258918573441
 30
0.0
 40
10.5
  1
23
 50
90.0
 41
0.8
  7
横文字
  0
ENDBLK
  5
CF5C
  8
0
  0
BLOCK
  8
0
  2
*U45
 70
     1
 10
0.0
 20
0.0
 30
0.0
  3
*U45
  1

  0
TEXT
  5
CF5E
  8
0
 10
624.50000000000125
 20
255.2625891857611
 30
0.0
 40
10.5
  1
35
 50
90.0
 41
0.8
  7
横文字
  0
ENDBLK
  5
CF60
  8
0
  0
BLOCK
  8
0
  2
*U46
 70
     1
 10
0.0
 20
0.0
 30
0.0
  3
*U46
  1

  0
TEXT
  5
CF62
  8
0
 10
899.89999999999588
 20
399.64258918573449
 30
0.0
 40
10.5
  1
 H
 50
90.0
 41
0.8
  7
横文字
  0
ENDBLK
  5
CF64
  8
0
  0
BLOCK
  8
0
  2
*U47
 70
     1
 10
0.0
 20
0.0
 30
0.0
  3
*U47
  1

  0
TEXT
  5
CF66
  8
0
 10
492.00000000000142
 20
189.66258918576111
 30
0.0
 40
10.5
  1
40
 41
0.8
  7
横文字
  0
ENDBLK
  5
CF68
  8
0
  0
BLOCK
  8
0
  2
*U48
 70
     1
 10
0.0
 20
0.0
 30
0.0
  3
*U48
  1

  0
TEXT
  5
CF6A
  8
0
 10
877.39999999999634
 20
641.76258918570784
 30
0.0
 40
10.5
  1
246
 50
90.0
 41
0.8
  7
横文字
  0
ENDBLK
  5
CF6C
  8
0
  0
BLOCK
  8
0
  2
*U49
 70
     1
 10
0.0
 20
0.0
 30
0.0
  3
*U49
  1

  0
TEXT
  5
CF6E
  8
0
 10
877.39999999999611
 20
866.56258918570745
 30
0.0
 40
10.5
  1
204
 50
90.0
 41
0.8
  7
横文字
  0
ENDBLK
  5
CF70
  8
0
  0
BLOCK
  8
0
  2
*U50
 70
     1
 10
0.0
 20
0.0
 30
0.0
  3
*U50
  1

  0
TEXT
  5
CF72
  8
0
 10
899.89999999999634
 20
743.76258918570784
 30
0.0
 40
10.5
  1
450
 50
90.0
 41
0.8
  7
横文字
  0
ENDBLK
  5
CF74
  8
0
  0
BLOCK
  8
0
  2
*U51
 70
     1
 10
0.0
 20
0.0
 30
0.0
  3
*U51
  1

  0
TEXT
  5
CF76
  8
0
 10
527.000000000005
 20
483.76258918562161
 30
0.0
 40
10.5
  1
20
 41
0.8
  7
横文字
  0
ENDBLK
  5
CF78
  8
0
  0
BLOCK
  8
0
  2
*U52
 70
     1
 10
0.0
 20
0.0
 30
0.0
  3
*U52
  1

  0
TEXT
  5
CF7A
  8
0
 10
492.000000000005
 20
483.76258918562161
 30
0.0
 40
10.5
  1
50
 41
0.8
  7
横文字
  0
ENDBLK
  5
CF7C
  8
0
  0
BLOCK
  8
0
  2
*U53
 70
     1
 10
0.0
 20
0.0
 30
0.0
  3
*U53
  1

  0
TEXT
  5
CF7E
  8
0
 10
457.000000000005
 20
483.76258918562161
 30
0.0
 40
10.5
  1
20
 41
0.8
  7
横文字
  0
ENDBLK
  5
CF80
  8
0
  0
ENDSEC
  0
SECTION
  2
ENTITIES
  0
LINE
  5
9F
  8
0
 10
1638.0
 20
0.0
 30
0.0
 11
0.0
 21
0.0
 31
0.0
  0
LINE
  5
A0
  8
0
 10
0.0
 20
1174.5
 30
0.0
 11
1638.0
 21
1174.5
 31
0.0
  0
LINE
  5
A1
  8
0
 10
0.0
 20
1174.5
 30
0.0
 11
0.0
 21
0.0
 31
0.0
  0
LINE
  5
A2
  8
0
 10
1638.0
 20
1174.5
 30
0.0
 11
1638.0
 21
0.0
 31
0.0
  0
LINE
  5
A3
  8
0
 10
1013.0
 20
40.000000000000007
 30
0.0
 11
1013.0
 21
0.0000000000000092
 31
0.0
  0
TEXT
  5
A4
  8
0
 10
1097.9999999999959
 20
24.750000000000011
 30
0.0
 40
10.5
  1
可動式防煙たれ壁「ケムカーテン」
 11
1097.9999999999959
 21
30.000000000000021
 31
0.0
 73
     2
  0
TEXT
  5
A5
  8
0
 10
1022.999999999996
 20
24.750000000000011
 30
0.0
 40
10.5
  1
製品名称  :
 11
1022.999999999996
 21
30.000000000000021
 31
0.0
 73
     2
  0
TEXT
  5
A6
  8
0
 10
1097.9999999999959
 20
4.7500000000000071
 30
0.0
 40
10.5
  1
たて納まり・可動レール・電動
 11
1097.9999999999959
 21
10.0
 31
0.0
 73
     2
  0
TEXT
  5
A7
  8
0
 10
1022.999999999996
 20
4.7500000000000071
 30
0.0
 40
10.5
  1
納まり　　:
 11
1022.999999999996
 21
10.0
 31
0.0
 73
     2
  0
LINE
  5
A8
  8
0
 10
1013.0
 20
20.000000000000011
 30
0.0
 11
1388.0
 21
20.0
 31
0.0
  0
LINE
  5
A9
  8
0
 10
1388.0
 20
40.0
 30
0.0
 11
1388.0
 21
0.0
 31
0.0
  0
TEXT
  5
AA
  8
0
 10
1399.833333333333
 20
11.249999999999959
 30
0.0
 40
17.5
  1
東洋シヤッター株式会社
 72
     1
 11
1513.0
 21
19.999999999999961
 31
0.0
 73
     2
  0
LINE
  5
AB
  8
0
 10
1013.0
 20
40.000000000000007
 30
0.0
 11
1638.0
 21
40.0
 31
0.0
  0
TEXT
  5
AC
  8
0
 10
1297.9999999999959
 20
4.7500000000000071
 30
0.0
 40
10.5
  1
縮尺:1/3
 11
1297.9999999999959
 21
10.0
 31
0.0
 73
     2
  0
LINE
  5
B83A
  8
0
 10
250.000000000005
 20
549.76258918562189
 30
0.0
 11
465.000000000005
 21
549.76258918562189
 31
0.0
  0
LINE
  5
B83B
  8
0
 10
465.000000000005
 20
549.76258918562189
 30
0.0
 11
465.000000000005
 21
540.76258918562189
 31
0.0
  0
LINE
  5
B83C
  8
0
 10
465.000000000005
 20
540.76258918562189
 30
0.0
 11
250.000000000005
 21
540.76258918562189
 31
0.0
  0
LINE
  5
B83D
  8
0
 10
1000.000000000005
 20
549.76258918562189
 30
0.0
 11
534.99999999999773
 21
549.76258918562189
 31
0.0
  0
LINE
  5
B83E
  8
0
 10
534.99999999999773
 20
549.76258918562189
 30
0.0
 11
534.99999999999773
 21
540.76258918562189
 31
0.0
  0
LINE
  5
B83F
  8
0
 10
534.99999999999773
 20
540.76258918562189
 30
0.0
 11
1000.000000000005
 21
540.76258918562189
 31
0.0
  0
LINE
  5
B840
  8
0
  6
CENTER2
 10
500.00000000000489
 20
709.47299291377476
 30
0.0
 11
499.99999999999773
 21
290.76258918576099
 31
0.0
  0
DIMENSION
  5
B841
  8
0
  2
*D17
 10
475.00000000000489
 20
480.76258918562172
 30
0.0
 11
465.000000000005
 21
489.01258918562161
 31
0.0
 70
     0
 13
455.000000000005
 23
520.76258918562155
 33
0.0
 14
475.00000000000489
 24
520.76258918562155
 34
0.0
  0
DIMENSION
  5
B842
  8
0
  2
*D18
 10
525.00000000000489
 20
480.76258918562172
 30
0.0
 11
500.00000000000489
 21
489.01258918562161
 31
0.0
 70
     0
 13
475.00000000000489
 23
520.76258918562155
 33
0.0
 14
525.00000000000489
 24
520.76258918562155
 34
0.0
  0
DIMENSION
  5
B843
  8
0
  2
*D19
 10
545.00000000000489
 20
480.76258918562172
 30
0.0
 11
535.000000000005
 21
489.01258918562161
 31
0.0
 70
     0
 13
525.00000000000489
 23
520.76258918562155
 33
0.0
 14
545.00000000000489
 24
520.76258918562155
 34
0.0
  0
LINE
  5
B844
  8
0
  6
PHANTOM2
 10
480.00000000000142
 20
535.76258918570784
 30
0.0
 11
496.00000000000142
 21
535.76258918570784
 31
0.0
  0
LINE
  5
B845
  8
0
  6
PHANTOM2
 10
504.00000000000489
 20
535.76258918570784
 30
0.0
 11
520.00000000000489
 21
535.76258918570784
 31
0.0
  0
LINE
  5
B846
  8
0
 10
496.00000000000142
 20
535.76258918570784
 30
0.0
 11
496.00000000000142
 21
410.76258918570778
 31
0.0
  0
LINE
  5
B847
  8
0
  6
PHANTOM2
 10
480.00000000000142
 20
280.76258918570778
 30
0.0
 11
480.00000000000142
 21
400.76258918565122
 31
0.0
  0
LINE
  5
B848
  8
0
  6
PHANTOM2
 10
520.00000000000489
 20
535.76258918570784
 30
0.0
 11
520.00000000000489
 21
410.76258918570778
 31
0.0
  0
LINE
  5
B849
  8
0
  6
PHANTOM2
 10
520.00000000000489
 20
400.76258918565122
 30
0.0
 11
520.00000000000489
 21
280.76258918570778
 31
0.0
  0
LINE
  5
B84A
  8
0
 10
504.00000000000131
 20
410.76258918570778
 30
0.0
 11
504.00000000000131
 21
535.76258918570784
 31
0.0
  0
LINE
  5
B84B
  8
0
  6
PHANTOM2
 10
496.00000000000142
 20
400.76258918565122
 30
0.0
 11
496.00000000000142
 21
280.76258918570778
 31
0.0
  0
LINE
  5
B84C
  8
0
  6
PHANTOM2
 10
480.00000000000142
 20
410.76258918570778
 30
0.0
 11
480.00000000000142
 21
535.76258918570784
 31
0.0
  0
LINE
  5
B84D
  8
0
  6
PHANTOM2
 10
504.00000000000131
 20
280.76258918570778
 30
0.0
 11
504.00000000000131
 21
400.76258918565122
 31
0.0
  0
DIMENSION
  5
B84E
  8
0
  2
*D20
 10
902.89999999999645
 20
530.76258918570772
 30
0.0
 11
894.64999999999634
 21
755.76258918570784
 31
0.0
 70
     0
 13
820.39999999999645
 23
980.7625891857075
 33
0.0
 14
555.00000000003035
 24
530.76258918570784
 34
0.0
 50
90.0
1001
ACAD
1000
DSTYLE
1002
{
1070
    50
1040
1.5707963267948959
1002
}
  0
DIMENSION
  5
B84F
  8
0
  2
*D21
 10
880.39999999999645
 20
776.76258918570738
 30
0.0
 11
872.14999999999611
 21
878.7625891857075
 31
0.0
 70
     0
 13
820.39999999999645
 23
980.7625891857075
 33
0.0
 14
820.39999999999645
 24
776.76258918570738
 34
0.0
 50
90.0
1001
ACAD
1000
DSTYLE
1002
{
1070
    50
1040
1.5707963267948959
1002
}
  0
DIMENSION
  5
B850
  8
0
  2
*D22
 10
880.39999999999645
 20
530.76258918570772
 30
0.0
 11
872.14999999999634
 21
653.76258918570784
 31
0.0
 70
     0
 13
820.39999999999645
 23
776.76258918570738
 33
0.0
 14
555.00000000003035
 24
530.76258918570784
 34
0.0
 50
90.0
1001
ACAD
1000
DSTYLE
1002
{
1070
    50
1040
1.5707963267948959
1002
}
  0
DIMENSION
  5
B851
  8
0
  2
*D23
 10
520.00000000000125
 20
186.66258918576111
 30
0.0
 11
500.00000000000131
 21
194.91258918576111
 31
0.0
 70
     0
 13
480.00000000000142
 23
224.16258918576111
 33
0.0
 14
520.00000000000125
 24
224.16258918576111
 34
0.0
  0
DIMENSION
  5
B854
  8
0
  2
*D24
 10
902.899999999996
 20
280.76258918576087
 30
0.0
 11
894.64999999999588
 21
405.7625891857345
 31
0.0
 70
     0
  1
 H
 13
555.00000000003035
 23
530.76258918570784
 33
0.0
 14
555.00000000000136
 24
280.7625891857611
 34
0.0
 50
90.0
1001
ACAD
1000
DSTYLE
1002
{
1070
    50
1040
1.5707963267948959
1002
}
  0
DIMENSION
  5
B855
  8
0
  2
*D25
 10
627.50000000000125
 20
245.76258918576099
 30
0.0
 11
619.25000000000136
 21
263.2625891857611
 31
0.0
 70
     0
 13
555.00000000000136
 23
280.7625891857611
 33
0.0
 14
555.00000000000136
 24
245.7625891857611
 34
0.0
 50
90.0
1001
ACAD
1000
DSTYLE
1002
{
1070
    50
1040
1.5707963267948959
1002
}
  0
DIMENSION
  5
B856
  8
0
  2
*D26
 10
605.00000000000136
 20
268.76258918570761
 30
0.0
 11
596.75000000000125
 21
257.26258918573438
 31
0.0
 70
     0
 13
555.00000000000136
 23
245.7625891857611
 33
0.0
 14
555.00000000000136
 24
268.76258918570761
 34
0.0
 50
90.0
1001
ACAD
1000
DSTYLE
1002
{
1070
    50
1040
1.5707963267948959
1002
}
  0
DIMENSION
  5
B858
  8
0
  2
*D27
 10
660.39999999999645
 20
1030.7625891857069
 30
0.0
 11
553.39999999999895
 21
1039.0125891857069
 31
0.0
 70
     0
 13
446.4000000000014
 23
990.76258918570738
 33
0.0
 14
660.39999999999645
 24
990.76258918570738
 34
0.0
1001
ACAD
1000
DSTYLE
1002
{
1070
    50
1040
1.5707963267948959
1002
}
  0
LINE
  5
B85C
  8
0
 10
449.99999999997311
 20
410.76258918570778
 30
0.0
 11
549.99999999997306
 21
410.76258918570778
 31
0.0
  0
LINE
  5
B85D
  8
0
 10
449.99999999997311
 20
400.76258918570778
 30
0.0
 11
549.99999999997306
 21
400.76258918570778
 31
0.0
  0
DIMENSION
  5
B85E
  8
0
  2
*D28
 10
394.99999999997323
 20
530.762589185651
 30
0.0
 11
386.74999999997272
 21
531.91165528548481
 31
0.0
 70
   128
 13
404.99999999997311
 23
540.76258918565145
 33
0.0
 14
444.99999999997311
 24
530.762589185651
 34
0.0
 50
90.0
  0
LINE
  5
B861
  8
0
 10
499.99999999999773
 20
290.76258918576099
 30
0.0
 11
499.99999999999773
 21
248.562589185761
 31
0.0
  0
LINE
  5
B862
  8
0
 10
501.19999999999749
 20
247.36258918576121
 30
0.0
 11
517.19999999999754
 21
247.36258918576121
 31
0.0
  0
LINE
  5
B863
  8
0
 10
518.3999999999977
 20
248.562589185761
 30
0.0
 11
518.3999999999977
 21
267.56258918576123
 31
0.0
  0
LINE
  5
B864
  8
0
 10
517.19999999999754
 20
268.7625891857611
 30
0.0
 11
508.39999999999782
 21
268.7625891857611
 31
0.0
  0
LINE
  5
B865
  8
0
 10
508.39999999999782
 20
268.7625891857611
 30
0.0
 11
508.39999999999782
 21
267.56258918576123
 31
0.0
  0
LINE
  5
B866
  8
0
 10
508.39999999999782
 20
267.56258918576123
 30
0.0
 11
517.19999999999754
 21
267.56258918576123
 31
0.0
  0
LINE
  5
B867
  8
0
 10
517.19999999999754
 20
267.56258918576123
 30
0.0
 11
517.19999999999754
 21
248.562589185761
 31
0.0
  0
LINE
  5
B868
  8
0
 10
517.19999999999754
 20
248.562589185761
 30
0.0
 11
501.19999999999749
 21
248.562589185761
 31
0.0
  0
LINE
  5
B869
  8
0
 10
501.19999999999749
 20
248.562589185761
 30
0.0
 11
501.19999999999749
 21
290.76258918576099
 31
0.0
  0
LINE
  5
B86A
  8
0
 10
501.19999999999749
 20
290.76258918576099
 30
0.0
 11
499.99999999999773
 21
290.76258918576099
 31
0.0
  0
ARC
  5
B86B
  8
0
 10
501.19999999999749
 20
248.562589185761
 30
0.0
 40
1.1999999999999991
 50
180.0
 51
270.0
  0
ARC
  5
B86C
  8
0
 10
517.19999999999754
 20
248.562589185761
 30
0.0
 40
1.1999999999999991
 50
270.0
 51
0.0
  0
ARC
  5
B86D
  8
0
 10
517.19999999999754
 20
267.56258918576123
 30
0.0
 40
1.1999999999999991
 50
0.0
 51
90.0
  0
LINE
  5
B86E
  8
0
 10
499.99999999999773
 20
290.76258918576099
 30
0.0
 11
499.99999999999773
 21
248.562589185761
 31
0.0
  0
LINE
  5
B86F
  8
0
 10
498.79999999999791
 20
247.36258918576121
 30
0.0
 11
482.79999999999779
 21
247.36258918576121
 31
0.0
  0
LINE
  5
B870
  8
0
 10
481.59999999999758
 20
248.562589185761
 30
0.0
 11
481.59999999999758
 21
267.56258918576123
 31
0.0
  0
LINE
  5
B871
  8
0
 10
482.79999999999779
 20
268.7625891857611
 30
0.0
 11
491.59999999999758
 21
268.7625891857611
 31
0.0
  0
LINE
  5
B872
  8
0
 10
491.59999999999758
 20
268.7625891857611
 30
0.0
 11
491.59999999999758
 21
267.56258918576123
 31
0.0
  0
LINE
  5
B873
  8
0
 10
491.59999999999758
 20
267.56258918576123
 30
0.0
 11
482.79999999999779
 21
267.56258918576123
 31
0.0
  0
LINE
  5
B874
  8
0
 10
482.79999999999779
 20
267.56258918576123
 30
0.0
 11
482.79999999999779
 21
248.562589185761
 31
0.0
  0
LINE
  5
B875
  8
0
 10
482.79999999999779
 20
248.562589185761
 30
0.0
 11
498.79999999999791
 21
248.562589185761
 31
0.0
  0
LINE
  5
B876
  8
0
 10
498.79999999999791
 20
248.562589185761
 30
0.0
 11
498.79999999999791
 21
290.76258918576099
 31
0.0
  0
LINE
  5
B877
  8
0
 10
498.79999999999791
 20
290.76258918576099
 30
0.0
 11
499.99999999999773
 21
290.76258918576099
 31
0.0
  0
ARC
  5
B878
  8
0
 10
498.79999999999791
 20
248.562589185761
 30
0.0
 40
1.1999999999999991
 50
270.0
 51
0.0
  0
ARC
  5
B879
  8
0
 10
482.79999999999779
 20
248.562589185761
 30
0.0
 40
1.1999999999999991
 50
180.0
 51
270.0
  0
ARC
  5
B87A
  8
0
 10
482.79999999999779
 20
267.56258918576123
 30
0.0
 40
1.1999999999999991
 50
90.0
 51
180.0
  0
LINE
  5
B87B
  8
0
 10
479.99999999999773
 20
266.7625891857611
 30
0.0
 11
479.99999999999773
 21
247.36258918576121
 31
0.0
  0
LINE
  5
B87C
  8
0
 10
481.59999999999758
 20
245.7625891857611
 30
0.0
 11
518.3999999999977
 21
245.7625891857611
 31
0.0
  0
LINE
  5
B87D
  8
0
 10
519.99999999999773
 20
247.36258918576121
 30
0.0
 11
519.99999999999773
 21
266.7625891857611
 31
0.0
  0
LINE
  5
B87E
  8
0
 10
519.99999999999773
 20
266.7625891857611
 30
0.0
 11
518.3999999999977
 21
266.7625891857611
 31
0.0
  0
LINE
  5
B87F
  8
0
 10
518.3999999999977
 20
266.7625891857611
 30
0.0
 11
518.3999999999977
 21
247.36258918576121
 31
0.0
  0
LINE
  5
B880
  8
0
 10
518.3999999999977
 20
247.36258918576121
 30
0.0
 11
481.59999999999758
 21
247.36258918576121
 31
0.0
  0
LINE
  5
B881
  8
0
 10
481.59999999999758
 20
247.36258918576121
 30
0.0
 11
481.59999999999758
 21
266.7625891857611
 31
0.0
  0
LINE
  5
B882
  8
0
 10
481.59999999999758
 20
266.7625891857611
 30
0.0
 11
479.99999999999773
 21
266.7625891857611
 31
0.0
  0
ARC
  5
B883
  8
0
 10
481.59999999999758
 20
247.36258918576121
 30
0.0
 40
1.6000000000000001
 50
180.0
 51
270.0
  0
ARC
  5
B884
  8
0
 10
518.3999999999977
 20
247.36258918576121
 30
0.0
 40
1.6000000000000001
 50
270.0
 51
0.0
  0
DIMENSION
  5
B885
  8
0
  2
*D4
 10
350.000000000005
 20
530.762589185651
 30
0.0
 11
341.750000000005
 21
661.76258918567953
 31
0.0
 70
     0
 13
445.00000000000489
 23
792.76258918570784
 33
0.0
 14
444.99999999997311
 24
530.762589185651
 34
0.0
 50
90.0
  0
DIMENSION
  5
B886
  8
0
  2
*D5
 10
372.500000000005
 20
530.762589185651
 30
0.0
 11
364.25000000000489
 21
560.76258918565134
 31
0.0
 70
     0
 13
445.00000000000489
 23
590.76258918565145
 33
0.0
 14
444.99999999997311
 24
530.762589185651
 34
0.0
 50
90.0
  0
LINE
  5
B887
  8
0
  6
PHANTOM2
 10
520.00000000000489
 20
280.76258918570778
 30
0.0
 11
504.00000000000131
 21
280.76258918570778
 31
0.0
  0
LINE
  5
B888
  8
0
  6
PHANTOM2
 10
496.00000000000142
 20
280.76258918570778
 30
0.0
 11
479.99999999999773
 21
280.76258918570778
 31
0.0
  0
DIMENSION
  5
B889
  8
0
  2
*D6
 10
605.00000000000136
 20
280.7625891857611
 30
0.0
 11
596.75000000000125
 21
282.10644623422382
 31
0.0
 70
   128
 13
555.00000000000136
 23
268.76258918570761
 33
0.0
 14
555.00000000000136
 24
280.7625891857611
 34
0.0
 50
90.0
  0
LINE
  5
B88A
  8
0
 10
1322.0
 20
321.0
 30
0.0
 11
1251.5999999999999
 21
321.0
 31
0.0
  0
LINE
  5
B88B
  8
0
 10
1250.0
 20
322.59999999999991
 30
0.0
 11
1250.0
 21
335.25390639829038
 31
0.0
  0
ARC
  5
B88C
  8
0
 10
1251.5999999999999
 20
335.25390639829038
 30
0.0
 40
1.6000000000000001
 50
85.000000000000213
 51
180.0
  0
LINE
  5
B88D
  8
0
 10
1251.5999999999999
 20
335.25390639829038
 30
0.0
 11
1251.5999999999999
 21
322.59999999999991
 31
0.0
  0
LINE
  5
B88E
  8
0
 10
1251.5999999999999
 20
322.59999999999991
 30
0.0
 11
1322.0
 21
322.59999999999991
 31
0.0
  0
LINE
  5
B88F
  8
0
 10
1322.0
 20
322.59999999999991
 30
0.0
 11
1322.0
 21
321.0
 31
0.0
  0
ARC
  5
B890
  8
0
 10
1251.5999999999999
 20
322.59999999999991
 30
0.0
 40
1.6000000000000001
 50
180.0
 51
270.0
  0
LINE
  5
B891
  8
0
 10
1259.9619469809311
 20
336.12844257252351
 30
0.0
 11
1251.7394491883961
 21
336.8478179152371
 31
0.0
  0
LINE
  5
B892
  8
0
 10
1251.5999999999999
 20
335.25390639829038
 30
0.0
 11
1259.8224977925161
 21
334.53453105557833
 31
0.0
  0
LINE
  5
B893
  8
0
 10
1259.9619469809311
 20
336.12844257252351
 30
0.0
 11
1259.8224977925161
 21
334.53453105557833
 31
0.0
  0
LINE
  5
B894
  8
0
 10
1322.0
 20
361.0
 30
0.0
 11
1251.5999999999999
 21
361.0
 31
0.0
  0
LINE
  5
B895
  8
0
 10
1250.0
 20
359.40000000000009
 30
0.0
 11
1250.0
 21
346.74609360170962
 31
0.0
  0
ARC
  5
B896
  8
0
 10
1251.5999999999999
 20
346.74609360170962
 30
0.0
 40
1.6000000000000001
 50
180.0
 51
274.99999999999977
  0
LINE
  5
B897
  8
0
 10
1251.5999999999999
 20
346.74609360170962
 30
0.0
 11
1251.5999999999999
 21
359.40000000000009
 31
0.0
  0
LINE
  5
B898
  8
0
 10
1251.5999999999999
 20
359.40000000000009
 30
0.0
 11
1322.0
 21
359.40000000000009
 31
0.0
  0
ARC
  5
B899
  8
0
 10
1251.5999999999999
 20
359.40000000000009
 30
0.0
 40
1.6000000000000001
 50
90.0
 51
180.0
  0
LINE
  5
B89A
  8
0
 10
1259.9619469809311
 20
345.8715574274766
 30
0.0
 11
1251.7394491883961
 21
345.1521820847629
 31
0.0
  0
LINE
  5
B89B
  8
0
 10
1251.5999999999999
 20
346.74609360170962
 30
0.0
 11
1259.8224977925161
 21
347.4654689444219
 31
0.0
  0
LINE
  5
B89C
  8
0
 10
1259.9619469809311
 20
345.8715574274766
 30
0.0
 11
1259.8224977925161
 21
347.4654689444219
 31
0.0
  0
LINE
  5
B89D
  8
0
 10
1330.0
 20
323.05999999999972
 30
0.0
 11
1330.0
 21
322.59999999999991
 31
0.0
  0
LINE
  5
B89E
  8
0
 10
1330.0
 20
322.59999999999991
 30
0.0
 11
1312.0
 21
322.59999999999991
 31
0.0
  0
LINE
  5
B89F
  8
0
 10
1312.0
 20
322.59999999999991
 30
0.0
 11
1312.0
 21
323.05999999999972
 31
0.0
  0
LINE
  5
B8A0
  8
0
 10
1312.0
 20
323.05999999999972
 30
0.0
 11
1330.0
 21
323.05999999999972
 31
0.0
  0
LINE
  5
B8A1
  8
0
 10
1322.0
 20
324.65999999999991
 30
0.0
 11
1322.0
 21
323.05999999999972
 31
0.0
  0
LINE
  5
B8A2
  8
0
 10
1322.0
 20
323.05999999999972
 30
0.0
 11
1313.0
 21
323.05999999999972
 31
0.0
  0
LINE
  5
B8A3
  8
0
 10
1313.0
 20
323.05999999999972
 30
0.0
 11
1313.0
 21
324.65999999999991
 31
0.0
  0
LINE
  5
B8A4
  8
0
 10
1313.0
 20
324.65999999999991
 30
0.0
 11
1322.0
 21
324.65999999999991
 31
0.0
  0
LINE
  5
B8A5
  8
0
  6
CONTINUOUS
 10
1313.2
 20
326.65999999999991
 30
0.0
 11
1320.8
 21
326.65999999999991
 31
0.0
  0
LINE
  5
B8A6
  8
0
  6
CONTINUOUS
 10
1313.2
 20
324.65999999999991
 30
0.0
 11
1313.2
 21
326.65999999999991
 31
0.0
  0
LINE
  5
B8A7
  8
0
  6
CONTINUOUS
 10
1320.8
 20
324.65999999999991
 30
0.0
 11
1313.2
 21
324.65999999999991
 31
0.0
  0
LINE
  5
B8A8
  8
0
  6
CONTINUOUS
 10
1320.8
 20
326.65999999999991
 30
0.0
 11
1320.8
 21
324.65999999999991
 31
0.0
  0
LINE
  5
B8A9
  8
0
 10
1314.5431705827421
 20
329.3344384103807
 30
0.0
 11
1314.766518711584
 21
327.77239123018012
 31
0.0
  0
LINE
  5
B8AA
  8
0
 10
1319.4568294172579
 20
329.3344384103807
 30
0.0
 11
1314.5431705827421
 21
329.3344384103807
 31
0.0
  0
LINE
  5
B8AB
  8
0
 10
1319.233481288416
 20
327.54924163300871
 30
0.0
 11
1319.4568294172579
 21
329.3344384103807
 31
0.0
  0
ARC
  5
B8AC
  8
0
 10
1317.0
 20
325.52347338647718
 30
0.0
 40
5.9999999999999627
 50
228.9304134868357
 51
311.06958651316421
  0
LINE
  5
B8AD
  8
0
 10
1314.766518711584
 20
327.77239123018012
 30
0.0
 11
1315.283706967718
 21
326.65999999999991
 31
0.0
  0
LINE
  5
B8AE
  8
0
 10
1318.483706967718
 20
326.65999999999991
 30
0.0
 11
1319.233481288416
 21
327.54924163300871
 31
0.0
  0
LINE
  5
B8AF
  8
0
  6
CENTER2
 10
1317.000000000003
 20
332.05999999999972
 30
0.0
 11
1317.000000000003
 21
317.05999999999972
 31
0.0
  0
LINE
  5
B8B0
  8
0
  6
CONTINUOUS
 10
1316.3997879560491
 20
324.65999999999991
 30
0.0
 11
1317.5791422156669
 21
326.65999999999991
 31
0.0
  0
LINE
  5
B8B1
  8
0
  6
CONTINUOUS
 10
1315.71759861839
 20
324.65999999999991
 30
0.0
 11
1316.8969528780081
 21
326.65999999999991
 31
0.0
  0
LINE
  5
B8B2
  8
0
 10
1322.0
 20
359.40000000000009
 30
0.0
 11
1322.0
 21
361.0
 31
0.0
  0
LINE
  5
B8B3
  8
0
 10
1330.0
 20
358.94000000000011
 30
0.0
 11
1330.0
 21
359.40000000000009
 31
0.0
  0
LINE
  5
B8B4
  8
0
 10
1330.0
 20
359.40000000000009
 30
0.0
 11
1312.0
 21
359.40000000000009
 31
0.0
  0
LINE
  5
B8B5
  8
0
 10
1312.0
 20
359.40000000000009
 30
0.0
 11
1312.0
 21
358.94000000000011
 31
0.0
  0
LINE
  5
B8B6
  8
0
 10
1312.0
 20
358.94000000000011
 30
0.0
 11
1330.0
 21
358.94000000000011
 31
0.0
  0
LINE
  5
B8B7
  8
0
 10
1322.0
 20
357.33999999999992
 30
0.0
 11
1322.0
 21
358.94000000000011
 31
0.0
  0
LINE
  5
B8B8
  8
0
 10
1322.0
 20
358.94000000000011
 30
0.0
 11
1313.0
 21
358.94000000000011
 31
0.0
  0
LINE
  5
B8B9
  8
0
 10
1313.0
 20
358.94000000000011
 30
0.0
 11
1313.0
 21
357.33999999999992
 31
0.0
  0
LINE
  5
B8BA
  8
0
 10
1313.0
 20
357.33999999999992
 30
0.0
 11
1322.0
 21
357.33999999999992
 31
0.0
  0
LINE
  5
B8BB
  8
0
  6
CONTINUOUS
 10
1313.2
 20
355.33999999999992
 30
0.0
 11
1320.8
 21
355.33999999999992
 31
0.0
  0
LINE
  5
B8BC
  8
0
  6
CONTINUOUS
 10
1313.2
 20
357.33999999999992
 30
0.0
 11
1313.2
 21
355.33999999999992
 31
0.0
  0
LINE
  5
B8BD
  8
0
  6
CONTINUOUS
 10
1320.8
 20
357.33999999999992
 30
0.0
 11
1313.2
 21
357.33999999999992
 31
0.0
  0
LINE
  5
B8BE
  8
0
  6
CONTINUOUS
 10
1320.8
 20
355.33999999999992
 30
0.0
 11
1320.8
 21
357.33999999999992
 31
0.0
  0
LINE
  5
B8BF
  8
0
 10
1314.5431705827421
 20
352.66556158961907
 30
0.0
 11
1314.766518711584
 21
354.22760876981988
 31
0.0
  0
LINE
  5
B8C0
  8
0
 10
1319.4568294172579
 20
352.66556158961907
 30
0.0
 11
1314.5431705827421
 21
352.66556158961907
 31
0.0
  0
LINE
  5
B8C1
  8
0
 10
1319.233481288416
 20
354.45075836699129
 30
0.0
 11
1319.4568294172579
 21
352.66556158961907
 31
0.0
  0
ARC
  5
B8C2
  8
0
 10
1317.0
 20
356.47652661352282
 30
0.0
 40
5.9999999999999627
 50
48.930413486835711
 51
131.0695865131643
  0
LINE
  5
B8C3
  8
0
 10
1314.766518711584
 20
354.22760876981988
 30
0.0
 11
1315.283706967718
 21
355.33999999999992
 31
0.0
  0
LINE
  5
B8C4
  8
0
 10
1318.483706967718
 20
355.33999999999992
 30
0.0
 11
1319.233481288416
 21
354.45075836699129
 31
0.0
  0
LINE
  5
B8C5
  8
0
  6
CENTER2
 10
1317.000000000003
 20
349.94
 30
0.0
 11
1317.000000000003
 21
364.94
 31
0.0
  0
LINE
  5
B8C6
  8
0
  6
CONTINUOUS
 10
1317.637888356955
 20
357.33999999999992
 30
0.0
 11
1316.458534097337
 21
355.33999999999992
 31
0.0
  0
LINE
  5
B8C7
  8
0
  6
CONTINUOUS
 10
1318.3200776946139
 20
357.33999999999992
 30
0.0
 11
1317.1407234349961
 21
355.33999999999992
 31
0.0
  0
DIMENSION
  5
B8CC
  8
0
  2
*D7
 10
1250.0
 20
268.0
 30
0.0
 11
1290.0
 21
276.25
 31
0.0
 70
     0
 13
1330.0
 23
306.0
 33
0.0
 14
1250.0
 24
306.0
 34
0.0
  0
DIMENSION
  5
B8CD
  8
0
  2
*D8
 10
1100.0
 20
268.0
 30
0.0
 11
1173.5
 21
276.25
 31
0.0
 70
     0
  1
 W
 13
1250.0
 23
306.0
 33
0.0
 14
1100.0
 24
306.0
 34
0.0
1001
ACAD
1000
DSTYLE
1002
{
1070
    76
1070
     1
1070
     7
1000
NONE
1070
     5
1000

1070
   173
1070
     1
1070
     6
1000
ORIGIN
1002
}
  0
DIMENSION
  5
B8D2
  8
0
  2
*D9
 10
1202.5
 20
321.0
 30
0.0
 11
1194.25
 21
341.00000000000023
 31
0.0
 70
     0
 13
1240.0
 23
361.0
 33
0.0
 14
1240.0
 24
321.0
 34
0.0
 50
90.0
  0
LINE
  5
B8D3
  8
0
  6
CENTER2
 10
1325.0
 20
341.0
 30
0.0
 11
1100.0
 21
341.0
 31
0.0
  0
LINE
  5
B8D6
  8
0
  6
PHANTOM2
 10
1100.0
 20
386.0
 30
0.0
 11
1340.0
 21
386.0
 31
0.0
  0
LINE
  5
B8D7
  8
0
  6
PHANTOM2
 10
1340.0
 20
386.0
 30
0.0
 11
1340.0
 21
366.0
 31
0.0
  0
LINE
  5
B8D8
  8
0
  6
PHANTOM2
 10
1340.0
 20
366.0
 30
0.0
 11
1100.0
 21
366.0
 31
0.0
  0
LINE
  5
B8D9
  8
0
  6
PHANTOM2
 10
1100.0
 20
316.0
 30
0.0
 11
1340.0
 21
316.0
 31
0.0
  0
LINE
  5
B8DA
  8
0
  6
PHANTOM2
 10
1340.0
 20
316.0
 30
0.0
 11
1340.0
 21
296.0
 31
0.0
  0
LINE
  5
B8DB
  8
0
  6
PHANTOM2
 10
1340.0
 20
296.0
 30
0.0
 11
1100.0
 21
296.0
 31
0.0
  0
LINE
  5
B8DC
  8
0
  6
PHANTOM2
 10
1340.0
 20
366.0
 30
0.0
 11
1331.5999999999999
 21
366.0
 31
0.0
  0
LINE
  5
B8DD
  8
0
  6
PHANTOM2
 10
1330.0
 20
364.40000000000009
 30
0.0
 11
1330.0
 21
317.59999999999991
 31
0.0
  0
LINE
  5
B8DE
  8
0
  6
PHANTOM2
 10
1331.5999999999999
 20
316.0
 30
0.0
 11
1340.0
 21
316.0
 31
0.0
  0
LINE
  5
B8DF
  8
0
  6
PHANTOM2
 10
1340.0
 20
316.0
 30
0.0
 11
1340.0
 21
317.59999999999991
 31
0.0
  0
LINE
  5
B8E0
  8
0
  6
PHANTOM2
 10
1340.0
 20
317.59999999999991
 30
0.0
 11
1331.5999999999999
 21
317.59999999999991
 31
0.0
  0
LINE
  5
B8E1
  8
0
  6
PHANTOM2
 10
1331.5999999999999
 20
317.59999999999991
 30
0.0
 11
1331.5999999999999
 21
364.40000000000009
 31
0.0
  0
LINE
  5
B8E2
  8
0
  6
PHANTOM2
 10
1331.5999999999999
 20
364.40000000000009
 30
0.0
 11
1340.0
 21
364.40000000000009
 31
0.0
  0
LINE
  5
B8E3
  8
0
  6
PHANTOM2
 10
1340.0
 20
364.40000000000009
 30
0.0
 11
1340.0
 21
366.0
 31
0.0
  0
ARC
  5
B8E4
  8
0
  6
PHANTOM2
 10
1331.5999999999999
 20
364.40000000000009
 30
0.0
 40
1.6000000000000001
 50
90.0
 51
180.0
  0
ARC
  5
B8E5
  8
0
  6
PHANTOM2
 10
1331.5999999999999
 20
317.59999999999991
 30
0.0
 40
1.6000000000000001
 50
180.0
 51
270.0
  0
LINE
  5
B8E6
  8
0
  6
PHANTOM2
 10
1340.0
 20
364.40000000000009
 30
0.0
 11
1340.0
 21
317.59999999999991
 31
0.0
  0
LINE
  5
B8E7
  8
0
  6
PHANTOM2
 10
1340.0
 20
317.59999999999991
 30
0.0
 11
1331.5999999999999
 21
364.40000000000009
 31
0.0
  0
LINE
  5
B8E8
  8
0
  6
PHANTOM2
 10
1340.0
 20
364.40000000000009
 30
0.0
 11
1331.5999999999999
 21
317.59999999999991
 31
0.0
  0
DIMENSION
  5
B8ED
  8
0
  2
*D10
 10
1135.0
 20
366.0
 30
0.0
 11
1126.75
 21
376.00000000000023
 31
0.0
 70
     0
 13
1145.0
 23
386.0
 33
0.0
 14
1145.0
 24
366.0
 34
0.0
 50
90.0
  0
DIMENSION
  5
B8EE
  8
0
  2
*D11
 10
1135.0
 20
316.0
 30
0.0
 11
1126.75
 21
341.00000000000023
 31
0.0
 70
     0
 13
1145.0
 23
366.0
 33
0.0
 14
1145.0
 24
316.0
 34
0.0
 50
90.0
  0
DIMENSION
  5
B8EF
  8
0
  2
*D12
 10
1135.0
 20
296.0
 30
0.0
 11
1126.75
 21
306.00000000000023
 31
0.0
 70
     0
 13
1145.0
 23
316.0
 33
0.0
 14
1145.0
 24
296.0
 34
0.0
 50
90.0
  0
LINE
  5
B8F3
  8
0
 10
454.99999999995998
 20
540.76258918570784
 30
0.0
 11
454.99999999995998
 21
532.3625891857082
 31
0.0
  0
LINE
  5
B8F4
  8
0
 10
456.59999999995989
 20
530.76258918570784
 30
0.0
 11
473.39999999996007
 21
530.76258918570784
 31
0.0
  0
LINE
  5
B8F5
  8
0
 10
473.39999999996007
 20
532.3625891857082
 30
0.0
 11
456.59999999995989
 21
532.3625891857082
 31
0.0
  0
LINE
  5
B8F6
  8
0
 10
456.59999999995989
 20
532.3625891857082
 30
0.0
 11
456.59999999995989
 21
540.76258918570784
 31
0.0
  0
LINE
  5
B8F7
  8
0
 10
456.59999999995989
 20
540.76258918570784
 30
0.0
 11
454.99999999995998
 21
540.76258918570784
 31
0.0
  0
ARC
  5
B8F8
  8
0
 10
456.59999999995989
 20
532.3625891857082
 30
0.0
 40
1.6000000000000001
 50
180.0
 51
270.0
  0
ARC
  5
B8F9
  8
0
 10
473.39999999996007
 20
532.3625891857082
 30
0.0
 40
1.6000000000000001
 50
270.0
 51
0.0
  0
LINE
  5
B8FA
  8
0
 10
544.99999999995987
 20
540.76258918570784
 30
0.0
 11
544.99999999995987
 21
532.36258918570775
 31
0.0
  0
LINE
  5
B8FB
  8
0
 10
543.39999999995996
 20
530.76258918570784
 30
0.0
 11
526.59999999995989
 21
530.76258918570784
 31
0.0
  0
LINE
  5
B8FC
  8
0
 10
526.59999999995989
 20
532.36258918570775
 30
0.0
 11
543.39999999995996
 21
532.36258918570775
 31
0.0
  0
LINE
  5
B8FD
  8
0
 10
543.39999999995996
 20
532.36258918570775
 30
0.0
 11
543.39999999995996
 21
540.76258918570784
 31
0.0
  0
LINE
  5
B8FE
  8
0
 10
543.39999999995996
 20
540.76258918570784
 30
0.0
 11
544.99999999995987
 21
540.76258918570784
 31
0.0
  0
ARC
  5
B8FF
  8
0
 10
543.39999999995996
 20
532.36258918570775
 30
0.0
 40
1.6000000000000001
 50
270.0
 51
0.0
  0
ARC
  5
B900
  8
0
 10
526.59999999995989
 20
532.36258918570775
 30
0.0
 40
1.6000000000000001
 50
180.0
 51
270.0
  0
DIMENSION
  5
B906
  8
0
  2
*D13
 10
605.00000000003035
 20
540.76258918562189
 30
0.0
 11
596.75000000003035
 21
532.41840422039695
 31
0.0
 70
   128
 13
555.00000000003035
 23
530.76258918570784
 33
0.0
 14
595.00000000003035
 24
540.76258918562189
 34
0.0
 50
90.0
1001
ACAD
1000
DSTYLE
1002
{
1070
    50
1040
1.5707963267948959
1002
}
  0
DIMENSION
  5
B907
  8
0
  2
*D14
 10
857.89999999999645
 20
765.76258918570716
 30
0.0
 11
849.649999999996
 21
765.76258918570727
 31
0.0
 70
   128
 13
820.39999999999645
 23
776.76258918570738
 33
0.0
 14
633.49999999997306
 24
765.76258918570727
 34
0.0
 50
90.0
1001
ACAD
1000
DSTYLE
1002
{
1070
    50
1040
1.5707963267948959
1002
}
  0
DIMENSION
  5
B908
  8
0
  2
*D15
 10
802.64770951435321
 20
1053.2625891857069
 30
0.0
 11
624.52385475717733
 21
1061.5125891857069
 31
0.0
 70
     0
  1
（357）
 13
446.4000000000014
 23
990.76258918570738
 33
0.0
 14
802.64770951435321
 24
990.76258918570738
 34
0.0
1001
ACAD
1000
DSTYLE
1002
{
1070
   271
1070
     2
1070
   178
1070
   256
1002
}
  0
LINE
  5
B909
  8
0
 10
526.59999999995989
 20
625.76258918570761
 30
0.0
 11
613.49999999995998
 21
625.76258918570761
 31
0.0
  0
LINE
  5
B90A
  8
0
 10
613.49999999995998
 20
625.76258918570761
 30
0.0
 11
613.49999999995998
 21
792.76258918570761
 31
0.0
  0
LINE
  5
B90B
  8
0
 10
613.49999999995998
 20
792.76258918570761
 30
0.0
 11
448.39999999996007
 21
792.76258918570761
 31
0.0
  0
LINE
  5
B90C
  8
0
  6
HIDDEN
 10
613.49999999995998
 20
789.7625891857075
 30
0.0
 11
448.39999999996007
 21
789.7625891857075
 31
0.0
  0
LINE
  5
B90D
  8
0
 10
588.49999999995998
 20
767.76258918570761
 30
0.0
 11
473.39999999996007
 21
767.76258918570761
 31
0.0
  0
LINE
  5
B90E
  8
0
  6
HIDDEN
 10
473.39999999996007
 20
767.76258918570761
 30
0.0
 11
448.39999999996007
 21
767.76258918570761
 31
0.0
  0
LINE
  5
B90F
  8
0
  6
HIDDEN
 10
526.59999999995989
 20
650.76258918570761
 30
0.0
 11
613.49999999995998
 21
650.76258918570761
 31
0.0
  0
LINE
  5
B910
  8
0
  6
HIDDEN
 10
526.59999999995989
 20
647.7625891857075
 30
0.0
 11
613.49999999995998
 21
647.7625891857075
 31
0.0
  0
LINE
  5
B911
  8
0
 10
526.59999999995989
 20
650.76258918570761
 30
0.0
 11
526.59999999995989
 21
625.76258918570761
 31
0.0
  0
LINE
  5
B912
  8
0
 10
588.49999999995998
 20
625.76258918570761
 30
0.0
 11
588.49999999995998
 21
792.76258918570761
 31
0.0
  0
LINE
  5
B913
  8
0
 10
591.49999999995998
 20
625.76258918570761
 30
0.0
 11
591.49999999995998
 21
792.76258918570761
 31
0.0
  0
LINE
  5
B914
  8
0
 10
448.39999999996007
 20
590.76258918570795
 30
0.0
 11
448.39999999996007
 21
792.76258918570761
 31
0.0
  0
LINE
  5
B915
  8
0
 10
473.39999999996007
 20
590.76258918570795
 30
0.0
 11
473.39999999996007
 21
792.76258918570761
 31
0.0
  0
LINE
  5
B916
  8
0
 10
470.39999999996002
 20
590.76258918570795
 30
0.0
 11
470.39999999996002
 21
792.76258918570761
 31
0.0
  0
LINE
  5
B917
  8
0
 10
448.39999999996007
 20
590.76258918570795
 30
0.0
 11
473.39999999996007
 21
590.76258918570795
 31
0.0
  0
LINE
  5
B918
  8
0
  6
HIDDEN
 10
613.49999999995998
 20
767.76258918570761
 30
0.0
 11
588.49999999995998
 21
767.76258918570761
 31
0.0
  0
LINE
  5
B919
  8
0
 10
474.99999999995998
 20
532.36258918570786
 30
0.0
 11
474.99999999995998
 21
764.1625891857077
 31
0.0
  0
LINE
  5
B91A
  8
0
 10
474.99999999995998
 20
764.1625891857077
 30
0.0
 11
494.99999999995993
 21
764.1625891857077
 31
0.0
  0
LINE
  5
B91B
  8
0
 10
494.99999999995993
 20
764.1625891857077
 30
0.0
 11
494.99999999995993
 21
765.76258918570761
 31
0.0
  0
LINE
  5
B91C
  8
0
 10
494.99999999995993
 20
765.76258918570761
 30
0.0
 11
474.99999999995998
 21
765.76258918570761
 31
0.0
  0
LINE
  5
B91D
  8
0
 10
473.39999999996007
 20
764.1625891857077
 30
0.0
 11
473.39999999996007
 21
532.36258918570786
 31
0.0
  0
ARC
  5
B91E
  8
0
 10
474.99999999995998
 20
764.1625891857077
 30
0.0
 40
1.6000000000000001
 50
90.0
 51
180.0
  0
LINE
  5
B91F
  8
0
 10
473.39999999996007
 20
590.76258918570795
 30
0.0
 11
473.39999999996007
 21
565.76258918570795
 31
0.0
  0
LINE
  5
B920
  8
0
 10
473.39999999996007
 20
565.76258918570795
 30
0.0
 11
472.39999999996002
 21
565.76258918570795
 31
0.0
  0
LINE
  5
B921
  8
0
 10
470.39999999996002
 20
567.76258918570795
 30
0.0
 11
470.39999999996002
 21
583.76258918570795
 31
0.0
  0
LINE
  5
B922
  8
0
 10
466.39999999996002
 20
587.76258918570795
 30
0.0
 11
450.39999999996002
 21
587.76258918570795
 31
0.0
  0
LINE
  5
B923
  8
0
 10
448.39999999996007
 20
589.76258918570807
 30
0.0
 11
448.39999999996007
 21
590.76258918570795
 31
0.0
  0
LINE
  5
B924
  8
0
 10
448.39999999996007
 20
590.76258918570795
 30
0.0
 11
473.39999999996007
 21
590.76258918570795
 31
0.0
  0
ARC
  5
B925
  8
0
 10
472.39999999996002
 20
567.76258918570795
 30
0.0
 40
2.0
 50
180.0
 51
270.0
  0
ARC
  5
B926
  8
0
 10
450.39999999996002
 20
589.76258918570807
 30
0.0
 40
2.0
 50
180.0
 51
270.0
  0
ARC
  5
B927
  8
0
 10
466.39999999996002
 20
583.76258918570795
 30
0.0
 40
4.0
 50
0.0
 51
90.0
  0
LINE
  5
B928
  8
0
 10
474.99999999995998
 20
764.1625891857077
 30
0.0
 11
474.99999999995998
 21
685.7625891857075
 31
0.0
  0
LINE
  5
B929
  8
0
 10
476.59999999995989
 20
684.1625891857077
 30
0.0
 11
497.39999999996002
 21
684.1625891857077
 31
0.0
  0
LINE
  5
B92A
  8
0
 10
498.99999999995993
 20
685.7625891857075
 30
0.0
 11
498.99999999995993
 21
694.56258918570768
 31
0.0
  0
LINE
  5
B92B
  8
0
 10
497.39999999996002
 20
696.16258918570759
 30
0.0
 11
488.99999999995993
 21
696.16258918570759
 31
0.0
  0
LINE
  5
B92C
  8
0
 10
488.99999999995993
 20
696.16258918570759
 30
0.0
 11
488.99999999995993
 21
694.56258918570768
 31
0.0
  0
LINE
  5
B92D
  8
0
 10
488.99999999995993
 20
694.56258918570768
 30
0.0
 11
497.39999999996002
 21
694.56258918570768
 31
0.0
  0
LINE
  5
B92E
  8
0
 10
497.39999999996002
 20
694.56258918570768
 30
0.0
 11
497.39999999996002
 21
685.7625891857075
 31
0.0
  0
LINE
  5
B92F
  8
0
 10
497.39999999996002
 20
685.7625891857075
 30
0.0
 11
476.59999999995989
 21
685.7625891857075
 31
0.0
  0
LINE
  5
B930
  8
0
 10
476.59999999995989
 20
685.7625891857075
 30
0.0
 11
476.59999999995989
 21
764.1625891857077
 31
0.0
  0
LINE
  5
B931
  8
0
 10
476.59999999995989
 20
764.1625891857077
 30
0.0
 11
474.99999999995998
 21
764.1625891857077
 31
0.0
  0
ARC
  5
B932
  8
0
 10
476.59999999995989
 20
685.7625891857075
 30
0.0
 40
1.6000000000000001
 50
180.0
 51
270.0
  0
ARC
  5
B933
  8
0
 10
497.39999999996002
 20
685.7625891857075
 30
0.0
 40
1.6000000000000001
 50
270.0
 51
0.0
  0
ARC
  5
B934
  8
0
 10
497.39999999996002
 20
694.56258918570768
 30
0.0
 40
1.6000000000000001
 50
0.0
 51
90.0
  0
LINE
  5
B935
  8
0
 10
524.99999999995998
 20
532.36258918570775
 30
0.0
 11
524.99999999995998
 21
650.76258918570761
 31
0.0
  0
ARC
  5
B936
  8
0
 10
526.59999999995989
 20
650.76258918570761
 30
0.0
 40
1.6000000000000001
 50
90.0
 51
180.0
  0
LINE
  5
B937
  8
0
 10
526.59999999995989
 20
650.76258918570761
 30
0.0
 11
526.59999999995989
 21
532.36258918570775
 31
0.0
  0
LINE
  5
B938
  8
0
 10
568.49999999995987
 20
765.76258918570761
 30
0.0
 11
586.89999999995996
 21
765.76258918570761
 31
0.0
  0
LINE
  5
B939
  8
0
 10
588.49999999995998
 20
764.1625891857077
 30
0.0
 11
588.49999999995998
 21
652.36258918570752
 31
0.0
  0
LINE
  5
B93A
  8
0
 10
586.89999999995996
 20
650.76258918570761
 30
0.0
 11
526.59999999995989
 21
650.76258918570761
 31
0.0
  0
LINE
  5
B93B
  8
0
 10
526.59999999995989
 20
652.36258918570752
 30
0.0
 11
586.89999999995996
 21
652.36258918570752
 31
0.0
  0
LINE
  5
B93C
  8
0
 10
586.89999999995996
 20
652.36258918570752
 30
0.0
 11
586.89999999995996
 21
764.1625891857077
 31
0.0
  0
LINE
  5
B93D
  8
0
 10
586.89999999995996
 20
764.1625891857077
 30
0.0
 11
568.49999999995987
 21
764.1625891857077
 31
0.0
  0
LINE
  5
B93E
  8
0
 10
568.49999999995987
 20
764.1625891857077
 30
0.0
 11
568.49999999995987
 21
765.76258918570761
 31
0.0
  0
ARC
  5
B93F
  8
0
 10
586.89999999995996
 20
764.1625891857077
 30
0.0
 40
1.6000000000000001
 50
0.0
 51
90.0
  0
ARC
  5
B940
  8
0
 10
586.89999999995996
 20
652.36258918570752
 30
0.0
 40
1.6000000000000001
 50
270.0
 51
0.0
  0
LINE
  5
B941
  8
0
 10
480.9499999999598
 20
765.76258918570761
 30
0.0
 11
580.9499999999598
 21
765.76258918570761
 31
0.0
  0
LINE
  5
B942
  8
0
 10
580.9499999999598
 20
765.76258918570761
 30
0.0
 11
580.9499999999598
 21
766.56258918570779
 31
0.0
  0
LINE
  5
B943
  8
0
 10
580.9499999999598
 20
766.56258918570779
 30
0.0
 11
480.9499999999598
 21
766.56258918570779
 31
0.0
  0
LINE
  5
B944
  8
0
 10
480.9499999999598
 20
766.56258918570779
 30
0.0
 11
480.9499999999598
 21
765.76258918570761
 31
0.0
  0
LINE
  5
B945
  8
0
 10
507.49999999995953
 20
677.36258918570752
 30
0.0
 11
554.49999999995998
 21
677.36258918570786
 31
0.0
  0
LINE
  5
B946
  8
0
 10
557.49999999995987
 20
674.36258918570786
 30
0.0
 11
557.49999999995987
 21
652.36258918570752
 31
0.0
  0
LINE
  5
B947
  8
0
 10
557.49999999995987
 20
652.36258918570752
 30
0.0
 11
504.49999999995953
 21
652.36258918570752
 31
0.0
  0
LINE
  5
B948
  8
0
 10
504.49999999995953
 20
652.36258918570752
 30
0.0
 11
504.49999999995953
 21
674.36258918570752
 31
0.0
  0
LINE
  5
B949
  8
0
  6
HIDDEN
 10
557.49999999995987
 20
653.96258918570777
 30
0.0
 11
504.49999999995953
 21
653.96258918570777
 31
0.0
  0
ARC
  5
B94A
  8
0
 10
507.49999999995953
 20
674.36258918570752
 30
0.0
 40
3.0
 50
90.0
 51
180.0
  0
ARC
  5
B94B
  8
0
 10
554.49999999995998
 20
674.36258918570786
 30
0.0
 40
3.0
 50
0.0
 51
90.0
  0
CIRCLE
  5
B94C
  8
0
 10
512.49999999995941
 20
672.36258918570752
 30
0.0
 40
3.5
  0
CIRCLE
  5
B94D
  8
0
 10
549.49999999995987
 20
672.36258918570752
 30
0.0
 40
3.5
  0
ARC
  5
B94E
  8
0
 10
512.49999999995941
 20
672.36258918570752
 30
0.0
 40
12.5
 50
23.578178478194129
 51
230.20818050045079
  0
ARC
  5
B94F
  8
0
 10
549.49999999995987
 20
672.36258918570752
 30
0.0
 40
12.5
 50
309.79181949954921
 51
156.42182152180581
  0
LINE
  5
B950
  8
0
  6
CENTER2
 10
497.49999999995953
 20
672.36258918570752
 30
0.0
 11
564.49999999995987
 21
672.36258918570752
 31
0.0
  0
LINE
  5
B951
  8
0
  6
CENTER2
 10
512.49999999995941
 20
657.36258918570752
 30
0.0
 11
512.49999999995941
 21
687.36258918570741
 31
0.0
  0
LINE
  5
B952
  8
0
  6
CENTER2
 10
549.49999999995987
 20
657.36258918570752
 30
0.0
 11
549.49999999995987
 21
687.36258918570741
 31
0.0
  0
ARC
  5
B953
  8
0
 10
460.39999999996002
 20
786.23828491519612
 30
0.0
 40
15.5243042705
 50
72.412046216879887
 51
107.5879537831201
  0
LINE
  5
B954
  8
0
 10
465.09097093721579
 20
801.03689345621899
 30
0.0
 11
465.09097093721579
 21
794.76258918570761
 31
0.0
  0
LINE
  5
B955
  8
0
 10
455.70902906270419
 20
794.76258918570761
 30
0.0
 11
455.70902906270419
 21
801.03689345621899
 31
0.0
  0
ARC
  5
B956
  8
0
 10
452.27500015642221
 20
793.27474206101544
 30
0.0
 40
8.4878471246
 50
66.135073519825696
 51
89.953174245550159
  0
ARC
  5
B957
  8
0
 10
468.52499984349782
 20
793.27474206101544
 30
0.0
 40
8.4878471246
 50
90.046825754449827
 51
113.8649264801743
  0
LINE
  5
B958
  8
0
  6
HIDDEN
 10
469.60000000014628
 20
787.76258918570761
 30
0.0
 11
469.60000000014628
 21
785.2625891857075
 31
0.0
  0
LINE
  5
B959
  8
0
  6
HIDDEN
 10
451.19999999977381
 20
785.2625891857075
 30
0.0
 11
451.19999999977381
 21
787.76258918570761
 31
0.0
  0
ARC
  5
B95A
  8
0
  6
HIDDEN
 10
460.39999999996002
 20
792.7868934562191
 30
0.0
 40
15.5243042705
 50
252.4120462168799
 51
287.5879537831201
  0
LINE
  5
B95B
  8
0
  6
HIDDEN
 10
455.70902906270419
 20
777.988284915196
 30
0.0
 11
455.70902906270419
 21
785.2625891857075
 31
0.0
  0
LINE
  5
B95C
  8
0
  6
HIDDEN
 10
465.09097093721579
 20
785.2625891857075
 30
0.0
 11
465.09097093721579
 21
777.988284915196
 31
0.0
  0
LINE
  5
B95D
  8
0
  6
HIDDEN
 10
465.39999999996007
 20
772.51258918570761
 30
0.0
 11
455.39999999996002
 21
772.51258918570761
 31
0.0
  0
LINE
  5
B95E
  8
0
  6
HIDDEN
 10
458.14999999996002
 20
785.2625891857075
 30
0.0
 11
460.64999999996002
 21
787.76258918570761
 31
0.0
  0
LINE
  5
B95F
  8
0
  6
HIDDEN
 10
460.14999999996002
 20
785.2625891857075
 30
0.0
 11
462.64999999996007
 21
787.76258918570761
 31
0.0
  0
ARC
  5
B960
  8
0
  6
HIDDEN
 10
452.27500015642221
 20
785.75043631039966
 30
0.0
 40
8.4878471246
 50
270.0468257544498
 51
293.86492648017429
  0
ARC
  5
B961
  8
0
  6
HIDDEN
 10
468.52499984349782
 20
785.75043631039966
 30
0.0
 40
8.4878471246
 50
246.13507351982571
 51
269.95317424555009
  0
LINE
  5
B962
  8
0
  6
HIDDEN
 10
449.89999999996002
 20
789.7625891857075
 30
0.0
 11
449.89999999996002
 21
787.76258918570761
 31
0.0
  0
LINE
  5
B963
  8
0
  6
HIDDEN
 10
449.89999999996002
 20
787.76258918570761
 30
0.0
 11
470.89999999996002
 21
787.76258918570761
 31
0.0
  0
LINE
  5
B964
  8
0
  6
HIDDEN
 10
470.89999999996002
 20
787.76258918570761
 30
0.0
 11
470.89999999996002
 21
789.7625891857075
 31
0.0
  0
LINE
  5
B965
  8
0
  6
HIDDEN
 10
470.89999999996002
 20
789.7625891857075
 30
0.0
 11
449.89999999996002
 21
789.7625891857075
 31
0.0
  0
LINE
  5
B966
  8
0
  6
HIDDEN
 10
465.39999999996007
 20
772.51258918570761
 30
0.0
 11
465.39999999996007
 21
777.2625891857075
 31
0.0
  0
LINE
  5
B967
  8
0
  6
HIDDEN
 10
465.39999999996007
 20
772.51258918570761
 30
0.0
 11
463.89999999996002
 21
771.0125891857075
 31
0.0
  0
LINE
  5
B968
  8
0
  6
HIDDEN
 10
463.89999999996002
 20
771.0125891857075
 30
0.0
 11
456.89999999996007
 21
771.0125891857075
 31
0.0
  0
LINE
  5
B969
  8
0
  6
HIDDEN
 10
456.89999999996007
 20
771.0125891857075
 30
0.0
 11
455.39999999996002
 21
772.51258918570761
 31
0.0
  0
LINE
  5
B96A
  8
0
  6
HIDDEN
 10
455.39999999996002
 20
772.51258918570761
 30
0.0
 11
455.39999999996002
 21
777.2625891857075
 31
0.0
  0
LINE
  5
B96B
  8
0
  6
HIDDEN
 10
451.85694187419222
 20
777.2625891857075
 30
0.0
 11
468.94305812572787
 21
777.2625891857075
 31
0.0
  0
LINE
  5
B96C
  8
0
  6
HIDDEN
 10
468.94305812572787
 20
777.2625891857075
 30
0.0
 11
470.19999999977369
 21
777.988284915196
 31
0.0
  0
LINE
  5
B96D
  8
0
  6
HIDDEN
 10
470.19999999977369
 20
777.988284915196
 30
0.0
 11
470.19999999977369
 21
785.2625891857075
 31
0.0
  0
LINE
  5
B96E
  8
0
  6
HIDDEN
 10
470.19999999977369
 20
785.2625891857075
 30
0.0
 11
450.60000000014628
 21
785.2625891857075
 31
0.0
  0
LINE
  5
B96F
  8
0
  6
HIDDEN
 10
450.60000000014628
 20
785.2625891857075
 30
0.0
 11
450.60000000014628
 21
777.988284915196
 31
0.0
  0
LINE
  5
B970
  8
0
  6
HIDDEN
 10
450.60000000014628
 20
777.988284915196
 30
0.0
 11
451.85694187419222
 21
777.2625891857075
 31
0.0
  0
LINE
  5
B971
  8
0
 10
449.89999999996002
 20
794.76258918570761
 30
0.0
 11
470.89999999996002
 21
794.76258918570761
 31
0.0
  0
LINE
  5
B972
  8
0
 10
470.89999999996002
 20
794.76258918570761
 30
0.0
 11
470.89999999996002
 21
792.76258918570761
 31
0.0
  0
LINE
  5
B973
  8
0
 10
470.89999999996002
 20
792.76258918570761
 30
0.0
 11
449.89999999996002
 21
792.76258918570761
 31
0.0
  0
LINE
  5
B974
  8
0
 10
449.89999999996002
 20
792.76258918570761
 30
0.0
 11
449.89999999996002
 21
794.76258918570761
 31
0.0
  0
LINE
  5
B975
  8
0
 10
450.60000000014628
 20
801.03689345621899
 30
0.0
 11
450.60000000014628
 21
794.76258918570761
 31
0.0
  0
LINE
  5
B976
  8
0
 10
450.60000000014628
 20
794.76258918570761
 30
0.0
 11
470.19999999977369
 21
794.76258918570761
 31
0.0
  0
LINE
  5
B977
  8
0
 10
470.19999999977369
 20
794.76258918570761
 30
0.0
 11
470.19999999977369
 21
801.03689345621899
 31
0.0
  0
LINE
  5
B978
  8
0
 10
470.19999999977369
 20
801.03689345621899
 30
0.0
 11
468.94305812572787
 21
801.7625891857075
 31
0.0
  0
LINE
  5
B979
  8
0
 10
468.94305812572787
 20
801.7625891857075
 30
0.0
 11
451.85694187419222
 21
801.7625891857075
 31
0.0
  0
LINE
  5
B97A
  8
0
 10
451.85694187419222
 20
801.7625891857075
 30
0.0
 11
450.60000000014628
 21
801.03689345621899
 31
0.0
  0
ARC
  5
B97B
  8
0
 10
601.49999999995987
 20
786.23828491519612
 30
0.0
 40
15.5243042705
 50
72.412046216907186
 51
107.5879537830928
  0
LINE
  5
B97C
  8
0
 10
596.80902906270421
 20
801.03689345621899
 30
0.0
 11
596.80902906270421
 21
794.76258918570761
 31
0.0
  0
LINE
  5
B97D
  8
0
 10
606.19097093721575
 20
794.76258918570761
 30
0.0
 11
606.19097093721575
 21
801.03689345621899
 31
0.0
  0
ARC
  5
B97E
  8
0
 10
609.62499984349768
 20
793.27474206101544
 30
0.0
 40
8.4878471246
 50
90.046825754449827
 51
113.8649264802021
  0
ARC
  5
B97F
  8
0
 10
593.37500015642206
 20
793.27474206101544
 30
0.0
 40
8.4878471246
 50
66.135073519797842
 51
89.953174245550159
  0
LINE
  5
B980
  8
0
  6
HIDDEN
 10
592.2999999997736
 20
787.76258918570761
 30
0.0
 11
592.2999999997736
 21
785.2625891857075
 31
0.0
  0
LINE
  5
B981
  8
0
  6
HIDDEN
 10
610.70000000014625
 20
785.2625891857075
 30
0.0
 11
610.70000000014625
 21
787.76258918570761
 31
0.0
  0
ARC
  5
B982
  8
0
  6
HIDDEN
 10
601.49999999995987
 20
792.7868934562191
 30
0.0
 40
15.5243042705
 50
252.41204621690721
 51
287.58795378309281
  0
LINE
  5
B983
  8
0
  6
HIDDEN
 10
606.19097093721575
 20
777.988284915196
 30
0.0
 11
606.19097093721575
 21
785.2625891857075
 31
0.0
  0
LINE
  5
B984
  8
0
  6
HIDDEN
 10
596.80902906270421
 20
785.2625891857075
 30
0.0
 11
596.80902906270421
 21
777.988284915196
 31
0.0
  0
LINE
  5
B985
  8
0
  6
HIDDEN
 10
596.49999999995998
 20
772.51258918570761
 30
0.0
 11
606.49999999995987
 21
772.51258918570761
 31
0.0
  0
ARC
  5
B986
  8
0
  6
HIDDEN
 10
609.62499984349768
 20
785.75043631039966
 30
0.0
 40
8.4878471246
 50
246.1350735197978
 51
269.95317424555009
  0
ARC
  5
B987
  8
0
  6
HIDDEN
 10
593.37500015642206
 20
785.75043631039966
 30
0.0
 40
8.4878471246
 50
270.0468257544498
 51
293.86492648020209
  0
LINE
  5
B988
  8
0
  6
HIDDEN
 10
611.99999999995987
 20
789.7625891857075
 30
0.0
 11
611.99999999995987
 21
787.76258918570761
 31
0.0
  0
LINE
  5
B989
  8
0
  6
HIDDEN
 10
611.99999999995987
 20
787.76258918570761
 30
0.0
 11
590.99999999995987
 21
787.76258918570761
 31
0.0
  0
LINE
  5
B98A
  8
0
  6
HIDDEN
 10
590.99999999995987
 20
787.76258918570761
 30
0.0
 11
590.99999999995987
 21
789.7625891857075
 31
0.0
  0
LINE
  5
B98B
  8
0
  6
HIDDEN
 10
590.99999999995987
 20
789.7625891857075
 30
0.0
 11
611.99999999995987
 21
789.7625891857075
 31
0.0
  0
LINE
  5
B98C
  8
0
  6
HIDDEN
 10
596.49999999995998
 20
772.51258918570761
 30
0.0
 11
596.49999999995998
 21
777.2625891857075
 31
0.0
  0
LINE
  5
B98D
  8
0
  6
HIDDEN
 10
596.49999999995998
 20
772.51258918570761
 30
0.0
 11
597.99999999995987
 21
771.0125891857075
 31
0.0
  0
LINE
  5
B98E
  8
0
  6
HIDDEN
 10
597.99999999995987
 20
771.0125891857075
 30
0.0
 11
604.99999999995998
 21
771.0125891857075
 31
0.0
  0
LINE
  5
B98F
  8
0
  6
HIDDEN
 10
604.99999999995998
 20
771.0125891857075
 30
0.0
 11
606.49999999995987
 21
772.51258918570761
 31
0.0
  0
LINE
  5
B990
  8
0
  6
HIDDEN
 10
606.49999999995987
 20
772.51258918570761
 30
0.0
 11
606.49999999995987
 21
777.2625891857075
 31
0.0
  0
LINE
  5
B991
  8
0
  6
HIDDEN
 10
610.04305812572784
 20
777.2625891857075
 30
0.0
 11
592.95694187419213
 21
777.2625891857075
 31
0.0
  0
LINE
  5
B992
  8
0
  6
HIDDEN
 10
592.95694187419213
 20
777.2625891857075
 30
0.0
 11
591.70000000014625
 21
777.988284915196
 31
0.0
  0
LINE
  5
B993
  8
0
  6
HIDDEN
 10
591.70000000014625
 20
777.988284915196
 30
0.0
 11
591.70000000014625
 21
785.2625891857075
 31
0.0
  0
LINE
  5
B994
  8
0
  6
HIDDEN
 10
591.70000000014625
 20
785.2625891857075
 30
0.0
 11
611.29999999977372
 21
785.2625891857075
 31
0.0
  0
LINE
  5
B995
  8
0
  6
HIDDEN
 10
611.29999999977372
 20
785.2625891857075
 30
0.0
 11
611.29999999977372
 21
777.988284915196
 31
0.0
  0
LINE
  5
B996
  8
0
  6
HIDDEN
 10
611.29999999977372
 20
777.988284915196
 30
0.0
 11
610.04305812572784
 21
777.2625891857075
 31
0.0
  0
LINE
  5
B997
  8
0
 10
611.99999999995987
 20
794.76258918570761
 30
0.0
 11
590.99999999995987
 21
794.76258918570761
 31
0.0
  0
LINE
  5
B998
  8
0
 10
590.99999999995987
 20
794.76258918570761
 30
0.0
 11
590.99999999995987
 21
792.76258918570761
 31
0.0
  0
LINE
  5
B999
  8
0
 10
590.99999999995987
 20
792.76258918570761
 30
0.0
 11
611.99999999995987
 21
792.76258918570761
 31
0.0
  0
LINE
  5
B99A
  8
0
 10
611.99999999995987
 20
792.76258918570761
 30
0.0
 11
611.99999999995987
 21
794.76258918570761
 31
0.0
  0
LINE
  5
B99B
  8
0
 10
611.29999999977372
 20
801.03689345621899
 30
0.0
 11
611.29999999977372
 21
794.76258918570761
 31
0.0
  0
LINE
  5
B99C
  8
0
 10
611.29999999977372
 20
794.76258918570761
 30
0.0
 11
591.70000000014625
 21
794.76258918570761
 31
0.0
  0
LINE
  5
B99D
  8
0
 10
591.70000000014625
 20
794.76258918570761
 30
0.0
 11
591.70000000014625
 21
801.03689345621899
 31
0.0
  0
LINE
  5
B99E
  8
0
 10
591.70000000014625
 20
801.03689345621899
 30
0.0
 11
592.95694187419213
 21
801.7625891857075
 31
0.0
  0
LINE
  5
B99F
  8
0
 10
592.95694187419213
 20
801.7625891857075
 30
0.0
 11
610.04305812572784
 21
801.7625891857075
 31
0.0
  0
LINE
  5
B9A0
  8
0
 10
610.04305812572784
 20
801.7625891857075
 30
0.0
 11
611.29999999977372
 21
801.03689345621899
 31
0.0
  0
LINE
  5
B9A1
  8
0
  6
HIDDEN
 10
599.12466443404799
 20
785.2625891857075
 30
0.0
 11
601.6246644340481
 21
787.76258918570761
 31
0.0
  0
LINE
  5
B9A2
  8
0
  6
HIDDEN
 10
601.1246644340481
 20
785.2625891857075
 30
0.0
 11
603.62466443404799
 21
787.76258918570761
 31
0.0
  0
LINE
  5
B9A3
  8
0
 10
551.59999999995989
 20
590.76258918573706
 30
0.0
 11
526.59999999995989
 21
590.76258918573706
 31
0.0
  0
LINE
  5
B9A4
  8
0
 10
526.59999999995989
 20
590.76258918573706
 30
0.0
 11
526.59999999995989
 21
565.76258918573706
 31
0.0
  0
LINE
  5
B9A5
  8
0
 10
526.59999999995989
 20
565.76258918573706
 30
0.0
 11
527.59999999995989
 21
565.76258918573706
 31
0.0
  0
LINE
  5
B9A6
  8
0
 10
529.59999999995978
 20
567.76258918573706
 30
0.0
 11
529.59999999995978
 21
583.76258918573717
 31
0.0
  0
LINE
  5
B9A7
  8
0
 10
533.59999999995978
 20
587.76258918573717
 30
0.0
 11
549.59999999995978
 21
587.76258918573717
 31
0.0
  0
LINE
  5
B9A8
  8
0
 10
551.59999999995989
 20
589.76258918573706
 30
0.0
 11
551.59999999995989
 21
590.76258918573706
 31
0.0
  0
ARC
  5
B9A9
  8
0
 10
527.59999999995989
 20
567.76258918573706
 30
0.0
 40
2.0
 50
270.0
 51
0.0
  0
ARC
  5
B9AA
  8
0
 10
549.59999999995978
 20
589.76258918573706
 30
0.0
 40
2.0
 50
270.0
 51
0.0
  0
ARC
  5
B9AB
  8
0
 10
533.59999999995978
 20
583.76258918573717
 30
0.0
 40
4.0
 50
90.0
 51
180.0
  0
DIMENSION
  5
B9AC
  8
0
  2
*D16
 10
613.49999999995998
 20
827.7625891857075
 30
0.0
 11
510.94999999996003
 21
836.01258918570772
 31
0.0
 70
   128
 13
448.39999999996007
 23
792.76258918570761
 33
0.0
 14
613.49999999995998
 24
792.76258918570761
 34
0.0
1001
ACAD
1000
DSTYLE
1002
{
1070
   271
1070
     0
1070
   178
1070
   256
1002
}
  0
LINE
  5
B9AD
  8
0
  6
CENTER2
 10
460.39999999996002
 20
761.01258918570761
 30
0.0
 11
460.39999999996002
 21
1096.7625891857081
 31
0.0
  0
LINE
  5
B9AE
  8
0
 10
465.3999999999059
 20
801.7625891857075
 30
0.0
 11
465.3999999999059
 21
1096.7625891857081
 31
0.0
  0
LINE
  5
B9AF
  8
0
 10
455.3999999999055
 20
801.7625891857075
 30
0.0
 11
455.3999999999055
 21
1096.7625891857081
 31
0.0
  0
LINE
  5
B9B0
  8
0
  6
CENTER2
 10
601.49999999995987
 20
761.01258918570761
 30
0.0
 11
601.49999999995987
 21
1096.7625891857081
 31
0.0
  0
LINE
  5
B9B1
  8
0
 10
596.49999999999898
 20
801.7625891857075
 30
0.0
 11
596.49999999999898
 21
1096.7625891857081
 31
0.0
  0
LINE
  5
B9B2
  8
0
 10
606.49999999999898
 20
801.7625891857075
 30
0.0
 11
606.49999999999898
 21
1096.7625891857081
 31
0.0
  0
TEXT
  5
B9B3
  8
0
 10
390.50999999990609
 20
1085.7433512992411
 30
0.0
 40
10.5
  1
吊ボルト
 41
0.8
  7
横文字
 72
     1
 11
408.9899999999061
 21
1085.7433512992411
 31
0.0
  0
TEXT
  5
B9B4
  8
0
 10
379.66999999990611
 20
1067.7433512992411
 30
0.0
 40
10.5
  1
（W 3／8）
 41
0.8
  7
横文字
 72
     1
 11
408.9899999999061
 21
1067.7433512992411
 31
0.0
  0
INSERT
  5
B9B5
  8
0
  2
*U29
 10
0.0
 20
0.0
 30
0.0
1001
ACAD
1000
DSTYLE
1002
{
1070
    41
1040
2.0
1002
}
  0
LINE
  5
B9B6
  8
0
  6
CENTER2
 10
566.00233180891473
 20
711.76258918572626
 30
0.0
 11
496.00233180891468
 21
711.76258918572626
 31
0.0
  0
LINE
  5
B9B7
  8
0
  6
CENTER2
 10
531.00000000000409
 20
676.76258926340256
 30
0.0
 11
531.000000000005
 21
746.76258910804995
 31
0.0
  0
CIRCLE
  5
B9B8
  8
0
 10
531.000000000005
 20
711.76258918572626
 30
0.0
 40
16.0
  0
CIRCLE
  5
B9B9
  8
0
  6
PHANTOM2
 10
531.000000000005
 20
711.76258918572626
 30
0.0
 40
19.899999999999999
  0
CIRCLE
  5
B9BA
  8
0
 10
531.000000000005
 20
711.76258918572626
 30
0.0
 40
24.0
  0
LINE
  5
B9BB
  8
0
 10
446.49999999996948
 20
776.76258918572626
 30
0.0
 11
448.39999999996007
 21
776.76258918572603
 31
0.0
  0
LINE
  5
B9BC
  8
0
 10
613.49999999995998
 20
776.76258918572648
 30
0.0
 11
660.49999999996953
 21
776.76258918572626
 31
0.0
  0
LINE
  5
B9BD
  8
0
 10
660.49999999996953
 20
776.76258918572626
 30
0.0
 11
660.49999999996953
 21
783.26258918572637
 31
0.0
  0
LINE
  5
B9BE
  8
0
 10
660.49999999996953
 20
806.26258918572637
 30
0.0
 11
660.49999999996953
 21
811.26258727837774
 31
0.0
  0
LINE
  5
B9BF
  8
0
 10
660.49999999996953
 20
975.26258918572614
 30
0.0
 11
660.49999999996953
 21
980.76258918572626
 31
0.0
  0
LINE
  5
B9C0
  8
0
 10
660.49999999996953
 20
980.76258918572626
 30
0.0
 11
606.49999999999898
 21
980.76258918572626
 31
0.0
  0
LINE
  5
B9C1
  8
0
 10
596.49999999999898
 20
980.76258918572626
 30
0.0
 11
465.3999999999059
 21
980.76258918572648
 31
0.0
  0
LINE
  5
B9C2
  8
0
 10
455.3999999999055
 20
980.76258918572648
 30
0.0
 11
446.49999999996948
 21
980.76258918572626
 31
0.0
  0
LINE
  5
B9C3
  8
0
 10
446.49999999996948
 20
980.76258918572626
 30
0.0
 11
446.49999999996948
 21
776.76258918572626
 31
0.0
  0
LINE
  5
B9C4
  8
0
 10
659.49999999996953
 20
776.76258918572626
 30
0.0
 11
659.49999999996953
 21
783.26258918572626
 31
0.0
  0
LINE
  5
B9C5
  8
0
 10
659.49999999996953
 20
806.26258918572637
 30
0.0
 11
659.49999999996953
 21
811.26258727837785
 31
0.0
  0
LINE
  5
B9C6
  8
0
 10
659.49999999996953
 20
975.26258918572648
 30
0.0
 11
659.49999999996953
 21
979.76258918572626
 31
0.0
  0
LINE
  5
B9C7
  8
0
 10
659.49999999996953
 20
979.76258918572626
 30
0.0
 11
606.49999999999898
 21
979.76258918572626
 31
0.0
  0
LINE
  5
B9C8
  8
0
 10
596.49999999999898
 20
979.76258918572626
 30
0.0
 11
465.3999999999059
 21
979.76258918572626
 31
0.0
  0
LINE
  5
B9C9
  8
0
 10
455.3999999999055
 20
979.76258918572626
 30
0.0
 11
447.49999999996942
 21
979.76258918572626
 31
0.0
  0
LINE
  5
B9CA
  8
0
 10
447.49999999996942
 20
979.76258918572626
 30
0.0
 11
447.49999999996942
 21
776.76258918572626
 31
0.0
  0
LINE
  5
B9CB
  8
0
 10
658.49999999996953
 20
776.76258918572626
 30
0.0
 11
658.49999999996953
 21
783.26258918572637
 31
0.0
  0
LINE
  5
B9CC
  8
0
 10
658.49999999996953
 20
806.26258918572637
 30
0.0
 11
658.49999999996953
 21
811.26258727837774
 31
0.0
  0
LINE
  5
B9CD
  8
0
 10
658.49999999996953
 20
975.26258918572614
 30
0.0
 11
658.49999999996953
 21
978.76258918572626
 31
0.0
  0
LINE
  5
B9CE
  8
0
 10
658.49999999996953
 20
978.76258918572626
 30
0.0
 11
606.49999999999898
 21
978.76258918572603
 31
0.0
  0
LINE
  5
B9CF
  8
0
 10
596.49999999999898
 20
978.76258918572603
 30
0.0
 11
465.3999999999059
 21
978.76258918572603
 31
0.0
  0
LINE
  5
B9D0
  8
0
 10
455.3999999999055
 20
978.76258918572603
 30
0.0
 11
448.49999999996948
 21
978.76258918572626
 31
0.0
  0
LINE
  5
B9D1
  8
0
 10
448.49999999996948
 20
978.76258918572626
 30
0.0
 11
448.49999999996948
 21
792.76258918570738
 31
0.0
  0
LINE
  5
B9D2
  8
0
 10
613.49999999995998
 20
779.96258918572596
 30
0.0
 11
658.49999999996953
 21
779.96258918572596
 31
0.0
  0
LINE
  5
B9D3
  8
0
 10
448.49999999996948
 20
806.76258918572626
 30
0.0
 11
455.3999999999055
 21
806.76258918572591
 31
0.0
  0
LINE
  5
B9D4
  8
0
 10
465.3999999999059
 20
806.76258918572591
 30
0.0
 11
596.49999999999898
 21
806.76258918572626
 31
0.0
  0
LINE
  5
B9D5
  8
0
 10
606.49999999999898
 20
806.76258918572626
 30
0.0
 11
658.49999999996953
 21
806.76258918572626
 31
0.0
  0
LINE
  5
B9D6
  8
0
 10
475.00000337680638
 20
960.00980449307485
 30
0.0
 11
468.49999966405949
 21
956.25702549307493
 31
0.0
  0
LINE
  5
B9D7
  8
0
 10
475.00000047680658
 20
967.51536819307489
 30
0.0
 11
475.00000047680658
 21
960.00980639307465
 31
0.0
  0
LINE
  5
B9D8
  8
0
 10
468.50000150935648
 20
971.26814539307475
 30
0.0
 11
475.0000012768063
 21
967.51536819307489
 31
0.0
  0
LINE
  5
B9D9
  8
0
 10
465.3999999999059
 20
969.47836010202877
 30
0.0
 11
468.5000012195573
 21
971.26814649307494
 31
0.0
  0
LINE
  5
B9DA
  8
0
 10
468.49999954718118
 20
956.25702939307496
 30
0.0
 11
465.3999999999059
 21
958.04681803533299
 31
0.0
  0
ARC
  5
B9DB
  8
0
 10
468.49999999996948
 20
963.76258918572626
 30
0.0
 40
6.5000018999999991
 50
241.51537369178249
 51
118.4846263082175
  0
LINE
  5
B9DC
  8
0
 10
645.00000337680638
 20
960.00980449307485
 30
0.0
 11
638.49999966405937
 21
956.25702549307493
 31
0.0
  0
LINE
  5
B9DD
  8
0
 10
645.00000047680669
 20
967.51536819307489
 30
0.0
 11
645.00000047680669
 21
960.00980639307465
 31
0.0
  0
LINE
  5
B9DE
  8
0
 10
638.50000150935648
 20
971.26814539307475
 30
0.0
 11
645.00000127680642
 21
967.51536819307489
 31
0.0
  0
LINE
  5
B9DF
  8
0
 10
632.00000007680637
 20
967.51536939307493
 30
0.0
 11
638.50000121955736
 21
971.26814649307494
 31
0.0
  0
LINE
  5
B9E0
  8
0
 10
631.99999757680644
 20
960.00981209307497
 30
0.0
 11
631.99999757680644
 21
967.51537009307526
 31
0.0
  0
LINE
  5
B9E1
  8
0
 10
638.49999954718123
 20
956.25702939307496
 30
0.0
 11
631.99999657680655
 21
960.0098142930749
 31
0.0
  0
CIRCLE
  5
B9E2
  8
0
 10
638.49999999996953
 20
963.76258918572626
 30
0.0
 40
6.5000018999999991
  0
LINE
  5
B9E3
  8
0
 10
475.00000047680658
 20
795.51536819307489
 30
0.0
 11
475.00000047680658
 21
792.76258918570738
 31
0.0
  0
LINE
  5
B9E4
  8
0
 10
470.19999999977369
 20
798.28665065413327
 30
0.0
 11
475.0000012768063
 21
795.51536819307489
 31
0.0
  0
ARC
  5
B9E5
  8
0
 10
468.49999999996948
 20
791.76258918572626
 30
0.0
 40
6.5000018999999991
 50
8.8498804905979576
 51
74.838635933369474
  0
LINE
  5
B9E6
  8
0
 10
645.00000337680638
 20
788.00980449307485
 30
0.0
 11
638.49999966405937
 21
784.25702549307493
 31
0.0
  0
LINE
  5
B9E7
  8
0
 10
645.00000047680669
 20
795.51536819307489
 30
0.0
 11
645.00000047680669
 21
788.00980639307477
 31
0.0
  0
LINE
  5
B9E8
  8
0
 10
638.50000150935648
 20
799.26814539307475
 30
0.0
 11
645.00000127680642
 21
795.51536819307489
 31
0.0
  0
LINE
  5
B9E9
  8
0
 10
632.00000007680637
 20
795.51536939307493
 30
0.0
 11
638.50000121955736
 21
799.26814649307494
 31
0.0
  0
LINE
  5
B9EA
  8
0
 10
631.99999757680644
 20
788.00981209307497
 30
0.0
 11
631.99999757680644
 21
795.51537009307515
 31
0.0
  0
LINE
  5
B9EB
  8
0
 10
638.49999954718123
 20
784.25702939307507
 30
0.0
 11
631.99999657680655
 21
788.0098142930749
 31
0.0
  0
CIRCLE
  5
B9EC
  8
0
 10
638.49999999996953
 20
791.76258918572626
 30
0.0
 40
6.5000018999999991
  0
ARC
  5
B9ED
  8
0
  6
PHANTOM2
 10
606.39999999996962
 20
897.66258918572635
 30
0.0
 40
55.0
 50
283.6720181043691
 51
256.32798189560413
  0
CIRCLE
  5
B9EE
  8
0
  6
PHANTOM2
 10
606.39999999996962
 20
897.66258918572635
 30
0.0
 40
51.560000000000002
  0
LINE
  5
B9EF
  8
0
  6
PHANTOM2
 10
593.39999999996962
 20
847.76836507110568
 30
0.0
 11
593.39999999996905
 21
836.66258918572635
 31
0.0
  0
LINE
  5
B9F0
  8
0
  6
PHANTOM2
 10
593.39999999996962
 20
836.66258918572635
 30
0.0
 11
619.39999999996962
 21
836.66258918572635
 31
0.0
  0
LINE
  5
B9F1
  8
0
  6
PHANTOM2
 10
619.39999999996962
 20
836.66258918572635
 30
0.0
 11
619.39999999996962
 21
847.76836507110568
 31
0.0
  0
CIRCLE
  5
B9F2
  8
0
 10
480.09999999996938
 20
866.96258918572607
 30
0.0
 40
5.0
  0
CIRCLE
  5
B9F3
  8
0
 10
480.09999999996938
 20
866.96258918572607
 30
0.0
 40
13.0
  0
CIRCLE
  5
B9F4
  8
0
 10
480.09999999996938
 20
866.96258918572607
 30
0.0
 40
8.0
  0
ARC
  5
B9F5
  8
0
 10
480.09999999996938
 20
866.96258918572607
 30
0.0
 40
15.0
 50
191.47834095331481
 51
168.52165904668519
  0
LINE
  5
B9F6
  8
0
 10
557.49993999996957
 20
853.56259918572619
 30
0.0
 11
553.49993999996968
 21
853.56259918572619
 31
0.0
  0
LINE
  5
B9F7
  8
0
 10
557.49993999996957
 20
849.26258918572626
 30
0.0
 11
553.49993999996968
 21
849.26258918572626
 31
0.0
  0
LINE
  5
B9F8
  8
0
 10
557.49993999996957
 20
853.26258918572626
 30
0.0
 11
553.49993999996968
 21
853.26258918572626
 31
0.0
  0
CIRCLE
  5
B9F9
  8
0
 10
555.49999999996953
 20
846.76258918572626
 30
0.0
 40
17.5
  0
CIRCLE
  5
B9FA
  8
0
  6
PHANTOM2
 10
555.49999999996953
 20
846.76258918572626
 30
0.0
 40
15.41
  0
ARC
  5
B9FB
  8
0
 10
555.49999999996953
 20
846.76258918572626
 30
0.0
 40
5.0
 50
113.57896193744401
 51
66.422535133027921
  0
LINE
  5
B9FC
  8
0
 10
553.49999999996953
 20
853.56259918572619
 30
0.0
 11
553.49999999996953
 21
852.657504400466
 31
0.0
  0
LINE
  5
B9FD
  8
0
 10
553.49999999996953
 20
851.34513759999857
 30
0.0
 11
553.49999999996953
 21
849.26258918572626
 31
0.0
  0
LINE
  5
B9FE
  8
0
 10
557.49999999996953
 20
853.56259918572619
 30
0.0
 11
557.49999999996953
 21
852.657504400466
 31
0.0
  0
LINE
  5
B9FF
  8
0
 10
557.49999999996953
 20
851.34518975050855
 30
0.0
 11
557.49999999996953
 21
849.26258918572626
 31
0.0
  0
LINE
  5
BA00
  8
0
 10
554.17499999996926
 20
839.11258918572651
 30
0.0
 11
554.99999999996953
 21
839.11258918572651
 31
0.0
  0
LINE
  5
BA01
  8
0
 10
555.99999999996953
 20
839.11258918572651
 30
0.0
 11
556.82499999996935
 21
839.11258918572651
 31
0.0
  0
CIRCLE
  5
BA02
  8
0
 10
556.91249999996944
 20
840.62606912308388
 30
0.0
 40
0.6
  0
LINE
  5
BA03
  8
0
 10
557.82499999996935
 20
840.11258918572651
 30
0.0
 11
557.82499999996969
 21
841.25948604006248
 31
0.0
  0
ARC
  5
BA04
  8
0
 10
556.82499999996969
 20
840.11258918572651
 30
0.0
 40
1.0
 50
269.99999846475509
 51
0.0
  0
LINE
  5
BA05
  8
0
 10
553.17499999996915
 20
840.11258918572651
 30
0.0
 11
553.17499999996915
 21
841.25948604006248
 31
0.0
  0
CIRCLE
  5
BA06
  8
0
 10
554.08749999996962
 20
840.62606912308388
 30
0.0
 40
0.6
  0
ARC
  5
BA07
  8
0
 10
554.17499999996926
 20
840.11258918572651
 30
0.0
 40
1.0
 50
180.00000307046369
 51
269.99999846475509
  0
LINE
  5
BA08
  8
0
 10
555.99999999996953
 20
839.11258918572651
 30
0.0
 11
555.99999999996953
 21
841.78765200019302
 31
0.0
  0
LINE
  5
BA09
  8
0
 10
554.99999999996953
 20
839.11258918572651
 30
0.0
 11
554.99999999996953
 21
841.78765200019302
 31
0.0
  0
ARC
  5
BA0A
  8
0
 10
558.8249999999698
 20
841.25948604006248
 30
0.0
 40
1.0
 50
119.2257946599124
 51
180.00000307046369
  0
ARC
  5
BA0B
  8
0
 10
552.17499999996915
 20
841.25948604006248
 30
0.0
 40
1.0
 50
0.0
 51
60.774208410533937
  0
ARC
  5
BA0C
  8
0
 10
555.49999999996953
 20
847.20258918572631
 30
0.0
 40
5.8099999999999987
 50
299.22579158946598
 51
240.7742053400876
  0
ARC
  5
BA0D
  8
0
 10
555.49999999996953
 20
846.76258918572626
 30
0.0
 40
4.7999999999999821
 50
65.375682763011412
 51
114.62432030744949
  0
CIRCLE
  5
BA0E
  8
0
 10
555.49999999996953
 20
846.76258918572626
 30
0.0
 40
17.0
  0
LINE
  5
BA0F
  8
0
  6
CENTER2
 10
580.49993999996957
 20
846.76258918572626
 30
0.0
 11
530.49993999996957
 21
846.76258918572626
 31
0.0
  0
LINE
  5
BA10
  8
0
  6
CENTER2
 10
555.49999999996953
 20
871.76258918565441
 30
0.0
 11
555.49999999996999
 21
821.76258918579811
 31
0.0
  0
ARC
  5
BA11
  8
0
 10
606.39999999996962
 20
897.66258918572635
 30
0.0
 40
9.0
 50
270.51010239763337
 51
89.489897602366625
  0
CIRCLE
  5
BA12
  8
0
  6
PHANTOM2
 10
606.39999999996962
 20
897.66258918572635
 30
0.0
 40
26.535
  0
LINE
  5
BA13
  8
0
 10
608.39999999996962
 20
904.1625891857268
 30
0.0
 11
606.49999999999898
 21
904.16258918572703
 31
0.0
  0
LINE
  5
BA14
  8
0
 10
608.39999999996962
 20
904.46258918572653
 30
0.0
 11
608.39999999996962
 21
903.55750440046108
 31
0.0
  0
LINE
  5
BA15
  8
0
 10
608.39999999996962
 20
900.16258918572635
 30
0.0
 11
606.49999999999898
 21
900.16258918572726
 31
0.0
  0
LINE
  5
BA16
  8
0
 10
608.39999999996962
 20
904.46258918572653
 30
0.0
 11
606.49999999999898
 21
904.46258918572607
 31
0.0
  0
CIRCLE
  5
BA17
  8
0
  6
PHANTOM2
 10
606.39996404839519
 20
897.66258918572635
 30
0.0
 40
25.329999999999998
  0
ARC
  5
BA18
  8
0
 10
606.39999999996962
 20
897.66258918572635
 30
0.0
 40
4.6711621157122689
 50
64.64922018738956
 51
88.773321168071718
  0
LINE
  5
BA19
  8
0
 10
608.39999999996962
 20
902.24516488068252
 30
0.0
 11
608.39999999996962
 21
900.16258918572635
 31
0.0
  0
LINE
  5
BA1A
  8
0
 10
606.8999999999678
 20
890.01258918572387
 30
0.0
 11
607.72499999996853
 21
890.01258918572387
 31
0.0
  0
CIRCLE
  5
BA1B
  8
0
 10
607.81249999996817
 20
891.52606912308124
 30
0.0
 40
0.6
  0
LINE
  5
BA1C
  8
0
 10
608.72499999996853
 20
891.01258918572387
 30
0.0
 11
608.72499999996853
 21
892.15948604005985
 31
0.0
  0
ARC
  5
BA1D
  8
0
 10
607.72499999996853
 20
891.01258918572387
 30
0.0
 40
1.0
 50
270.0
 51
359.99999692952332
  0
LINE
  5
BA1E
  8
0
 10
606.8999999999678
 20
890.01258918572387
 30
0.0
 11
606.8999999999678
 21
892.68765200019084
 31
0.0
  0
ARC
  5
BA1F
  8
0
 10
609.72499999996853
 20
892.15948604005985
 30
0.0
 40
1.0
 50
119.2257936232641
 51
179.99999692952321
  0
ARC
  5
BA20
  8
0
 10
606.39999999996962
 20
897.66258918572635
 30
0.0
 40
29.500000000000028
 50
109.6086153961606
 51
250.39138460383941
  0
ARC
  5
BA21
  8
0
 10
606.39999999996962
 20
897.66258918572635
 30
0.0
 40
29.500000000000028
 50
270.19422335343472
 51
89.805776646565263
  0
ARC
  5
BA22
  8
0
 10
606.39999999996962
 20
897.66258918572635
 30
0.0
 40
9.0000000000000551
 50
270.63663287244083
 51
89.363367127533181
  0
ARC
  5
BA23
  8
0
 10
606.3999999999678
 20
898.10258918572413
 30
0.0
 40
5.809999999999742
 50
299.22579262614568
 51
89.013793307769518
  0
ARC
  5
BA24
  8
0
 10
606.39999999996962
 20
897.66258918572635
 30
0.0
 40
5.0000000000004343
 50
271.14599199872629
 51
66.421821521820931
  0
CIRCLE
  5
BA25
  8
0
  6
PHANTOM2
 10
747.6399999999685
 20
933.76258918572626
 30
0.0
 40
36.57
  0
LINE
  5
BA26
  8
0
 10
694.6399999999685
 20
925.51258918572626
 30
0.0
 11
694.6399999999685
 21
920.2625851857257
 31
0.0
  0
LINE
  5
BA27
  8
0
 10
798.6399999999685
 20
912.2625851857257
 30
0.0
 11
800.63999999996838
 21
912.2625851857257
 31
0.0
  0
LINE
  5
BA28
  8
0
 10
694.6399999999685
 20
912.2625851857257
 30
0.0
 11
696.63999999996838
 21
912.2625851857257
 31
0.0
  0
ARC
  5
BA2B
  8
0
 10
695.1399999999685
 20
957.7625851857257
 30
0.0
 40
1.0
 50
89.999996929510203
 51
179.99999692951019
  0
ARC
  5
BA2C
  8
0
 10
800.1399999999685
 20
957.7625851857257
 30
0.0
 40
1.0
 50
0.0000030704637251
 51
89.999996929510203
  0
LINE
  5
BA2D
  8
0
 10
800.63999999996838
 20
945.45980918572616
 30
0.0
 11
800.63999999996838
 21
920.2625851857257
 31
0.0
  0
ARC
  5
BA2E
  8
0
 10
800.63999999996838
 20
914.26258518572592
 30
0.0
 40
2.0
 50
270.00000307046372
 51
0.0000030704637251
  0
LINE
  5
BA2F
  8
0
 10
802.63999999996838
 20
918.26258518572581
 30
0.0
 11
802.63999999996838
 21
914.26258518572592
 31
0.0
  0
ARC
  5
BA30
  8
0
 10
800.63999999996838
 20
918.26258518572581
 30
0.0
 40
2.0
 50
0.0000030704637251
 51
89.999996929510203
  0
ARC
  5
BA31
  8
0
 10
694.6399999999685
 20
918.26258518572581
 30
0.0
 40
2.0
 50
89.999996929510203
 51
179.99999692951019
  0
ARC
  5
BA32
  8
0
 10
694.6399999999685
 20
914.26258518572592
 30
0.0
 40
2.0
 50
179.99999692951019
 51
270.00000307046372
  0
LINE
  5
BA33
  8
0
 10
692.63999999996838
 20
918.26258518572581
 30
0.0
 11
692.63999999996838
 21
914.26258518572592
 31
0.0
  0
ARC
  5
BA34
  8
0
 10
801.63999999996838
 20
945.45980918572616
 30
0.0
 40
1.0
 50
148.99728195509209
 51
179.99999692951019
  0
ARC
  5
BA35
  8
0
 10
798.6399999999685
 20
947.2625851857257
 30
0.0
 40
2.5
 50
328.99728809598417
 51
0.0000030704637251
  0
LINE
  5
BA36
  8
0
 10
801.1399999999685
 20
947.2625851857257
 30
0.0
 11
801.1399999999685
 21
957.7625851857257
 31
0.0
  0
LINE
  5
BA37
  8
0
 10
694.1399999999685
 20
947.01258918572569
 30
0.0
 11
694.1399999999685
 21
957.7625851857257
 31
0.0
  0
LINE
  5
BA38
  8
0
 10
695.1399999999685
 20
958.7625851857257
 30
0.0
 11
696.63999999996838
 21
958.7625851857257
 31
0.0
  0
LINE
  5
BA3B
  8
0
 10
778.8649899919601
 20
958.76258918572626
 30
0.0
 11
800.14000002676403
 21
958.76258918572626
 31
0.0
  0
LINE
  5
BA3C
  8
0
 10
696.63999999996838
 20
958.76258918572626
 30
0.0
 11
716.41501000797678
 21
958.76258918572626
 31
0.0
  0
LINE
  5
BA3D
  8
0
  6
CENTER2
 10
747.6399999999685
 20
978.76258918572626
 30
0.0
 11
747.6399999999685
 21
888.76258918572626
 31
0.0
  0
LINE
  5
BA3E
  8
0
  6
CENTER2
 10
702.6399999999685
 20
933.76258918572626
 30
0.0
 11
792.63999999996838
 21
933.76258918572626
 31
0.0
  0
LINE
  5
BA3F
  8
0
 10
710.1399999999685
 20
899.76258918572626
 30
0.0
 11
697.6399999999685
 21
899.76258918572626
 31
0.0
  0
LINE
  5
BA40
  8
0
 10
797.6399999999685
 20
899.76258918572626
 30
0.0
 11
785.1399999999685
 21
899.76258918572626
 31
0.0
  0
LINE
  5
BA41
  8
0
 10
710.1399999999685
 20
898.76258918572626
 30
0.0
 11
710.1399999999685
 21
899.76258918572626
 31
0.0
  0
LINE
  5
BA42
  8
0
 10
785.1399999999685
 20
898.76258918572626
 30
0.0
 11
785.1399999999685
 21
899.76258918572626
 31
0.0
  0
ARC
  5
BA43
  8
0
 10
747.6399999999685
 20
933.76258918572626
 30
0.0
 40
40.000000000000007
 50
38.682187453489597
 51
141.31781254651059
  0
ARC
  5
BA57
  8
0
 10
797.6399999999685
 20
900.76258918572626
 30
0.0
 40
1.0
 50
270.00000153524491
 51
0.0
  0
ARC
  5
BA58
  8
0
 10
697.6399999999685
 20
900.76258918572626
 30
0.0
 40
1.0
 50
179.99999692951019
 51
270.00000153524491
  0
LINE
  5
BA71
  8
0
 10
798.6399999999685
 20
912.2625851857257
 30
0.0
 11
798.6399999999685
 21
900.76258918572626
 31
0.0
  0
LINE
  5
BA98
  8
0
 10
692.63999999996838
 20
925.51258918572626
 30
0.0
 11
694.6399999999685
 21
925.51258918572626
 31
0.0
  0
ARC
  5
BA99
  8
0
 10
692.63999999996838
 20
930.01258918572626
 30
0.0
 40
4.5
 50
180.0
 51
270.0
  0
LINE
  5
BAA0
  8
0
 10
688.13999999996838
 20
942.51258918572626
 30
0.0
 11
688.13999999996838
 21
930.01258918572626
 31
0.0
  0
ARC
  5
BAA1
  8
0
 10
692.63999999996838
 20
942.51258918572626
 30
0.0
 40
4.5
 50
90.0
 51
180.0
  0
LINE
  5
BAA4
  8
0
 10
692.63999999996838
 20
947.01258918572626
 30
0.0
 11
694.1399999999685
 21
947.01258918572614
 31
0.0
  0
ARC
  5
BAA5
  8
0
 10
774.74998999996842
 20
837.76258518571763
 30
0.0
 40
2.0999985000005741
 50
272.19076091140067
 51
87.921193296274794
  0
ARC
  5
BAA6
  8
0
 10
769.45000999996034
 20
837.76258518572615
 30
0.0
 40
2.099998499991226
 50
92.224538654344215
 51
267.66328795429013
  0
CIRCLE
  5
BAA7
  8
0
  6
PHANTOM2
 10
736.09999999996944
 20
837.76258518572581
 30
0.0
 40
25.329999999999998
  0
CIRCLE
  5
BAA8
  8
0
 10
736.09999999996944
 20
837.76258518572581
 30
0.0
 40
4.0
  0
ARC
  5
BAA9
  8
0
 10
790.89998999996885
 20
890.56259918572607
 30
0.0
 40
6.1999997999999987
 50
0.0
 51
89.999983535206596
  0
ARC
  5
BAAA
  8
0
 10
790.89998999996885
 20
890.56259918572607
 30
0.0
 40
2.999999799999999
 50
0.0
 51
86.177254603699893
  0
CIRCLE
  5
BAAB
  8
0
 10
736.09999999996944
 20
837.76258518572581
 30
0.0
 40
11.0
  0
LINE
  5
BAAC
  8
0
 10
779.09999999996944
 20
842.7625851857257
 30
0.0
 11
779.09999999996944
 21
832.7625851857257
 31
0.0
  0
LINE
  5
BAAD
  8
0
 10
766.09999999996944
 20
855.93105018572646
 30
0.0
 11
766.09999999996944
 21
799.76258518572581
 31
0.0
  0
LINE
  5
BAAE
  8
0
 10
688.09999999996944
 20
877.76258918572626
 30
0.0
 11
764.09999999996944
 21
877.76258918572626
 31
0.0
  0
LINE
  5
BAAF
  8
0
 10
791.09999999996944
 20
898.76258918572626
 30
0.0
 11
791.09999999996944
 21
776.76258918572626
 31
0.0
  0
LINE
  5
BAB0
  8
0
 10
666.09999999996887
 20
898.76258918572626
 30
0.0
 11
728.27508326893064
 21
898.76258918572626
 31
0.0
  0
LINE
  5
BAB1
  8
0
 10
668.09999999996899
 20
896.76258918572626
 30
0.0
 11
732.44131584639763
 21
896.76258918572626
 31
0.0
  0
LINE
  5
BAB2
  8
0
 10
797.09999999996944
 20
890.56259918572607
 30
0.0
 11
797.09999999996944
 21
858.76259318572579
 31
0.0
  0
LINE
  5
BAB3
  8
0
 10
793.89999999996962
 20
890.56259918572607
 30
0.0
 11
793.89999999996962
 21
858.76259318572579
 31
0.0
  0
LINE
  5
BAB4
  8
0
 10
766.09999999996944
 20
875.76258918572626
 30
0.0
 11
766.09999999996944
 21
855.93105018572646
 31
0.0
  0
ARC
  5
BAB5
  8
0
 10
764.09999999996944
 20
875.76258918572626
 30
0.0
 40
2.0
 50
0.0
 51
90.0
  0
LINE
  5
BAB6
  8
0
 10
686.09999999996944
 20
875.76258918572626
 30
0.0
 11
686.09999999996944
 21
799.76258518572581
 31
0.0
  0
ARC
  5
BAB7
  8
0
 10
688.09999999996944
 20
799.76258518572581
 30
0.0
 40
2.0
 50
180.0
 51
270.0
  0
ARC
  5
BAB8
  8
0
 10
688.09999999996944
 20
875.76258918572626
 30
0.0
 40
2.0
 50
90.0
 51
180.0
  0
LINE
  5
BAB9
  8
0
 10
688.09999999996944
 20
797.76258518572581
 30
0.0
 11
764.09999999996944
 21
797.76258518572581
 31
0.0
  0
ARC
  5
BABA
  8
0
 10
764.09999999996944
 20
799.76258518572581
 30
0.0
 40
2.0
 50
270.0
 51
0.0
  0
LINE
  5
BABB
  8
0
 10
668.09999999996944
 20
898.76258918572626
 30
0.0
 11
668.09999999996944
 21
776.76258918572626
 31
0.0
  0
LINE
  5
BABC
  8
0
 10
668.09999999996944
 20
778.76258918572626
 30
0.0
 11
791.09999999996944
 21
778.76258918572626
 31
0.0
  0
LINE
  5
BABD
  8
0
 10
666.09999999996944
 20
776.76258918572626
 30
0.0
 11
791.09999999996944
 21
776.76258918572626
 31
0.0
  0
LINE
  5
BABE
  8
0
 10
666.09999999996944
 20
898.76258918572626
 30
0.0
 11
666.09999999996944
 21
776.76258918572626
 31
0.0
  0
LINE
  5
BABF
  8
0
 10
767.00491673100532
 20
898.76258918572626
 30
0.0
 11
791.09999999996944
 21
898.76258918572626
 31
0.0
  0
LINE
  5
BAC0
  8
0
 10
762.83868415353936
 20
896.76258918572626
 30
0.0
 11
790.89998999996885
 21
896.76258918572626
 31
0.0
  0
CIRCLE
  5
BAC1
  8
0
 10
772.09740846742795
 20
837.75999365318523
 30
0.0
 40
2.706134336630337
  0
CIRCLE
  5
BAC2
  8
0
 10
772.09740846742795
 20
837.75999365318523
 30
0.0
 40
3.444007851119828
  0
LINE
  5
BAC3
  8
0
 10
779.09999999996944
 20
842.7625851857257
 30
0.0
 11
766.09999999996944
 21
842.7625851857257
 31
0.0
  0
LINE
  5
BAC4
  8
0
 10
779.09999999996944
 20
832.7625851857257
 30
0.0
 11
766.09999999996944
 21
832.7625851857257
 31
0.0
  0
LINE
  5
BAC5
  8
0
  6
CENTER2
 10
706.09999999996944
 20
837.76258518572581
 30
0.0
 11
766.09999999996944
 21
837.76258518572581
 31
0.0
  0
LINE
  5
BAC6
  8
0
  6
CENTER2
 10
736.09999999996944
 20
867.7625851857257
 30
0.0
 11
736.09999999996944
 21
807.7625851857257
 31
0.0
  0
LINE
  5
BAC7
  8
0
 10
797.09999999996944
 20
858.76259318572579
 30
0.0
 11
793.89999999996962
 21
858.76259318572579
 31
0.0
  0
LINE
  5
BAC8
  8
0
 10
666.10000047684161
 20
811.26258727837774
 30
0.0
 11
666.10000047684161
 21
975.26258918572614
 31
0.0
  0
LINE
  5
BAC9
  8
0
 10
666.10000047684161
 20
975.26258918572614
 30
0.0
 11
626.10000047684161
 21
975.26258918572614
 31
0.0
  0
LINE
  5
BACA
  8
0
 10
626.10000047684161
 20
975.26258918572614
 30
0.0
 11
626.10000047684161
 21
968.01258918572626
 31
0.0
  0
LINE
  5
BACB
  8
0
 10
626.10000047684161
 20
968.01258918572626
 30
0.0
 11
632.86121009123269
 21
968.01258918572648
 31
0.0
  0
LINE
  5
BACC
  8
0
 10
632.86121424870362
 20
959.51258918572637
 30
0.0
 11
626.10000047684161
 21
959.51258918572626
 31
0.0
  0
LINE
  5
BACD
  8
0
 10
626.10000047684161
 20
959.51258918572626
 30
0.0
 11
626.10000047684161
 21
952.26258918572626
 31
0.0
  0
LINE
  5
BACE
  8
0
 10
626.10000047684161
 20
952.26258918572626
 30
0.0
 11
646.10000047684161
 21
952.26258918572626
 31
0.0
  0
LINE
  5
BACF
  8
0
 10
646.10000047684161
 20
952.26258918572626
 30
0.0
 11
646.10000047684161
 21
811.26258727837774
 31
0.0
  0
LINE
  5
BAD0
  8
0
 10
646.10000047684161
 20
811.26258727837774
 30
0.0
 11
666.10000047684161
 21
811.26258727837774
 31
0.0
  0
LINE
  5
BAD1
  8
0
 10
666.10000047684161
 20
806.26258918572626
 30
0.0
 11
626.10000047684161
 21
806.26258918572626
 31
0.0
  0
LINE
  5
BAD2
  8
0
 10
626.10000047684161
 20
806.26258918572626
 30
0.0
 11
626.10000047684161
 21
796.01258918572626
 31
0.0
  0
LINE
  5
BAD3
  8
0
 10
626.10000047684161
 20
796.01258918572626
 30
0.0
 11
632.86121009123269
 21
796.01258918572626
 31
0.0
  0
LINE
  5
BAD4
  8
0
 10
632.86121424870396
 20
787.51258918572626
 30
0.0
 11
626.10000047684161
 21
787.51258918572626
 31
0.0
  0
LINE
  5
BAD5
  8
0
 10
626.10000047684161
 20
787.51258918572626
 30
0.0
 11
626.10000047684161
 21
783.26258918572626
 31
0.0
  0
LINE
  5
BAD6
  8
0
 10
626.10000047684161
 20
783.26258918572626
 30
0.0
 11
666.10000047684161
 21
783.26258918572626
 31
0.0
  0
LINE
  5
BAD7
  8
0
 10
666.10000047684161
 20
783.26258918572626
 30
0.0
 11
666.10000047684161
 21
806.26258918572626
 31
0.0
  0
LINE
  5
BAD8
  8
0
  6
PHANTOM2
 10
570.74426016541247
 20
844.50856345200123
 30
0.0
 11
550.68596867569022
 21
708.85180968532882
 31
0.0
  0
LINE
  5
BAD9
  8
0
  6
PHANTOM2
 10
540.43583593417998
 20
850.00898118284681
 30
0.0
 11
511.54660188779093
 21
715.95487995423377
 31
0.0
  0
LINE
  5
BADA
  8
0
  6
PHANTOM2
 10
598.07497235822211
 20
922.85782960458596
 30
0.0
 11
736.16661538121161
 21
968.4861596442795
 31
0.0
  0
LINE
  5
BADB
  8
0
  6
PHANTOM2
 10
611.18566194904542
 20
871.5627105517334
 30
0.0
 11
754.23550244872285
 21
897.79226464662202
 31
0.0
  0
LINE
  5
BADC
  8
0
  6
PHANTOM2
 10
617.02032728221502
 20
920.65860590127352
 30
0.0
 11
746.72036323378961
 21
860.75860190127264
 31
0.0
  0
LINE
  5
BADD
  8
0
  6
PHANTOM2
 10
595.77960081457559
 20
874.66657247017895
 30
0.0
 11
725.47963676614927
 21
814.76656847017841
 31
0.0
  0
ARC
  5
CDED
  8
0
 10
747.6399999999685
 20
933.76258918572626
 30
0.0
 40
40.000000000000007
 50
241.04497562814021
 51
298.95502437185979
  0
LINE
  5
CDF0
  8
0
 10
696.63999999996838
 20
912.26258518572592
 30
0.0
 11
696.63999999996838
 21
900.76258918572626
 31
0.0
  0
ENDSEC
  0
EOF
