  0
SECTION
  2
HEADER
  9
$ACADVER
  1
AC1009
  9
$INSBASE
 10
0.0
 20
0.0
 30
0.0
  9
$EXTMIN
 10
0.0
 20
0.0
 30
0.0
  9
$EXTMAX
 10
1638.0
 20
1174.5
 30
0.0
  9
$LIMMIN
 10
0.0
 20
0.0
  9
$LIMMAX
 10
420.0
 20
297.0
  9
$ORTHOMODE
 70
     1
  9
$REGENMODE
 70
     1
  9
$FILLMODE
 70
     1
  9
$QTEXTMODE
 70
     0
  9
$MIRRTEXT
 70
     0
  9
$DRAGMODE
 70
     2
  9
$LTSCALE
 40
0.75
  9
$OSMODE
 70
  3071
  9
$ATTMODE
 70
     1
  9
$TEXTSIZE
 40
10.5
  9
$TRACEWID
 40
1.0
  9
$TEXTSTYLE
  7
横文字
  9
$CLAYER
  8
0
  9
$CELTYPE
  6
BYLAYER
  9
$CECOLOR
 62
   256
  9
$DIMSCALE
 40
3.0
  9
$DIMASZ
 40
1.0
  9
$DIMEXO
 40
5.0
  9
$DIMDLI
 40
7.5
  9
$DIMRND
 40
0.0
  9
$DIMDLE
 40
0.0
  9
$DIMEXE
 40
1.0
  9
$DIMTP
 40
0.0
  9
$DIMTM
 40
0.0
  9
$DIMTXT
 40
3.5
  9
$DIMCEN
 40
1.0
  9
$DIMTSZ
 40
0.0
  9
$DIMTOL
 70
     0
  9
$DIMLIM
 70
     0
  9
$DIMTIH
 70
     0
  9
$DIMTOH
 70
     0
  9
$DIMSE1
 70
     0
  9
$DIMSE2
 70
     0
  9
$DIMTAD
 70
     1
  9
$DIMZIN
 70
     8
  9
$DIMBLK
  1
ORIGIN
  9
$DIMASO
 70
     1
  9
$DIMSHO
 70
     1
  9
$DIMPOST
  1

  9
$DIMAPOST
  1

  9
$DIMALT
 70
     0
  9
$DIMALTD
 70
     3
  9
$DIMALTF
 40
0.03937007874016
  9
$DIMLFAC
 40
1.0
  9
$DIMTOFL
 70
     1
  9
$DIMTVP
 40
0.0
  9
$DIMTIX
 70
     1
  9
$DIMSOXD
 70
     0
  9
$DIMSAH
 70
     0
  9
$DIMBLK1
  1

  9
$DIMBLK2
  1

  9
$DIMSTYLE
  2
寸法線03
  9
$DIMCLRD
 70
   256
  9
$DIMCLRE
 70
   256
  9
$DIMCLRT
 70
   256
  9
$DIMTFAC
 40
1.0
  9
$DIMGAP
 40
1.0
  9
$LUNITS
 70
     2
  9
$LUPREC
 70
     4
  9
$SKETCHINC
 40
1.0
  9
$FILLETRAD
 40
0.0
  9
$AUNITS
 70
     0
  9
$AUPREC
 70
     0
  9
$MENU
  1
.
  9
$ELEVATION
 40
0.0
  9
$PELEVATION
 40
0.0
  9
$THICKNESS
 40
0.0
  9
$LIMCHECK
 70
     0
  9
$BLIPMODE
 70
     0
  9
$CHAMFERA
 40
0.0
  9
$CHAMFERB
 40
0.0
  9
$SKPOLY
 70
     0
  9
$TDCREATE
 40
2456769.6746121412
  9
$TDUPDATE
 40
2456776.5823649662
  9
$TDINDWG
 40
0.0564573843
  9
$TDUSRTIMER
 40
0.0564573843
  9
$USRTIMER
 70
     1
  9
$ANGBASE
 50
0.0
  9
$ANGDIR
 70
     0
  9
$PDMODE
 70
     0
  9
$PDSIZE
 40
0.0
  9
$PLINEWID
 40
0.0
  9
$COORDS
 70
     1
  9
$SPLFRAME
 70
     0
  9
$SPLINETYPE
 70
     6
  9
$SPLINESEGS
 70
     8
  9
$ATTDIA
 70
     0
  9
$ATTREQ
 70
     1
  9
$HANDLING
 70
     1
  9
$HANDSEED
  5
D0E2
  9
$SURFTAB1
 70
     6
  9
$SURFTAB2
 70
     6
  9
$SURFTYPE
 70
     6
  9
$SURFU
 70
     6
  9
$SURFV
 70
     6
  9
$UCSNAME
  2

  9
$UCSORG
 10
0.0
 20
0.0
 30
0.0
  9
$UCSXDIR
 10
1.0
 20
0.0
 30
0.0
  9
$UCSYDIR
 10
0.0
 20
1.0
 30
0.0
  9
$PUCSNAME
  2

  9
$PUCSORG
 10
0.0
 20
0.0
 30
0.0
  9
$PUCSXDIR
 10
1.0
 20
0.0
 30
0.0
  9
$PUCSYDIR
 10
0.0
 20
1.0
 30
0.0
  9
$USERI1
 70
     0
  9
$USERI2
 70
     0
  9
$USERI3
 70
     0
  9
$USERI4
 70
     0
  9
$USERI5
 70
     0
  9
$USERR1
 40
0.0
  9
$USERR2
 40
0.0
  9
$USERR3
 40
0.0
  9
$USERR4
 40
0.0
  9
$USERR5
 40
0.0
  9
$WORLDVIEW
 70
     1
  9
$SHADEDGE
 70
     3
  9
$SHADEDIF
 70
    70
  9
$TILEMODE
 70
     1
  9
$MAXACTVP
 70
    64
  9
$PLIMCHECK
 70
     0
  9
$PEXTMIN
 10
1.0000000000000000E+020
 20
1.0000000000000000E+020
 30
1.0000000000000000E+020
  9
$PEXTMAX
 10
-1.0000000000000000E+020
 20
-1.0000000000000000E+020
 30
-1.0000000000000000E+020
  9
$PLIMMIN
 10
0.0
 20
0.0
  9
$PLIMMAX
 10
420.0
 20
297.0
  9
$UNITMODE
 70
     0
  9
$VISRETAIN
 70
     1
  9
$PLINEGEN
 70
     0
  9
$PSLTSCALE
 70
     1
  0
ENDSEC
  0
SECTION
  2
TABLES
  0
TABLE
  2
VPORT
 70
     1
  0
VPORT
  2
*ACTIVE
 70
     0
 10
0.0
 20
0.0
 11
1.0
 21
1.0
 12
1129.813573413333
 22
587.24715747142545
 13
0.0
 23
0.0
 14
10.0
 24
10.0
 15
10.0
 25
10.0
 16
0.0
 26
0.0
 36
1.0
 17
0.0
 27
0.0
 37
0.0
 40
1184.7050513689339
 41
3.2307692307692299
 42
50.0
 43
0.0
 44
0.0
 50
0.0
 51
0.0
 71
     0
 72
  1000
 73
     1
 74
     3
 75
     0
 76
     0
 77
     0
 78
     0
  0
ENDTAB
  0
TABLE
  2
LTYPE
 70
     4
  0
LTYPE
  2
CONTINUOUS
 70
     0
  3
Solid line
 72
    65
 73
     0
 40
0.0
  0
LTYPE
  2
CENTER2
 70
     0
  3
Center (.5x) ___ _ ___ _ ___ _ ___ _ ___ _ ___
 72
    65
 73
     4
 40
28.574999999999999
 49
19.050000000000001
 49
-3.1749999999999989
 49
3.1749999999999989
 49
-3.1749999999999989
  0
LTYPE
  2
PHANTOM2
 70
     0
  3
Phantom (.5x) ___ _ _ ___ _ _ ___ _ _ ___ _ _
 72
    65
 73
     6
 40
31.75
 49
15.875
 49
-3.1749999999999989
 49
3.1749999999999989
 49
-3.1749999999999989
 49
3.1749999999999989
 49
-3.1749999999999989
  0
LTYPE
  2
HIDDEN
 70
     0
  3
Hidden __ __ __ __ __ __ __ __ __ __ __ __ __ _
 72
    65
 73
     2
 40
9.5249999999999986
 49
6.3499999999999988
 49
-3.1749999999999989
  0
ENDTAB
  0
TABLE
  2
LAYER
 70
     2
  0
LAYER
  2
0
 70
     0
 62
     7
  6
CONTINUOUS
  0
LAYER
  2
DEFPOINTS
 70
     0
 62
     7
  6
CONTINUOUS
  0
ENDTAB
  0
TABLE
  2
STYLE
 70
     2
  0
STYLE
  2
STANDARD
 70
     0
 40
0.0
 41
1.0
 50
0.0
 71
     0
 42
2.5
  3
romans.shx
  4
bigfont.shx
  0
STYLE
  2
横文字
 70
     0
 40
0.0
 41
0.8
 50
0.0
 71
     0
 42
10.5
  3
romans.shx
  4
extfont.shx
  0
ENDTAB
  0
TABLE
  2
VIEW
 70
     0
  0
ENDTAB
  0
TABLE
  2
UCS
 70
     0
  0
ENDTAB
  0
TABLE
  2
APPID
 70
    11
  0
APPID
  2
ACAD
 70
     0
  0
APPID
  2
ACADANNOTATIVE
 70
     0
  0
APPID
  2
ACAD_PSEXT
 70
     0
  0
APPID
  2
ACAD_DSTYLE_DIMJAG
 70
     0
  0
APPID
  2
ACAD_DSTYLE_DIMTALN
 70
     0
  0
APPID
  2
ACADANNOPO
 70
     0
  0
APPID
  2
ADE
 70
     0
  0
APPID
  2
DCO15
 70
     0
  0
APPID
  2
ACAD_MLEADERVER
 70
     0
  0
APPID
  2
ACAD_EXEMPT_FROM_CAD_STANDARDS
 70
     0
  0
APPID
  2
N_10
 70
     0
  0
ENDTAB
  0
TABLE
  2
DIMSTYLE
 70
     2
  0
DIMSTYLE
  2
STANDARD
 70
     0
  3

  4

  5
ORIGIN
  6

  7

 40
30.0
 41
1.0
 42
5.0
 43
7.5
 44
1.0
 45
0.0
 46
0.0
 47
0.0
 48
0.0
140
3.5
141
2.5
142
0.0
143
25.399999999999999
144
1.0
145
0.0
146
1.0
147
1.0
 71
     0
 72
     0
 73
     0
 74
     0
 75
     0
 76
     0
 77
     1
 78
     8
170
     0
171
     2
172
     1
173
     0
174
     1
175
     0
176
     0
177
     0
178
     0
  0
DIMSTYLE
  2
寸法線03
 70
     0
  3

  4

  5
ORIGIN
  6

  7

 40
3.0
 41
1.0
 42
5.0
 43
7.5
 44
1.0
 45
0.0
 46
0.0
 47
0.0
 48
0.0
140
3.5
141
1.0
142
0.0
143
0.03937007874016
144
1.0
145
0.0
146
1.0
147
1.0
 71
     0
 72
     0
 73
     0
 74
     0
 75
     0
 76
     0
 77
     1
 78
     8
170
     0
171
     3
172
     1
173
     0
174
     1
175
     0
176
   256
177
   256
178
   256
  0
ENDTAB
  0
ENDSEC
  0
SECTION
  2
BLOCKS
  0
BLOCK
  8
0
  2
$MODEL_SPACE
 70
     0
 10
0.0
 20
0.0
 30
0.0
  3
$MODEL_SPACE
  1

  0
ENDBLK
  5
6E
  8
0
  0
BLOCK
 67
     1
  8
0
  2
$PAPER_SPACE
 70
     0
 10
0.0
 20
0.0
 30
0.0
  3
$PAPER_SPACE
  1

  0
ENDBLK
  5
6A
 67
     1
  8
0
  0
BLOCK
  8
0
  2
_ORIGIN
 70
     0
 10
0.0
 20
0.0
 30
0.0
  3
_ORIGIN
  1

  0
CIRCLE
  5
7A
  8
0
  6
BYBLOCK
 62
     0
 10
0.0
 20
0.0
 30
0.0
 40
0.5
  0
LINE
  5
7B
  8
0
  6
BYBLOCK
 62
     0
 10
0.0
 20
0.0
 30
0.0
 11
-1.0
 21
0.0
 31
0.0
  0
ENDBLK
  5
7C
  8
0
  0
BLOCK
  8
0
  2
_OPEN30
 70
     0
 10
0.0
 20
0.0
 30
0.0
  3
_OPEN30
  1

  0
LINE
  5
7F
  8
0
  6
BYBLOCK
 62
     0
 10
-1.0
 20
0.26794919
 30
0.0
 11
0.0
 21
0.0
 31
0.0
  0
LINE
  5
80
  8
0
  6
BYBLOCK
 62
     0
 10
0.0
 20
0.0
 30
0.0
 11
-1.0
 21
-0.26794919
 31
0.0
  0
LINE
  5
81
  8
0
  6
BYBLOCK
 62
     0
 10
0.0
 20
0.0
 30
0.0
 11
-1.0
 21
0.0
 31
0.0
  0
ENDBLK
  5
82
  8
0
  0
BLOCK
  8
0
  2
_NONE
 70
     0
 10
0.0
 20
0.0
 30
0.0
  3
_NONE
  1

  0
ENDBLK
  5
4B8F
  8
0
  0
BLOCK
  8
0
  2
*D4
 70
     1
 10
0.0
 20
0.0
 30
0.0
  3
*D4
  1

  0
LINE
  5
CE61
  8
0
 10
455.0
 20
505.76258918562178
 30
0.0
 11
455.0
 21
477.76258918562178
 31
0.0
  0
LINE
  5
CE62
  8
0
 10
475.0
 20
505.76258918562178
 30
0.0
 11
475.0
 21
477.76258918562178
 31
0.0
  0
LINE
  5
CE63
  8
0
 10
458.0
 20
480.76258918562178
 30
0.0
 11
472.0
 21
480.76258918562178
 31
0.0
  0
INSERT
  5
CE64
  8
0
  2
_ORIGIN
 10
455.0
 20
480.76258918562178
 30
0.0
 41
3.0
 42
3.0
 43
3.0
 50
180.0
  0
INSERT
  5
CE65
  8
0
  2
_ORIGIN
 10
475.0
 20
480.76258918562178
 30
0.0
 41
3.0
 42
3.0
 43
3.0
  0
INSERT
  5
CE66
  8
0
  2
*U52
 10
0.0
 20
0.0
 30
0.0
  0
POINT
  5
CE67
  8
DEFPOINTS
 62
     0
 10
455.0
 20
520.76258918562166
 30
0.0
  0
POINT
  5
CE68
  8
DEFPOINTS
 62
     0
 10
475.0
 20
520.76258918562166
 30
0.0
  0
POINT
  5
CE69
  8
DEFPOINTS
 62
     0
 10
475.0
 20
480.76258918562178
 30
0.0
  0
ENDBLK
  5
A94C
  8
0
  0
BLOCK
  8
0
  2
*D5
 70
     1
 10
0.0
 20
0.0
 30
0.0
  3
*D5
  1

  0
LINE
  5
CE58
  8
0
 10
475.0
 20
505.76258918562178
 30
0.0
 11
475.0
 21
477.76258918562178
 31
0.0
  0
LINE
  5
CE59
  8
0
 10
525.0
 20
505.76258918562178
 30
0.0
 11
525.0
 21
477.76258918562178
 31
0.0
  0
LINE
  5
CE5A
  8
0
 10
478.0
 20
480.76258918562178
 30
0.0
 11
522.0
 21
480.76258918562178
 31
0.0
  0
INSERT
  5
CE5B
  8
0
  2
_ORIGIN
 10
475.0
 20
480.76258918562178
 30
0.0
 41
3.0
 42
3.0
 43
3.0
 50
180.0
  0
INSERT
  5
CE5C
  8
0
  2
_ORIGIN
 10
525.0
 20
480.76258918562178
 30
0.0
 41
3.0
 42
3.0
 43
3.0
  0
INSERT
  5
CE5D
  8
0
  2
*U51
 10
0.0
 20
0.0
 30
0.0
  0
POINT
  5
CE5E
  8
DEFPOINTS
 62
     0
 10
475.0
 20
520.76258918562166
 30
0.0
  0
POINT
  5
CE5F
  8
DEFPOINTS
 62
     0
 10
525.0
 20
520.76258918562166
 30
0.0
  0
POINT
  5
CE60
  8
DEFPOINTS
 62
     0
 10
525.0
 20
480.76258918562178
 30
0.0
  0
ENDBLK
  5
A958
  8
0
  0
BLOCK
  8
0
  2
*D6
 70
     1
 10
0.0
 20
0.0
 30
0.0
  3
*D6
  1

  0
LINE
  5
CE4F
  8
0
 10
525.0
 20
505.76258918562178
 30
0.0
 11
525.0
 21
477.76258918562178
 31
0.0
  0
LINE
  5
CE50
  8
0
 10
545.0
 20
505.76258918562178
 30
0.0
 11
545.0
 21
477.76258918562178
 31
0.0
  0
LINE
  5
CE51
  8
0
 10
528.0
 20
480.76258918562178
 30
0.0
 11
542.0
 21
480.76258918562178
 31
0.0
  0
INSERT
  5
CE52
  8
0
  2
_ORIGIN
 10
525.0
 20
480.76258918562178
 30
0.0
 41
3.0
 42
3.0
 43
3.0
 50
180.0
  0
INSERT
  5
CE53
  8
0
  2
_ORIGIN
 10
545.0
 20
480.76258918562178
 30
0.0
 41
3.0
 42
3.0
 43
3.0
  0
INSERT
  5
CE54
  8
0
  2
*U50
 10
0.0
 20
0.0
 30
0.0
  0
POINT
  5
CE55
  8
DEFPOINTS
 62
     0
 10
525.0
 20
520.76258918562166
 30
0.0
  0
POINT
  5
CE56
  8
DEFPOINTS
 62
     0
 10
545.0
 20
520.76258918562166
 30
0.0
  0
POINT
  5
CE57
  8
DEFPOINTS
 62
     0
 10
545.0
 20
480.76258918562178
 30
0.0
  0
ENDBLK
  5
A964
  8
0
  0
BLOCK
  8
0
  2
*D7
 70
     1
 10
0.0
 20
0.0
 30
0.0
  3
*D7
  1

  0
LINE
  5
CE46
  8
0
 10
835.39999999999134
 20
980.76258918570761
 30
0.0
 11
905.89999999999145
 21
980.76258918570761
 31
0.0
  0
LINE
  5
CE47
  8
0
 10
570.0000000000673
 20
530.76258918570829
 30
0.0
 11
905.89999999999145
 21
530.76258918570818
 31
0.0
  0
LINE
  5
CE48
  8
0
 10
902.89999999999156
 20
977.7625891857075
 30
0.0
 11
902.89999999999145
 21
533.76258918570807
 31
0.0
  0
INSERT
  5
CE49
  8
0
  2
_ORIGIN
 10
902.89999999999156
 20
980.76258918570761
 30
0.0
 41
3.0
 42
3.0
 43
3.0
 50
90.0
  0
INSERT
  5
CE4A
  8
0
  2
_ORIGIN
 10
902.89999999999145
 20
530.76258918570818
 30
0.0
 41
3.0
 42
3.0
 43
3.0
 50
270.0
  0
INSERT
  5
CE4B
  8
0
  2
*U49
 10
0.0
 20
0.0
 30
0.0
  0
POINT
  5
CE4C
  8
DEFPOINTS
 62
     0
 10
820.39999999999145
 20
980.76258918570761
 30
0.0
  0
POINT
  5
CE4D
  8
DEFPOINTS
 62
     0
 10
555.0000000000673
 20
530.76258918570829
 30
0.0
  0
POINT
  5
CE4E
  8
DEFPOINTS
 62
     0
 10
902.89999999999145
 20
530.76258918570818
 30
0.0
  0
ENDBLK
  5
A970
  8
0
  0
BLOCK
  8
0
  2
*D8
 70
     1
 10
0.0
 20
0.0
 30
0.0
  3
*D8
  1

  0
LINE
  5
CE3D
  8
0
 10
835.39999999999134
 20
980.76258918570761
 30
0.0
 11
883.39999999999145
 21
980.76258918570761
 31
0.0
  0
LINE
  5
CE3E
  8
0
 10
835.39999999999134
 20
776.7625891857075
 30
0.0
 11
883.39999999999145
 21
776.7625891857075
 31
0.0
  0
LINE
  5
CE3F
  8
0
 10
880.39999999999145
 20
977.7625891857075
 30
0.0
 11
880.39999999999145
 21
779.76258918570761
 31
0.0
  0
INSERT
  5
CE40
  8
0
  2
_ORIGIN
 10
880.39999999999145
 20
980.76258918570761
 30
0.0
 41
3.0
 42
3.0
 43
3.0
 50
90.0
  0
INSERT
  5
CE41
  8
0
  2
_ORIGIN
 10
880.39999999999145
 20
776.7625891857075
 30
0.0
 41
3.0
 42
3.0
 43
3.0
 50
270.0
  0
INSERT
  5
CE42
  8
0
  2
*U48
 10
0.0
 20
0.0
 30
0.0
  0
POINT
  5
CE43
  8
DEFPOINTS
 62
     0
 10
820.39999999999145
 20
980.76258918570761
 30
0.0
  0
POINT
  5
CE44
  8
DEFPOINTS
 62
     0
 10
820.39999999999145
 20
776.7625891857075
 30
0.0
  0
POINT
  5
CE45
  8
DEFPOINTS
 62
     0
 10
880.39999999999145
 20
776.7625891857075
 30
0.0
  0
ENDBLK
  5
A97C
  8
0
  0
BLOCK
  8
0
  2
*D9
 70
     1
 10
0.0
 20
0.0
 30
0.0
  3
*D9
  1

  0
LINE
  5
CE34
  8
0
 10
835.39999999999134
 20
776.7625891857075
 30
0.0
 11
883.39999999999156
 21
776.7625891857075
 31
0.0
  0
LINE
  5
CE35
  8
0
 10
570.0000000000673
 20
530.76258918570829
 30
0.0
 11
883.39999999999145
 21
530.76258918570818
 31
0.0
  0
LINE
  5
CE36
  8
0
 10
880.39999999999145
 20
773.76258918570761
 30
0.0
 11
880.39999999999145
 21
533.76258918570807
 31
0.0
  0
INSERT
  5
CE37
  8
0
  2
_ORIGIN
 10
880.39999999999145
 20
776.7625891857075
 30
0.0
 41
3.0
 42
3.0
 43
3.0
 50
90.0
  0
INSERT
  5
CE38
  8
0
  2
_ORIGIN
 10
880.39999999999145
 20
530.76258918570818
 30
0.0
 41
3.0
 42
3.0
 43
3.0
 50
270.0
  0
INSERT
  5
CE39
  8
0
  2
*U47
 10
0.0
 20
0.0
 30
0.0
  0
POINT
  5
CE3A
  8
DEFPOINTS
 62
     0
 10
820.39999999999145
 20
776.7625891857075
 30
0.0
  0
POINT
  5
CE3B
  8
DEFPOINTS
 62
     0
 10
555.0000000000673
 20
530.76258918570829
 30
0.0
  0
POINT
  5
CE3C
  8
DEFPOINTS
 62
     0
 10
880.39999999999145
 20
530.76258918570818
 30
0.0
  0
ENDBLK
  5
A988
  8
0
  0
BLOCK
  8
0
  2
*D10
 70
     1
 10
0.0
 20
0.0
 30
0.0
  3
*D10
  1

  0
LINE
  5
CE2B
  8
0
 10
479.99999999999631
 20
244.16258918570779
 30
0.0
 11
479.99999999999631
 21
218.66258918570779
 31
0.0
  0
LINE
  5
CE2C
  8
0
 10
519.99999999999625
 20
244.16258918570779
 30
0.0
 11
519.99999999999625
 21
218.66258918570779
 31
0.0
  0
LINE
  5
CE2D
  8
0
 10
482.99999999999631
 20
221.66258918570779
 30
0.0
 11
516.99999999999625
 21
221.66258918570779
 31
0.0
  0
INSERT
  5
CE2E
  8
0
  2
_ORIGIN
 10
479.99999999999631
 20
221.66258918570779
 30
0.0
 41
3.0
 42
3.0
 43
3.0
 50
180.0
  0
INSERT
  5
CE2F
  8
0
  2
_ORIGIN
 10
519.99999999999625
 20
221.66258918570779
 30
0.0
 41
3.0
 42
3.0
 43
3.0
  0
INSERT
  5
CE30
  8
0
  2
*U46
 10
0.0
 20
0.0
 30
0.0
  0
POINT
  5
CE31
  8
DEFPOINTS
 62
     0
 10
479.99999999999631
 20
259.16258918570782
 30
0.0
  0
POINT
  5
CE32
  8
DEFPOINTS
 62
     0
 10
519.99999999999625
 20
259.16258918570782
 30
0.0
  0
POINT
  5
CE33
  8
DEFPOINTS
 62
     0
 10
519.99999999999625
 20
221.66258918570779
 30
0.0
  0
ENDBLK
  5
A994
  8
0
  0
BLOCK
  8
0
  2
*D11
 70
     1
 10
0.0
 20
0.0
 30
0.0
  3
*D11
  1

  0
LINE
  5
CE22
  8
0
 10
570.0000000000673
 20
530.76258918570829
 30
0.0
 11
905.89999999999145
 21
530.76258918570818
 31
0.0
  0
LINE
  5
CE23
  8
0
 10
569.99999999999625
 20
280.76258918576121
 30
0.0
 11
905.89999999999145
 21
280.7625891857611
 31
0.0
  0
LINE
  5
CE24
  8
0
 10
902.89999999999145
 20
527.76258918570807
 30
0.0
 11
902.89999999999145
 21
283.7625891857611
 31
0.0
  0
INSERT
  5
CE25
  8
0
  2
_ORIGIN
 10
902.89999999999145
 20
530.76258918570818
 30
0.0
 41
3.0
 42
3.0
 43
3.0
 50
90.0
  0
INSERT
  5
CE26
  8
0
  2
_ORIGIN
 10
902.89999999999145
 20
280.7625891857611
 30
0.0
 41
3.0
 42
3.0
 43
3.0
 50
270.0
  0
INSERT
  5
CE27
  8
0
  2
*U45
 10
0.0
 20
0.0
 30
0.0
  0
POINT
  5
CE28
  8
DEFPOINTS
 62
     0
 10
555.0000000000673
 20
530.76258918570829
 30
0.0
  0
POINT
  5
CE29
  8
DEFPOINTS
 62
     0
 10
554.99999999999625
 20
280.76258918576121
 30
0.0
  0
POINT
  5
CE2A
  8
DEFPOINTS
 62
     0
 10
902.89999999999145
 20
280.7625891857611
 30
0.0
  0
ENDBLK
  5
A9A0
  8
0
  0
BLOCK
  8
0
  2
*D12
 70
     1
 10
0.0
 20
0.0
 30
0.0
  3
*D12
  1

  0
LINE
  5
CE17
  8
0
 10
569.99999999999625
 20
280.76258918576121
 30
0.0
 11
607.99999999999625
 21
280.76258918576121
 31
0.0
  0
LINE
  5
CE18
  8
0
 10
569.99999999999625
 20
265.7625891857079
 30
0.0
 11
607.99999999999625
 21
265.7625891857079
 31
0.0
  0
LINE
  5
CE19
  8
0
 10
604.99999999999625
 20
283.76258918576121
 30
0.0
 11
604.99999999999625
 21
286.76258918576121
 31
0.0
  0
LINE
  5
CE1A
  8
0
 10
604.99999999999625
 20
262.7625891857079
 30
0.0
 11
604.99999999999625
 21
259.7625891857079
 31
0.0
  0
LINE
  5
CE1B
  8
0
 10
604.99999999999625
 20
280.76258918576121
 30
0.0
 11
604.99999999999625
 21
265.7625891857079
 31
0.0
  0
INSERT
  5
CE1C
  8
0
  2
_ORIGIN
 10
604.99999999999625
 20
280.76258918576121
 30
0.0
 41
3.0
 42
3.0
 43
3.0
 50
270.0
  0
INSERT
  5
CE1D
  8
0
  2
_ORIGIN
 10
604.99999999999625
 20
265.7625891857079
 30
0.0
 41
3.0
 42
3.0
 43
3.0
 50
90.0
  0
INSERT
  5
CE1E
  8
0
  2
*U44
 10
0.0
 20
0.0
 30
0.0
  0
POINT
  5
CE1F
  8
DEFPOINTS
 62
     0
 10
554.99999999999625
 20
280.76258918576121
 30
0.0
  0
POINT
  5
CE20
  8
DEFPOINTS
 62
     0
 10
554.99999999999625
 20
265.7625891857079
 30
0.0
  0
POINT
  5
CE21
  8
DEFPOINTS
 62
     0
 10
604.99999999999625
 20
265.7625891857079
 30
0.0
  0
ENDBLK
  5
A9AB
  8
0
  0
BLOCK
  8
0
  2
*D13
 70
     1
 10
0.0
 20
0.0
 30
0.0
  3
*D13
  1

  0
LINE
  5
CE0E
  8
0
 10
569.99999999999625
 20
280.76258918576121
 30
0.0
 11
607.99999999999625
 21
280.76258918576121
 31
0.0
  0
LINE
  5
CE0F
  8
0
 10
569.99999999999625
 20
303.76258918570772
 30
0.0
 11
607.99999999999625
 21
303.76258918570772
 31
0.0
  0
LINE
  5
CE10
  8
0
 10
604.99999999999625
 20
283.76258918576121
 30
0.0
 11
604.99999999999625
 21
300.76258918570772
 31
0.0
  0
INSERT
  5
CE11
  8
0
  2
_ORIGIN
 10
604.99999999999625
 20
280.76258918576121
 30
0.0
 41
3.0
 42
3.0
 43
3.0
 50
270.0
  0
INSERT
  5
CE12
  8
0
  2
_ORIGIN
 10
604.99999999999625
 20
303.76258918570772
 30
0.0
 41
3.0
 42
3.0
 43
3.0
 50
90.0
  0
INSERT
  5
CE13
  8
0
  2
*U43
 10
0.0
 20
0.0
 30
0.0
  0
POINT
  5
CE14
  8
DEFPOINTS
 62
     0
 10
554.99999999999625
 20
280.76258918576121
 30
0.0
  0
POINT
  5
CE15
  8
DEFPOINTS
 62
     0
 10
554.99999999999625
 20
303.76258918570772
 30
0.0
  0
POINT
  5
CE16
  8
DEFPOINTS
 62
     0
 10
604.99999999999625
 20
303.76258918570772
 30
0.0
  0
ENDBLK
  5
A9B9
  8
0
  0
BLOCK
  8
0
  2
*D14
 70
     1
 10
0.0
 20
0.0
 30
0.0
  3
*D14
  1

  0
LINE
  5
CE05
  8
0
 10
446.399999999996
 20
1005.762589185708
 30
0.0
 11
446.399999999996
 21
1033.7625891857069
 31
0.0
  0
LINE
  5
CE06
  8
0
 10
660.39999999999145
 20
1005.762589185708
 30
0.0
 11
660.39999999999145
 21
1033.7625891857069
 31
0.0
  0
LINE
  5
CE07
  8
0
 10
449.39999999999588
 20
1030.7625891857069
 30
0.0
 11
657.39999999999145
 21
1030.7625891857069
 31
0.0
  0
INSERT
  5
CE08
  8
0
  2
_ORIGIN
 10
446.399999999996
 20
1030.7625891857069
 30
0.0
 41
3.0
 42
3.0
 43
3.0
 50
180.0
  0
INSERT
  5
CE09
  8
0
  2
_ORIGIN
 10
660.39999999999145
 20
1030.7625891857069
 30
0.0
 41
3.0
 42
3.0
 43
3.0
  0
INSERT
  5
CE0A
  8
0
  2
*U42
 10
0.0
 20
0.0
 30
0.0
  0
POINT
  5
CE0B
  8
DEFPOINTS
 62
     0
 10
446.399999999996
 20
990.76258918570761
 30
0.0
  0
POINT
  5
CE0C
  8
DEFPOINTS
 62
     0
 10
660.39999999999145
 20
990.76258918570761
 30
0.0
  0
POINT
  5
CE0D
  8
DEFPOINTS
 62
     0
 10
660.39999999999145
 20
1030.7625891857069
 30
0.0
  0
ENDBLK
  5
A9C5
  8
0
  0
BLOCK
  8
0
  2
*D15
 70
     1
 10
0.0
 20
0.0
 30
0.0
  3
*D15
  1

  0
LINE
  5
CDFA
  8
0
 10
389.99999999996771
 20
540.76258918565145
 30
0.0
 11
391.99999999996771
 21
540.76258918565145
 31
0.0
  0
LINE
  5
CDFB
  8
0
 10
429.99999999996811
 20
530.76258918565122
 30
0.0
 11
391.99999999996771
 21
530.76258918565122
 31
0.0
  0
LINE
  5
CDFC
  8
0
 10
394.99999999996771
 20
543.76258918565145
 30
0.0
 11
394.99999999996771
 21
546.76258918565145
 31
0.0
  0
LINE
  5
CDFD
  8
0
 10
394.99999999996771
 20
527.76258918565122
 30
0.0
 11
394.99999999996771
 21
524.76258918565122
 31
0.0
  0
INSERT
  5
CDFE
  8
0
  2
*U41
 10
0.0
 20
0.0
 30
0.0
  0
LINE
  5
CDFF
  8
0
 10
394.99999999996771
 20
540.76258918565145
 30
0.0
 11
394.99999999996771
 21
530.76258918565122
 31
0.0
  0
INSERT
  5
CE00
  8
0
  2
_ORIGIN
 10
394.99999999996771
 20
540.76258918565145
 30
0.0
 41
3.0
 42
3.0
 43
3.0
 50
270.0
  0
INSERT
  5
CE01
  8
0
  2
_ORIGIN
 10
394.99999999996771
 20
530.76258918565122
 30
0.0
 41
3.0
 42
3.0
 43
3.0
 50
90.0
  0
POINT
  5
CE02
  8
DEFPOINTS
 62
     0
 10
404.99999999996771
 20
540.76258918565145
 30
0.0
  0
POINT
  5
CE03
  8
DEFPOINTS
 62
     0
 10
444.99999999996822
 20
530.76258918565122
 30
0.0
  0
POINT
  5
CE04
  8
DEFPOINTS
 62
     0
 10
394.99999999996771
 20
530.76258918565122
 30
0.0
  0
ENDBLK
  5
A9D1
  8
0
  0
BLOCK
  8
0
  2
*D16
 70
     1
 10
0.0
 20
0.0
 30
0.0
  3
*D16
  1

  0
LINE
  5
CDF1
  8
0
 10
1495.0
 20
290.99999999999989
 30
0.0
 11
1495.0
 21
265.49999999999972
 31
0.0
  0
LINE
  5
CDF2
  8
0
 10
1460.0
 20
290.99999999999989
 30
0.0
 11
1460.0
 21
265.49999999999972
 31
0.0
  0
LINE
  5
CDF3
  8
0
 10
1492.0
 20
268.4999999999996
 30
0.0
 11
1463.0
 21
268.4999999999996
 31
0.0
  0
INSERT
  5
CDF4
  8
0
  2
_ORIGIN
 10
1495.0
 20
268.4999999999996
 30
0.0
 41
3.0
 42
3.0
 43
3.0
  0
INSERT
  5
CDF5
  8
0
  2
_ORIGIN
 10
1460.0
 20
268.4999999999996
 30
0.0
 41
3.0
 42
3.0
 43
3.0
 50
180.0
  0
INSERT
  5
CDF6
  8
0
  2
*U40
 10
0.0
 20
0.0
 30
0.0
  0
POINT
  5
CDF7
  8
DEFPOINTS
 62
     0
 10
1495.0
 20
305.99999999999989
 30
0.0
  0
POINT
  5
CDF8
  8
DEFPOINTS
 62
     0
 10
1460.0
 20
305.99999999999989
 30
0.0
  0
POINT
  5
CDF9
  8
DEFPOINTS
 62
     0
 10
1460.0
 20
268.4999999999996
 30
0.0
  0
ENDBLK
  5
A9DF
  8
0
  0
BLOCK
  8
0
  2
*D17
 70
     1
 10
0.0
 20
0.0
 30
0.0
  3
*D17
  1

  0
LINE
  5
D06B
  8
0
 10
1460.0
 20
290.99999999999989
 30
0.0
 11
1460.0
 21
265.49999999999972
 31
0.0
  0
LINE
  5
D06C
  8
0
 10
1310.0
 20
290.99999999999989
 30
0.0
 11
1310.0
 21
265.49999999999972
 31
0.0
  0
LINE
  5
D06D
  8
0
 10
1457.0
 20
268.4999999999996
 30
0.0
 11
1313.0
 21
268.4999999999996
 31
0.0
  0
INSERT
  5
D06E
  8
0
  2
_ORIGIN
 10
1460.0
 20
268.4999999999996
 30
0.0
 41
3.0
 42
3.0
 43
3.0
  0
INSERT
  5
D06F
  8
0
  2
_ORIGIN
 10
1310.0
 20
268.4999999999996
 30
0.0
 41
3.0
 42
3.0
 43
3.0
 50
180.0
  0
TEXT
  8
0
  40
10.5
  5
D0E0
  72
0
  71
0
 10
1385.00
 20
263.100
 30
0.000000
  1
W
  7
横文字
  0
POINT
  5
D071
  8
DEFPOINTS
 62
     0
 10
1460.0
 20
305.99999999999989
 30
0.0
  0
POINT
  5
D072
  8
DEFPOINTS
 62
     0
 10
1310.0
 20
305.99999999999989
 30
0.0
  0
POINT
  5
D073
  8
DEFPOINTS
 62
     0
 10
1310.0
 20
268.4999999999996
 30
0.0
  0
ENDBLK
  5
A9EB
  8
0
  0
BLOCK
  8
0
  2
*D18
 70
     1
 10
0.0
 20
0.0
 30
0.0
  3
*D18
  1

  0
LINE
  5
CDDF
  8
0
 10
1435.0
 20
365.99999999999989
 30
0.0
 11
1409.5
 21
365.99999999999989
 31
0.0
  0
LINE
  5
CDE0
  8
0
 10
1435.0
 20
315.99999999999989
 30
0.0
 11
1409.5
 21
315.99999999999989
 31
0.0
  0
LINE
  5
CDE1
  8
0
 10
1412.5
 20
362.99999999999989
 30
0.0
 11
1412.5
 21
318.99999999999989
 31
0.0
  0
INSERT
  5
CDE2
  8
0
  2
_ORIGIN
 10
1412.5
 20
365.99999999999989
 30
0.0
 41
3.0
 42
3.0
 43
3.0
 50
90.0
  0
INSERT
  5
CDE3
  8
0
  2
_ORIGIN
 10
1412.5
 20
315.99999999999989
 30
0.0
 41
3.0
 42
3.0
 43
3.0
 50
270.0
  0
INSERT
  5
CDE4
  8
0
  2
*U39
 10
0.0
 20
0.0
 30
0.0
  0
POINT
  5
CDE5
  8
DEFPOINTS
 62
     0
 10
1450.0
 20
365.99999999999989
 30
0.0
  0
POINT
  5
CDE6
  8
DEFPOINTS
 62
     0
 10
1450.0
 20
315.99999999999989
 30
0.0
  0
POINT
  5
CDE7
  8
DEFPOINTS
 62
     0
 10
1412.5
 20
315.99999999999989
 30
0.0
  0
ENDBLK
  5
AA1C
  8
0
  0
BLOCK
  8
0
  2
*D19
 70
     1
 10
0.0
 20
0.0
 30
0.0
  3
*D19
  1

  0
LINE
  5
CDD6
  8
0
 10
1310.0
 20
290.99999999999989
 30
0.0
 11
1310.0
 21
265.49999999999989
 31
0.0
  0
LINE
  5
CDD7
  8
0
 10
1230.0
 20
290.99999999999989
 30
0.0
 11
1230.0
 21
265.49999999999989
 31
0.0
  0
LINE
  5
CDD8
  8
0
 10
1307.0
 20
268.49999999999989
 30
0.0
 11
1233.0
 21
268.49999999999989
 31
0.0
  0
INSERT
  5
CDD9
  8
0
  2
_ORIGIN
 10
1310.0
 20
268.49999999999989
 30
0.0
 41
3.0
 42
3.0
 43
3.0
  0
INSERT
  5
CDDA
  8
0
  2
_ORIGIN
 10
1230.0
 20
268.49999999999989
 30
0.0
 41
3.0
 42
3.0
 43
3.0
 50
180.0
  0
INSERT
  5
CDDB
  8
0
  2
*U38
 10
0.0
 20
0.0
 30
0.0
  0
POINT
  5
CDDC
  8
DEFPOINTS
 62
     0
 10
1310.0
 20
305.99999999999989
 30
0.0
  0
POINT
  5
CDDD
  8
DEFPOINTS
 62
     0
 10
1230.0
 20
305.99999999999989
 30
0.0
  0
POINT
  5
CDDE
  8
DEFPOINTS
 62
     0
 10
1230.0
 20
268.49999999999989
 30
0.0
  0
ENDBLK
  5
AA42
  8
0
  0
BLOCK
  8
0
  2
*D20
 70
     1
 10
0.0
 20
0.0
 30
0.0
  3
*D20
  1

  0
LINE
  5
CDCD
  8
0
 10
1230.0
 20
290.99999999999989
 30
0.0
 11
1230.0
 21
265.49999999999989
 31
0.0
  0
LINE
  5
CDCE
  8
0
 10
1150.0
 20
290.99999999999989
 30
0.0
 11
1150.0
 21
265.49999999999989
 31
0.0
  0
LINE
  5
CDCF
  8
0
 10
1227.0
 20
268.49999999999989
 30
0.0
 11
1153.0
 21
268.49999999999989
 31
0.0
  0
INSERT
  5
CDD0
  8
0
  2
_ORIGIN
 10
1230.0
 20
268.49999999999989
 30
0.0
 41
3.0
 42
3.0
 43
3.0
  0
INSERT
  5
CDD1
  8
0
  2
_ORIGIN
 10
1150.0
 20
268.49999999999989
 30
0.0
 41
3.0
 42
3.0
 43
3.0
 50
180.0
  0
INSERT
  5
CDD2
  8
0
  2
*U37
 10
0.0
 20
0.0
 30
0.0
  0
POINT
  5
CDD3
  8
DEFPOINTS
 62
     0
 10
1230.0
 20
305.99999999999989
 30
0.0
  0
POINT
  5
CDD4
  8
DEFPOINTS
 62
     0
 10
1150.0
 20
305.99999999999989
 30
0.0
  0
POINT
  5
CDD5
  8
DEFPOINTS
 62
     0
 10
1150.0
 20
268.49999999999989
 30
0.0
  0
ENDBLK
  5
AA4E
  8
0
  0
BLOCK
  8
0
  2
*D21
 70
     1
 10
0.0
 20
0.0
 30
0.0
  3
*D21
  1

  0
LINE
  5
D074
  8
0
 10
1150.0
 20
290.99999999999989
 30
0.0
 11
1150.0
 21
265.49999999999989
 31
0.0
  0
LINE
  5
D075
  8
0
 10
1147.0
 20
268.49999999999989
 30
0.0
 11
1050.0
 21
268.49999999999989
 31
0.0
  0
INSERT
  5
D076
  8
0
  2
_ORIGIN
 10
1150.0
 20
268.49999999999989
 30
0.0
 41
3.0
 42
3.0
 43
3.0
  0
TEXT
  8
0
  40
10.5
  5
D0E1
  72
0
  71
0
 10
1098.50
 20
263.100
 30
0.000000
  1
W
  7
横文字
  0
POINT
  5
D078
  8
DEFPOINTS
 62
     0
 10
1150.0
 20
305.99999999999989
 30
0.0
  0
POINT
  5
D079
  8
DEFPOINTS
 62
     0
 10
1050.0
 20
305.99999999999989
 30
0.0
  0
POINT
  5
D07A
  8
DEFPOINTS
 62
     0
 10
1050.0
 20
268.49999999999989
 30
0.0
  0
ENDBLK
  5
AA5A
  8
0
  0
BLOCK
  8
0
  2
*D22
 70
     1
 10
0.0
 20
0.0
 30
0.0
  3
*D22
  1

  0
LINE
  5
CDBD
  8
0
 10
1125.0
 20
360.99999999999989
 30
0.0
 11
1099.5
 21
360.99999999999989
 31
0.0
  0
LINE
  5
CDBE
  8
0
 10
1125.0
 20
320.99999999999989
 30
0.0
 11
1099.5
 21
320.99999999999989
 31
0.0
  0
LINE
  5
CDBF
  8
0
 10
1102.5
 20
357.99999999999989
 30
0.0
 11
1102.5
 21
323.99999999999989
 31
0.0
  0
INSERT
  5
CDC0
  8
0
  2
_ORIGIN
 10
1102.5
 20
360.99999999999989
 30
0.0
 41
3.0
 42
3.0
 43
3.0
 50
90.0
  0
INSERT
  5
CDC1
  8
0
  2
_ORIGIN
 10
1102.5
 20
320.99999999999989
 30
0.0
 41
3.0
 42
3.0
 43
3.0
 50
270.0
  0
INSERT
  5
CDC2
  8
0
  2
*U36
 10
0.0
 20
0.0
 30
0.0
  0
POINT
  5
CDC3
  8
DEFPOINTS
 62
     0
 10
1140.0
 20
360.99999999999989
 30
0.0
  0
POINT
  5
CDC4
  8
DEFPOINTS
 62
     0
 10
1140.0
 20
320.99999999999989
 30
0.0
  0
POINT
  5
CDC5
  8
DEFPOINTS
 62
     0
 10
1102.5
 20
320.99999999999989
 30
0.0
  0
ENDBLK
  5
AA8D
  8
0
  0
BLOCK
  8
0
  2
*D23
 70
     1
 10
0.0
 20
0.0
 30
0.0
  3
*D23
  1

  0
LINE
  5
CDB4
  8
0
 10
430.0
 20
792.76258918570795
 30
0.0
 11
347.00000000000011
 21
792.76258918570795
 31
0.0
  0
LINE
  5
CDB5
  8
0
 10
429.99999999996811
 20
530.76258918565122
 30
0.0
 11
347.0
 21
530.76258918565122
 31
0.0
  0
LINE
  5
CDB6
  8
0
 10
350.0
 20
789.76258918570795
 30
0.0
 11
350.0
 21
533.76258918565122
 31
0.0
  0
INSERT
  5
CDB7
  8
0
  2
_ORIGIN
 10
350.0
 20
792.76258918570795
 30
0.0
 41
3.0
 42
3.0
 43
3.0
 50
90.0
  0
INSERT
  5
CDB8
  8
0
  2
_ORIGIN
 10
350.0
 20
530.76258918565122
 30
0.0
 41
3.0
 42
3.0
 43
3.0
 50
270.0
  0
INSERT
  5
CDB9
  8
0
  2
*U35
 10
0.0
 20
0.0
 30
0.0
  0
POINT
  5
CDBA
  8
DEFPOINTS
 62
     0
 10
445.0
 20
792.76258918570795
 30
0.0
  0
POINT
  5
CDBB
  8
DEFPOINTS
 62
     0
 10
444.99999999996822
 20
530.76258918565122
 30
0.0
  0
POINT
  5
CDBC
  8
DEFPOINTS
 62
     0
 10
350.0
 20
530.76258918565122
 30
0.0
  0
ENDBLK
  5
AA99
  8
0
  0
BLOCK
  8
0
  2
*D24
 70
     1
 10
0.0
 20
0.0
 30
0.0
  3
*D24
  1

  0
LINE
  5
CDAB
  8
0
 10
430.0
 20
650.76258918565145
 30
0.0
 11
369.50000000000011
 21
650.76258918565145
 31
0.0
  0
LINE
  5
CDAC
  8
0
 10
429.99999999996811
 20
530.76258918565122
 30
0.0
 11
369.5
 21
530.76258918565122
 31
0.0
  0
LINE
  5
CDAD
  8
0
 10
372.5
 20
647.76258918565145
 30
0.0
 11
372.5
 21
533.76258918565122
 31
0.0
  0
INSERT
  5
CDAE
  8
0
  2
_ORIGIN
 10
372.5
 20
650.76258918565145
 30
0.0
 41
3.0
 42
3.0
 43
3.0
 50
90.0
  0
INSERT
  5
CDAF
  8
0
  2
_ORIGIN
 10
372.5
 20
530.76258918565122
 30
0.0
 41
3.0
 42
3.0
 43
3.0
 50
270.0
  0
INSERT
  5
CDB0
  8
0
  2
*U34
 10
0.0
 20
0.0
 30
0.0
  0
POINT
  5
CDB1
  8
DEFPOINTS
 62
     0
 10
445.0
 20
650.76258918565145
 30
0.0
  0
POINT
  5
CDB2
  8
DEFPOINTS
 62
     0
 10
444.99999999996822
 20
530.76258918565122
 30
0.0
  0
POINT
  5
CDB3
  8
DEFPOINTS
 62
     0
 10
372.5
 20
530.76258918565122
 30
0.0
  0
ENDBLK
  5
AAA5
  8
0
  0
BLOCK
  8
0
  2
*D25
 70
     1
 10
0.0
 20
0.0
 30
0.0
  3
*D25
  1

  0
LINE
  5
CDA0
  8
0
 10
835.39999999999134
 20
776.7625891857075
 30
0.0
 11
860.89999999999156
 21
776.7625891857075
 31
0.0
  0
LINE
  5
CDA1
  8
0
 10
648.49999999996805
 20
765.76258918570761
 30
0.0
 11
860.89999999999145
 21
765.76258918570738
 31
0.0
  0
LINE
  5
CDA2
  8
0
 10
857.89999999999145
 20
779.76258918570761
 30
0.0
 11
857.89999999999145
 21
782.76258918570761
 31
0.0
  0
LINE
  5
CDA3
  8
0
 10
857.89999999999145
 20
762.7625891857075
 30
0.0
 11
857.89999999999145
 21
759.7625891857075
 31
0.0
  0
INSERT
  5
CDA4
  8
0
  2
*U33
 10
0.0
 20
0.0
 30
0.0
  0
LINE
  5
CDA5
  8
0
 10
857.89999999999145
 20
776.7625891857075
 30
0.0
 11
857.89999999999145
 21
765.76258918570738
 31
0.0
  0
INSERT
  5
CDA6
  8
0
  2
_ORIGIN
 10
857.89999999999145
 20
776.7625891857075
 30
0.0
 41
3.0
 42
3.0
 43
3.0
 50
270.0
  0
INSERT
  5
CDA7
  8
0
  2
_ORIGIN
 10
857.89999999999145
 20
765.76258918570738
 30
0.0
 41
3.0
 42
3.0
 43
3.0
 50
90.0
  0
POINT
  5
CDA8
  8
DEFPOINTS
 62
     0
 10
820.39999999999145
 20
776.7625891857075
 30
0.0
  0
POINT
  5
CDA9
  8
DEFPOINTS
 62
     0
 10
633.49999999996805
 20
765.76258918570761
 30
0.0
  0
POINT
  5
CDAA
  8
DEFPOINTS
 62
     0
 10
857.89999999999145
 20
765.76258918570738
 30
0.0
  0
ENDBLK
  5
AAB1
  8
0
  0
BLOCK
  8
0
  2
*D26
 70
     1
 10
0.0
 20
0.0
 30
0.0
  3
*D26
  1

  0
LINE
  5
CD95
  8
0
 10
570.0000000000673
 20
530.76258918570829
 30
0.0
 11
608.0000000000673
 21
530.76258918570829
 31
0.0
  0
LINE
  5
CD96
  8
0
 10
610.00000000006719
 20
540.76258918562235
 30
0.0
 11
608.0000000000673
 21
540.76258918562235
 31
0.0
  0
LINE
  5
CD97
  8
0
 10
605.0000000000673
 20
527.76258918570818
 30
0.0
 11
605.0000000000673
 21
524.76258918570818
 31
0.0
  0
LINE
  5
CD98
  8
0
 10
605.0000000000673
 20
543.76258918562235
 30
0.0
 11
605.0000000000673
 21
546.76258918562235
 31
0.0
  0
INSERT
  5
CD99
  8
0
  2
*U32
 10
0.0
 20
0.0
 30
0.0
  0
LINE
  5
CD9A
  8
0
 10
605.0000000000673
 20
530.76258918570829
 30
0.0
 11
605.0000000000673
 21
540.76258918562235
 31
0.0
  0
INSERT
  5
CD9B
  8
0
  2
_ORIGIN
 10
605.0000000000673
 20
530.76258918570829
 30
0.0
 41
3.0
 42
3.0
 43
3.0
 50
90.0
  0
INSERT
  5
CD9C
  8
0
  2
_ORIGIN
 10
605.0000000000673
 20
540.76258918562235
 30
0.0
 41
3.0
 42
3.0
 43
3.0
 50
270.0
  0
POINT
  5
CD9D
  8
DEFPOINTS
 62
     0
 10
555.0000000000673
 20
530.76258918570829
 30
0.0
  0
POINT
  5
CD9E
  8
DEFPOINTS
 62
     0
 10
595.0000000000673
 20
540.76258918562235
 30
0.0
  0
POINT
  5
CD9F
  8
DEFPOINTS
 62
     0
 10
605.0000000000673
 20
540.76258918562235
 30
0.0
  0
ENDBLK
  5
AABF
  8
0
  0
BLOCK
  8
0
  2
*D27
 70
     1
 10
0.0
 20
0.0
 30
0.0
  3
*D27
  1

  0
LINE
  5
CD8C
  8
0
 10
446.399999999996
 20
1005.762589185708
 30
0.0
 11
446.399999999996
 21
1056.2625891857069
 31
0.0
  0
LINE
  5
CD8D
  8
0
 10
802.64770951434821
 20
1005.762589185708
 30
0.0
 11
802.64770951434821
 21
1056.2625891857069
 31
0.0
  0
LINE
  5
CD8E
  8
0
 10
449.39999999999588
 20
1053.2625891857069
 30
0.0
 11
799.64770951434821
 21
1053.2625891857069
 31
0.0
  0
INSERT
  5
CD8F
  8
0
  2
_ORIGIN
 10
446.399999999996
 20
1053.2625891857069
 30
0.0
 41
3.0
 42
3.0
 43
3.0
 50
180.0
  0
INSERT
  5
CD90
  8
0
  2
_ORIGIN
 10
802.64770951434821
 20
1053.2625891857069
 30
0.0
 41
3.0
 42
3.0
 43
3.0
  0
INSERT
  5
CD91
  8
0
  2
*U31
 10
0.0
 20
0.0
 30
0.0
  0
POINT
  5
CD92
  8
DEFPOINTS
 62
     0
 10
446.399999999996
 20
990.76258918570761
 30
0.0
  0
POINT
  5
CD93
  8
DEFPOINTS
 62
     0
 10
802.64770951434821
 20
990.76258918570761
 30
0.0
  0
POINT
  5
CD94
  8
DEFPOINTS
 62
     0
 10
802.64770951434821
 20
1053.2625891857069
 30
0.0
  0
ENDBLK
  5
AACD
  8
0
  0
BLOCK
  8
0
  2
*D28
 70
     1
 10
0.0
 20
0.0
 30
0.0
  3
*D28
  1

  0
LINE
  5
CD83
  8
0
 10
448.39999999995501
 20
807.76258918570784
 30
0.0
 11
448.39999999995501
 21
830.76258918570761
 31
0.0
  0
LINE
  5
CD84
  8
0
 10
613.49999999995453
 20
807.76258918570784
 30
0.0
 11
613.49999999995453
 21
830.76258918570761
 31
0.0
  0
LINE
  5
CD85
  8
0
 10
451.39999999995501
 20
827.76258918570772
 30
0.0
 11
610.49999999995453
 21
827.76258918570772
 31
0.0
  0
INSERT
  5
CD86
  8
0
  2
*U30
 10
0.0
 20
0.0
 30
0.0
  0
INSERT
  5
CD87
  8
0
  2
_ORIGIN
 10
448.39999999995501
 20
827.76258918570772
 30
0.0
 41
3.0
 42
3.0
 43
3.0
 50
180.0
  0
INSERT
  5
CD88
  8
0
  2
_ORIGIN
 10
613.49999999995453
 20
827.76258918570772
 30
0.0
 41
3.0
 42
3.0
 43
3.0
  0
POINT
  5
CD89
  8
DEFPOINTS
 62
     0
 10
448.39999999995501
 20
792.76258918570772
 30
0.0
  0
POINT
  5
CD8A
  8
DEFPOINTS
 62
     0
 10
613.49999999995453
 20
792.76258918570772
 30
0.0
  0
POINT
  5
CD8B
  8
DEFPOINTS
 62
     0
 10
613.49999999995453
 20
827.76258918570772
 30
0.0
  0
ENDBLK
  5
AAD9
  8
0
  0
BLOCK
  8
0
  2
*U29
 70
     1
 10
0.0
 20
0.0
 30
0.0
  3
*U29
  1

  0
INSERT
  5
D07C
  8
0
  2
_OPEN30
 10
455.3999999999005
 20
1056.7625891857081
 30
0.0
 41
6.0
 42
6.0
 43
6.0
 50
299.99999999999841
  0
POLYLINE
  5
D07D
  8
0
 66
     1
 10
0.0
 20
0.0
 30
0.0
  0
VERTEX
  5
D07E
  8
0
 10
452.39999999990067
 20
1061.9587416084139
 30
0.0
  0
VERTEX
  5
D07F
  8
0
 10
440.39999999990141
 20
1082.7433512992411
 30
0.0
  0
VERTEX
  5
D080
  8
0
 10
377.5799999999013
 20
1082.7433512992411
 30
0.0
  0
SEQEND
  5
D081
  8
0
  0
ENDBLK
  5
D083
  8
0
  0
BLOCK
  8
0
  2
*U30
 70
     1
 10
0.0
 20
0.0
 30
0.0
  3
*U30
  1

  0
TEXT
  5
D085
  8
0
 10
498.34999999995478
 20
830.76258918570761
 30
0.0
 40
10.5
  1
165
 41
0.8
  7
横文字
  0
ENDBLK
  5
D087
  8
0
  0
BLOCK
  8
0
  2
*U31
 70
     1
 10
0.0
 20
0.0
 30
0.0
  3
*U31
  1

  0
TEXT
  5
D089
  8
0
 10
603.56385475717207
 20
1056.2625891857069
 30
0.0
 40
10.5
  1
（357）
 41
0.8
  7
横文字
  0
ENDBLK
  5
D08B
  8
0
  0
BLOCK
  8
0
  2
*U32
 70
     1
 10
0.0
 20
0.0
 30
0.0
  3
*U32
  1

  0
TEXT
  5
D08D
  8
0
 10
602.00000000006719
 20
523.8184042203975
 30
0.0
 40
10.5
  1
10
 50
90.0
 41
0.8
  7
横文字
  0
ENDBLK
  5
D08F
  8
0
  0
BLOCK
  8
0
  2
*U33
 70
     1
 10
0.0
 20
0.0
 30
0.0
  3
*U33
  1

  0
TEXT
  5
D091
  8
0
 10
854.89999999999145
 20
758.36258918570763
 30
0.0
 40
10.5
  1
11
 50
90.0
 41
0.8
  7
横文字
  0
ENDBLK
  5
D093
  8
0
  0
BLOCK
  8
0
  2
*U34
 70
     1
 10
0.0
 20
0.0
 30
0.0
  3
*U34
  1

  0
TEXT
  5
D095
  8
0
 10
369.49999999999989
 20
578.16258918565131
 30
0.0
 40
10.5
  1
120
 50
90.0
 41
0.8
  7
横文字
  0
ENDBLK
  5
D097
  8
0
  0
BLOCK
  8
0
  2
*U35
 70
     1
 10
0.0
 20
0.0
 30
0.0
  3
*U35
  1

  0
TEXT
  5
D099
  8
0
 10
346.99999999999989
 20
649.76258918567964
 30
0.0
 40
10.5
  1
262
 50
90.0
 41
0.8
  7
横文字
  0
ENDBLK
  5
D09B
  8
0
  0
BLOCK
  8
0
  2
*U36
 70
     1
 10
0.0
 20
0.0
 30
0.0
  3
*U36
  1

  0
TEXT
  5
D09D
  8
0
 10
1099.5
 20
333.0
 30
0.0
 40
10.5
  1
40
 50
90.0
 41
0.8
  7
横文字
  0
ENDBLK
  5
D09F
  8
0
  0
BLOCK
  8
0
  2
*U37
 70
     1
 10
0.0
 20
0.0
 30
0.0
  3
*U37
  1

  0
TEXT
  5
D0A1
  8
0
 10
1182.0
 20
271.49999999999989
 30
0.0
 40
10.5
  1
80
 41
0.8
  7
横文字
  0
ENDBLK
  5
D0A3
  8
0
  0
BLOCK
  8
0
  2
*U38
 70
     1
 10
0.0
 20
0.0
 30
0.0
  3
*U38
  1

  0
TEXT
  5
D0A5
  8
0
 10
1262.0
 20
271.49999999999989
 30
0.0
 40
10.5
  1
80
 41
0.8
  7
横文字
  0
ENDBLK
  5
D0A7
  8
0
  0
BLOCK
  8
0
  2
*U39
 70
     1
 10
0.0
 20
0.0
 30
0.0
  3
*U39
  1

  0
TEXT
  5
D0A9
  8
0
 10
1409.5
 20
333.00000000000011
 30
0.0
 40
10.5
  1
50
 50
90.0
 41
0.8
  7
横文字
  0
ENDBLK
  5
D0AB
  8
0
  0
BLOCK
  8
0
  2
*U40
 70
     1
 10
0.0
 20
0.0
 30
0.0
  3
*U40
  1

  0
TEXT
  5
D0AD
  8
0
 10
1469.5
 20
271.49999999999972
 30
0.0
 40
10.5
  1
35
 41
0.8
  7
横文字
  0
ENDBLK
  5
D0AF
  8
0
  0
BLOCK
  8
0
  2
*U41
 70
     1
 10
0.0
 20
0.0
 30
0.0
  3
*U41
  1

  0
TEXT
  5
D0B1
  8
0
 10
391.99999999996771
 20
523.31165528548479
 30
0.0
 40
10.5
  1
10
 50
90.0
 41
0.8
  7
横文字
  0
ENDBLK
  5
D0B3
  8
0
  0
BLOCK
  8
0
  2
*U42
 70
     1
 10
0.0
 20
0.0
 30
0.0
  3
*U42
  1

  0
TEXT
  5
D0B5
  8
0
 10
541.19999999999357
 20
1033.7625891857069
 30
0.0
 40
10.5
  1
214
 41
0.8
  7
横文字
  0
ENDBLK
  5
D0B7
  8
0
  0
BLOCK
  8
0
  2
*U43
 70
     1
 10
0.0
 20
0.0
 30
0.0
  3
*U43
  1

  0
TEXT
  5
D0B9
  8
0
 10
601.99999999999625
 20
284.2625891857345
 30
0.0
 40
10.5
  1
23
 50
90.0
 41
0.8
  7
横文字
  0
ENDBLK
  5
D0BB
  8
0
  0
BLOCK
  8
0
  2
*U44
 70
     1
 10
0.0
 20
0.0
 30
0.0
  3
*U44
  1

  0
TEXT
  5
D0BD
  8
0
 10
601.99999999999625
 20
264.66258918573459
 30
0.0
 40
10.5
  1
15
 50
90.0
 41
0.8
  7
横文字
  0
ENDBLK
  5
D0BF
  8
0
  0
BLOCK
  8
0
  2
*U45
 70
     1
 10
0.0
 20
0.0
 30
0.0
  3
*U45
  1

  0
TEXT
  5
D0C1
  8
0
 10
899.89999999999134
 20
401.36258918573481
 30
0.0
 40
10.5
  1
H
 50
90.0
 41
0.8
  7
横文字
  0
ENDBLK
  5
D0C3
  8
0
  0
BLOCK
  8
0
  2
*U46
 70
     1
 10
0.0
 20
0.0
 30
0.0
  3
*U46
  1

  0
TEXT
  5
D0C5
  8
0
 10
491.99999999999631
 20
224.66258918570779
 30
0.0
 40
10.5
  1
40
 41
0.8
  7
横文字
  0
ENDBLK
  5
D0C7
  8
0
  0
BLOCK
  8
0
  2
*U47
 70
     1
 10
0.0
 20
0.0
 30
0.0
  3
*U47
  1

  0
TEXT
  5
D0C9
  8
0
 10
877.39999999999134
 20
641.76258918570795
 30
0.0
 40
10.5
  1
246
 50
90.0
 41
0.8
  7
横文字
  0
ENDBLK
  5
D0CB
  8
0
  0
BLOCK
  8
0
  2
*U48
 70
     1
 10
0.0
 20
0.0
 30
0.0
  3
*U48
  1

  0
TEXT
  5
D0CD
  8
0
 10
877.39999999999122
 20
866.56258918570768
 30
0.0
 40
10.5
  1
204
 50
90.0
 41
0.8
  7
横文字
  0
ENDBLK
  5
D0CF
  8
0
  0
BLOCK
  8
0
  2
*U49
 70
     1
 10
0.0
 20
0.0
 30
0.0
  3
*U49
  1

  0
TEXT
  5
D0D1
  8
0
 10
899.89999999999134
 20
743.76258918570807
 30
0.0
 40
10.5
  1
450
 50
90.0
 41
0.8
  7
横文字
  0
ENDBLK
  5
D0D3
  8
0
  0
BLOCK
  8
0
  2
*U50
 70
     1
 10
0.0
 20
0.0
 30
0.0
  3
*U50
  1

  0
TEXT
  5
D0D5
  8
0
 10
527.0
 20
483.76258918562178
 30
0.0
 40
10.5
  1
20
 41
0.8
  7
横文字
  0
ENDBLK
  5
D0D7
  8
0
  0
BLOCK
  8
0
  2
*U51
 70
     1
 10
0.0
 20
0.0
 30
0.0
  3
*U51
  1

  0
TEXT
  5
D0D9
  8
0
 10
492.0
 20
483.76258918562178
 30
0.0
 40
10.5
  1
50
 41
0.8
  7
横文字
  0
ENDBLK
  5
D0DB
  8
0
  0
BLOCK
  8
0
  2
*U52
 70
     1
 10
0.0
 20
0.0
 30
0.0
  3
*U52
  1

  0
TEXT
  5
D0DD
  8
0
 10
457.0
 20
483.76258918562178
 30
0.0
 40
10.5
  1
20
 41
0.8
  7
横文字
  0
ENDBLK
  5
D0DF
  8
0
  0
ENDSEC
  0
SECTION
  2
ENTITIES
  0
LINE
  5
9F
  8
0
 10
1638.0
 20
0.0
 30
0.0
 11
0.0
 21
0.0
 31
0.0
  0
LINE
  5
A0
  8
0
 10
0.0
 20
1174.5
 30
0.0
 11
1638.0
 21
1174.5
 31
0.0
  0
LINE
  5
A1
  8
0
 10
0.0
 20
1174.5
 30
0.0
 11
0.0
 21
0.0
 31
0.0
  0
LINE
  5
A2
  8
0
 10
1638.0
 20
1174.5
 30
0.0
 11
1638.0
 21
0.0
 31
0.0
  0
LINE
  5
A3
  8
0
 10
1013.0
 20
40.000000000000007
 30
0.0
 11
1013.0
 21
0.0000000000000092
 31
0.0
  0
TEXT
  5
A4
  8
0
 10
1097.9999999999959
 20
24.750000000000011
 30
0.0
 40
10.5
  1
可動式防煙たれ壁「ケムカーテン」
 11
1097.9999999999959
 21
30.000000000000021
 31
0.0
 73
     2
  0
TEXT
  5
A5
  8
0
 10
1022.999999999996
 20
24.750000000000011
 30
0.0
 40
10.5
  1
製品名称  :
 11
1022.999999999996
 21
30.000000000000021
 31
0.0
 73
     2
  0
TEXT
  5
A6
  8
0
 10
1097.9999999999959
 20
4.7500000000000071
 30
0.0
 40
10.5
  1
たて納まり・半可動レール・電動
 11
1097.9999999999959
 21
10.0
 31
0.0
 73
     2
  0
TEXT
  5
A7
  8
0
 10
1022.999999999996
 20
4.7500000000000071
 30
0.0
 40
10.5
  1
納まり　　:
 11
1022.999999999996
 21
10.0
 31
0.0
 73
     2
  0
LINE
  5
A8
  8
0
 10
1013.0
 20
20.000000000000011
 30
0.0
 11
1388.0
 21
20.0
 31
0.0
  0
LINE
  5
A9
  8
0
 10
1388.0
 20
40.0
 30
0.0
 11
1388.0
 21
0.0
 31
0.0
  0
TEXT
  5
AA
  8
0
 10
1399.833333333333
 20
11.249999999999959
 30
0.0
 40
17.5
  1
東洋シヤッター株式会社
 72
     1
 11
1513.0
 21
19.999999999999961
 31
0.0
 73
     2
  0
LINE
  5
AB
  8
0
 10
1013.0
 20
40.000000000000007
 30
0.0
 11
1638.0
 21
40.0
 31
0.0
  0
TEXT
  5
AC
  8
0
 10
1297.9999999999959
 20
4.7500000000000071
 30
0.0
 40
10.5
  1
縮尺:1/3
 11
1297.9999999999959
 21
10.0
 31
0.0
 73
     2
  0
LINE
  5
A659
  8
0
 10
250.0
 20
549.76258918562189
 30
0.0
 11
465.0
 21
549.76258918562189
 31
0.0
  0
LINE
  5
A65A
  8
0
 10
465.0
 20
549.76258918562189
 30
0.0
 11
465.0
 21
540.76258918562189
 31
0.0
  0
LINE
  5
A65B
  8
0
 10
465.0
 20
540.76258918562189
 30
0.0
 11
250.0
 21
540.76258918562189
 31
0.0
  0
LINE
  5
A65C
  8
0
 10
1000.0
 20
549.76258918562189
 30
0.0
 11
534.99999999999272
 21
549.76258918562189
 31
0.0
  0
LINE
  5
A65D
  8
0
 10
534.99999999999272
 20
549.76258918562189
 30
0.0
 11
534.99999999999272
 21
540.76258918562189
 31
0.0
  0
LINE
  5
A65E
  8
0
 10
534.99999999999272
 20
540.76258918562189
 30
0.0
 11
1000.0
 21
540.76258918562189
 31
0.0
  0
LINE
  5
A65F
  8
0
  6
CENTER2
 10
500.0
 20
709.47299291377487
 30
0.0
 11
500.0
 21
265.76258918570778
 31
0.0
  0
DIMENSION
  5
A660
  8
0
  2
*D4
 10
475.0
 20
480.76258918562178
 30
0.0
 11
465.0
 21
489.01258918562178
 31
0.0
 70
     0
 13
455.0
 23
520.76258918562166
 33
0.0
 14
475.0
 24
520.76258918562166
 34
0.0
  0
DIMENSION
  5
A661
  8
0
  2
*D5
 10
525.0
 20
480.76258918562178
 30
0.0
 11
500.0
 21
489.01258918562178
 31
0.0
 70
     0
 13
475.0
 23
520.76258918562166
 33
0.0
 14
525.0
 24
520.76258918562166
 34
0.0
  0
DIMENSION
  5
A662
  8
0
  2
*D6
 10
545.0
 20
480.76258918562178
 30
0.0
 11
535.0
 21
489.01258918562178
 31
0.0
 70
     0
 13
525.0
 23
520.76258918562166
 33
0.0
 14
545.0
 24
520.76258918562166
 34
0.0
  0
LINE
  5
A663
  8
0
 10
474.99999999999631
 20
650.76258918565122
 30
0.0
 11
492.99999999999631
 21
650.76258918565122
 31
0.0
  0
LINE
  5
A664
  8
0
 10
495.99999999999631
 20
635.76258918565122
 30
0.0
 11
495.99999999999631
 21
410.7625891857079
 31
0.0
  0
LINE
  5
A665
  8
0
 10
524.99999999999625
 20
265.76258918570778
 30
0.0
 11
474.99999999999631
 21
265.76258918570778
 31
0.0
  0
LINE
  5
A666
  8
0
 10
474.99999999999631
 20
264.16258918570782
 30
0.0
 11
474.99999999999631
 21
400.76258918565128
 31
0.0
  0
LINE
  5
A667
  8
0
 10
506.99999999999631
 20
650.76258918565122
 30
0.0
 11
524.99999999999625
 21
650.76258918565122
 31
0.0
  0
LINE
  5
A668
  8
0
 10
524.99999999999625
 20
650.76258918565122
 30
0.0
 11
524.99999999999625
 21
410.7625891857079
 31
0.0
  0
LINE
  5
A669
  8
0
 10
524.99999999999625
 20
264.16258918570782
 30
0.0
 11
474.99999999999631
 21
264.16258918570782
 31
0.0
  0
LINE
  5
A66A
  8
0
 10
503.99999999999631
 20
265.76258918570778
 30
0.0
 11
503.99999999999631
 21
280.76258918570778
 31
0.0
  0
LINE
  5
A66B
  8
0
 10
524.99999999999625
 20
400.76258918565128
 30
0.0
 11
524.99999999999625
 21
264.16258918570782
 31
0.0
  0
LINE
  5
A66C
  8
0
 10
503.99999999999631
 20
410.7625891857079
 30
0.0
 11
503.99999999999631
 21
635.762589185651
 31
0.0
  0
LINE
  5
A66D
  8
0
 10
495.99999999999631
 20
400.76258918565128
 30
0.0
 11
495.99999999999631
 21
303.76258918570772
 31
0.0
  0
LINE
  5
A66E
  8
0
 10
474.99999999999631
 20
410.7625891857079
 30
0.0
 11
474.99999999999631
 21
650.76258918565122
 31
0.0
  0
LINE
  5
A66F
  8
0
 10
495.99999999999631
 20
635.76258918565122
 30
0.0
 11
492.99999999999631
 21
650.76258918565122
 31
0.0
  0
LINE
  5
A670
  8
0
 10
503.99999999999631
 20
635.76258918565122
 30
0.0
 11
506.99999999999631
 21
650.76258918565122
 31
0.0
  0
LINE
  5
A671
  8
0
 10
495.99999999999631
 20
280.76258918570778
 30
0.0
 11
495.99999999999631
 21
265.76258918570778
 31
0.0
  0
LINE
  5
A672
  8
0
 10
503.99999999999631
 20
303.76258918570772
 30
0.0
 11
503.99999999999631
 21
400.76258918565128
 31
0.0
  0
DIMENSION
  5
A673
  8
0
  2
*D7
 10
902.89999999999145
 20
530.76258918570818
 30
0.0
 11
894.64999999999134
 21
755.76258918570795
 31
0.0
 70
     0
 13
820.39999999999145
 23
980.76258918570761
 33
0.0
 14
555.0000000000673
 24
530.76258918570829
 34
0.0
 50
90.0
1001
ACAD
1000
DSTYLE
1002
{
1070
    50
1040
1.5707963267948959
1002
}
  0
DIMENSION
  5
A674
  8
0
  2
*D8
 10
880.39999999999145
 20
776.7625891857075
 30
0.0
 11
872.14999999999111
 21
878.76258918570795
 31
0.0
 70
     0
 13
820.39999999999145
 23
980.76258918570761
 33
0.0
 14
820.39999999999145
 24
776.7625891857075
 34
0.0
 50
90.0
1001
ACAD
1000
DSTYLE
1002
{
1070
    50
1040
1.5707963267948959
1002
}
  0
DIMENSION
  5
A675
  8
0
  2
*D9
 10
880.39999999999145
 20
530.76258918570818
 30
0.0
 11
872.14999999999134
 21
653.76258918570795
 31
0.0
 70
     0
 13
820.39999999999145
 23
776.7625891857075
 33
0.0
 14
555.0000000000673
 24
530.76258918570829
 34
0.0
 50
90.0
1001
ACAD
1000
DSTYLE
1002
{
1070
    50
1040
1.5707963267948959
1002
}
  0
LINE
  5
A676
  8
0
 10
499.99999999999631
 20
325.76258918570772
 30
0.0
 11
499.99999999999631
 21
283.56258918570768
 31
0.0
  0
LINE
  5
A677
  8
0
 10
501.19999999999618
 20
282.36258918570769
 30
0.0
 11
517.19999999999607
 21
282.36258918570769
 31
0.0
  0
LINE
  5
A678
  8
0
 10
518.399999999996
 20
283.56258918570768
 30
0.0
 11
518.399999999996
 21
302.56258918570779
 31
0.0
  0
LINE
  5
A679
  8
0
 10
517.19999999999607
 20
303.76258918570772
 30
0.0
 11
508.39999999999588
 21
303.76258918570772
 31
0.0
  0
LINE
  5
A67A
  8
0
 10
508.39999999999588
 20
303.76258918570772
 30
0.0
 11
508.39999999999588
 21
302.56258918570779
 31
0.0
  0
LINE
  5
A67B
  8
0
 10
508.39999999999588
 20
302.56258918570779
 30
0.0
 11
517.19999999999607
 21
302.56258918570779
 31
0.0
  0
LINE
  5
A67C
  8
0
 10
517.19999999999607
 20
302.56258918570779
 30
0.0
 11
517.19999999999607
 21
283.56258918570768
 31
0.0
  0
LINE
  5
A67D
  8
0
 10
517.19999999999607
 20
283.56258918570768
 30
0.0
 11
501.19999999999618
 21
283.56258918570768
 31
0.0
  0
LINE
  5
A67E
  8
0
 10
501.19999999999618
 20
283.56258918570768
 30
0.0
 11
501.19999999999618
 21
325.76258918570772
 31
0.0
  0
LINE
  5
A67F
  8
0
 10
501.19999999999618
 20
325.76258918570772
 30
0.0
 11
499.99999999999631
 21
325.76258918570772
 31
0.0
  0
ARC
  5
A680
  8
0
 10
501.19999999999618
 20
283.56258918570768
 30
0.0
 40
1.1999999999999991
 50
180.0
 51
270.0
  0
ARC
  5
A681
  8
0
 10
517.19999999999607
 20
283.56258918570768
 30
0.0
 40
1.1999999999999991
 50
270.0
 51
0.0
  0
ARC
  5
A682
  8
0
 10
517.19999999999607
 20
302.56258918570779
 30
0.0
 40
1.1999999999999991
 50
0.0
 51
90.0
  0
LINE
  5
A683
  8
0
 10
499.99999999999631
 20
325.76258918570772
 30
0.0
 11
499.99999999999631
 21
283.56258918570768
 31
0.0
  0
LINE
  5
A684
  8
0
 10
498.79999999999649
 20
282.36258918570769
 30
0.0
 11
482.79999999999649
 21
282.36258918570769
 31
0.0
  0
LINE
  5
A685
  8
0
 10
481.59999999999661
 20
283.56258918570768
 30
0.0
 11
481.59999999999661
 21
302.56258918570779
 31
0.0
  0
LINE
  5
A686
  8
0
 10
482.79999999999649
 20
303.76258918570772
 30
0.0
 11
491.59999999999673
 21
303.76258918570772
 31
0.0
  0
LINE
  5
A687
  8
0
 10
491.59999999999673
 20
303.76258918570772
 30
0.0
 11
491.59999999999673
 21
302.56258918570779
 31
0.0
  0
LINE
  5
A688
  8
0
 10
491.59999999999673
 20
302.56258918570779
 30
0.0
 11
482.79999999999649
 21
302.56258918570779
 31
0.0
  0
LINE
  5
A689
  8
0
 10
482.79999999999649
 20
302.56258918570779
 30
0.0
 11
482.79999999999649
 21
283.56258918570768
 31
0.0
  0
LINE
  5
A68A
  8
0
 10
482.79999999999649
 20
283.56258918570768
 30
0.0
 11
498.79999999999649
 21
283.56258918570768
 31
0.0
  0
LINE
  5
A68B
  8
0
 10
498.79999999999649
 20
283.56258918570768
 30
0.0
 11
498.79999999999649
 21
325.76258918570772
 31
0.0
  0
LINE
  5
A68C
  8
0
 10
498.79999999999649
 20
325.76258918570772
 30
0.0
 11
499.99999999999631
 21
325.76258918570772
 31
0.0
  0
ARC
  5
A68D
  8
0
 10
498.79999999999649
 20
283.56258918570768
 30
0.0
 40
1.1999999999999991
 50
270.0
 51
0.0
  0
ARC
  5
A68E
  8
0
 10
482.79999999999649
 20
283.56258918570768
 30
0.0
 40
1.1999999999999991
 50
180.0
 51
270.0
  0
ARC
  5
A68F
  8
0
 10
482.79999999999649
 20
302.56258918570779
 30
0.0
 40
1.1999999999999991
 50
90.0
 51
180.0
  0
LINE
  5
A690
  8
0
 10
479.99999999999631
 20
301.76258918570772
 30
0.0
 11
479.99999999999631
 21
282.36258918570769
 31
0.0
  0
LINE
  5
A691
  8
0
 10
481.59999999999661
 20
280.76258918570772
 30
0.0
 11
518.399999999996
 21
280.76258918570772
 31
0.0
  0
LINE
  5
A692
  8
0
 10
519.99999999999625
 20
282.36258918570769
 30
0.0
 11
519.99999999999625
 21
301.76258918570772
 31
0.0
  0
LINE
  5
A693
  8
0
 10
519.99999999999625
 20
301.76258918570772
 30
0.0
 11
518.399999999996
 21
301.76258918570772
 31
0.0
  0
LINE
  5
A694
  8
0
 10
518.399999999996
 20
301.76258918570772
 30
0.0
 11
518.399999999996
 21
282.36258918570769
 31
0.0
  0
LINE
  5
A695
  8
0
 10
518.399999999996
 20
282.36258918570769
 30
0.0
 11
481.59999999999661
 21
282.36258918570769
 31
0.0
  0
LINE
  5
A696
  8
0
 10
481.59999999999661
 20
282.36258918570769
 30
0.0
 11
481.59999999999661
 21
301.76258918570772
 31
0.0
  0
LINE
  5
A697
  8
0
 10
481.59999999999661
 20
301.76258918570772
 30
0.0
 11
479.99999999999631
 21
301.76258918570772
 31
0.0
  0
ARC
  5
A698
  8
0
 10
481.59999999999661
 20
282.36258918570769
 30
0.0
 40
1.6000000000000001
 50
180.0
 51
270.0
  0
ARC
  5
A699
  8
0
 10
518.399999999996
 20
282.36258918570769
 30
0.0
 40
1.6000000000000001
 50
270.0
 51
0.0
  0
DIMENSION
  5
A69A
  8
0
  2
*D10
 10
519.99999999999625
 20
221.66258918570779
 30
0.0
 11
499.99999999999631
 21
229.91258918570779
 31
0.0
 70
     0
 13
479.99999999999631
 23
259.16258918570782
 33
0.0
 14
519.99999999999625
 24
259.16258918570782
 34
0.0
  0
DIMENSION
  5
A69D
  8
0
  2
*D11
 10
902.89999999999145
 20
280.7625891857611
 30
0.0
 11
894.64999999999134
 21
405.76258918573478
 31
0.0
 70
     0
  1
H
 13
555.0000000000673
 23
530.76258918570829
 33
0.0
 14
554.99999999999625
 24
280.76258918576121
 34
0.0
 50
90.0
1001
ACAD
1000
DSTYLE
1002
{
1070
    50
1040
1.5707963267948959
1002
}
  0
DIMENSION
  5
A69E
  8
0
  2
*D12
 10
604.99999999999625
 20
265.7625891857079
 30
0.0
 11
596.74999999999625
 21
273.26258918573461
 31
0.0
 70
     0
 13
554.99999999999625
 23
280.76258918576121
 33
0.0
 14
554.99999999999625
 24
265.7625891857079
 34
0.0
 50
90.0
1001
ACAD
1000
DSTYLE
1002
{
1070
    50
1040
1.5707963267948959
1002
}
  0
DIMENSION
  5
A69F
  8
0
  2
*D13
 10
604.99999999999625
 20
303.76258918570772
 30
0.0
 11
596.74999999999625
 21
292.2625891857345
 31
0.0
 70
     0
 13
554.99999999999625
 23
280.76258918576121
 33
0.0
 14
554.99999999999625
 24
303.76258918570772
 34
0.0
 50
90.0
1001
ACAD
1000
DSTYLE
1002
{
1070
    50
1040
1.5707963267948959
1002
}
  0
DIMENSION
  5
A6A1
  8
0
  2
*D14
 10
660.39999999999145
 20
1030.7625891857069
 30
0.0
 11
553.39999999999372
 21
1039.0125891857069
 31
0.0
 70
     0
 13
446.399999999996
 23
990.76258918570761
 33
0.0
 14
660.39999999999145
 24
990.76258918570761
 34
0.0
1001
ACAD
1000
DSTYLE
1002
{
1070
    50
1040
1.5707963267948959
1002
}
  0
LINE
  5
A6A5
  8
0
 10
449.99999999996822
 20
410.7625891857079
 30
0.0
 11
549.99999999996817
 21
410.7625891857079
 31
0.0
  0
LINE
  5
A6A6
  8
0
 10
449.99999999996822
 20
400.7625891857079
 30
0.0
 11
549.99999999996817
 21
400.7625891857079
 31
0.0
  0
DIMENSION
  5
A6A7
  8
0
  2
*D15
 10
394.99999999996771
 20
530.76258918565122
 30
0.0
 11
386.74999999996771
 21
531.91165528548481
 31
0.0
 70
   128
 13
404.99999999996771
 23
540.76258918565145
 33
0.0
 14
444.99999999996822
 24
530.76258918565122
 34
0.0
 50
90.0
  0
LINE
  5
A6A9
  8
0
 10
1222.0
 20
320.99999999999989
 30
0.0
 11
1151.5999999999999
 21
320.99999999999989
 31
0.0
  0
LINE
  5
A6AA
  8
0
 10
1150.0
 20
322.5999999999998
 30
0.0
 11
1150.0
 21
335.25390639829033
 31
0.0
  0
ARC
  5
A6AB
  8
0
 10
1151.5999999999999
 20
335.25390639829033
 30
0.0
 40
1.6000000000000001
 50
85.000000000000213
 51
180.0
  0
LINE
  5
A6AC
  8
0
 10
1151.5999999999999
 20
335.25390639829033
 30
0.0
 11
1151.5999999999999
 21
322.5999999999998
 31
0.0
  0
LINE
  5
A6AD
  8
0
 10
1151.5999999999999
 20
322.5999999999998
 30
0.0
 11
1222.0
 21
322.5999999999998
 31
0.0
  0
LINE
  5
A6AE
  8
0
 10
1222.0
 20
322.5999999999998
 30
0.0
 11
1222.0
 21
320.99999999999989
 31
0.0
  0
ARC
  5
A6AF
  8
0
 10
1151.5999999999999
 20
322.5999999999998
 30
0.0
 40
1.6000000000000001
 50
180.0
 51
270.0
  0
LINE
  5
A6B0
  8
0
 10
1159.9619469809311
 20
336.1284425725234
 30
0.0
 11
1151.7394491883961
 21
336.84781791523699
 31
0.0
  0
LINE
  5
A6B1
  8
0
 10
1151.5999999999999
 20
335.25390639829033
 30
0.0
 11
1159.8224977925161
 21
334.53453105557821
 31
0.0
  0
LINE
  5
A6B2
  8
0
 10
1159.9619469809311
 20
336.1284425725234
 30
0.0
 11
1159.8224977925161
 21
334.53453105557821
 31
0.0
  0
LINE
  5
A6B3
  8
0
 10
1222.0
 20
360.99999999999989
 30
0.0
 11
1151.5999999999999
 21
360.99999999999989
 31
0.0
  0
LINE
  5
A6B4
  8
0
 10
1150.0
 20
359.39999999999998
 30
0.0
 11
1150.0
 21
346.7460936017095
 31
0.0
  0
ARC
  5
A6B5
  8
0
 10
1151.5999999999999
 20
346.7460936017095
 30
0.0
 40
1.6000000000000001
 50
180.0
 51
274.99999999999977
  0
LINE
  5
A6B6
  8
0
 10
1151.5999999999999
 20
346.7460936017095
 30
0.0
 11
1151.5999999999999
 21
359.39999999999998
 31
0.0
  0
LINE
  5
A6B7
  8
0
 10
1151.5999999999999
 20
359.39999999999998
 30
0.0
 11
1222.0
 21
359.39999999999998
 31
0.0
  0
ARC
  5
A6B8
  8
0
 10
1151.5999999999999
 20
359.39999999999998
 30
0.0
 40
1.6000000000000001
 50
90.0
 51
180.0
  0
LINE
  5
A6B9
  8
0
 10
1159.9619469809311
 20
345.87155742747638
 30
0.0
 11
1151.7394491883961
 21
345.15218208476279
 31
0.0
  0
LINE
  5
A6BA
  8
0
 10
1151.5999999999999
 20
346.7460936017095
 30
0.0
 11
1159.8224977925161
 21
347.46546894442179
 31
0.0
  0
LINE
  5
A6BB
  8
0
 10
1159.9619469809311
 20
345.87155742747638
 30
0.0
 11
1159.8224977925161
 21
347.46546894442179
 31
0.0
  0
LINE
  5
A6BC
  8
0
 10
1230.0
 20
323.0599999999996
 30
0.0
 11
1230.0
 21
322.5999999999998
 31
0.0
  0
LINE
  5
A6BD
  8
0
 10
1230.0
 20
322.5999999999998
 30
0.0
 11
1212.0
 21
322.5999999999998
 31
0.0
  0
LINE
  5
A6BE
  8
0
 10
1212.0
 20
322.5999999999998
 30
0.0
 11
1212.0
 21
323.0599999999996
 31
0.0
  0
LINE
  5
A6BF
  8
0
 10
1212.0
 20
323.0599999999996
 30
0.0
 11
1230.0
 21
323.0599999999996
 31
0.0
  0
LINE
  5
A6C0
  8
0
 10
1222.0
 20
324.65999999999968
 30
0.0
 11
1222.0
 21
323.0599999999996
 31
0.0
  0
LINE
  5
A6C1
  8
0
 10
1222.0
 20
323.0599999999996
 30
0.0
 11
1213.0
 21
323.0599999999996
 31
0.0
  0
LINE
  5
A6C2
  8
0
 10
1213.0
 20
323.0599999999996
 30
0.0
 11
1213.0
 21
324.65999999999968
 31
0.0
  0
LINE
  5
A6C3
  8
0
 10
1213.0
 20
324.65999999999968
 30
0.0
 11
1222.0
 21
324.65999999999968
 31
0.0
  0
LINE
  5
A6C4
  8
0
  6
CONTINUOUS
 10
1213.2
 20
326.65999999999968
 30
0.0
 11
1220.8
 21
326.65999999999968
 31
0.0
  0
LINE
  5
A6C5
  8
0
  6
CONTINUOUS
 10
1213.2
 20
324.65999999999968
 30
0.0
 11
1213.2
 21
326.65999999999968
 31
0.0
  0
LINE
  5
A6C6
  8
0
  6
CONTINUOUS
 10
1220.8
 20
324.65999999999968
 30
0.0
 11
1213.2
 21
324.65999999999968
 31
0.0
  0
LINE
  5
A6C7
  8
0
  6
CONTINUOUS
 10
1220.8
 20
326.65999999999968
 30
0.0
 11
1220.8
 21
324.65999999999968
 31
0.0
  0
LINE
  5
A6C8
  8
0
 10
1214.5431705827421
 20
329.33443841038059
 30
0.0
 11
1214.766518711584
 21
327.77239123018001
 31
0.0
  0
LINE
  5
A6C9
  8
0
 10
1219.4568294172579
 20
329.33443841038059
 30
0.0
 11
1214.5431705827421
 21
329.33443841038059
 31
0.0
  0
LINE
  5
A6CA
  8
0
 10
1219.233481288416
 20
327.54924163300859
 30
0.0
 11
1219.4568294172579
 21
329.33443841038059
 31
0.0
  0
ARC
  5
A6CB
  8
0
 10
1217.0
 20
325.52347338647712
 30
0.0
 40
5.9999999999999627
 50
228.93041348683391
 51
311.0695865131662
  0
LINE
  5
A6CC
  8
0
 10
1214.766518711584
 20
327.77239123018001
 30
0.0
 11
1215.2837069677189
 21
326.65999999999968
 31
0.0
  0
LINE
  5
A6CD
  8
0
 10
1218.4837069677189
 20
326.65999999999968
 30
0.0
 11
1219.233481288416
 21
327.54924163300859
 31
0.0
  0
LINE
  5
A6CE
  8
0
  6
CENTER2
 10
1217.0000000000041
 20
332.0599999999996
 30
0.0
 11
1217.0000000000041
 21
317.0599999999996
 31
0.0
  0
LINE
  5
A6CF
  8
0
  6
CONTINUOUS
 10
1216.3997879560491
 20
324.65999999999968
 30
0.0
 11
1217.5791422156669
 21
326.65999999999968
 31
0.0
  0
LINE
  5
A6D0
  8
0
  6
CONTINUOUS
 10
1215.71759861839
 20
324.65999999999968
 30
0.0
 11
1216.8969528780081
 21
326.65999999999968
 31
0.0
  0
LINE
  5
A6D1
  8
0
 10
1222.0
 20
359.39999999999998
 30
0.0
 11
1222.0
 21
360.99999999999989
 31
0.0
  0
LINE
  5
A6D2
  8
0
 10
1230.0
 20
358.93999999999988
 30
0.0
 11
1230.0
 21
359.39999999999998
 31
0.0
  0
LINE
  5
A6D3
  8
0
 10
1230.0
 20
359.39999999999998
 30
0.0
 11
1212.0
 21
359.39999999999998
 31
0.0
  0
LINE
  5
A6D4
  8
0
 10
1212.0
 20
359.39999999999998
 30
0.0
 11
1212.0
 21
358.93999999999988
 31
0.0
  0
LINE
  5
A6D5
  8
0
 10
1212.0
 20
358.93999999999988
 30
0.0
 11
1230.0
 21
358.93999999999988
 31
0.0
  0
LINE
  5
A6D6
  8
0
 10
1222.0
 20
357.3399999999998
 30
0.0
 11
1222.0
 21
358.93999999999988
 31
0.0
  0
LINE
  5
A6D7
  8
0
 10
1222.0
 20
358.93999999999988
 30
0.0
 11
1213.0
 21
358.93999999999988
 31
0.0
  0
LINE
  5
A6D8
  8
0
 10
1213.0
 20
358.93999999999988
 30
0.0
 11
1213.0
 21
357.3399999999998
 31
0.0
  0
LINE
  5
A6D9
  8
0
 10
1213.0
 20
357.3399999999998
 30
0.0
 11
1222.0
 21
357.3399999999998
 31
0.0
  0
LINE
  5
A6DA
  8
0
  6
CONTINUOUS
 10
1213.2
 20
355.3399999999998
 30
0.0
 11
1220.8
 21
355.3399999999998
 31
0.0
  0
LINE
  5
A6DB
  8
0
  6
CONTINUOUS
 10
1213.2
 20
357.3399999999998
 30
0.0
 11
1213.2
 21
355.3399999999998
 31
0.0
  0
LINE
  5
A6DC
  8
0
  6
CONTINUOUS
 10
1220.8
 20
357.3399999999998
 30
0.0
 11
1213.2
 21
357.3399999999998
 31
0.0
  0
LINE
  5
A6DD
  8
0
  6
CONTINUOUS
 10
1220.8
 20
355.3399999999998
 30
0.0
 11
1220.8
 21
357.3399999999998
 31
0.0
  0
LINE
  5
A6DE
  8
0
 10
1214.5431705827421
 20
352.6655615896189
 30
0.0
 11
1214.766518711584
 21
354.22760876981982
 31
0.0
  0
LINE
  5
A6DF
  8
0
 10
1219.4568294172579
 20
352.6655615896189
 30
0.0
 11
1214.5431705827421
 21
352.6655615896189
 31
0.0
  0
LINE
  5
A6E0
  8
0
 10
1219.233481288416
 20
354.45075836699118
 30
0.0
 11
1219.4568294172579
 21
352.6655615896189
 31
0.0
  0
ARC
  5
A6E1
  8
0
 10
1217.0
 20
356.47652661352271
 30
0.0
 40
5.9999999999999627
 50
48.930413486833757
 51
131.0695865131662
  0
LINE
  5
A6E2
  8
0
 10
1214.766518711584
 20
354.22760876981982
 30
0.0
 11
1215.2837069677189
 21
355.3399999999998
 31
0.0
  0
LINE
  5
A6E3
  8
0
 10
1218.4837069677189
 20
355.3399999999998
 30
0.0
 11
1219.233481288416
 21
354.45075836699118
 31
0.0
  0
LINE
  5
A6E4
  8
0
  6
CENTER2
 10
1217.0000000000041
 20
349.94
 30
0.0
 11
1217.0000000000041
 21
364.93999999999988
 31
0.0
  0
LINE
  5
A6E5
  8
0
  6
CONTINUOUS
 10
1217.637888356955
 20
357.3399999999998
 30
0.0
 11
1216.458534097337
 21
355.3399999999998
 31
0.0
  0
LINE
  5
A6E6
  8
0
  6
CONTINUOUS
 10
1218.3200776946139
 20
357.3399999999998
 30
0.0
 11
1217.1407234349961
 21
355.3399999999998
 31
0.0
  0
LINE
  5
A6E8
  8
0
  6
CENTER2
 10
1235.0
 20
340.99999999999989
 30
0.0
 11
1485.0
 21
340.99999999999989
 31
0.0
  0
DIMENSION
  5
A6E9
  8
0
  2
*D16
 10
1460.0
 20
268.4999999999996
 30
0.0
 11
1477.5
 21
276.7499999999996
 31
0.0
 70
     0
 13
1495.0
 23
305.99999999999989
 33
0.0
 14
1460.0
 24
305.99999999999989
 34
0.0
 50
180.0
  0
DIMENSION
  5
A6EA
  8
0
  2
*D17
 10
1310.0
 20
268.4999999999996
 30
0.0
 11
1385.0
 21
276.7499999999996
 31
0.0
 70
     0
  1
W
 13
1460.0
 23
305.99999999999989
 33
0.0
 14
1310.0
 24
305.99999999999989
 34
0.0
1001
ACAD
1000
DSTYLE
1002
{
1070
   178
1070
   256
1070
     7
1000
ORIGIN
1070
     5
1000

1070
   173
1070
     1
1070
     6
1000
ORIGIN
1070
    76
1070
     0
1002
}
  0
LINE
  5
A6EE
  8
0
 10
1470.0
 20
344.99999999999989
 30
0.0
 11
1461.5999999999999
 21
344.99999999999989
 31
0.0
  0
LINE
  5
A6EF
  8
0
 10
1460.0
 20
346.59999999999991
 30
0.0
 11
1460.0
 21
364.39999999999992
 31
0.0
  0
LINE
  5
A6F0
  8
0
 10
1461.5999999999999
 20
365.99999999999989
 30
0.0
 11
1491.8
 21
365.99999999999989
 31
0.0
  0
LINE
  5
A6F1
  8
0
 10
1493.4000000000001
 20
364.39999999999992
 30
0.0
 11
1493.4000000000001
 21
317.59999999999991
 31
0.0
  0
LINE
  5
A6F2
  8
0
 10
1493.4000000000001
 20
317.59999999999991
 30
0.0
 11
1491.8
 21
317.59999999999991
 31
0.0
  0
LINE
  5
A6F3
  8
0
 10
1491.8
 20
317.59999999999991
 30
0.0
 11
1491.8
 21
364.39999999999992
 31
0.0
  0
LINE
  5
A6F4
  8
0
 10
1491.8
 20
364.39999999999992
 30
0.0
 11
1461.5999999999999
 21
364.39999999999992
 31
0.0
  0
LINE
  5
A6F5
  8
0
 10
1461.5999999999999
 20
364.39999999999992
 30
0.0
 11
1461.5999999999999
 21
346.59999999999991
 31
0.0
  0
LINE
  5
A6F6
  8
0
 10
1461.5999999999999
 20
346.59999999999991
 30
0.0
 11
1470.0
 21
346.59999999999991
 31
0.0
  0
LINE
  5
A6F7
  8
0
 10
1470.0
 20
346.59999999999991
 30
0.0
 11
1470.0
 21
344.99999999999989
 31
0.0
  0
ARC
  5
A6F8
  8
0
 10
1461.5999999999999
 20
346.59999999999991
 30
0.0
 40
1.6000000000000001
 50
180.0
 51
270.0
  0
ARC
  5
A6F9
  8
0
 10
1461.5999999999999
 20
364.39999999999992
 30
0.0
 40
1.6000000000000001
 50
90.0
 51
180.0
  0
ARC
  5
A6FA
  8
0
 10
1491.8
 20
364.39999999999992
 30
0.0
 40
1.6000000000000001
 50
0.0
 51
90.0
  0
LINE
  5
A6FB
  8
0
 10
1470.0
 20
336.99999999999989
 30
0.0
 11
1461.5999999999999
 21
336.99999999999989
 31
0.0
  0
LINE
  5
A6FC
  8
0
 10
1460.0
 20
335.39999999999992
 30
0.0
 11
1460.0
 21
317.59999999999991
 31
0.0
  0
LINE
  5
A6FD
  8
0
 10
1461.5999999999999
 20
315.99999999999989
 30
0.0
 11
1493.4000000000001
 21
315.99999999999989
 31
0.0
  0
LINE
  5
A6FE
  8
0
 10
1495.0
 20
317.59999999999991
 30
0.0
 11
1495.0
 21
346.0
 31
0.0
  0
LINE
  5
A6FF
  8
0
 10
1495.0
 20
346.0
 30
0.0
 11
1493.4000000000001
 21
346.0
 31
0.0
  0
LINE
  5
A700
  8
0
 10
1493.4000000000001
 20
346.0
 30
0.0
 11
1493.4000000000001
 21
317.59999999999991
 31
0.0
  0
LINE
  5
A701
  8
0
 10
1493.4000000000001
 20
317.59999999999991
 30
0.0
 11
1461.5999999999999
 21
317.59999999999991
 31
0.0
  0
LINE
  5
A702
  8
0
 10
1461.5999999999999
 20
317.59999999999991
 30
0.0
 11
1461.5999999999999
 21
335.39999999999992
 31
0.0
  0
LINE
  5
A703
  8
0
 10
1461.5999999999999
 20
335.39999999999992
 30
0.0
 11
1470.0
 21
335.39999999999992
 31
0.0
  0
LINE
  5
A704
  8
0
 10
1470.0
 20
335.39999999999992
 30
0.0
 11
1470.0
 21
336.99999999999989
 31
0.0
  0
ARC
  5
A705
  8
0
 10
1461.5999999999999
 20
335.39999999999992
 30
0.0
 40
1.6000000000000001
 50
90.0
 51
180.0
  0
ARC
  5
A706
  8
0
 10
1461.5999999999999
 20
317.59999999999991
 30
0.0
 40
1.6000000000000001
 50
180.0
 51
270.0
  0
ARC
  5
A707
  8
0
 10
1493.4000000000001
 20
317.59999999999991
 30
0.0
 40
1.6000000000000001
 50
270.0
 51
0.0
  0
DIMENSION
  5
A708
  8
0
  2
*D18
 10
1412.5
 20
315.99999999999989
 30
0.0
 11
1404.25
 21
341.00000000000011
 31
0.0
 70
     0
 13
1450.0
 23
365.99999999999989
 33
0.0
 14
1450.0
 24
315.99999999999989
 34
0.0
 50
90.0
  0
LINE
  5
A70B
  8
0
 10
1238.0
 20
320.99999999999989
 30
0.0
 11
1308.4000000000001
 21
320.99999999999989
 31
0.0
  0
LINE
  5
A70C
  8
0
 10
1310.0
 20
322.5999999999998
 30
0.0
 11
1310.0
 21
335.25390639829033
 31
0.0
  0
ARC
  5
A70D
  8
0
 10
1308.4000000000001
 20
335.25390639829033
 30
0.0
 40
1.6000000000000001
 50
0.0
 51
95.000000000025949
  0
LINE
  5
A70E
  8
0
 10
1308.4000000000001
 20
335.25390639829033
 30
0.0
 11
1308.4000000000001
 21
322.5999999999998
 31
0.0
  0
LINE
  5
A70F
  8
0
 10
1308.4000000000001
 20
322.5999999999998
 30
0.0
 11
1238.0
 21
322.5999999999998
 31
0.0
  0
LINE
  5
A710
  8
0
 10
1238.0
 20
322.5999999999998
 30
0.0
 11
1238.0
 21
320.99999999999989
 31
0.0
  0
ARC
  5
A711
  8
0
 10
1308.4000000000001
 20
322.5999999999998
 30
0.0
 40
1.6000000000000001
 50
270.0
 51
0.0
  0
LINE
  5
A712
  8
0
 10
1300.0380530190689
 20
336.1284425725234
 30
0.0
 11
1308.2605508116039
 21
336.84781791523699
 31
0.0
  0
LINE
  5
A713
  8
0
 10
1308.4000000000001
 20
335.25390639829033
 30
0.0
 11
1300.177502207483
 21
334.53453105557799
 31
0.0
  0
LINE
  5
A714
  8
0
 10
1300.0380530190689
 20
336.1284425725234
 30
0.0
 11
1300.177502207483
 21
334.53453105557799
 31
0.0
  0
LINE
  5
A715
  8
0
 10
1238.0
 20
360.99999999999989
 30
0.0
 11
1308.4000000000001
 21
360.99999999999989
 31
0.0
  0
LINE
  5
A716
  8
0
 10
1310.0
 20
359.39999999999998
 30
0.0
 11
1310.0
 21
346.7460936017095
 31
0.0
  0
ARC
  5
A717
  8
0
 10
1308.4000000000001
 20
346.7460936017095
 30
0.0
 40
1.6000000000000001
 50
264.99999999997408
 51
0.0
  0
LINE
  5
A718
  8
0
 10
1308.4000000000001
 20
346.7460936017095
 30
0.0
 11
1308.4000000000001
 21
359.39999999999998
 31
0.0
  0
LINE
  5
A719
  8
0
 10
1308.4000000000001
 20
359.39999999999998
 30
0.0
 11
1238.0
 21
359.39999999999998
 31
0.0
  0
ARC
  5
A71A
  8
0
 10
1308.4000000000001
 20
359.39999999999998
 30
0.0
 40
1.6000000000000001
 50
0.0
 51
90.0
  0
LINE
  5
A71B
  8
0
 10
1300.0380530190689
 20
345.87155742747638
 30
0.0
 11
1308.2605508116039
 21
345.15218208476279
 31
0.0
  0
LINE
  5
A71C
  8
0
 10
1308.4000000000001
 20
346.7460936017095
 30
0.0
 11
1300.177502207483
 21
347.46546894442179
 31
0.0
  0
LINE
  5
A71D
  8
0
 10
1300.0380530190689
 20
345.87155742747638
 30
0.0
 11
1300.177502207483
 21
347.46546894442179
 31
0.0
  0
LINE
  5
A71E
  8
0
 10
1230.0
 20
323.05999999999989
 30
0.0
 11
1230.0
 21
322.5999999999998
 31
0.0
  0
LINE
  5
A71F
  8
0
 10
1230.0
 20
322.5999999999998
 30
0.0
 11
1248.0
 21
322.5999999999998
 31
0.0
  0
LINE
  5
A720
  8
0
 10
1248.0
 20
322.5999999999998
 30
0.0
 11
1248.0
 21
323.05999999999989
 31
0.0
  0
LINE
  5
A721
  8
0
 10
1248.0
 20
323.05999999999989
 30
0.0
 11
1230.0
 21
323.05999999999989
 31
0.0
  0
LINE
  5
A722
  8
0
 10
1238.0
 20
324.65999999999968
 30
0.0
 11
1238.0
 21
323.05999999999989
 31
0.0
  0
LINE
  5
A723
  8
0
 10
1238.0
 20
323.05999999999989
 30
0.0
 11
1247.0
 21
323.05999999999989
 31
0.0
  0
LINE
  5
A724
  8
0
 10
1247.0
 20
323.05999999999989
 30
0.0
 11
1247.0
 21
324.65999999999968
 31
0.0
  0
LINE
  5
A725
  8
0
 10
1247.0
 20
324.65999999999968
 30
0.0
 11
1238.0
 21
324.65999999999968
 31
0.0
  0
LINE
  5
A726
  8
0
  6
CONTINUOUS
 10
1246.799999999999
 20
326.65999999999968
 30
0.0
 11
1239.200000000001
 21
326.65999999999968
 31
0.0
  0
LINE
  5
A727
  8
0
  6
CONTINUOUS
 10
1246.799999999999
 20
324.65999999999968
 30
0.0
 11
1246.799999999999
 21
326.65999999999968
 31
0.0
  0
LINE
  5
A728
  8
0
  6
CONTINUOUS
 10
1239.200000000001
 20
324.65999999999968
 30
0.0
 11
1246.799999999999
 21
324.65999999999968
 31
0.0
  0
LINE
  5
A729
  8
0
  6
CONTINUOUS
 10
1239.200000000001
 20
326.65999999999968
 30
0.0
 11
1239.200000000001
 21
324.65999999999968
 31
0.0
  0
LINE
  5
A72A
  8
0
 10
1245.456829417257
 20
329.33443841038059
 30
0.0
 11
1245.233481288416
 21
327.77239123018018
 31
0.0
  0
LINE
  5
A72B
  8
0
 10
1240.543170582743
 20
329.33443841038059
 30
0.0
 11
1245.456829417257
 21
329.33443841038059
 31
0.0
  0
LINE
  5
A72C
  8
0
 10
1240.7665187115831
 20
327.54924163300842
 30
0.0
 11
1240.543170582743
 21
329.33443841038059
 31
0.0
  0
ARC
  5
A72D
  8
0
 10
1243.0
 20
325.52347338647712
 30
0.0
 40
5.9999999999999627
 50
228.9304134868338
 51
311.0695865131662
  0
LINE
  5
A72E
  8
0
 10
1245.233481288416
 20
327.77239123018018
 30
0.0
 11
1244.7162930322811
 21
326.65999999999968
 31
0.0
  0
LINE
  5
A72F
  8
0
 10
1241.516293032282
 20
326.65999999999968
 30
0.0
 11
1240.7665187115831
 21
327.54924163300842
 31
0.0
  0
LINE
  5
A730
  8
0
  6
CENTER2
 10
1242.9999999999959
 20
332.05999999999977
 30
0.0
 11
1242.9999999999959
 21
317.05999999999977
 31
0.0
  0
LINE
  5
A731
  8
0
  6
CONTINUOUS
 10
1243.6002120439509
 20
324.65999999999968
 30
0.0
 11
1242.4208577843331
 21
326.65999999999968
 31
0.0
  0
LINE
  5
A732
  8
0
  6
CONTINUOUS
 10
1244.28240138161
 20
324.65999999999968
 30
0.0
 11
1243.1030471219919
 21
326.65999999999968
 31
0.0
  0
LINE
  5
A733
  8
0
 10
1238.0
 20
359.39999999999998
 30
0.0
 11
1238.0
 21
360.99999999999989
 31
0.0
  0
LINE
  5
A734
  8
0
 10
1230.0
 20
358.93999999999988
 30
0.0
 11
1230.0
 21
359.39999999999998
 31
0.0
  0
LINE
  5
A735
  8
0
 10
1230.0
 20
359.39999999999998
 30
0.0
 11
1248.0
 21
359.39999999999998
 31
0.0
  0
LINE
  5
A736
  8
0
 10
1248.0
 20
359.39999999999998
 30
0.0
 11
1248.0
 21
358.93999999999988
 31
0.0
  0
LINE
  5
A737
  8
0
 10
1248.0
 20
358.93999999999988
 30
0.0
 11
1230.0
 21
358.93999999999988
 31
0.0
  0
LINE
  5
A738
  8
0
 10
1238.0
 20
357.33999999999958
 30
0.0
 11
1238.0
 21
358.93999999999988
 31
0.0
  0
LINE
  5
A739
  8
0
 10
1238.0
 20
358.93999999999988
 30
0.0
 11
1247.0
 21
358.93999999999988
 31
0.0
  0
LINE
  5
A73A
  8
0
 10
1247.0
 20
358.93999999999988
 30
0.0
 11
1247.0
 21
357.33999999999958
 31
0.0
  0
LINE
  5
A73B
  8
0
 10
1247.0
 20
357.33999999999958
 30
0.0
 11
1238.0
 21
357.33999999999958
 31
0.0
  0
LINE
  5
A73C
  8
0
  6
CONTINUOUS
 10
1246.8
 20
355.33999999999958
 30
0.0
 11
1239.2
 21
355.33999999999958
 31
0.0
  0
LINE
  5
A73D
  8
0
  6
CONTINUOUS
 10
1246.8
 20
357.33999999999958
 30
0.0
 11
1246.8
 21
355.33999999999958
 31
0.0
  0
LINE
  5
A73E
  8
0
  6
CONTINUOUS
 10
1239.2
 20
357.33999999999958
 30
0.0
 11
1246.8
 21
357.33999999999958
 31
0.0
  0
LINE
  5
A73F
  8
0
  6
CONTINUOUS
 10
1239.2
 20
355.33999999999958
 30
0.0
 11
1239.2
 21
357.33999999999958
 31
0.0
  0
LINE
  5
A740
  8
0
 10
1245.4568294172579
 20
352.66556158961919
 30
0.0
 11
1245.2334812884151
 21
354.2276087698196
 31
0.0
  0
LINE
  5
A741
  8
0
 10
1240.5431705827421
 20
352.66556158961919
 30
0.0
 11
1245.4568294172579
 21
352.66556158961919
 31
0.0
  0
LINE
  5
A742
  8
0
 10
1240.7665187115831
 20
354.45075836699141
 30
0.0
 11
1240.5431705827421
 21
352.66556158961919
 31
0.0
  0
ARC
  5
A743
  8
0
 10
1243.0
 20
356.47652661352271
 30
0.0
 40
5.9999999999999627
 50
48.930413486833778
 51
131.0695865131662
  0
LINE
  5
A744
  8
0
 10
1245.2334812884151
 20
354.2276087698196
 30
0.0
 11
1244.7162930322811
 21
355.33999999999958
 31
0.0
  0
LINE
  5
A745
  8
0
 10
1241.5162930322811
 20
355.33999999999958
 30
0.0
 11
1240.7665187115831
 21
354.45075836699141
 31
0.0
  0
LINE
  5
A746
  8
0
  6
CENTER2
 10
1242.9999999999959
 20
349.94
 30
0.0
 11
1242.9999999999959
 21
364.93999999999988
 31
0.0
  0
LINE
  5
A747
  8
0
  6
CONTINUOUS
 10
1242.362111643045
 20
357.33999999999958
 30
0.0
 11
1243.541465902663
 21
355.33999999999958
 31
0.0
  0
LINE
  5
A748
  8
0
  6
CONTINUOUS
 10
1241.6799223053861
 20
357.33999999999958
 30
0.0
 11
1242.8592765650039
 21
355.33999999999958
 31
0.0
  0
DIMENSION
  5
A74B
  8
0
  2
*D19
 10
1230.0
 20
268.49999999999989
 30
0.0
 11
1270.0
 21
276.74999999999989
 31
0.0
 70
     0
 13
1310.0
 23
305.99999999999989
 33
0.0
 14
1230.0
 24
305.99999999999989
 34
0.0
  0
DIMENSION
  5
A74C
  8
0
  2
*D20
 10
1150.0
 20
268.49999999999989
 30
0.0
 11
1190.0
 21
276.74999999999989
 31
0.0
 70
     0
 13
1230.0
 23
305.99999999999989
 33
0.0
 14
1150.0
 24
305.99999999999989
 34
0.0
  0
DIMENSION
  5
A74D
  8
0
  2
*D21
 10
1050.0
 20
268.49999999999989
 30
0.0
 11
1098.5
 21
276.74999999999989
 31
0.0
 70
     0
  1
W
 13
1150.0
 23
305.99999999999989
 33
0.0
 14
1050.0
 24
305.99999999999989
 34
0.0
1001
ACAD
1000
DSTYLE
1002
{
1070
    76
1070
     1
1070
     7
1000
NONE
1070
     5
1000

1070
   173
1070
     1
1070
     6
1000
ORIGIN
1002
}
  0
DIMENSION
  5
A752
  8
0
  2
*D22
 10
1102.5
 20
320.99999999999989
 30
0.0
 11
1094.25
 21
341.00000000000011
 31
0.0
 70
     0
 13
1140.0
 23
360.99999999999989
 33
0.0
 14
1140.0
 24
320.99999999999989
 34
0.0
 50
90.0
  0
LINE
  5
A753
  8
0
  6
CENTER2
 10
1225.0
 20
340.99999999999989
 30
0.0
 11
1050.0
 21
340.99999999999989
 31
0.0
  0
DIMENSION
  5
A759
  8
0
  2
*D23
 10
350.0
 20
530.76258918565122
 30
0.0
 11
341.74999999999989
 21
661.76258918567964
 31
0.0
 70
     0
 13
445.0
 23
792.76258918570795
 33
0.0
 14
444.99999999996822
 24
530.76258918565122
 34
0.0
 50
90.0
  0
DIMENSION
  5
A75A
  8
0
  2
*D24
 10
372.5
 20
530.76258918565122
 30
0.0
 11
364.25
 21
590.76258918565145
 31
0.0
 70
     0
 13
445.0
 23
650.76258918565145
 33
0.0
 14
444.99999999996822
 24
530.76258918565122
 34
0.0
 50
90.0
  0
DIMENSION
  5
A760
  8
0
  2
*D25
 10
857.89999999999145
 20
765.76258918570738
 30
0.0
 11
849.64999999999145
 21
765.76258918570761
 31
0.0
 70
   128
 13
820.39999999999145
 23
776.7625891857075
 33
0.0
 14
633.49999999996805
 24
765.76258918570761
 34
0.0
 50
90.0
1001
ACAD
1000
DSTYLE
1002
{
1070
    50
1040
1.5707963267948959
1002
}
  0
DIMENSION
  5
A761
  8
0
  2
*D26
 10
605.0000000000673
 20
540.76258918562235
 30
0.0
 11
596.7500000000673
 21
532.41840422039763
 31
0.0
 70
   128
 13
555.0000000000673
 23
530.76258918570829
 33
0.0
 14
595.0000000000673
 24
540.76258918562235
 34
0.0
 50
90.0
1001
ACAD
1000
DSTYLE
1002
{
1070
    50
1040
1.5707963267948959
1002
}
  0
DIMENSION
  5
A762
  8
0
  2
*D27
 10
802.64770951434821
 20
1053.2625891857069
 30
0.0
 11
624.52385475717199
 21
1061.5125891857069
 31
0.0
 70
     0
  1
（357）
 13
446.399999999996
 23
990.76258918570761
 33
0.0
 14
802.64770951434821
 24
990.76258918570761
 34
0.0
1001
ACAD
1000
DSTYLE
1002
{
1070
   271
1070
     2
1070
   178
1070
   256
1002
}
  0
LINE
  5
A763
  8
0
 10
454.99999999995453
 20
540.76258918570795
 30
0.0
 11
454.99999999995453
 21
532.36258918570832
 31
0.0
  0
LINE
  5
A764
  8
0
 10
456.59999999995478
 20
530.76258918570795
 30
0.0
 11
473.39999999995501
 21
530.76258918570795
 31
0.0
  0
LINE
  5
A765
  8
0
 10
473.39999999995501
 20
532.36258918570832
 30
0.0
 11
456.59999999995478
 21
532.36258918570832
 31
0.0
  0
LINE
  5
A766
  8
0
 10
456.59999999995478
 20
532.36258918570832
 30
0.0
 11
456.59999999995478
 21
540.76258918570795
 31
0.0
  0
LINE
  5
A767
  8
0
 10
456.59999999995478
 20
540.76258918570795
 30
0.0
 11
454.99999999995453
 21
540.76258918570795
 31
0.0
  0
ARC
  5
A768
  8
0
 10
456.59999999995478
 20
532.36258918570832
 30
0.0
 40
1.6000000000000001
 50
180.0
 51
270.0
  0
ARC
  5
A769
  8
0
 10
473.39999999995501
 20
532.36258918570832
 30
0.0
 40
1.6000000000000001
 50
270.0
 51
0.0
  0
LINE
  5
A76A
  8
0
 10
544.99999999995453
 20
540.76258918570795
 30
0.0
 11
544.99999999995453
 21
532.36258918570775
 31
0.0
  0
LINE
  5
A76B
  8
0
 10
543.39999999995496
 20
530.76258918570795
 30
0.0
 11
526.59999999995478
 21
530.76258918570795
 31
0.0
  0
LINE
  5
A76C
  8
0
 10
526.59999999995478
 20
532.36258918570775
 30
0.0
 11
543.39999999995496
 21
532.36258918570775
 31
0.0
  0
LINE
  5
A76D
  8
0
 10
543.39999999995496
 20
532.36258918570775
 30
0.0
 11
543.39999999995496
 21
540.76258918570795
 31
0.0
  0
LINE
  5
A76E
  8
0
 10
543.39999999995496
 20
540.76258918570795
 30
0.0
 11
544.99999999995453
 21
540.76258918570795
 31
0.0
  0
ARC
  5
A76F
  8
0
 10
543.39999999995496
 20
532.36258918570775
 30
0.0
 40
1.6000000000000001
 50
270.0
 51
0.0
  0
ARC
  5
A770
  8
0
 10
526.59999999995478
 20
532.36258918570775
 30
0.0
 40
1.6000000000000001
 50
180.0
 51
270.0
  0
LINE
  5
A775
  8
0
 10
526.59999999995478
 20
625.76258918570772
 30
0.0
 11
613.49999999995453
 21
625.76258918570772
 31
0.0
  0
LINE
  5
A776
  8
0
 10
613.49999999995453
 20
625.76258918570772
 30
0.0
 11
613.49999999995453
 21
792.76258918570772
 31
0.0
  0
LINE
  5
A777
  8
0
 10
613.49999999995453
 20
792.76258918570772
 30
0.0
 11
448.39999999995501
 21
792.76258918570772
 31
0.0
  0
LINE
  5
A778
  8
0
  6
HIDDEN
 10
613.49999999995453
 20
789.76258918570772
 30
0.0
 11
448.39999999995501
 21
789.76258918570772
 31
0.0
  0
LINE
  5
A779
  8
0
 10
588.49999999995453
 20
767.76258918570772
 30
0.0
 11
473.39999999995501
 21
767.76258918570772
 31
0.0
  0
LINE
  5
A77A
  8
0
  6
HIDDEN
 10
473.39999999995501
 20
767.76258918570772
 30
0.0
 11
448.39999999995501
 21
767.76258918570772
 31
0.0
  0
LINE
  5
A77B
  8
0
  6
HIDDEN
 10
526.59999999995478
 20
650.76258918570772
 30
0.0
 11
613.49999999995453
 21
650.76258918570772
 31
0.0
  0
LINE
  5
A77C
  8
0
  6
HIDDEN
 10
526.59999999995478
 20
647.76258918570772
 30
0.0
 11
613.49999999995453
 21
647.76258918570772
 31
0.0
  0
LINE
  5
A77D
  8
0
 10
526.59999999995478
 20
650.76258918570772
 30
0.0
 11
526.59999999995478
 21
625.76258918570772
 31
0.0
  0
LINE
  5
A77E
  8
0
 10
588.49999999995453
 20
625.76258918570772
 30
0.0
 11
588.49999999995453
 21
792.76258918570772
 31
0.0
  0
LINE
  5
A77F
  8
0
 10
591.49999999995453
 20
625.76258918570772
 30
0.0
 11
591.49999999995453
 21
792.76258918570772
 31
0.0
  0
LINE
  5
A780
  8
0
 10
448.39999999995501
 20
590.76258918570807
 30
0.0
 11
448.39999999995501
 21
792.76258918570772
 31
0.0
  0
LINE
  5
A781
  8
0
 10
473.39999999995501
 20
590.76258918570807
 30
0.0
 11
473.39999999995501
 21
792.76258918570772
 31
0.0
  0
LINE
  5
A782
  8
0
 10
470.39999999995513
 20
590.76258918570807
 30
0.0
 11
470.39999999995513
 21
792.76258918570772
 31
0.0
  0
LINE
  5
A783
  8
0
 10
448.39999999995501
 20
590.76258918570807
 30
0.0
 11
473.39999999995501
 21
590.76258918570807
 31
0.0
  0
LINE
  5
A784
  8
0
  6
HIDDEN
 10
613.49999999995453
 20
767.76258918570772
 30
0.0
 11
588.49999999995453
 21
767.76258918570772
 31
0.0
  0
LINE
  5
A785
  8
0
 10
474.99999999995453
 20
532.36258918570809
 30
0.0
 11
474.99999999995453
 21
764.16258918570782
 31
0.0
  0
LINE
  5
A786
  8
0
 10
474.99999999995453
 20
764.16258918570782
 30
0.0
 11
494.99999999995453
 21
764.16258918570782
 31
0.0
  0
LINE
  5
A787
  8
0
 10
494.99999999995453
 20
764.16258918570782
 30
0.0
 11
494.99999999995453
 21
765.76258918570772
 31
0.0
  0
LINE
  5
A788
  8
0
 10
494.99999999995453
 20
765.76258918570772
 30
0.0
 11
474.99999999995453
 21
765.76258918570772
 31
0.0
  0
LINE
  5
A789
  8
0
 10
473.39999999995501
 20
764.16258918570782
 30
0.0
 11
473.39999999995501
 21
532.36258918570809
 31
0.0
  0
ARC
  5
A78A
  8
0
 10
474.99999999995453
 20
764.16258918570782
 30
0.0
 40
1.6000000000000001
 50
90.0
 51
180.0
  0
LINE
  5
A78B
  8
0
 10
473.39999999995501
 20
590.76258918570807
 30
0.0
 11
473.39999999995501
 21
565.76258918570807
 31
0.0
  0
LINE
  5
A78C
  8
0
 10
473.39999999995501
 20
565.76258918570807
 30
0.0
 11
472.39999999995501
 21
565.76258918570807
 31
0.0
  0
LINE
  5
A78D
  8
0
 10
470.39999999995513
 20
567.76258918570818
 30
0.0
 11
470.39999999995513
 21
583.76258918570807
 31
0.0
  0
LINE
  5
A78E
  8
0
 10
466.39999999995513
 20
587.76258918570807
 30
0.0
 11
450.39999999995513
 21
587.76258918570807
 31
0.0
  0
LINE
  5
A78F
  8
0
 10
448.39999999995501
 20
589.76258918570818
 30
0.0
 11
448.39999999995501
 21
590.76258918570807
 31
0.0
  0
LINE
  5
A790
  8
0
 10
448.39999999995501
 20
590.76258918570807
 30
0.0
 11
473.39999999995501
 21
590.76258918570807
 31
0.0
  0
ARC
  5
A791
  8
0
 10
472.39999999995501
 20
567.76258918570818
 30
0.0
 40
2.0
 50
180.0
 51
270.0
  0
ARC
  5
A792
  8
0
 10
450.39999999995513
 20
589.76258918570818
 30
0.0
 40
2.0
 50
180.0
 51
270.0
  0
ARC
  5
A793
  8
0
 10
466.39999999995513
 20
583.76258918570807
 30
0.0
 40
4.0
 50
0.0
 51
90.0
  0
LINE
  5
A794
  8
0
 10
474.99999999995453
 20
764.16258918570782
 30
0.0
 11
474.99999999995453
 21
685.76258918570772
 31
0.0
  0
LINE
  5
A795
  8
0
 10
476.59999999995478
 20
684.16258918570782
 30
0.0
 11
497.39999999995501
 21
684.16258918570782
 31
0.0
  0
LINE
  5
A796
  8
0
 10
498.99999999995453
 20
685.76258918570772
 30
0.0
 11
498.99999999995453
 21
694.56258918570791
 31
0.0
  0
LINE
  5
A797
  8
0
 10
497.39999999995501
 20
696.16258918570782
 30
0.0
 11
488.99999999995441
 21
696.16258918570782
 31
0.0
  0
LINE
  5
A798
  8
0
 10
488.99999999995441
 20
696.16258918570782
 30
0.0
 11
488.99999999995441
 21
694.56258918570791
 31
0.0
  0
LINE
  5
A799
  8
0
 10
488.99999999995441
 20
694.56258918570791
 30
0.0
 11
497.39999999995501
 21
694.56258918570791
 31
0.0
  0
LINE
  5
A79A
  8
0
 10
497.39999999995501
 20
694.56258918570791
 30
0.0
 11
497.39999999995501
 21
685.76258918570772
 31
0.0
  0
LINE
  5
A79B
  8
0
 10
497.39999999995501
 20
685.76258918570772
 30
0.0
 11
476.59999999995478
 21
685.76258918570772
 31
0.0
  0
LINE
  5
A79C
  8
0
 10
476.59999999995478
 20
685.76258918570772
 30
0.0
 11
476.59999999995478
 21
764.16258918570782
 31
0.0
  0
LINE
  5
A79D
  8
0
 10
476.59999999995478
 20
764.16258918570782
 30
0.0
 11
474.99999999995453
 21
764.16258918570782
 31
0.0
  0
ARC
  5
A79E
  8
0
 10
476.59999999995478
 20
685.76258918570772
 30
0.0
 40
1.6000000000000001
 50
180.0
 51
270.0
  0
ARC
  5
A79F
  8
0
 10
497.39999999995501
 20
685.76258918570772
 30
0.0
 40
1.6000000000000001
 50
270.0
 51
0.0
  0
ARC
  5
A7A0
  8
0
 10
497.39999999995501
 20
694.56258918570791
 30
0.0
 40
1.6000000000000001
 50
0.0
 51
90.0
  0
LINE
  5
A7A1
  8
0
 10
524.99999999995453
 20
532.36258918570775
 30
0.0
 11
524.99999999995453
 21
650.76258918570772
 31
0.0
  0
ARC
  5
A7A2
  8
0
 10
526.59999999995478
 20
650.76258918570772
 30
0.0
 40
1.6000000000000001
 50
90.0
 51
180.0
  0
LINE
  5
A7A3
  8
0
 10
526.59999999995478
 20
650.76258918570772
 30
0.0
 11
526.59999999995478
 21
532.36258918570775
 31
0.0
  0
LINE
  5
A7A4
  8
0
 10
568.49999999995453
 20
765.76258918570772
 30
0.0
 11
586.89999999995507
 21
765.76258918570772
 31
0.0
  0
LINE
  5
A7A5
  8
0
 10
588.49999999995453
 20
764.16258918570782
 30
0.0
 11
588.49999999995453
 21
652.36258918570763
 31
0.0
  0
LINE
  5
A7A6
  8
0
 10
586.89999999995507
 20
650.76258918570772
 30
0.0
 11
526.59999999995478
 21
650.76258918570772
 31
0.0
  0
LINE
  5
A7A7
  8
0
 10
526.59999999995478
 20
652.36258918570763
 30
0.0
 11
586.89999999995507
 21
652.36258918570763
 31
0.0
  0
LINE
  5
A7A8
  8
0
 10
586.89999999995507
 20
652.36258918570763
 30
0.0
 11
586.89999999995507
 21
764.16258918570782
 31
0.0
  0
LINE
  5
A7A9
  8
0
 10
586.89999999995507
 20
764.16258918570782
 30
0.0
 11
568.49999999995453
 21
764.16258918570782
 31
0.0
  0
LINE
  5
A7AA
  8
0
 10
568.49999999995453
 20
764.16258918570782
 30
0.0
 11
568.49999999995453
 21
765.76258918570772
 31
0.0
  0
ARC
  5
A7AB
  8
0
 10
586.89999999995507
 20
764.16258918570782
 30
0.0
 40
1.6000000000000001
 50
0.0
 51
90.0
  0
ARC
  5
A7AC
  8
0
 10
586.89999999995507
 20
652.36258918570763
 30
0.0
 40
1.6000000000000001
 50
270.0
 51
0.0
  0
LINE
  5
A7AD
  8
0
 10
480.9499999999552
 20
765.76258918570772
 30
0.0
 11
580.94999999995434
 21
765.76258918570772
 31
0.0
  0
LINE
  5
A7AE
  8
0
 10
580.94999999995434
 20
765.76258918570772
 30
0.0
 11
580.94999999995434
 21
766.56258918570791
 31
0.0
  0
LINE
  5
A7AF
  8
0
 10
580.94999999995434
 20
766.56258918570791
 30
0.0
 11
480.9499999999552
 21
766.56258918570791
 31
0.0
  0
LINE
  5
A7B0
  8
0
 10
480.9499999999552
 20
766.56258918570791
 30
0.0
 11
480.9499999999552
 21
765.76258918570772
 31
0.0
  0
LINE
  5
A7B1
  8
0
 10
507.49999999995453
 20
677.36258918570763
 30
0.0
 11
554.49999999995453
 21
677.36258918570798
 31
0.0
  0
LINE
  5
A7B2
  8
0
 10
557.49999999995453
 20
674.36258918570809
 30
0.0
 11
557.49999999995453
 21
652.36258918570763
 31
0.0
  0
LINE
  5
A7B3
  8
0
 10
557.49999999995453
 20
652.36258918570763
 30
0.0
 11
504.49999999995453
 21
652.36258918570763
 31
0.0
  0
LINE
  5
A7B4
  8
0
 10
504.49999999995453
 20
652.36258918570763
 30
0.0
 11
504.49999999995453
 21
674.36258918570763
 31
0.0
  0
LINE
  5
A7B5
  8
0
  6
HIDDEN
 10
557.49999999995453
 20
653.96258918570788
 30
0.0
 11
504.49999999995453
 21
653.96258918570788
 31
0.0
  0
ARC
  5
A7B6
  8
0
 10
507.49999999995453
 20
674.36258918570763
 30
0.0
 40
3.0
 50
90.0
 51
180.0
  0
ARC
  5
A7B7
  8
0
 10
554.49999999995453
 20
674.36258918570809
 30
0.0
 40
3.0
 50
0.0
 51
90.0
  0
CIRCLE
  5
A7B8
  8
0
 10
512.49999999995453
 20
672.36258918570763
 30
0.0
 40
3.5
  0
CIRCLE
  5
A7B9
  8
0
 10
549.49999999995453
 20
672.36258918570763
 30
0.0
 40
3.5
  0
ARC
  5
A7BA
  8
0
 10
512.49999999995453
 20
672.36258918570763
 30
0.0
 40
12.5
 50
23.578178478196879
 51
230.20818050045071
  0
ARC
  5
A7BB
  8
0
 10
549.49999999995453
 20
672.36258918570763
 30
0.0
 40
12.5
 50
309.79181949954921
 51
156.42182152180311
  0
LINE
  5
A7BC
  8
0
  6
CENTER2
 10
497.49999999995453
 20
672.36258918570763
 30
0.0
 11
564.49999999995453
 21
672.36258918570763
 31
0.0
  0
LINE
  5
A7BD
  8
0
  6
CENTER2
 10
512.49999999995453
 20
657.36258918570763
 30
0.0
 11
512.49999999995453
 21
687.36258918570763
 31
0.0
  0
LINE
  5
A7BE
  8
0
  6
CENTER2
 10
549.49999999995453
 20
657.36258918570763
 30
0.0
 11
549.49999999995453
 21
687.36258918570763
 31
0.0
  0
ARC
  5
A7BF
  8
0
 10
460.39999999995501
 20
786.23828491519623
 30
0.0
 40
15.5243042705
 50
72.412046216879887
 51
107.5879537831201
  0
LINE
  5
A7C0
  8
0
 10
465.09097093721078
 20
801.03689345621922
 30
0.0
 11
465.09097093721078
 21
794.76258918570772
 31
0.0
  0
LINE
  5
A7C1
  8
0
 10
455.7090290626993
 20
794.76258918570772
 30
0.0
 11
455.7090290626993
 21
801.03689345621922
 31
0.0
  0
ARC
  5
A7C2
  8
0
 10
452.27500015641732
 20
793.27474206101556
 30
0.0
 40
8.4878471246
 50
66.135073519825767
 51
89.953174245550159
  0
ARC
  5
A7C3
  8
0
 10
468.52499984349288
 20
793.27474206101556
 30
0.0
 40
8.4878471246
 50
90.046825754449827
 51
113.8649264801742
  0
LINE
  5
A7C4
  8
0
  6
HIDDEN
 10
469.60000000014128
 20
787.76258918570772
 30
0.0
 11
469.60000000014128
 21
785.26258918570772
 31
0.0
  0
LINE
  5
A7C5
  8
0
  6
HIDDEN
 10
451.19999999976881
 20
785.26258918570772
 30
0.0
 11
451.19999999976881
 21
787.76258918570772
 31
0.0
  0
ARC
  5
A7C6
  8
0
  6
HIDDEN
 10
460.39999999995501
 20
792.78689345621922
 30
0.0
 40
15.5243042705
 50
252.4120462168799
 51
287.58795378312021
  0
LINE
  5
A7C7
  8
0
  6
HIDDEN
 10
455.7090290626993
 20
777.98828491519623
 30
0.0
 11
455.7090290626993
 21
785.26258918570772
 31
0.0
  0
LINE
  5
A7C8
  8
0
  6
HIDDEN
 10
465.09097093721078
 20
785.26258918570772
 30
0.0
 11
465.09097093721078
 21
777.98828491519623
 31
0.0
  0
LINE
  5
A7C9
  8
0
  6
HIDDEN
 10
465.39999999995501
 20
772.51258918570772
 30
0.0
 11
455.39999999995501
 21
772.51258918570772
 31
0.0
  0
LINE
  5
A7CA
  8
0
  6
HIDDEN
 10
458.14999999995501
 20
785.26258918570772
 30
0.0
 11
460.64999999995513
 21
787.76258918570772
 31
0.0
  0
LINE
  5
A7CB
  8
0
  6
HIDDEN
 10
460.14999999995513
 20
785.26258918570772
 30
0.0
 11
462.64999999995501
 21
787.76258918570772
 31
0.0
  0
ARC
  5
A7CC
  8
0
  6
HIDDEN
 10
452.27500015641732
 20
785.75043631039978
 30
0.0
 40
8.4878471246
 50
270.0468257544498
 51
293.86492648017429
  0
ARC
  5
A7CD
  8
0
  6
HIDDEN
 10
468.52499984349288
 20
785.75043631039978
 30
0.0
 40
8.4878471246
 50
246.1350735198258
 51
269.95317424555009
  0
LINE
  5
A7CE
  8
0
  6
HIDDEN
 10
449.89999999995513
 20
789.76258918570772
 30
0.0
 11
449.89999999995513
 21
787.76258918570772
 31
0.0
  0
LINE
  5
A7CF
  8
0
  6
HIDDEN
 10
449.89999999995513
 20
787.76258918570772
 30
0.0
 11
470.89999999995513
 21
787.76258918570772
 31
0.0
  0
LINE
  5
A7D0
  8
0
  6
HIDDEN
 10
470.89999999995513
 20
787.76258918570772
 30
0.0
 11
470.89999999995513
 21
789.76258918570772
 31
0.0
  0
LINE
  5
A7D1
  8
0
  6
HIDDEN
 10
470.89999999995513
 20
789.76258918570772
 30
0.0
 11
449.89999999995513
 21
789.76258918570772
 31
0.0
  0
LINE
  5
A7D2
  8
0
  6
HIDDEN
 10
465.39999999995501
 20
772.51258918570772
 30
0.0
 11
465.39999999995501
 21
777.26258918570772
 31
0.0
  0
LINE
  5
A7D3
  8
0
  6
HIDDEN
 10
465.39999999995501
 20
772.51258918570772
 30
0.0
 11
463.89999999995501
 21
771.01258918570772
 31
0.0
  0
LINE
  5
A7D4
  8
0
  6
HIDDEN
 10
463.89999999995501
 20
771.01258918570772
 30
0.0
 11
456.89999999995501
 21
771.01258918570772
 31
0.0
  0
LINE
  5
A7D5
  8
0
  6
HIDDEN
 10
456.89999999995501
 20
771.01258918570772
 30
0.0
 11
455.39999999995501
 21
772.51258918570772
 31
0.0
  0
LINE
  5
A7D6
  8
0
  6
HIDDEN
 10
455.39999999995501
 20
772.51258918570772
 30
0.0
 11
455.39999999995501
 21
777.26258918570772
 31
0.0
  0
LINE
  5
A7D7
  8
0
  6
HIDDEN
 10
451.85694187418721
 20
777.26258918570772
 30
0.0
 11
468.94305812572293
 21
777.26258918570772
 31
0.0
  0
LINE
  5
A7D8
  8
0
  6
HIDDEN
 10
468.94305812572293
 20
777.26258918570772
 30
0.0
 11
470.19999999976881
 21
777.98828491519623
 31
0.0
  0
LINE
  5
A7D9
  8
0
  6
HIDDEN
 10
470.19999999976881
 20
777.98828491519623
 30
0.0
 11
470.19999999976881
 21
785.26258918570772
 31
0.0
  0
LINE
  5
A7DA
  8
0
  6
HIDDEN
 10
470.19999999976881
 20
785.26258918570772
 30
0.0
 11
450.60000000014128
 21
785.26258918570772
 31
0.0
  0
LINE
  5
A7DB
  8
0
  6
HIDDEN
 10
450.60000000014128
 20
785.26258918570772
 30
0.0
 11
450.60000000014128
 21
777.98828491519623
 31
0.0
  0
LINE
  5
A7DC
  8
0
  6
HIDDEN
 10
450.60000000014128
 20
777.98828491519623
 30
0.0
 11
451.85694187418721
 21
777.26258918570772
 31
0.0
  0
LINE
  5
A7DD
  8
0
 10
449.89999999995513
 20
794.76258918570772
 30
0.0
 11
470.89999999995513
 21
794.76258918570772
 31
0.0
  0
LINE
  5
A7DE
  8
0
 10
470.89999999995513
 20
794.76258918570772
 30
0.0
 11
470.89999999995513
 21
792.76258918570772
 31
0.0
  0
LINE
  5
A7DF
  8
0
 10
470.89999999995513
 20
792.76258918570772
 30
0.0
 11
449.89999999995513
 21
792.76258918570772
 31
0.0
  0
LINE
  5
A7E0
  8
0
 10
449.89999999995513
 20
792.76258918570772
 30
0.0
 11
449.89999999995513
 21
794.76258918570772
 31
0.0
  0
LINE
  5
A7E1
  8
0
 10
450.60000000014128
 20
801.03689345621922
 30
0.0
 11
450.60000000014128
 21
794.76258918570772
 31
0.0
  0
LINE
  5
A7E2
  8
0
 10
450.60000000014128
 20
794.76258918570772
 30
0.0
 11
470.19999999976881
 21
794.76258918570772
 31
0.0
  0
LINE
  5
A7E3
  8
0
 10
470.19999999976881
 20
794.76258918570772
 30
0.0
 11
470.19999999976881
 21
801.03689345621922
 31
0.0
  0
LINE
  5
A7E4
  8
0
 10
470.19999999976881
 20
801.03689345621922
 30
0.0
 11
468.94305812572293
 21
801.76258918570772
 31
0.0
  0
LINE
  5
A7E5
  8
0
 10
468.94305812572293
 20
801.76258918570772
 30
0.0
 11
451.85694187418721
 21
801.76258918570772
 31
0.0
  0
LINE
  5
A7E6
  8
0
 10
451.85694187418721
 20
801.76258918570772
 30
0.0
 11
450.60000000014128
 21
801.03689345621922
 31
0.0
  0
ARC
  5
A7E7
  8
0
 10
601.49999999995453
 20
786.23828491519623
 30
0.0
 40
15.5243042705
 50
72.412046216907214
 51
107.5879537830928
  0
LINE
  5
A7E8
  8
0
 10
596.80902906269876
 20
801.03689345621922
 30
0.0
 11
596.80902906269876
 21
794.76258918570772
 31
0.0
  0
LINE
  5
A7E9
  8
0
 10
606.1909709372103
 20
794.76258918570772
 30
0.0
 11
606.1909709372103
 21
801.03689345621922
 31
0.0
  0
ARC
  5
A7EA
  8
0
 10
609.62499984349233
 20
793.27474206101556
 30
0.0
 40
8.4878471246
 50
90.046825754449827
 51
113.8649264802022
  0
ARC
  5
A7EB
  8
0
 10
593.37500015641672
 20
793.27474206101556
 30
0.0
 40
8.4878471246
 50
66.135073519797828
 51
89.953174245550159
  0
LINE
  5
A7EC
  8
0
  6
HIDDEN
 10
592.29999999976815
 20
787.76258918570772
 30
0.0
 11
592.29999999976815
 21
785.26258918570772
 31
0.0
  0
LINE
  5
A7ED
  8
0
  6
HIDDEN
 10
610.70000000014068
 20
785.26258918570772
 30
0.0
 11
610.70000000014068
 21
787.76258918570772
 31
0.0
  0
ARC
  5
A7EE
  8
0
  6
HIDDEN
 10
601.49999999995453
 20
792.78689345621922
 30
0.0
 40
15.5243042705
 50
252.41204621690721
 51
287.58795378309281
  0
LINE
  5
A7EF
  8
0
  6
HIDDEN
 10
606.1909709372103
 20
777.98828491519623
 30
0.0
 11
606.1909709372103
 21
785.26258918570772
 31
0.0
  0
LINE
  5
A7F0
  8
0
  6
HIDDEN
 10
596.80902906269876
 20
785.26258918570772
 30
0.0
 11
596.80902906269876
 21
777.98828491519623
 31
0.0
  0
LINE
  5
A7F1
  8
0
  6
HIDDEN
 10
596.49999999995453
 20
772.51258918570772
 30
0.0
 11
606.49999999995453
 21
772.51258918570772
 31
0.0
  0
ARC
  5
A7F2
  8
0
  6
HIDDEN
 10
609.62499984349233
 20
785.75043631039978
 30
0.0
 40
8.4878471246
 50
246.1350735197978
 51
269.95317424555009
  0
ARC
  5
A7F3
  8
0
  6
HIDDEN
 10
593.37500015641672
 20
785.75043631039978
 30
0.0
 40
8.4878471246
 50
270.0468257544498
 51
293.86492648020209
  0
LINE
  5
A7F4
  8
0
  6
HIDDEN
 10
611.99999999995453
 20
789.76258918570772
 30
0.0
 11
611.99999999995453
 21
787.76258918570772
 31
0.0
  0
LINE
  5
A7F5
  8
0
  6
HIDDEN
 10
611.99999999995453
 20
787.76258918570772
 30
0.0
 11
590.99999999995453
 21
787.76258918570772
 31
0.0
  0
LINE
  5
A7F6
  8
0
  6
HIDDEN
 10
590.99999999995453
 20
787.76258918570772
 30
0.0
 11
590.99999999995453
 21
789.76258918570772
 31
0.0
  0
LINE
  5
A7F7
  8
0
  6
HIDDEN
 10
590.99999999995453
 20
789.76258918570772
 30
0.0
 11
611.99999999995453
 21
789.76258918570772
 31
0.0
  0
LINE
  5
A7F8
  8
0
  6
HIDDEN
 10
596.49999999995453
 20
772.51258918570772
 30
0.0
 11
596.49999999995453
 21
777.26258918570772
 31
0.0
  0
LINE
  5
A7F9
  8
0
  6
HIDDEN
 10
596.49999999995453
 20
772.51258918570772
 30
0.0
 11
597.99999999995453
 21
771.01258918570772
 31
0.0
  0
LINE
  5
A7FA
  8
0
  6
HIDDEN
 10
597.99999999995453
 20
771.01258918570772
 30
0.0
 11
604.99999999995453
 21
771.01258918570772
 31
0.0
  0
LINE
  5
A7FB
  8
0
  6
HIDDEN
 10
604.99999999995453
 20
771.01258918570772
 30
0.0
 11
606.49999999995453
 21
772.51258918570772
 31
0.0
  0
LINE
  5
A7FC
  8
0
  6
HIDDEN
 10
606.49999999995453
 20
772.51258918570772
 30
0.0
 11
606.49999999995453
 21
777.26258918570772
 31
0.0
  0
LINE
  5
A7FD
  8
0
  6
HIDDEN
 10
610.04305812572227
 20
777.26258918570772
 30
0.0
 11
592.95694187418655
 21
777.26258918570772
 31
0.0
  0
LINE
  5
A7FE
  8
0
  6
HIDDEN
 10
592.95694187418655
 20
777.26258918570772
 30
0.0
 11
591.70000000014068
 21
777.98828491519623
 31
0.0
  0
LINE
  5
A7FF
  8
0
  6
HIDDEN
 10
591.70000000014068
 20
777.98828491519623
 30
0.0
 11
591.70000000014068
 21
785.26258918570772
 31
0.0
  0
LINE
  5
A800
  8
0
  6
HIDDEN
 10
591.70000000014068
 20
785.26258918570772
 30
0.0
 11
611.29999999976826
 21
785.26258918570772
 31
0.0
  0
LINE
  5
A801
  8
0
  6
HIDDEN
 10
611.29999999976826
 20
785.26258918570772
 30
0.0
 11
611.29999999976826
 21
777.98828491519623
 31
0.0
  0
LINE
  5
A802
  8
0
  6
HIDDEN
 10
611.29999999976826
 20
777.98828491519623
 30
0.0
 11
610.04305812572227
 21
777.26258918570772
 31
0.0
  0
LINE
  5
A803
  8
0
 10
611.99999999995453
 20
794.76258918570772
 30
0.0
 11
590.99999999995453
 21
794.76258918570772
 31
0.0
  0
LINE
  5
A804
  8
0
 10
590.99999999995453
 20
794.76258918570772
 30
0.0
 11
590.99999999995453
 21
792.76258918570772
 31
0.0
  0
LINE
  5
A805
  8
0
 10
590.99999999995453
 20
792.76258918570772
 30
0.0
 11
611.99999999995453
 21
792.76258918570772
 31
0.0
  0
LINE
  5
A806
  8
0
 10
611.99999999995453
 20
792.76258918570772
 30
0.0
 11
611.99999999995453
 21
794.76258918570772
 31
0.0
  0
LINE
  5
A807
  8
0
 10
611.29999999976826
 20
801.03689345621922
 30
0.0
 11
611.29999999976826
 21
794.76258918570772
 31
0.0
  0
LINE
  5
A808
  8
0
 10
611.29999999976826
 20
794.76258918570772
 30
0.0
 11
591.70000000014068
 21
794.76258918570772
 31
0.0
  0
LINE
  5
A809
  8
0
 10
591.70000000014068
 20
794.76258918570772
 30
0.0
 11
591.70000000014068
 21
801.03689345621922
 31
0.0
  0
LINE
  5
A80A
  8
0
 10
591.70000000014068
 20
801.03689345621922
 30
0.0
 11
592.95694187418655
 21
801.76258918570772
 31
0.0
  0
LINE
  5
A80B
  8
0
 10
592.95694187418655
 20
801.76258918570772
 30
0.0
 11
610.04305812572227
 21
801.76258918570772
 31
0.0
  0
LINE
  5
A80C
  8
0
 10
610.04305812572227
 20
801.76258918570772
 30
0.0
 11
611.29999999976826
 21
801.03689345621922
 31
0.0
  0
LINE
  5
A80D
  8
0
  6
HIDDEN
 10
599.12466443404264
 20
785.26258918570772
 30
0.0
 11
601.62466443404264
 21
787.76258918570772
 31
0.0
  0
LINE
  5
A80E
  8
0
  6
HIDDEN
 10
601.12466443404264
 20
785.26258918570772
 30
0.0
 11
603.62466443404264
 21
787.76258918570772
 31
0.0
  0
LINE
  5
A80F
  8
0
 10
551.59999999995478
 20
590.76258918573728
 30
0.0
 11
526.59999999995478
 21
590.76258918573728
 31
0.0
  0
LINE
  5
A810
  8
0
 10
526.59999999995478
 20
590.76258918573728
 30
0.0
 11
526.59999999995478
 21
565.76258918573728
 31
0.0
  0
LINE
  5
A811
  8
0
 10
526.59999999995478
 20
565.76258918573728
 30
0.0
 11
527.59999999995478
 21
565.76258918573728
 31
0.0
  0
LINE
  5
A812
  8
0
 10
529.59999999995489
 20
567.76258918573717
 30
0.0
 11
529.59999999995489
 21
583.76258918573717
 31
0.0
  0
LINE
  5
A813
  8
0
 10
533.59999999995489
 20
587.76258918573717
 30
0.0
 11
549.59999999995489
 21
587.76258918573717
 31
0.0
  0
LINE
  5
A814
  8
0
 10
551.59999999995478
 20
589.76258918573717
 30
0.0
 11
551.59999999995478
 21
590.76258918573728
 31
0.0
  0
ARC
  5
A815
  8
0
 10
527.59999999995478
 20
567.76258918573717
 30
0.0
 40
2.0
 50
270.0
 51
0.0
  0
ARC
  5
A816
  8
0
 10
549.59999999995489
 20
589.76258918573717
 30
0.0
 40
2.0
 50
270.0
 51
0.0
  0
ARC
  5
A817
  8
0
 10
533.59999999995489
 20
583.76258918573717
 30
0.0
 40
4.0
 50
90.0
 51
180.0
  0
DIMENSION
  5
A818
  8
0
  2
*D28
 10
613.49999999995453
 20
827.76258918570772
 30
0.0
 11
510.9499999999548
 21
836.01258918570772
 31
0.0
 70
   128
 13
448.39999999995501
 23
792.76258918570772
 33
0.0
 14
613.49999999995453
 24
792.76258918570772
 34
0.0
1001
ACAD
1000
DSTYLE
1002
{
1070
   271
1070
     0
1070
   178
1070
   256
1002
}
  0
LINE
  5
A819
  8
0
  6
CENTER2
 10
460.39999999995501
 20
761.01258918570772
 30
0.0
 11
460.39999999995501
 21
1096.7625891857081
 31
0.0
  0
LINE
  5
A81A
  8
0
 10
465.3999999999005
 20
801.76258918570772
 30
0.0
 11
465.3999999999005
 21
1096.7625891857081
 31
0.0
  0
LINE
  5
A81B
  8
0
 10
455.3999999999005
 20
801.76258918570772
 30
0.0
 11
455.3999999999005
 21
1096.7625891857081
 31
0.0
  0
LINE
  5
A81C
  8
0
  6
CENTER2
 10
601.49999999995453
 20
761.01258918570772
 30
0.0
 11
601.49999999995453
 21
1096.7625891857081
 31
0.0
  0
LINE
  5
A81D
  8
0
 10
596.49999999999363
 20
801.76258918570772
 30
0.0
 11
596.49999999999363
 21
1096.7625891857081
 31
0.0
  0
LINE
  5
A81E
  8
0
 10
606.49999999999363
 20
801.76258918570772
 30
0.0
 11
606.49999999999363
 21
1096.7625891857081
 31
0.0
  0
TEXT
  5
A81F
  8
0
 10
390.50999999990108
 20
1085.7433512992411
 30
0.0
 40
10.5
  1
吊ボルト
 41
0.8
  7
横文字
 72
     1
 11
408.98999999990099
 21
1085.7433512992411
 31
0.0
  0
TEXT
  5
A820
  8
0
 10
379.66999999990111
 20
1067.7433512992411
 30
0.0
 40
10.5
  1
（W 3／8）
 41
0.8
  7
横文字
 72
     1
 11
408.98999999990099
 21
1067.7433512992411
 31
0.0
  0
INSERT
  5
A821
  8
0
  2
*U29
 10
0.0
 20
0.0
 30
0.0
1001
ACAD
1000
DSTYLE
1002
{
1070
    41
1040
2.0
1002
}
  0
LINE
  5
A822
  8
0
  6
CENTER2
 10
566.00233180890973
 20
711.76258918572626
 30
0.0
 11
496.00233180890967
 21
711.76258918572626
 31
0.0
  0
LINE
  5
A823
  8
0
  6
CENTER2
 10
530.99999999999898
 20
676.76258926340256
 30
0.0
 11
531.0
 21
746.76258910804995
 31
0.0
  0
CIRCLE
  5
A824
  8
0
 10
531.0
 20
711.76258918572626
 30
0.0
 40
16.0
  0
CIRCLE
  5
A825
  8
0
  6
PHANTOM2
 10
531.0
 20
711.76258918572626
 30
0.0
 40
19.899999999999999
  0
CIRCLE
  5
A826
  8
0
 10
531.0
 20
711.76258918572626
 30
0.0
 40
24.0
  0
LINE
  5
A827
  8
0
 10
446.49999999996447
 20
776.76258918572637
 30
0.0
 11
448.39999999995501
 21
776.76258918572614
 31
0.0
  0
LINE
  5
A828
  8
0
 10
613.49999999995453
 20
776.7625891857266
 30
0.0
 11
660.49999999996453
 21
776.76258918572637
 31
0.0
  0
LINE
  5
A829
  8
0
 10
660.49999999996453
 20
776.76258918572637
 30
0.0
 11
660.49999999996453
 21
783.2625891857266
 31
0.0
  0
LINE
  5
A82A
  8
0
 10
660.49999999996453
 20
806.26258918572648
 30
0.0
 11
660.49999999996453
 21
811.26258727837774
 31
0.0
  0
LINE
  5
A82B
  8
0
 10
660.49999999996453
 20
975.26258918572626
 30
0.0
 11
660.49999999996453
 21
980.76258918572626
 31
0.0
  0
LINE
  5
A82C
  8
0
 10
660.49999999996453
 20
980.76258918572626
 30
0.0
 11
606.49999999999363
 21
980.76258918572626
 31
0.0
  0
LINE
  5
A82D
  8
0
 10
596.49999999999363
 20
980.76258918572626
 30
0.0
 11
465.3999999999005
 21
980.7625891857266
 31
0.0
  0
LINE
  5
A82E
  8
0
 10
455.3999999999005
 20
980.7625891857266
 30
0.0
 11
446.49999999996447
 21
980.76258918572626
 31
0.0
  0
LINE
  5
A82F
  8
0
 10
446.49999999996447
 20
980.76258918572626
 30
0.0
 11
446.49999999996447
 21
776.76258918572637
 31
0.0
  0
LINE
  5
A830
  8
0
 10
659.49999999996453
 20
776.76258918572637
 30
0.0
 11
659.49999999996453
 21
783.26258918572626
 31
0.0
  0
LINE
  5
A831
  8
0
 10
659.49999999996453
 20
806.26258918572648
 30
0.0
 11
659.49999999996453
 21
811.26258727837785
 31
0.0
  0
LINE
  5
A832
  8
0
 10
659.49999999996453
 20
975.26258918572648
 30
0.0
 11
659.49999999996453
 21
979.76258918572626
 31
0.0
  0
LINE
  5
A833
  8
0
 10
659.49999999996453
 20
979.76258918572626
 30
0.0
 11
606.49999999999363
 21
979.76258918572626
 31
0.0
  0
LINE
  5
A834
  8
0
 10
596.49999999999363
 20
979.76258918572626
 30
0.0
 11
465.3999999999005
 21
979.76258918572626
 31
0.0
  0
LINE
  5
A835
  8
0
 10
455.3999999999005
 20
979.76258918572626
 30
0.0
 11
447.49999999996447
 21
979.76258918572626
 31
0.0
  0
LINE
  5
A836
  8
0
 10
447.49999999996447
 20
979.76258918572626
 30
0.0
 11
447.49999999996447
 21
776.76258918572637
 31
0.0
  0
LINE
  5
A837
  8
0
 10
658.49999999996453
 20
776.76258918572637
 30
0.0
 11
658.49999999996453
 21
783.2625891857266
 31
0.0
  0
LINE
  5
A838
  8
0
 10
658.49999999996453
 20
806.26258918572648
 30
0.0
 11
658.49999999996453
 21
811.26258727837774
 31
0.0
  0
LINE
  5
A839
  8
0
 10
658.49999999996453
 20
975.26258918572626
 30
0.0
 11
658.49999999996453
 21
978.76258918572626
 31
0.0
  0
LINE
  5
A83A
  8
0
 10
658.49999999996453
 20
978.76258918572626
 30
0.0
 11
606.49999999999454
 21
978.76258918572626
 31
0.0
  0
LINE
  5
A83B
  8
0
 10
596.49999999999454
 20
978.76258918572626
 30
0.0
 11
465.39999999990141
 21
978.76258918572626
 31
0.0
  0
LINE
  5
A83C
  8
0
 10
455.3999999999005
 20
978.76258918572626
 30
0.0
 11
448.49999999996447
 21
978.76258918572626
 31
0.0
  0
LINE
  5
A83D
  8
0
 10
448.49999999996447
 20
978.76258918572626
 30
0.0
 11
448.49999999996447
 21
792.7625891857075
 31
0.0
  0
LINE
  5
A83E
  8
0
 10
613.49999999995453
 20
779.96258918572607
 30
0.0
 11
658.49999999996453
 21
779.96258918572607
 31
0.0
  0
LINE
  5
A83F
  8
0
 10
448.49999999996447
 20
806.76258918572626
 30
0.0
 11
455.3999999999005
 21
806.76258918572614
 31
0.0
  0
LINE
  5
A840
  8
0
 10
465.3999999999005
 20
806.76258918572614
 30
0.0
 11
596.49999999999363
 21
806.76258918572626
 31
0.0
  0
LINE
  5
A841
  8
0
 10
606.49999999999363
 20
806.76258918572626
 30
0.0
 11
658.49999999996453
 21
806.76258918572626
 31
0.0
  0
LINE
  5
A842
  8
0
 10
475.00000337680098
 20
960.00980449307485
 30
0.0
 11
468.49999966405443
 21
956.25702549307505
 31
0.0
  0
LINE
  5
A843
  8
0
 10
475.00000047680169
 20
967.51536819307489
 30
0.0
 11
475.00000047680169
 21
960.00980639307488
 31
0.0
  0
LINE
  5
A844
  8
0
 10
468.50000150935102
 20
971.26814539307475
 30
0.0
 11
475.00000127680141
 21
967.51536819307489
 31
0.0
  0
LINE
  5
A845
  8
0
 10
465.3999999999005
 20
969.47836010202877
 30
0.0
 11
468.5000012195523
 21
971.26814649307505
 31
0.0
  0
LINE
  5
A846
  8
0
 10
468.49999954717617
 20
956.25702939307519
 30
0.0
 11
465.39999999990141
 21
958.04681803533322
 31
0.0
  0
ARC
  5
A847
  8
0
 10
468.49999999996447
 20
963.76258918572626
 30
0.0
 40
6.5000018999999991
 50
241.5153736917826
 51
118.4846263082173
  0
LINE
  5
A848
  8
0
 10
645.00000337680103
 20
960.00980449307485
 30
0.0
 11
638.49999966405437
 21
956.25702549307505
 31
0.0
  0
LINE
  5
A849
  8
0
 10
645.00000047680169
 20
967.51536819307489
 30
0.0
 11
645.00000047680169
 21
960.00980639307488
 31
0.0
  0
LINE
  5
A84A
  8
0
 10
638.50000150935102
 20
971.26814539307475
 30
0.0
 11
645.00000127680141
 21
967.51536819307489
 31
0.0
  0
LINE
  5
A84B
  8
0
 10
632.00000007680126
 20
967.51536939307505
 30
0.0
 11
638.50000121955225
 21
971.26814649307505
 31
0.0
  0
LINE
  5
A84C
  8
0
 10
631.99999757680143
 20
960.00981209307497
 30
0.0
 11
631.99999757680143
 21
967.51537009307526
 31
0.0
  0
LINE
  5
A84D
  8
0
 10
638.49999954717623
 20
956.25702939307519
 30
0.0
 11
631.9999965768011
 21
960.00981429307501
 31
0.0
  0
CIRCLE
  5
A84E
  8
0
 10
638.49999999996453
 20
963.76258918572626
 30
0.0
 40
6.5000018999999991
  0
LINE
  5
A84F
  8
0
 10
475.00000047680169
 20
795.51536819307501
 30
0.0
 11
475.00000047680169
 21
792.7625891857075
 31
0.0
  0
LINE
  5
A850
  8
0
 10
470.19999999976881
 20
798.2866506541335
 30
0.0
 11
475.00000127680141
 21
795.51536819307501
 31
0.0
  0
ARC
  5
A851
  8
0
 10
468.49999999996447
 20
791.76258918572626
 30
0.0
 40
6.5000018999999991
 50
8.8498804905961848
 51
74.838635933369474
  0
LINE
  5
A852
  8
0
 10
645.00000337680103
 20
788.00980449307497
 30
0.0
 11
638.49999966405437
 21
784.25702549307505
 31
0.0
  0
LINE
  5
A853
  8
0
 10
645.00000047680169
 20
795.51536819307501
 30
0.0
 11
645.00000047680169
 21
788.00980639307477
 31
0.0
  0
LINE
  5
A854
  8
0
 10
638.50000150935102
 20
799.26814539307486
 30
0.0
 11
645.00000127680141
 21
795.51536819307501
 31
0.0
  0
LINE
  5
A855
  8
0
 10
632.00000007680126
 20
795.51536939307505
 30
0.0
 11
638.50000121955225
 21
799.26814649307505
 31
0.0
  0
LINE
  5
A856
  8
0
 10
631.99999757680143
 20
788.00981209307508
 30
0.0
 11
631.99999757680143
 21
795.51537009307526
 31
0.0
  0
LINE
  5
A857
  8
0
 10
638.49999954717623
 20
784.25702939307519
 30
0.0
 11
631.9999965768011
 21
788.00981429307501
 31
0.0
  0
CIRCLE
  5
A858
  8
0
 10
638.49999999996453
 20
791.76258918572626
 30
0.0
 40
6.5000018999999991
  0
ARC
  5
A859
  8
0
  6
PHANTOM2
 10
606.39999999996417
 20
897.66258918572646
 30
0.0
 40
55.0
 50
283.6720181043691
 51
256.32798189560413
  0
CIRCLE
  5
A85A
  8
0
  6
PHANTOM2
 10
606.39999999996417
 20
897.66258918572646
 30
0.0
 40
51.560000000000002
  0
LINE
  5
A85B
  8
0
  6
PHANTOM2
 10
593.39999999996405
 20
847.7683650711059
 30
0.0
 11
593.39999999996405
 21
836.66258918572635
 31
0.0
  0
LINE
  5
A85C
  8
0
  6
PHANTOM2
 10
593.39999999996405
 20
836.66258918572635
 30
0.0
 11
619.39999999996417
 21
836.66258918572635
 31
0.0
  0
LINE
  5
A85D
  8
0
  6
PHANTOM2
 10
619.39999999996417
 20
836.66258918572635
 30
0.0
 11
619.39999999996496
 21
847.7683650711059
 31
0.0
  0
CIRCLE
  5
A85E
  8
0
 10
480.09999999996393
 20
866.96258918572607
 30
0.0
 40
5.0
  0
CIRCLE
  5
A85F
  8
0
 10
480.09999999996393
 20
866.96258918572607
 30
0.0
 40
13.0
  0
CIRCLE
  5
A860
  8
0
 10
480.09999999996393
 20
866.96258918572607
 30
0.0
 40
8.0
  0
ARC
  5
A861
  8
0
 10
480.09999999996393
 20
866.96258918572607
 30
0.0
 40
15.0
 50
191.4783409533218
 51
168.52165904667811
  0
LINE
  5
A862
  8
0
 10
557.49993999996423
 20
853.56259918572619
 30
0.0
 11
553.49993999996423
 21
853.56259918572619
 31
0.0
  0
LINE
  5
A863
  8
0
 10
557.49993999996423
 20
849.26258918572626
 30
0.0
 11
553.49993999996423
 21
849.26258918572626
 31
0.0
  0
LINE
  5
A864
  8
0
 10
557.49993999996423
 20
853.26258918572626
 30
0.0
 11
553.49993999996423
 21
853.26258918572626
 31
0.0
  0
CIRCLE
  5
A865
  8
0
 10
555.49999999996453
 20
846.76258918572626
 30
0.0
 40
17.5
  0
CIRCLE
  5
A866
  8
0
  6
PHANTOM2
 10
555.49999999996453
 20
846.76258918572626
 30
0.0
 40
15.41
  0
ARC
  5
A867
  8
0
 10
555.49999999996453
 20
846.76258918572626
 30
0.0
 40
5.0
 50
113.57896193744401
 51
66.422535133027395
  0
LINE
  5
A868
  8
0
 10
553.49999999996453
 20
853.56259918572619
 30
0.0
 11
553.49999999996453
 21
852.657504400466
 31
0.0
  0
LINE
  5
A869
  8
0
 10
553.49999999996453
 20
851.34513759999879
 30
0.0
 11
553.49999999996453
 21
849.26258918572626
 31
0.0
  0
LINE
  5
A86A
  8
0
 10
557.49999999996453
 20
853.56259918572619
 30
0.0
 11
557.49999999996453
 21
852.657504400466
 31
0.0
  0
LINE
  5
A86B
  8
0
 10
557.49999999996453
 20
851.34518975050867
 30
0.0
 11
557.49999999996453
 21
849.26258918572626
 31
0.0
  0
LINE
  5
A86C
  8
0
 10
554.1749999999638
 20
839.11258918572673
 30
0.0
 11
554.99999999996453
 21
839.11258918572673
 31
0.0
  0
LINE
  5
A86D
  8
0
 10
555.99999999996453
 20
839.11258918572673
 30
0.0
 11
556.82499999996435
 21
839.11258918572673
 31
0.0
  0
CIRCLE
  5
A86E
  8
0
 10
556.91249999996387
 20
840.62606912308388
 30
0.0
 40
0.6
  0
LINE
  5
A86F
  8
0
 10
557.82499999996435
 20
840.11258918572673
 30
0.0
 11
557.82499999996435
 21
841.25948604006248
 31
0.0
  0
ARC
  5
A870
  8
0
 10
556.82499999996435
 20
840.11258918572673
 30
0.0
 40
1.0
 50
269.99999846475509
 51
0.0
  0
LINE
  5
A871
  8
0
 10
553.1749999999638
 20
840.11258918572673
 30
0.0
 11
553.1749999999638
 21
841.25948604006248
 31
0.0
  0
CIRCLE
  5
A872
  8
0
 10
554.08749999996405
 20
840.62606912308388
 30
0.0
 40
0.6
  0
ARC
  5
A873
  8
0
 10
554.1749999999638
 20
840.11258918572673
 30
0.0
 40
1.0
 50
180.00000307046369
 51
269.99999846475509
  0
LINE
  5
A874
  8
0
 10
555.99999999996453
 20
839.11258918572673
 30
0.0
 11
555.99999999996453
 21
841.78765200019302
 31
0.0
  0
LINE
  5
A875
  8
0
 10
554.99999999996453
 20
839.11258918572673
 30
0.0
 11
554.99999999996453
 21
841.78765200019302
 31
0.0
  0
ARC
  5
A876
  8
0
 10
558.82499999996435
 20
841.25948604006248
 30
0.0
 40
1.0
 50
119.2257946599124
 51
180.00000307046369
  0
ARC
  5
A877
  8
0
 10
552.1749999999638
 20
841.25948604006248
 30
0.0
 40
1.0
 50
0.0
 51
60.774208410533078
  0
ARC
  5
A878
  8
0
 10
555.49999999996453
 20
847.20258918572631
 30
0.0
 40
5.8099999999999987
 50
299.22579158946689
 51
240.7742053400876
  0
ARC
  5
A879
  8
0
 10
555.49999999996453
 20
846.76258918572626
 30
0.0
 40
4.7999999999999821
 50
65.375682763011341
 51
114.62432030744959
  0
CIRCLE
  5
A87A
  8
0
 10
555.49999999996453
 20
846.76258918572626
 30
0.0
 40
17.0
  0
LINE
  5
A87B
  8
0
  6
CENTER2
 10
580.49993999996423
 20
846.76258918572626
 30
0.0
 11
530.49993999996423
 21
846.76258918572626
 31
0.0
  0
LINE
  5
A87C
  8
0
  6
CENTER2
 10
555.49999999996453
 20
871.76258918565452
 30
0.0
 11
555.49999999996453
 21
821.76258918579822
 31
0.0
  0
ARC
  5
A87D
  8
0
 10
606.39999999996417
 20
897.66258918572646
 30
0.0
 40
9.0
 50
270.51010239763337
 51
89.489897602366625
  0
CIRCLE
  5
A87E
  8
0
  6
PHANTOM2
 10
606.39999999996417
 20
897.66258918572646
 30
0.0
 40
26.535
  0
LINE
  5
A87F
  8
0
 10
608.39999999996405
 20
904.1625891857268
 30
0.0
 11
606.49999999999363
 21
904.16258918572726
 31
0.0
  0
LINE
  5
A880
  8
0
 10
608.39999999996405
 20
904.46258918572676
 30
0.0
 11
608.39999999996405
 21
903.5575044004612
 31
0.0
  0
LINE
  5
A881
  8
0
 10
608.39999999996405
 20
900.16258918572635
 30
0.0
 11
606.49999999999363
 21
900.16258918572726
 31
0.0
  0
LINE
  5
A882
  8
0
 10
608.39999999996405
 20
904.46258918572676
 30
0.0
 11
606.49999999999363
 21
904.46258918572607
 31
0.0
  0
CIRCLE
  5
A883
  8
0
  6
PHANTOM2
 10
606.39996404838985
 20
897.66258918572646
 30
0.0
 40
25.329999999999998
  0
ARC
  5
A884
  8
0
 10
606.39999999996417
 20
897.66258918572646
 30
0.0
 40
4.6711621157122689
 50
64.649220187390185
 51
88.773321168071718
  0
LINE
  5
A885
  8
0
 10
608.39999999996405
 20
902.24516488068275
 30
0.0
 11
608.39999999996405
 21
900.16258918572635
 31
0.0
  0
LINE
  5
A886
  8
0
 10
606.89999999996235
 20
890.0125891857241
 30
0.0
 11
607.72499999996296
 21
890.0125891857241
 31
0.0
  0
CIRCLE
  5
A887
  8
0
 10
607.8124999999626
 20
891.52606912308124
 30
0.0
 40
0.6
  0
LINE
  5
A888
  8
0
 10
608.72499999996296
 20
891.0125891857241
 30
0.0
 11
608.72499999996296
 21
892.15948604005985
 31
0.0
  0
ARC
  5
A889
  8
0
 10
607.72499999996296
 20
891.0125891857241
 30
0.0
 40
1.0
 50
270.0
 51
359.99999692952332
  0
LINE
  5
A88A
  8
0
 10
606.89999999996235
 20
890.0125891857241
 30
0.0
 11
606.89999999996235
 21
892.68765200019095
 31
0.0
  0
ARC
  5
A88B
  8
0
 10
609.72499999996307
 20
892.15948604005985
 30
0.0
 40
1.0
 50
119.2257936232641
 51
179.99999692952321
  0
ARC
  5
A88C
  8
0
 10
606.39999999996417
 20
897.66258918572646
 30
0.0
 40
29.500000000000028
 50
109.6086153961606
 51
250.39138460383941
  0
ARC
  5
A88D
  8
0
 10
606.39999999996417
 20
897.66258918572646
 30
0.0
 40
29.500000000000028
 50
270.19422335343472
 51
89.805776646565263
  0
ARC
  5
A88E
  8
0
 10
606.39999999996417
 20
897.66258918572646
 30
0.0
 40
9.0000000000000551
 50
270.63663287244083
 51
89.363367127533181
  0
ARC
  5
A88F
  8
0
 10
606.39999999996235
 20
898.10258918572424
 30
0.0
 40
5.809999999999742
 50
299.22579262614488
 51
89.013793307769518
  0
ARC
  5
A890
  8
0
 10
606.39999999996417
 20
897.66258918572646
 30
0.0
 40
5.0000000000004343
 50
271.14599199872629
 51
66.421821521820917
  0
CIRCLE
  5
A891
  8
0
  6
PHANTOM2
 10
747.63999999996304
 20
933.76258918572637
 30
0.0
 40
36.57
  0
LINE
  5
A892
  8
0
 10
694.63999999996304
 20
925.51258918572626
 30
0.0
 11
694.63999999996304
 21
920.26258518572592
 31
0.0
  0
LINE
  5
A893
  8
0
 10
798.63999999996304
 20
912.26258518572592
 30
0.0
 11
800.63999999996292
 21
912.26258518572592
 31
0.0
  0
LINE
  5
A894
  8
0
 10
694.63999999996304
 20
912.26258518572592
 30
0.0
 11
696.63999999996304
 21
912.26258518572592
 31
0.0
  0
ARC
  5
A897
  8
0
 10
695.13999999996304
 20
957.76258518572592
 30
0.0
 40
1.0
 50
89.999996929510203
 51
179.99999692951019
  0
ARC
  5
A898
  8
0
 10
800.13999999996304
 20
957.76258518572592
 30
0.0
 40
1.0
 50
0.0000030704637251
 51
89.999996929510203
  0
LINE
  5
A899
  8
0
 10
800.63999999996292
 20
945.45980918572627
 30
0.0
 11
800.63999999996292
 21
920.26258518572592
 31
0.0
  0
ARC
  5
A89A
  8
0
 10
800.63999999996292
 20
914.26258518572592
 30
0.0
 40
2.0
 50
270.00000307046372
 51
0.0000030704637251
  0
LINE
  5
A89B
  8
0
 10
802.63999999996315
 20
918.26258518572604
 30
0.0
 11
802.63999999996315
 21
914.26258518572592
 31
0.0
  0
ARC
  5
A89C
  8
0
 10
800.63999999996292
 20
918.26258518572604
 30
0.0
 40
2.0
 50
0.0000030704637251
 51
89.999996929510203
  0
ARC
  5
A89D
  8
0
 10
694.63999999996304
 20
918.26258518572604
 30
0.0
 40
2.0
 50
89.999996929510203
 51
179.99999692951019
  0
ARC
  5
A89E
  8
0
 10
694.63999999996304
 20
914.26258518572592
 30
0.0
 40
2.0
 50
179.99999692951019
 51
270.00000307046372
  0
LINE
  5
A89F
  8
0
 10
692.63999999996304
 20
918.26258518572604
 30
0.0
 11
692.63999999996304
 21
914.26258518572592
 31
0.0
  0
ARC
  5
A8A0
  8
0
 10
801.63999999996315
 20
945.45980918572627
 30
0.0
 40
1.0
 50
148.99728195509201
 51
179.99999692951019
  0
ARC
  5
A8A1
  8
0
 10
798.63999999996304
 20
947.26258518572592
 30
0.0
 40
2.5
 50
328.99728809598219
 51
0.0000030704637251
  0
LINE
  5
A8A2
  8
0
 10
801.13999999996304
 20
947.26258518572592
 30
0.0
 11
801.13999999996304
 21
957.76258518572592
 31
0.0
  0
LINE
  5
A8A3
  8
0
 10
694.13999999996304
 20
947.01258918572591
 30
0.0
 11
694.13999999996304
 21
957.76258518572592
 31
0.0
  0
LINE
  5
A8A4
  8
0
 10
695.13999999996304
 20
958.76258518572592
 30
0.0
 11
696.63999999996304
 21
958.76258518572592
 31
0.0
  0
LINE
  5
A8A7
  8
0
 10
778.86498999195464
 20
958.76258918572637
 30
0.0
 11
800.14000002675846
 21
958.76258918572637
 31
0.0
  0
LINE
  5
A8A8
  8
0
 10
696.63999999996304
 20
958.76258918572637
 30
0.0
 11
716.41501000797143
 21
958.76258918572637
 31
0.0
  0
LINE
  5
A8A9
  8
0
  6
CENTER2
 10
747.63999999996304
 20
978.76258918572626
 30
0.0
 11
747.63999999996304
 21
888.76258918572626
 31
0.0
  0
LINE
  5
A8AA
  8
0
  6
CENTER2
 10
702.63999999996304
 20
933.76258918572637
 30
0.0
 11
792.63999999996304
 21
933.76258918572637
 31
0.0
  0
LINE
  5
A8AB
  8
0
 10
710.13999999996304
 20
899.76258918572637
 30
0.0
 11
697.63999999996304
 21
899.76258918572637
 31
0.0
  0
LINE
  5
A8AC
  8
0
 10
797.63999999996304
 20
899.76258918572637
 30
0.0
 11
785.13999999996304
 21
899.76258918572637
 31
0.0
  0
LINE
  5
A8AD
  8
0
 10
710.13999999996304
 20
898.76258918572626
 30
0.0
 11
710.13999999996304
 21
899.76258918572637
 31
0.0
  0
LINE
  5
A8AE
  8
0
 10
785.13999999996304
 20
898.76258918572626
 30
0.0
 11
785.13999999996315
 21
899.76258918572637
 31
0.0
  0
ARC
  5
A8AF
  8
0
 10
747.63999999996304
 20
933.76258918572637
 30
0.0
 40
40.000000000000007
 50
38.682187453489597
 51
141.31781254651059
  0
ARC
  5
A8C3
  8
0
 10
797.63999999996304
 20
900.76258918572637
 30
0.0
 40
1.0
 50
270.00000153524491
 51
0.0
  0
ARC
  5
A8C4
  8
0
 10
697.63999999996304
 20
900.76258918572637
 30
0.0
 40
1.0
 50
179.99999692951019
 51
270.00000153524491
  0
LINE
  5
A904
  8
0
 10
692.63999999996304
 20
925.51258918572626
 30
0.0
 11
694.63999999996304
 21
925.51258918572626
 31
0.0
  0
ARC
  5
A905
  8
0
 10
692.63999999996304
 20
930.01258918572626
 30
0.0
 40
4.5
 50
180.0
 51
270.0
  0
LINE
  5
A90C
  8
0
 10
688.13999999996304
 20
942.51258918572626
 30
0.0
 11
688.13999999996304
 21
930.01258918572626
 31
0.0
  0
ARC
  5
A90D
  8
0
 10
692.63999999996304
 20
942.51258918572626
 30
0.0
 40
4.5
 50
90.0
 51
180.0
  0
LINE
  5
A910
  8
0
 10
692.63999999996304
 20
947.01258918572626
 30
0.0
 11
694.13999999996304
 21
947.01258918572626
 31
0.0
  0
ARC
  5
A911
  8
0
 10
774.74998999996285
 20
837.76258518571763
 30
0.0
 40
2.0999985000005741
 50
272.19076091140067
 51
87.921193296274794
  0
ARC
  5
A912
  8
0
 10
769.450009999955
 20
837.76258518572627
 30
0.0
 40
2.099998499991226
 50
92.224538654344215
 51
267.66328795429013
  0
CIRCLE
  5
A913
  8
0
  6
PHANTOM2
 10
736.09999999996398
 20
837.76258518572581
 30
0.0
 40
25.329999999999998
  0
CIRCLE
  5
A914
  8
0
 10
736.09999999996398
 20
837.76258518572581
 30
0.0
 40
4.0
  0
ARC
  5
A915
  8
0
 10
790.89998999996351
 20
890.5625991857263
 30
0.0
 40
6.1999997999999987
 50
0.0
 51
89.999983535206596
  0
ARC
  5
A916
  8
0
 10
790.89998999996351
 20
890.5625991857263
 30
0.0
 40
2.999999799999999
 50
0.0
 51
86.177254603699893
  0
CIRCLE
  5
A917
  8
0
 10
736.09999999996398
 20
837.76258518572581
 30
0.0
 40
11.0
  0
LINE
  5
A918
  8
0
 10
779.09999999996387
 20
842.76258518572592
 30
0.0
 11
779.09999999996387
 21
832.76258518572592
 31
0.0
  0
LINE
  5
A919
  8
0
 10
766.09999999996387
 20
855.93105018572658
 30
0.0
 11
766.09999999996387
 21
799.76258518572592
 31
0.0
  0
LINE
  5
A91A
  8
0
 10
688.09999999996387
 20
877.76258918572637
 30
0.0
 11
764.09999999996398
 21
877.76258918572637
 31
0.0
  0
LINE
  5
A91B
  8
0
 10
791.09999999996387
 20
898.76258918572626
 30
0.0
 11
791.09999999996387
 21
776.76258918572637
 31
0.0
  0
LINE
  5
A91C
  8
0
 10
666.09999999996387
 20
898.76258918572626
 30
0.0
 11
728.27508326892519
 21
898.76258918572626
 31
0.0
  0
LINE
  5
A91D
  8
0
 10
668.09999999996398
 20
896.76258918572626
 30
0.0
 11
732.44131584639206
 21
896.76258918572626
 31
0.0
  0
LINE
  5
A91E
  8
0
 10
797.09999999996398
 20
890.5625991857263
 30
0.0
 11
797.09999999996398
 21
858.76259318572579
 31
0.0
  0
LINE
  5
A91F
  8
0
 10
793.89999999996417
 20
890.5625991857263
 30
0.0
 11
793.89999999996417
 21
858.76259318572579
 31
0.0
  0
LINE
  5
A920
  8
0
 10
766.09999999996387
 20
875.76258918572637
 30
0.0
 11
766.09999999996387
 21
855.93105018572658
 31
0.0
  0
ARC
  5
A921
  8
0
 10
764.09999999996398
 20
875.76258918572637
 30
0.0
 40
2.0
 50
0.0
 51
90.0
  0
LINE
  5
A922
  8
0
 10
686.09999999996398
 20
875.76258918572637
 30
0.0
 11
686.09999999996398
 21
799.76258518572592
 31
0.0
  0
ARC
  5
A923
  8
0
 10
688.09999999996387
 20
799.76258518572592
 30
0.0
 40
2.0
 50
180.0
 51
270.0
  0
ARC
  5
A924
  8
0
 10
688.09999999996387
 20
875.76258918572637
 30
0.0
 40
2.0
 50
90.0
 51
180.0
  0
LINE
  5
A925
  8
0
 10
688.09999999996387
 20
797.76258518572592
 30
0.0
 11
764.09999999996398
 21
797.76258518572592
 31
0.0
  0
ARC
  5
A926
  8
0
 10
764.09999999996398
 20
799.76258518572592
 30
0.0
 40
2.0
 50
270.0
 51
0.0
  0
LINE
  5
A927
  8
0
 10
668.09999999996398
 20
898.76258918572626
 30
0.0
 11
668.09999999996398
 21
776.76258918572637
 31
0.0
  0
LINE
  5
A928
  8
0
 10
668.09999999996398
 20
778.76258918572626
 30
0.0
 11
791.09999999996387
 21
778.76258918572626
 31
0.0
  0
LINE
  5
A929
  8
0
 10
666.09999999996387
 20
776.76258918572637
 30
0.0
 11
791.09999999996387
 21
776.76258918572637
 31
0.0
  0
LINE
  5
A92A
  8
0
 10
666.09999999996387
 20
898.76258918572626
 30
0.0
 11
666.09999999996387
 21
776.76258918572637
 31
0.0
  0
LINE
  5
A92B
  8
0
 10
767.00491673099975
 20
898.76258918572626
 30
0.0
 11
791.09999999996387
 21
898.76258918572626
 31
0.0
  0
LINE
  5
A92C
  8
0
 10
762.8386841535339
 20
896.76258918572626
 30
0.0
 11
790.89998999996351
 21
896.76258918572626
 31
0.0
  0
CIRCLE
  5
A92D
  8
0
 10
772.0974084674225
 20
837.75999365318535
 30
0.0
 40
2.706134336630337
  0
CIRCLE
  5
A92E
  8
0
 10
772.0974084674225
 20
837.75999365318535
 30
0.0
 40
3.444007851119828
  0
LINE
  5
A92F
  8
0
 10
779.09999999996387
 20
842.76258518572592
 30
0.0
 11
766.09999999996387
 21
842.76258518572592
 31
0.0
  0
LINE
  5
A930
  8
0
 10
779.09999999996387
 20
832.76258518572592
 30
0.0
 11
766.09999999996387
 21
832.76258518572592
 31
0.0
  0
LINE
  5
A931
  8
0
  6
CENTER2
 10
706.09999999996398
 20
837.76258518572581
 30
0.0
 11
766.09999999996387
 21
837.76258518572581
 31
0.0
  0
LINE
  5
A932
  8
0
  6
CENTER2
 10
736.09999999996398
 20
867.76258518572592
 30
0.0
 11
736.09999999996398
 21
807.76258518572592
 31
0.0
  0
LINE
  5
A933
  8
0
 10
797.09999999996398
 20
858.76259318572579
 30
0.0
 11
793.89999999996417
 21
858.76259318572579
 31
0.0
  0
LINE
  5
A934
  8
0
 10
666.10000047683661
 20
811.26258727837774
 30
0.0
 11
666.10000047683661
 21
975.26258918572626
 31
0.0
  0
LINE
  5
A935
  8
0
 10
666.10000047683661
 20
975.26258918572626
 30
0.0
 11
626.10000047683661
 21
975.26258918572626
 31
0.0
  0
LINE
  5
A936
  8
0
 10
626.10000047683661
 20
975.26258918572626
 30
0.0
 11
626.10000047683661
 21
968.01258918572626
 31
0.0
  0
LINE
  5
A937
  8
0
 10
626.10000047683661
 20
968.01258918572626
 30
0.0
 11
632.8612100912278
 21
968.01258918572648
 31
0.0
  0
LINE
  5
A938
  8
0
 10
632.86121424869805
 20
959.5125891857266
 30
0.0
 11
626.10000047683661
 21
959.51258918572626
 31
0.0
  0
LINE
  5
A939
  8
0
 10
626.10000047683661
 20
959.51258918572626
 30
0.0
 11
626.10000047683661
 21
952.26258918572626
 31
0.0
  0
LINE
  5
A93A
  8
0
 10
626.10000047683661
 20
952.26258918572626
 30
0.0
 11
646.10000047683661
 21
952.26258918572626
 31
0.0
  0
LINE
  5
A93B
  8
0
 10
646.10000047683661
 20
952.26258918572626
 30
0.0
 11
646.10000047683661
 21
811.26258727837774
 31
0.0
  0
LINE
  5
A93C
  8
0
 10
646.10000047683661
 20
811.26258727837774
 30
0.0
 11
666.10000047683661
 21
811.26258727837774
 31
0.0
  0
LINE
  5
A93D
  8
0
 10
666.10000047683661
 20
806.26258918572637
 30
0.0
 11
626.10000047683661
 21
806.26258918572637
 31
0.0
  0
LINE
  5
A93E
  8
0
 10
626.10000047683661
 20
806.26258918572637
 30
0.0
 11
626.10000047683661
 21
796.01258918572637
 31
0.0
  0
LINE
  5
A93F
  8
0
 10
626.10000047683661
 20
796.01258918572637
 30
0.0
 11
632.8612100912278
 21
796.01258918572637
 31
0.0
  0
LINE
  5
A940
  8
0
 10
632.86121424869896
 20
787.51258918572637
 30
0.0
 11
626.10000047683661
 21
787.51258918572637
 31
0.0
  0
LINE
  5
A941
  8
0
 10
626.10000047683661
 20
787.51258918572637
 30
0.0
 11
626.10000047683661
 21
783.26258918572626
 31
0.0
  0
LINE
  5
A942
  8
0
 10
626.10000047683661
 20
783.26258918572626
 30
0.0
 11
666.10000047683661
 21
783.26258918572626
 31
0.0
  0
LINE
  5
A943
  8
0
 10
666.10000047683661
 20
783.26258918572626
 30
0.0
 11
666.10000047683661
 21
806.26258918572637
 31
0.0
  0
LINE
  5
A944
  8
0
  6
PHANTOM2
 10
570.74426016540735
 20
844.50856345200145
 30
0.0
 11
550.68596867568522
 21
708.85180968532893
 31
0.0
  0
LINE
  5
A945
  8
0
  6
PHANTOM2
 10
540.43583593417486
 20
850.00898118284704
 30
0.0
 11
511.54660188778593
 21
715.95487995423389
 31
0.0
  0
LINE
  5
A946
  8
0
  6
PHANTOM2
 10
598.07497235821666
 20
922.85782960458596
 30
0.0
 11
736.16661538120661
 21
968.48615964427972
 31
0.0
  0
LINE
  5
A947
  8
0
  6
PHANTOM2
 10
611.18566194903985
 20
871.56271055173363
 30
0.0
 11
754.23550244871785
 21
897.79226464662224
 31
0.0
  0
LINE
  5
A948
  8
0
  6
PHANTOM2
 10
617.02032728220991
 20
920.65860590127375
 30
0.0
 11
746.72036323378416
 21
860.75860190127264
 31
0.0
  0
LINE
  5
A949
  8
0
  6
PHANTOM2
 10
595.77960081457047
 20
874.66657247017918
 30
0.0
 11
725.4796367661437
 21
814.76656847017864
 31
0.0
  0
LINE
  5
CF3D
  8
0
 10
798.63999999996304
 20
912.2625851857257
 30
0.0
 11
798.63999999996304
 21
900.76258918572637
 31
0.0
  0
ARC
  5
CF47
  8
0
 10
747.63999999996304
 20
933.76258918572637
 30
0.0
 40
40.000000000000007
 50
241.04497562814001
 51
298.95502437185979
  0
LINE
  5
CF49
  8
0
 10
696.63999999996304
 20
912.2625851857257
 30
0.0
 11
696.63999999996304
 21
900.76258918572637
 31
0.0
  0
ENDSEC
  0
EOF
