  0
SECTION
  2
HEADER
  9
$ACADVER
  1
AC1009
  9
$INSBASE
 10
0.0
 20
0.0
 30
0.0
  9
$EXTMIN
 10
0.0
 20
0.0
 30
0.0
  9
$EXTMAX
 10
1638.0
 20
1174.5
 30
0.0
  9
$LIMMIN
 10
0.0
 20
0.0
  9
$LIMMAX
 10
420.0
 20
297.0
  9
$ORTHOMODE
 70
     1
  9
$REGENMODE
 70
     1
  9
$FILLMODE
 70
     1
  9
$QTEXTMODE
 70
     0
  9
$MIRRTEXT
 70
     0
  9
$DRAGMODE
 70
     2
  9
$LTSCALE
 40
0.75
  9
$OSMODE
 70
  3071
  9
$ATTMODE
 70
     1
  9
$TEXTSIZE
 40
10.5
  9
$TRACEWID
 40
1.0
  9
$TEXTSTYLE
  7
横文字
  9
$CLAYER
  8
0
  9
$CELTYPE
  6
BYLAYER
  9
$CECOLOR
 62
   256
  9
$DIMSCALE
 40
3.0
  9
$DIMASZ
 40
1.0
  9
$DIMEXO
 40
5.0
  9
$DIMDLI
 40
7.5
  9
$DIMRND
 40
0.0
  9
$DIMDLE
 40
0.0
  9
$DIMEXE
 40
1.0
  9
$DIMTP
 40
0.0
  9
$DIMTM
 40
0.0
  9
$DIMTXT
 40
3.5
  9
$DIMCEN
 40
1.0
  9
$DIMTSZ
 40
0.0
  9
$DIMTOL
 70
     0
  9
$DIMLIM
 70
     0
  9
$DIMTIH
 70
     0
  9
$DIMTOH
 70
     0
  9
$DIMSE1
 70
     0
  9
$DIMSE2
 70
     0
  9
$DIMTAD
 70
     1
  9
$DIMZIN
 70
     8
  9
$DIMBLK
  1
ORIGIN
  9
$DIMASO
 70
     1
  9
$DIMSHO
 70
     1
  9
$DIMPOST
  1

  9
$DIMAPOST
  1

  9
$DIMALT
 70
     0
  9
$DIMALTD
 70
     3
  9
$DIMALTF
 40
0.03937007874016
  9
$DIMLFAC
 40
1.0
  9
$DIMTOFL
 70
     1
  9
$DIMTVP
 40
0.0
  9
$DIMTIX
 70
     1
  9
$DIMSOXD
 70
     0
  9
$DIMSAH
 70
     0
  9
$DIMBLK1
  1

  9
$DIMBLK2
  1

  9
$DIMSTYLE
  2
寸法線03
  9
$DIMCLRD
 70
   256
  9
$DIMCLRE
 70
   256
  9
$DIMCLRT
 70
   256
  9
$DIMTFAC
 40
1.0
  9
$DIMGAP
 40
1.0
  9
$LUNITS
 70
     2
  9
$LUPREC
 70
     4
  9
$SKETCHINC
 40
1.0
  9
$FILLETRAD
 40
0.0
  9
$AUNITS
 70
     0
  9
$AUPREC
 70
     0
  9
$MENU
  1
.
  9
$ELEVATION
 40
0.0
  9
$PELEVATION
 40
0.0
  9
$THICKNESS
 40
0.0
  9
$LIMCHECK
 70
     0
  9
$BLIPMODE
 70
     0
  9
$CHAMFERA
 40
0.0
  9
$CHAMFERB
 40
0.0
  9
$SKPOLY
 70
     0
  9
$TDCREATE
 40
2456769.6746121412
  9
$TDUPDATE
 40
2456776.5692468402
  9
$TDINDWG
 40
0.0405291782
  9
$TDUSRTIMER
 40
0.0405291782
  9
$USRTIMER
 70
     1
  9
$ANGBASE
 50
0.0
  9
$ANGDIR
 70
     0
  9
$PDMODE
 70
     0
  9
$PDSIZE
 40
0.0
  9
$PLINEWID
 40
0.0
  9
$COORDS
 70
     1
  9
$SPLFRAME
 70
     0
  9
$SPLINETYPE
 70
     6
  9
$SPLINESEGS
 70
     8
  9
$ATTDIA
 70
     0
  9
$ATTREQ
 70
     1
  9
$HANDLING
 70
     1
  9
$HANDSEED
  5
CE81
  9
$SURFTAB1
 70
     6
  9
$SURFTAB2
 70
     6
  9
$SURFTYPE
 70
     6
  9
$SURFU
 70
     6
  9
$SURFV
 70
     6
  9
$UCSNAME
  2

  9
$UCSORG
 10
0.0
 20
0.0
 30
0.0
  9
$UCSXDIR
 10
1.0
 20
0.0
 30
0.0
  9
$UCSYDIR
 10
0.0
 20
1.0
 30
0.0
  9
$PUCSNAME
  2

  9
$PUCSORG
 10
0.0
 20
0.0
 30
0.0
  9
$PUCSXDIR
 10
1.0
 20
0.0
 30
0.0
  9
$PUCSYDIR
 10
0.0
 20
1.0
 30
0.0
  9
$USERI1
 70
     0
  9
$USERI2
 70
     0
  9
$USERI3
 70
     0
  9
$USERI4
 70
     0
  9
$USERI5
 70
     0
  9
$USERR1
 40
0.0
  9
$USERR2
 40
0.0
  9
$USERR3
 40
0.0
  9
$USERR4
 40
0.0
  9
$USERR5
 40
0.0
  9
$WORLDVIEW
 70
     1
  9
$SHADEDGE
 70
     3
  9
$SHADEDIF
 70
    70
  9
$TILEMODE
 70
     1
  9
$MAXACTVP
 70
    64
  9
$PLIMCHECK
 70
     0
  9
$PEXTMIN
 10
1.0000000000000000E+020
 20
1.0000000000000000E+020
 30
1.0000000000000000E+020
  9
$PEXTMAX
 10
-1.0000000000000000E+020
 20
-1.0000000000000000E+020
 30
-1.0000000000000000E+020
  9
$PLIMMIN
 10
0.0
 20
0.0
  9
$PLIMMAX
 10
420.0
 20
297.0
  9
$UNITMODE
 70
     0
  9
$VISRETAIN
 70
     1
  9
$PLINEGEN
 70
     0
  9
$PSLTSCALE
 70
     1
  0
ENDSEC
  0
SECTION
  2
TABLES
  0
TABLE
  2
VPORT
 70
     1
  0
VPORT
  2
*ACTIVE
 70
     0
 10
0.0
 20
0.0
 11
1.0
 21
1.0
 12
1129.8289401397269
 22
587.25001093896799
 13
0.0
 23
0.0
 14
10.0
 24
10.0
 15
10.0
 25
10.0
 16
0.0
 26
0.0
 36
1.0
 17
0.0
 27
0.0
 37
0.0
 40
1184.748018716549
 41
3.2307692307692299
 42
50.0
 43
0.0
 44
0.0
 50
0.0
 51
0.0
 71
     0
 72
  1000
 73
     1
 74
     3
 75
     0
 76
     0
 77
     0
 78
     0
  0
ENDTAB
  0
TABLE
  2
LTYPE
 70
     4
  0
LTYPE
  2
CONTINUOUS
 70
     0
  3
Solid line
 72
    65
 73
     0
 40
0.0
  0
LTYPE
  2
CENTER2
 70
     0
  3
Center (.5x) ___ _ ___ _ ___ _ ___ _ ___ _ ___
 72
    65
 73
     4
 40
28.574999999999999
 49
19.050000000000001
 49
-3.1749999999999989
 49
3.1749999999999989
 49
-3.1749999999999989
  0
LTYPE
  2
PHANTOM2
 70
     0
  3
Phantom (.5x) ___ _ _ ___ _ _ ___ _ _ ___ _ _
 72
    65
 73
     6
 40
31.75
 49
15.875
 49
-3.1749999999999989
 49
3.1749999999999989
 49
-3.1749999999999989
 49
3.1749999999999989
 49
-3.1749999999999989
  0
LTYPE
  2
HIDDEN
 70
     0
  3
Hidden __ __ __ __ __ __ __ __ __ __ __ __ __ _
 72
    65
 73
     2
 40
9.5249999999999986
 49
6.3499999999999988
 49
-3.1749999999999989
  0
ENDTAB
  0
TABLE
  2
LAYER
 70
     2
  0
LAYER
  2
0
 70
     0
 62
     7
  6
CONTINUOUS
  0
LAYER
  2
DEFPOINTS
 70
     0
 62
     7
  6
CONTINUOUS
  0
ENDTAB
  0
TABLE
  2
STYLE
 70
     2
  0
STYLE
  2
STANDARD
 70
     0
 40
0.0
 41
1.0
 50
0.0
 71
     0
 42
2.5
  3
romans.shx
  4
bigfont.shx
  0
STYLE
  2
横文字
 70
     0
 40
0.0
 41
0.8
 50
0.0
 71
     0
 42
10.5
  3
romans.shx
  4
extfont.shx
  0
ENDTAB
  0
TABLE
  2
VIEW
 70
     0
  0
ENDTAB
  0
TABLE
  2
UCS
 70
     0
  0
ENDTAB
  0
TABLE
  2
APPID
 70
    11
  0
APPID
  2
ACAD
 70
     0
  0
APPID
  2
ACADANNOTATIVE
 70
     0
  0
APPID
  2
ACAD_PSEXT
 70
     0
  0
APPID
  2
ACAD_DSTYLE_DIMJAG
 70
     0
  0
APPID
  2
ACAD_DSTYLE_DIMTALN
 70
     0
  0
APPID
  2
ACADANNOPO
 70
     0
  0
APPID
  2
ADE
 70
     0
  0
APPID
  2
DCO15
 70
     0
  0
APPID
  2
ACAD_MLEADERVER
 70
     0
  0
APPID
  2
ACAD_EXEMPT_FROM_CAD_STANDARDS
 70
     0
  0
APPID
  2
N_10
 70
     0
  0
ENDTAB
  0
TABLE
  2
DIMSTYLE
 70
     2
  0
DIMSTYLE
  2
STANDARD
 70
     0
  3

  4

  5
ORIGIN
  6

  7

 40
30.0
 41
1.0
 42
5.0
 43
7.5
 44
1.0
 45
0.0
 46
0.0
 47
0.0
 48
0.0
140
3.5
141
2.5
142
0.0
143
25.399999999999999
144
1.0
145
0.0
146
1.0
147
1.0
 71
     0
 72
     0
 73
     0
 74
     0
 75
     0
 76
     0
 77
     1
 78
     8
170
     0
171
     2
172
     1
173
     0
174
     1
175
     0
176
     0
177
     0
178
     0
  0
DIMSTYLE
  2
寸法線03
 70
     0
  3

  4

  5
ORIGIN
  6

  7

 40
3.0
 41
1.0
 42
5.0
 43
7.5
 44
1.0
 45
0.0
 46
0.0
 47
0.0
 48
0.0
140
3.5
141
1.0
142
0.0
143
0.03937007874016
144
1.0
145
0.0
146
1.0
147
1.0
 71
     0
 72
     0
 73
     0
 74
     0
 75
     0
 76
     0
 77
     1
 78
     8
170
     0
171
     3
172
     1
173
     0
174
     1
175
     0
176
   256
177
   256
178
   256
  0
ENDTAB
  0
ENDSEC
  0
SECTION
  2
BLOCKS
  0
BLOCK
  8
0
  2
$MODEL_SPACE
 70
     0
 10
0.0
 20
0.0
 30
0.0
  3
$MODEL_SPACE
  1

  0
ENDBLK
  5
6E
  8
0
  0
BLOCK
 67
     1
  8
0
  2
$PAPER_SPACE
 70
     0
 10
0.0
 20
0.0
 30
0.0
  3
$PAPER_SPACE
  1

  0
ENDBLK
  5
6A
 67
     1
  8
0
  0
BLOCK
  8
0
  2
_ORIGIN
 70
     0
 10
0.0
 20
0.0
 30
0.0
  3
_ORIGIN
  1

  0
CIRCLE
  5
7A
  8
0
  6
BYBLOCK
 62
     0
 10
0.0
 20
0.0
 30
0.0
 40
0.5
  0
LINE
  5
7B
  8
0
  6
BYBLOCK
 62
     0
 10
0.0
 20
0.0
 30
0.0
 11
-1.0
 21
0.0
 31
0.0
  0
ENDBLK
  5
7C
  8
0
  0
BLOCK
  8
0
  2
_OPEN30
 70
     0
 10
0.0
 20
0.0
 30
0.0
  3
_OPEN30
  1

  0
LINE
  5
7F
  8
0
  6
BYBLOCK
 62
     0
 10
-1.0
 20
0.26794919
 30
0.0
 11
0.0
 21
0.0
 31
0.0
  0
LINE
  5
80
  8
0
  6
BYBLOCK
 62
     0
 10
0.0
 20
0.0
 30
0.0
 11
-1.0
 21
-0.26794919
 31
0.0
  0
LINE
  5
81
  8
0
  6
BYBLOCK
 62
     0
 10
0.0
 20
0.0
 30
0.0
 11
-1.0
 21
0.0
 31
0.0
  0
ENDBLK
  5
82
  8
0
  0
BLOCK
  8
0
  2
_NONE
 70
     0
 10
0.0
 20
0.0
 30
0.0
  3
_NONE
  1

  0
ENDBLK
  5
4B8F
  8
0
  0
BLOCK
  8
0
  2
*D4
 70
     1
 10
0.0
 20
0.0
 30
0.0
  3
*D4
  1

  0
LINE
  5
CB5C
  8
0
 10
448.399999999925
 20
747.76258918570784
 30
0.0
 11
448.399999999925
 21
770.76258918570784
 31
0.0
  0
LINE
  5
CB5D
  8
0
 10
613.49999999992542
 20
747.76258918570784
 30
0.0
 11
613.49999999992542
 21
770.76258918570784
 31
0.0
  0
LINE
  5
CB5E
  8
0
 10
451.399999999925
 20
767.76258918570784
 30
0.0
 11
610.49999999992542
 21
767.76258918570784
 31
0.0
  0
INSERT
  5
CB5F
  8
0
  2
*U26
 10
0.0
 20
0.0
 30
0.0
  0
INSERT
  5
CB60
  8
0
  2
_ORIGIN
 10
448.399999999925
 20
767.76258918570784
 30
0.0
 41
3.0
 42
3.0
 43
3.0
 50
180.0
  0
INSERT
  5
CB61
  8
0
  2
_ORIGIN
 10
613.49999999992542
 20
767.76258918570784
 30
0.0
 41
3.0
 42
3.0
 43
3.0
  0
POINT
  5
CB62
  8
DEFPOINTS
 62
     0
 10
448.399999999925
 20
732.76258918570784
 30
0.0
  0
POINT
  5
CB63
  8
DEFPOINTS
 62
     0
 10
613.49999999992542
 20
732.76258918570784
 30
0.0
  0
POINT
  5
CB64
  8
DEFPOINTS
 62
     0
 10
613.49999999992542
 20
767.76258918570784
 30
0.0
  0
ENDBLK
  5
B1FF
  8
0
  0
BLOCK
  8
0
  2
*D5
 70
     1
 10
0.0
 20
0.0
 30
0.0
  3
*D5
  1

  0
LINE
  5
CC15
  8
0
 10
455.0
 20
505.76258918562178
 30
0.0
 11
455.0
 21
477.76258918562178
 31
0.0
  0
LINE
  5
CC16
  8
0
 10
475.0
 20
505.76258918562178
 30
0.0
 11
475.0
 21
477.76258918562178
 31
0.0
  0
LINE
  5
CC17
  8
0
 10
458.0
 20
480.76258918562178
 30
0.0
 11
472.0
 21
480.76258918562178
 31
0.0
  0
INSERT
  5
CC18
  8
0
  2
_ORIGIN
 10
455.0
 20
480.76258918562178
 30
0.0
 41
3.0
 42
3.0
 43
3.0
 50
180.0
  0
INSERT
  5
CC19
  8
0
  2
_ORIGIN
 10
475.0
 20
480.76258918562178
 30
0.0
 41
3.0
 42
3.0
 43
3.0
  0
INSERT
  5
CC1A
  8
0
  2
*U44
 10
0.0
 20
0.0
 30
0.0
  0
POINT
  5
CC1B
  8
DEFPOINTS
 62
     0
 10
455.0
 20
520.76258918562189
 30
0.0
  0
POINT
  5
CC1C
  8
DEFPOINTS
 62
     0
 10
475.0
 20
520.76258918562189
 30
0.0
  0
POINT
  5
CC1D
  8
DEFPOINTS
 62
     0
 10
475.0
 20
480.76258918562178
 30
0.0
  0
ENDBLK
  5
B20B
  8
0
  0
BLOCK
  8
0
  2
*D6
 70
     1
 10
0.0
 20
0.0
 30
0.0
  3
*D6
  1

  0
LINE
  5
CC0C
  8
0
 10
475.0
 20
505.76258918562178
 30
0.0
 11
475.0
 21
477.76258918562178
 31
0.0
  0
LINE
  5
CC0D
  8
0
 10
525.0
 20
505.76258918562178
 30
0.0
 11
525.0
 21
477.76258918562178
 31
0.0
  0
LINE
  5
CC0E
  8
0
 10
478.0
 20
480.76258918562178
 30
0.0
 11
522.0
 21
480.76258918562178
 31
0.0
  0
INSERT
  5
CC0F
  8
0
  2
_ORIGIN
 10
475.0
 20
480.76258918562178
 30
0.0
 41
3.0
 42
3.0
 43
3.0
 50
180.0
  0
INSERT
  5
CC10
  8
0
  2
_ORIGIN
 10
525.0
 20
480.76258918562178
 30
0.0
 41
3.0
 42
3.0
 43
3.0
  0
INSERT
  5
CC11
  8
0
  2
*U43
 10
0.0
 20
0.0
 30
0.0
  0
POINT
  5
CC12
  8
DEFPOINTS
 62
     0
 10
475.0
 20
520.76258918562189
 30
0.0
  0
POINT
  5
CC13
  8
DEFPOINTS
 62
     0
 10
525.0
 20
520.76258918562189
 30
0.0
  0
POINT
  5
CC14
  8
DEFPOINTS
 62
     0
 10
525.0
 20
480.76258918562178
 30
0.0
  0
ENDBLK
  5
B217
  8
0
  0
BLOCK
  8
0
  2
*D7
 70
     1
 10
0.0
 20
0.0
 30
0.0
  3
*D7
  1

  0
LINE
  5
CC03
  8
0
 10
525.0
 20
505.76258918562178
 30
0.0
 11
525.0
 21
477.76258918562178
 31
0.0
  0
LINE
  5
CC04
  8
0
 10
545.0
 20
505.76258918562178
 30
0.0
 11
545.0
 21
477.76258918562178
 31
0.0
  0
LINE
  5
CC05
  8
0
 10
528.0
 20
480.76258918562178
 30
0.0
 11
542.0
 21
480.76258918562178
 31
0.0
  0
INSERT
  5
CC06
  8
0
  2
_ORIGIN
 10
525.0
 20
480.76258918562178
 30
0.0
 41
3.0
 42
3.0
 43
3.0
 50
180.0
  0
INSERT
  5
CC07
  8
0
  2
_ORIGIN
 10
545.0
 20
480.76258918562178
 30
0.0
 41
3.0
 42
3.0
 43
3.0
  0
INSERT
  5
CC08
  8
0
  2
*U42
 10
0.0
 20
0.0
 30
0.0
  0
POINT
  5
CC09
  8
DEFPOINTS
 62
     0
 10
525.0
 20
520.76258918562189
 30
0.0
  0
POINT
  5
CC0A
  8
DEFPOINTS
 62
     0
 10
545.0
 20
520.76258918562189
 30
0.0
  0
POINT
  5
CC0B
  8
DEFPOINTS
 62
     0
 10
545.0
 20
480.76258918562178
 30
0.0
  0
ENDBLK
  5
B223
  8
0
  0
BLOCK
  8
0
  2
*D8
 70
     1
 10
0.0
 20
0.0
 30
0.0
  3
*D8
  1

  0
LINE
  5
CBFA
  8
0
 10
835.39999999999134
 20
920.76258918570795
 30
0.0
 11
905.89999999999145
 21
920.76258918570795
 31
0.0
  0
LINE
  5
CBFB
  8
0
 10
569.99999999999625
 20
530.76258918570784
 30
0.0
 11
905.89999999999145
 21
530.76258918570772
 31
0.0
  0
LINE
  5
CBFC
  8
0
 10
902.89999999999156
 20
917.76258918570772
 30
0.0
 11
902.89999999999145
 21
533.76258918570772
 31
0.0
  0
INSERT
  5
CBFD
  8
0
  2
_ORIGIN
 10
902.89999999999156
 20
920.76258918570795
 30
0.0
 41
3.0
 42
3.0
 43
3.0
 50
90.0
  0
INSERT
  5
CBFE
  8
0
  2
_ORIGIN
 10
902.89999999999145
 20
530.76258918570772
 30
0.0
 41
3.0
 42
3.0
 43
3.0
 50
270.0
  0
INSERT
  5
CBFF
  8
0
  2
*U41
 10
0.0
 20
0.0
 30
0.0
  0
POINT
  5
CC00
  8
DEFPOINTS
 62
     0
 10
820.39999999999145
 20
920.76258918570795
 30
0.0
  0
POINT
  5
CC01
  8
DEFPOINTS
 62
     0
 10
554.99999999999625
 20
530.76258918570784
 30
0.0
  0
POINT
  5
CC02
  8
DEFPOINTS
 62
     0
 10
902.89999999999145
 20
530.76258918570772
 30
0.0
  0
ENDBLK
  5
B22F
  8
0
  0
BLOCK
  8
0
  2
*D9
 70
     1
 10
0.0
 20
0.0
 30
0.0
  3
*D9
  1

  0
LINE
  5
CBF1
  8
0
 10
835.39999999999134
 20
920.76258918570795
 30
0.0
 11
883.39999999999156
 21
920.76258918570795
 31
0.0
  0
LINE
  5
CBF2
  8
0
 10
835.39999999999134
 20
716.76258918570784
 30
0.0
 11
883.39999999999145
 21
716.76258918570784
 31
0.0
  0
LINE
  5
CBF3
  8
0
 10
880.39999999999145
 20
917.76258918570772
 30
0.0
 11
880.39999999999145
 21
719.76258918570784
 31
0.0
  0
INSERT
  5
CBF4
  8
0
  2
_ORIGIN
 10
880.39999999999145
 20
920.76258918570795
 30
0.0
 41
3.0
 42
3.0
 43
3.0
 50
90.0
  0
INSERT
  5
CBF5
  8
0
  2
_ORIGIN
 10
880.39999999999145
 20
716.76258918570784
 30
0.0
 41
3.0
 42
3.0
 43
3.0
 50
270.0
  0
INSERT
  5
CBF6
  8
0
  2
*U40
 10
0.0
 20
0.0
 30
0.0
  0
POINT
  5
CBF7
  8
DEFPOINTS
 62
     0
 10
820.39999999999145
 20
920.76258918570795
 30
0.0
  0
POINT
  5
CBF8
  8
DEFPOINTS
 62
     0
 10
820.39999999999145
 20
716.76258918570784
 30
0.0
  0
POINT
  5
CBF9
  8
DEFPOINTS
 62
     0
 10
880.39999999999145
 20
716.76258918570784
 30
0.0
  0
ENDBLK
  5
B23B
  8
0
  0
BLOCK
  8
0
  2
*D10
 70
     1
 10
0.0
 20
0.0
 30
0.0
  3
*D10
  1

  0
LINE
  5
CBE8
  8
0
 10
835.39999999999134
 20
716.76258918570784
 30
0.0
 11
883.39999999999145
 21
716.76258918570784
 31
0.0
  0
LINE
  5
CBE9
  8
0
 10
569.99999999999625
 20
530.76258918570784
 30
0.0
 11
883.39999999999145
 21
530.76258918570772
 31
0.0
  0
LINE
  5
CBEA
  8
0
 10
880.39999999999145
 20
713.76258918570784
 30
0.0
 11
880.39999999999145
 21
533.76258918570772
 31
0.0
  0
INSERT
  5
CBEB
  8
0
  2
_ORIGIN
 10
880.39999999999145
 20
716.76258918570784
 30
0.0
 41
3.0
 42
3.0
 43
3.0
 50
90.0
  0
INSERT
  5
CBEC
  8
0
  2
_ORIGIN
 10
880.39999999999145
 20
530.76258918570772
 30
0.0
 41
3.0
 42
3.0
 43
3.0
 50
270.0
  0
INSERT
  5
CBED
  8
0
  2
*U39
 10
0.0
 20
0.0
 30
0.0
  0
POINT
  5
CBEE
  8
DEFPOINTS
 62
     0
 10
820.39999999999145
 20
716.76258918570784
 30
0.0
  0
POINT
  5
CBEF
  8
DEFPOINTS
 62
     0
 10
554.99999999999625
 20
530.76258918570784
 30
0.0
  0
POINT
  5
CBF0
  8
DEFPOINTS
 62
     0
 10
880.39999999999145
 20
530.76258918570772
 30
0.0
  0
ENDBLK
  5
B247
  8
0
  0
BLOCK
  8
0
  2
*D11
 70
     1
 10
0.0
 20
0.0
 30
0.0
  3
*D11
  1

  0
LINE
  5
CBDD
  8
0
 10
569.99999999999625
 20
530.76258918570784
 30
0.0
 11
607.99999999999625
 21
530.76258918570784
 31
0.0
  0
LINE
  5
CBDE
  8
0
 10
609.99999999999636
 20
540.76258918562189
 30
0.0
 11
607.99999999999625
 21
540.76258918562189
 31
0.0
  0
LINE
  5
CBDF
  8
0
 10
604.99999999999625
 20
527.76258918570784
 30
0.0
 11
604.99999999999625
 21
524.76258918570784
 31
0.0
  0
LINE
  5
CBE0
  8
0
 10
604.99999999999625
 20
543.76258918562178
 30
0.0
 11
604.99999999999625
 21
546.76258918562189
 31
0.0
  0
INSERT
  5
CBE1
  8
0
  2
*U38
 10
0.0
 20
0.0
 30
0.0
  0
LINE
  5
CBE2
  8
0
 10
604.99999999999625
 20
530.76258918570784
 30
0.0
 11
604.99999999999625
 21
540.76258918562189
 31
0.0
  0
INSERT
  5
CBE3
  8
0
  2
_ORIGIN
 10
604.99999999999625
 20
530.76258918570784
 30
0.0
 41
3.0
 42
3.0
 43
3.0
 50
90.0
  0
INSERT
  5
CBE4
  8
0
  2
_ORIGIN
 10
604.99999999999625
 20
540.76258918562189
 30
0.0
 41
3.0
 42
3.0
 43
3.0
 50
270.0
  0
POINT
  5
CBE5
  8
DEFPOINTS
 62
     0
 10
554.99999999999625
 20
530.76258918570784
 30
0.0
  0
POINT
  5
CBE6
  8
DEFPOINTS
 62
     0
 10
594.99999999999625
 20
540.76258918562189
 30
0.0
  0
POINT
  5
CBE7
  8
DEFPOINTS
 62
     0
 10
604.99999999999625
 20
540.76258918562189
 30
0.0
  0
ENDBLK
  5
B253
  8
0
  0
BLOCK
  8
0
  2
*D12
 70
     1
 10
0.0
 20
0.0
 30
0.0
  3
*D12
  1

  0
LINE
  5
CBD4
  8
0
 10
479.99999999999579
 20
244.16258918565421
 30
0.0
 11
479.99999999999579
 21
218.6625891856543
 31
0.0
  0
LINE
  5
CBD5
  8
0
 10
519.99999999999591
 20
244.16258918565421
 30
0.0
 11
519.99999999999591
 21
218.6625891856543
 31
0.0
  0
LINE
  5
CBD6
  8
0
 10
482.99999999999591
 20
221.6625891856543
 30
0.0
 11
516.99999999999591
 21
221.6625891856543
 31
0.0
  0
INSERT
  5
CBD7
  8
0
  2
_ORIGIN
 10
479.99999999999579
 20
221.6625891856543
 30
0.0
 41
3.0
 42
3.0
 43
3.0
 50
180.0
  0
INSERT
  5
CBD8
  8
0
  2
_ORIGIN
 10
519.99999999999591
 20
221.6625891856543
 30
0.0
 41
3.0
 42
3.0
 43
3.0
  0
INSERT
  5
CBD9
  8
0
  2
*U37
 10
0.0
 20
0.0
 30
0.0
  0
POINT
  5
CBDA
  8
DEFPOINTS
 62
     0
 10
479.99999999999579
 20
259.16258918565433
 30
0.0
  0
POINT
  5
CBDB
  8
DEFPOINTS
 62
     0
 10
519.99999999999591
 20
259.16258918565433
 30
0.0
  0
POINT
  5
CBDC
  8
DEFPOINTS
 62
     0
 10
519.99999999999591
 20
221.6625891856543
 30
0.0
  0
ENDBLK
  5
B261
  8
0
  0
BLOCK
  8
0
  2
*D13
 70
     1
 10
0.0
 20
0.0
 30
0.0
  3
*D13
  1

  0
LINE
  5
CBCC
  8
0
 10
569.99999999999625
 20
530.76258918570784
 30
0.0
 11
905.899999999991
 21
530.76258918570772
 31
0.0
  0
LINE
  5
CBCD
  8
0
 10
569.99999999999625
 20
280.76258918570778
 30
0.0
 11
905.899999999991
 21
280.76258918570772
 31
0.0
  0
LINE
  5
CBCE
  8
0
 10
902.89999999999088
 20
527.76258918570772
 30
0.0
 11
902.89999999999088
 21
283.76258918570772
 31
0.0
  0
INSERT
  5
CBCF
  8
0
  2
_ORIGIN
 10
902.89999999999088
 20
530.76258918570772
 30
0.0
 41
3.0
 42
3.0
 43
3.0
 50
90.0
  0
INSERT
  5
CBD0
  8
0
  2
_ORIGIN
 10
902.89999999999088
 20
280.76258918570772
 30
0.0
 41
3.0
 42
3.0
 43
3.0
 50
270.0
  0
POINT
  5
CBD1
  8
DEFPOINTS
 62
     0
 10
554.99999999999625
 20
530.76258918570784
 30
0.0
  0
POINT
  5
CBD2
  8
DEFPOINTS
 62
     0
 10
554.99999999999625
 20
280.76258918570778
 30
0.0
  0
POINT
  5
CBD3
  8
DEFPOINTS
 62
     0
 10
902.89999999999088
 20
280.76258918570772
 30
0.0
  0
ENDBLK
  5
B26D
  8
0
  0
BLOCK
  8
0
  2
*D14
 70
     1
 10
0.0
 20
0.0
 30
0.0
  3
*D14
  1

  0
LINE
  5
CBC1
  8
0
 10
569.99999999999625
 20
280.76258918570778
 30
0.0
 11
607.99999999999625
 21
280.76258918570778
 31
0.0
  0
LINE
  5
CBC2
  8
0
 10
569.99999999999625
 20
265.76258918565441
 30
0.0
 11
607.99999999999625
 21
265.76258918565441
 31
0.0
  0
LINE
  5
CBC3
  8
0
 10
604.99999999999625
 20
283.76258918570778
 30
0.0
 11
604.99999999999625
 21
286.76258918570778
 31
0.0
  0
LINE
  5
CBC4
  8
0
 10
604.99999999999625
 20
262.76258918565441
 30
0.0
 11
604.99999999999625
 21
259.76258918565441
 31
0.0
  0
LINE
  5
CBC5
  8
0
 10
604.99999999999625
 20
280.76258918570778
 30
0.0
 11
604.99999999999625
 21
265.76258918565441
 31
0.0
  0
INSERT
  5
CBC6
  8
0
  2
_ORIGIN
 10
604.99999999999625
 20
280.76258918570778
 30
0.0
 41
3.0
 42
3.0
 43
3.0
 50
270.0
  0
INSERT
  5
CBC7
  8
0
  2
_ORIGIN
 10
604.99999999999625
 20
265.76258918565441
 30
0.0
 41
3.0
 42
3.0
 43
3.0
 50
90.0
  0
INSERT
  5
CBC8
  8
0
  2
*U36
 10
0.0
 20
0.0
 30
0.0
  0
POINT
  5
CBC9
  8
DEFPOINTS
 62
     0
 10
554.99999999999625
 20
280.76258918570778
 30
0.0
  0
POINT
  5
CBCA
  8
DEFPOINTS
 62
     0
 10
554.99999999999625
 20
265.76258918565441
 30
0.0
  0
POINT
  5
CBCB
  8
DEFPOINTS
 62
     0
 10
604.99999999999625
 20
265.76258918565441
 30
0.0
  0
ENDBLK
  5
B278
  8
0
  0
BLOCK
  8
0
  2
*D15
 70
     1
 10
0.0
 20
0.0
 30
0.0
  3
*D15
  1

  0
LINE
  5
CBB8
  8
0
 10
569.99999999999625
 20
280.76258918570778
 30
0.0
 11
607.99999999999625
 21
280.76258918570778
 31
0.0
  0
LINE
  5
CBB9
  8
0
 10
569.99999999999625
 20
303.76258918565418
 30
0.0
 11
607.99999999999625
 21
303.76258918565418
 31
0.0
  0
LINE
  5
CBBA
  8
0
 10
604.99999999999625
 20
283.76258918570778
 30
0.0
 11
604.99999999999625
 21
300.76258918565418
 31
0.0
  0
INSERT
  5
CBBB
  8
0
  2
_ORIGIN
 10
604.99999999999625
 20
280.76258918570778
 30
0.0
 41
3.0
 42
3.0
 43
3.0
 50
270.0
  0
INSERT
  5
CBBC
  8
0
  2
_ORIGIN
 10
604.99999999999625
 20
303.76258918565418
 30
0.0
 41
3.0
 42
3.0
 43
3.0
 50
90.0
  0
INSERT
  5
CBBD
  8
0
  2
*U35
 10
0.0
 20
0.0
 30
0.0
  0
POINT
  5
CBBE
  8
DEFPOINTS
 62
     0
 10
554.99999999999625
 20
280.76258918570778
 30
0.0
  0
POINT
  5
CBBF
  8
DEFPOINTS
 62
     0
 10
554.99999999999625
 20
303.76258918565418
 30
0.0
  0
POINT
  5
CBC0
  8
DEFPOINTS
 62
     0
 10
604.99999999999625
 20
303.76258918565418
 30
0.0
  0
ENDBLK
  5
B286
  8
0
  0
BLOCK
  8
0
  2
*D16
 70
     1
 10
0.0
 20
0.0
 30
0.0
  3
*D16
  1

  0
LINE
  5
CBAF
  8
0
 10
446.3999999999964
 20
945.76258918570795
 30
0.0
 11
446.3999999999964
 21
973.76258918570784
 31
0.0
  0
LINE
  5
CBB0
  8
0
 10
660.39999999999145
 20
945.76258918570795
 30
0.0
 11
660.39999999999145
 21
973.76258918570784
 31
0.0
  0
LINE
  5
CBB1
  8
0
 10
449.3999999999964
 20
970.76258918570795
 30
0.0
 11
657.39999999999145
 21
970.76258918570795
 31
0.0
  0
INSERT
  5
CBB2
  8
0
  2
_ORIGIN
 10
446.3999999999964
 20
970.76258918570795
 30
0.0
 41
3.0
 42
3.0
 43
3.0
 50
180.0
  0
INSERT
  5
CBB3
  8
0
  2
_ORIGIN
 10
660.39999999999145
 20
970.76258918570795
 30
0.0
 41
3.0
 42
3.0
 43
3.0
  0
INSERT
  5
CBB4
  8
0
  2
*U34
 10
0.0
 20
0.0
 30
0.0
  0
POINT
  5
CBB5
  8
DEFPOINTS
 62
     0
 10
446.3999999999964
 20
930.76258918570784
 30
0.0
  0
POINT
  5
CBB6
  8
DEFPOINTS
 62
     0
 10
660.39999999999145
 20
930.76258918570784
 30
0.0
  0
POINT
  5
CBB7
  8
DEFPOINTS
 62
     0
 10
660.39999999999145
 20
970.76258918570795
 30
0.0
  0
ENDBLK
  5
B292
  8
0
  0
BLOCK
  8
0
  2
*D17
 70
     1
 10
0.0
 20
0.0
 30
0.0
  3
*D17
  1

  0
LINE
  5
CBA4
  8
0
 10
835.39999999999134
 20
716.76258918570784
 30
0.0
 11
860.89999999999145
 21
716.76258918570784
 31
0.0
  0
LINE
  5
CBA5
  8
0
 10
648.49999999996805
 20
705.76258918570784
 30
0.0
 11
860.89999999999145
 21
705.76258918570772
 31
0.0
  0
LINE
  5
CBA6
  8
0
 10
857.89999999999145
 20
719.76258918570784
 30
0.0
 11
857.89999999999145
 21
722.76258918570784
 31
0.0
  0
LINE
  5
CBA7
  8
0
 10
857.89999999999145
 20
702.76258918570772
 30
0.0
 11
857.89999999999145
 21
699.76258918570772
 31
0.0
  0
INSERT
  5
CBA8
  8
0
  2
*U33
 10
0.0
 20
0.0
 30
0.0
  0
LINE
  5
CBA9
  8
0
 10
857.89999999999145
 20
716.76258918570784
 30
0.0
 11
857.89999999999145
 21
705.76258918570772
 31
0.0
  0
INSERT
  5
CBAA
  8
0
  2
_ORIGIN
 10
857.89999999999145
 20
716.76258918570784
 30
0.0
 41
3.0
 42
3.0
 43
3.0
 50
270.0
  0
INSERT
  5
CBAB
  8
0
  2
_ORIGIN
 10
857.89999999999145
 20
705.76258918570772
 30
0.0
 41
3.0
 42
3.0
 43
3.0
 50
90.0
  0
POINT
  5
CBAC
  8
DEFPOINTS
 62
     0
 10
820.39999999999145
 20
716.76258918570784
 30
0.0
  0
POINT
  5
CBAD
  8
DEFPOINTS
 62
     0
 10
633.49999999996805
 20
705.76258918570784
 30
0.0
  0
POINT
  5
CBAE
  8
DEFPOINTS
 62
     0
 10
857.89999999999145
 20
705.76258918570772
 30
0.0
  0
ENDBLK
  5
B29E
  8
0
  0
BLOCK
  8
0
  2
*D18
 70
     1
 10
0.0
 20
0.0
 30
0.0
  3
*D18
  1

  0
LINE
  5
CB99
  8
0
 10
389.99999999996771
 20
540.76258918565145
 30
0.0
 11
391.99999999996788
 21
540.76258918565145
 31
0.0
  0
LINE
  5
CB9A
  8
0
 10
429.99999999996771
 20
530.762589185651
 30
0.0
 11
391.99999999996788
 21
530.762589185651
 31
0.0
  0
LINE
  5
CB9B
  8
0
 10
394.99999999996788
 20
543.76258918565145
 30
0.0
 11
394.99999999996788
 21
546.76258918565145
 31
0.0
  0
LINE
  5
CB9C
  8
0
 10
394.99999999996788
 20
527.76258918565088
 30
0.0
 11
394.99999999996788
 21
524.76258918565088
 31
0.0
  0
INSERT
  5
CB9D
  8
0
  2
*U32
 10
0.0
 20
0.0
 30
0.0
  0
LINE
  5
CB9E
  8
0
 10
394.99999999996788
 20
540.76258918565145
 30
0.0
 11
394.99999999996788
 21
530.762589185651
 31
0.0
  0
INSERT
  5
CB9F
  8
0
  2
_ORIGIN
 10
394.99999999996788
 20
540.76258918565145
 30
0.0
 41
3.0
 42
3.0
 43
3.0
 50
270.0
  0
INSERT
  5
CBA0
  8
0
  2
_ORIGIN
 10
394.99999999996788
 20
530.762589185651
 30
0.0
 41
3.0
 42
3.0
 43
3.0
 50
90.0
  0
POINT
  5
CBA1
  8
DEFPOINTS
 62
     0
 10
404.99999999996771
 20
540.76258918565145
 30
0.0
  0
POINT
  5
CBA2
  8
DEFPOINTS
 62
     0
 10
444.9999999999676
 20
530.762589185651
 30
0.0
  0
POINT
  5
CBA3
  8
DEFPOINTS
 62
     0
 10
394.99999999996788
 20
530.762589185651
 30
0.0
  0
ENDBLK
  5
B2AC
  8
0
  0
BLOCK
  8
0
  2
*D19
 70
     1
 10
0.0
 20
0.0
 30
0.0
  3
*D19
  1

  0
LINE
  5
CB90
  8
0
 10
1285.0
 20
290.99999999999989
 30
0.0
 11
1285.0
 21
265.49999999999989
 31
0.0
  0
LINE
  5
CB91
  8
0
 10
1250.0
 20
290.99999999999989
 30
0.0
 11
1250.0
 21
265.49999999999989
 31
0.0
  0
LINE
  5
CB92
  8
0
 10
1282.0
 20
268.49999999999989
 30
0.0
 11
1253.0
 21
268.49999999999989
 31
0.0
  0
INSERT
  5
CB93
  8
0
  2
_ORIGIN
 10
1285.0
 20
268.49999999999989
 30
0.0
 41
3.0
 42
3.0
 43
3.0
  0
INSERT
  5
CB94
  8
0
  2
_ORIGIN
 10
1250.0
 20
268.49999999999989
 30
0.0
 41
3.0
 42
3.0
 43
3.0
 50
180.0
  0
INSERT
  5
CB95
  8
0
  2
*U31
 10
0.0
 20
0.0
 30
0.0
  0
POINT
  5
CB96
  8
DEFPOINTS
 62
     0
 10
1285.0
 20
305.99999999999989
 30
0.0
  0
POINT
  5
CB97
  8
DEFPOINTS
 62
     0
 10
1250.0
 20
305.99999999999989
 30
0.0
  0
POINT
  5
CB98
  8
DEFPOINTS
 62
     0
 10
1250.0
 20
268.49999999999989
 30
0.0
  0
ENDBLK
  5
B2BA
  8
0
  0
BLOCK
  8
0
  2
*D20
 70
     1
 10
0.0
 20
0.0
 30
0.0
  3
*D20
  1

  0
LINE
  5
CE24
  8
0
 10
1250.0
 20
290.99999999999989
 30
0.0
 11
1250.0
 21
265.49999999999989
 31
0.0
  0
LINE
  5
CE25
  8
0
 10
1247.0
 20
268.49999999999989
 30
0.0
 11
1100.0
 21
268.49999999999989
 31
0.0
  0
INSERT
  5
CE26
  8
0
  2
_ORIGIN
 10
1250.0
 20
268.49999999999989
 30
0.0
 41
3.0
 42
3.0
 43
3.0
  0
TEXT
  8
0
  40
10.5
  5
CE80
  72
0
  71
0
 10
1173.50
 20
263.100
 30
0.000000
  1
 W
  7
横文字
  0
POINT
  5
CE28
  8
DEFPOINTS
 62
     0
 10
1250.0
 20
305.99999999999989
 30
0.0
  0
POINT
  5
CE29
  8
DEFPOINTS
 62
     0
 10
1100.0
 20
305.99999999999989
 30
0.0
  0
POINT
  5
CE2A
  8
DEFPOINTS
 62
     0
 10
1100.0
 20
268.49999999999989
 30
0.0
  0
ENDBLK
  5
B2C6
  8
0
  0
BLOCK
  8
0
  2
*D21
 70
     1
 10
0.0
 20
0.0
 30
0.0
  3
*D21
  1

  0
LINE
  5
CB80
  8
0
 10
1225.0
 20
365.99999999999989
 30
0.0
 11
1199.5
 21
365.99999999999989
 31
0.0
  0
LINE
  5
CB81
  8
0
 10
1225.0
 20
315.99999999999989
 30
0.0
 11
1199.5
 21
315.99999999999989
 31
0.0
  0
LINE
  5
CB82
  8
0
 10
1202.5
 20
362.99999999999989
 30
0.0
 11
1202.5
 21
318.99999999999989
 31
0.0
  0
INSERT
  5
CB83
  8
0
  2
_ORIGIN
 10
1202.5
 20
365.99999999999989
 30
0.0
 41
3.0
 42
3.0
 43
3.0
 50
90.0
  0
INSERT
  5
CB84
  8
0
  2
_ORIGIN
 10
1202.5
 20
315.99999999999989
 30
0.0
 41
3.0
 42
3.0
 43
3.0
 50
270.0
  0
INSERT
  5
CB85
  8
0
  2
*U30
 10
0.0
 20
0.0
 30
0.0
  0
POINT
  5
CB86
  8
DEFPOINTS
 62
     0
 10
1240.0
 20
365.99999999999989
 30
0.0
  0
POINT
  5
CB87
  8
DEFPOINTS
 62
     0
 10
1240.0
 20
315.99999999999989
 30
0.0
  0
POINT
  5
CB88
  8
DEFPOINTS
 62
     0
 10
1202.5
 20
315.99999999999989
 30
0.0
  0
ENDBLK
  5
B2F5
  8
0
  0
BLOCK
  8
0
  2
*D22
 70
     1
 10
0.0
 20
0.0
 30
0.0
  3
*D22
  1

  0
LINE
  5
CB77
  8
0
 10
429.99999999996771
 20
530.762589185651
 30
0.0
 11
369.5
 21
530.762589185651
 31
0.0
  0
LINE
  5
CB78
  8
0
 10
430.0
 20
590.76258918570784
 30
0.0
 11
369.5
 21
590.76258918570784
 31
0.0
  0
LINE
  5
CB79
  8
0
 10
372.5
 20
533.762589185651
 30
0.0
 11
372.5
 21
587.76258918570784
 31
0.0
  0
INSERT
  5
CB7A
  8
0
  2
_ORIGIN
 10
372.5
 20
530.762589185651
 30
0.0
 41
3.0
 42
3.0
 43
3.0
 50
270.0
  0
INSERT
  5
CB7B
  8
0
  2
_ORIGIN
 10
372.5
 20
590.76258918570784
 30
0.0
 41
3.0
 42
3.0
 43
3.0
 50
90.0
  0
INSERT
  5
CB7C
  8
0
  2
*U29
 10
0.0
 20
0.0
 30
0.0
  0
POINT
  5
CB7D
  8
DEFPOINTS
 62
     0
 10
444.9999999999676
 20
530.762589185651
 30
0.0
  0
POINT
  5
CB7E
  8
DEFPOINTS
 62
     0
 10
445.0
 20
590.76258918570784
 30
0.0
  0
POINT
  5
CB7F
  8
DEFPOINTS
 62
     0
 10
372.5
 20
590.76258918570784
 30
0.0
  0
ENDBLK
  5
B301
  8
0
  0
BLOCK
  8
0
  2
*D23
 70
     1
 10
0.0
 20
0.0
 30
0.0
  3
*D23
  1

  0
LINE
  5
CB6E
  8
0
 10
429.99999999996771
 20
530.762589185651
 30
0.0
 11
346.99999999999989
 21
530.762589185651
 31
0.0
  0
LINE
  5
CB6F
  8
0
 10
430.0
 20
732.76258918570784
 30
0.0
 11
347.0
 21
732.76258918570784
 31
0.0
  0
LINE
  5
CB70
  8
0
 10
350.0
 20
533.762589185651
 30
0.0
 11
350.0
 21
729.76258918570784
 31
0.0
  0
INSERT
  5
CB71
  8
0
  2
_ORIGIN
 10
350.0
 20
530.762589185651
 30
0.0
 41
3.0
 42
3.0
 43
3.0
 50
270.0
  0
INSERT
  5
CB72
  8
0
  2
_ORIGIN
 10
350.0
 20
732.76258918570784
 30
0.0
 41
3.0
 42
3.0
 43
3.0
 50
90.0
  0
INSERT
  5
CB73
  8
0
  2
*U28
 10
0.0
 20
0.0
 30
0.0
  0
POINT
  5
CB74
  8
DEFPOINTS
 62
     0
 10
444.9999999999676
 20
530.762589185651
 30
0.0
  0
POINT
  5
CB75
  8
DEFPOINTS
 62
     0
 10
445.0
 20
732.76258918570784
 30
0.0
  0
POINT
  5
CB76
  8
DEFPOINTS
 62
     0
 10
350.0
 20
732.76258918570784
 30
0.0
  0
ENDBLK
  5
B30D
  8
0
  0
BLOCK
  8
0
  2
*D24
 70
     1
 10
0.0
 20
0.0
 30
0.0
  3
*D24
  1

  0
LINE
  5
CB65
  8
0
 10
446.3999999999964
 20
945.76258918570795
 30
0.0
 11
446.3999999999964
 21
996.26258918570784
 31
0.0
  0
LINE
  5
CB66
  8
0
 10
802.64770951434821
 20
945.76258918570795
 30
0.0
 11
802.64770951434821
 21
996.26258918570784
 31
0.0
  0
LINE
  5
CB67
  8
0
 10
449.3999999999964
 20
993.26258918570784
 30
0.0
 11
799.64770951434821
 21
993.26258918570784
 31
0.0
  0
INSERT
  5
CB68
  8
0
  2
_ORIGIN
 10
446.3999999999964
 20
993.26258918570784
 30
0.0
 41
3.0
 42
3.0
 43
3.0
 50
180.0
  0
INSERT
  5
CB69
  8
0
  2
_ORIGIN
 10
802.64770951434821
 20
993.26258918570784
 30
0.0
 41
3.0
 42
3.0
 43
3.0
  0
INSERT
  5
CB6A
  8
0
  2
*U27
 10
0.0
 20
0.0
 30
0.0
  0
POINT
  5
CB6B
  8
DEFPOINTS
 62
     0
 10
446.3999999999964
 20
930.76258918570784
 30
0.0
  0
POINT
  5
CB6C
  8
DEFPOINTS
 62
     0
 10
802.64770951434821
 20
930.76258918570784
 30
0.0
  0
POINT
  5
CB6D
  8
DEFPOINTS
 62
     0
 10
802.64770951434821
 20
993.26258918570784
 30
0.0
  0
ENDBLK
  5
B319
  8
0
  0
BLOCK
  8
0
  2
*U25
 70
     1
 10
0.0
 20
0.0
 30
0.0
  3
*U25
  1

  0
INSERT
  5
CE2C
  8
0
  2
_OPEN30
 10
455.39999999987089
 20
996.76258918570784
 30
0.0
 41
6.0
 42
6.0
 43
6.0
 50
299.99999999999989
  0
POLYLINE
  5
CE2D
  8
0
 66
     1
 10
0.0
 20
0.0
 30
0.0
  0
VERTEX
  5
CE2E
  8
0
 10
452.39999999987089
 20
1001.958741608414
 30
0.0
  0
VERTEX
  5
CE2F
  8
0
 10
440.39999999987089
 20
1022.743351299241
 30
0.0
  0
VERTEX
  5
CE30
  8
0
 10
377.57999999987118
 20
1022.743351299241
 30
0.0
  0
SEQEND
  5
CE31
  8
0
  0
ENDBLK
  5
CE33
  8
0
  0
BLOCK
  8
0
  2
*U26
 70
     1
 10
0.0
 20
0.0
 30
0.0
  3
*U26
  1

  0
TEXT
  5
CE35
  8
0
 10
498.34999999992522
 20
770.76258918570784
 30
0.0
 40
10.5
  1
165
 41
0.8
  7
横文字
  0
ENDBLK
  5
CE37
  8
0
  0
BLOCK
  8
0
  2
*U27
 70
     1
 10
0.0
 20
0.0
 30
0.0
  3
*U27
  1

  0
TEXT
  5
CE39
  8
0
 10
603.56385475717241
 20
996.26258918570784
 30
0.0
 40
10.5
  1
（357）
 41
0.8
  7
横文字
  0
ENDBLK
  5
CE3B
  8
0
  0
BLOCK
  8
0
  2
*U28
 70
     1
 10
0.0
 20
0.0
 30
0.0
  3
*U28
  1

  0
TEXT
  5
CE3D
  8
0
 10
346.99999999999989
 20
619.76258918567953
 30
0.0
 40
10.5
  1
202
 50
90.0
 41
0.8
  7
横文字
  0
ENDBLK
  5
CE3F
  8
0
  0
BLOCK
  8
0
  2
*U29
 70
     1
 10
0.0
 20
0.0
 30
0.0
  3
*U29
  1

  0
TEXT
  5
CE41
  8
0
 10
369.49999999999989
 20
552.56258918567949
 30
0.0
 40
10.5
  1
60
 50
90.0
 41
0.8
  7
横文字
  0
ENDBLK
  5
CE43
  8
0
  0
BLOCK
  8
0
  2
*U30
 70
     1
 10
0.0
 20
0.0
 30
0.0
  3
*U30
  1

  0
TEXT
  5
CE45
  8
0
 10
1199.5
 20
333.00000000000011
 30
0.0
 40
10.5
  1
50
 50
90.0
 41
0.8
  7
横文字
  0
ENDBLK
  5
CE47
  8
0
  0
BLOCK
  8
0
  2
*U31
 70
     1
 10
0.0
 20
0.0
 30
0.0
  3
*U31
  1

  0
TEXT
  5
CE49
  8
0
 10
1259.5
 20
271.49999999999989
 30
0.0
 40
10.5
  1
35
 41
0.8
  7
横文字
  0
ENDBLK
  5
CE4B
  8
0
  0
BLOCK
  8
0
  2
*U32
 70
     1
 10
0.0
 20
0.0
 30
0.0
  3
*U32
  1

  0
TEXT
  5
CE4D
  8
0
 10
391.99999999996788
 20
523.31165528548479
 30
0.0
 40
10.5
  1
10
 50
90.0
 41
0.8
  7
横文字
  0
ENDBLK
  5
CE4F
  8
0
  0
BLOCK
  8
0
  2
*U33
 70
     1
 10
0.0
 20
0.0
 30
0.0
  3
*U33
  1

  0
TEXT
  5
CE51
  8
0
 10
854.899999999991
 20
698.36258918570775
 30
0.0
 40
10.5
  1
11
 50
90.0
 41
0.8
  7
横文字
  0
ENDBLK
  5
CE53
  8
0
  0
BLOCK
  8
0
  2
*U34
 70
     1
 10
0.0
 20
0.0
 30
0.0
  3
*U34
  1

  0
TEXT
  5
CE55
  8
0
 10
541.19999999999391
 20
973.76258918570784
 30
0.0
 40
10.5
  1
214
 41
0.8
  7
横文字
  0
ENDBLK
  5
CE57
  8
0
  0
BLOCK
  8
0
  2
*U35
 70
     1
 10
0.0
 20
0.0
 30
0.0
  3
*U35
  1

  0
TEXT
  5
CE59
  8
0
 10
601.99999999999625
 20
284.26258918568101
 30
0.0
 40
10.5
  1
23
 50
90.0
 41
0.8
  7
横文字
  0
ENDBLK
  5
CE5B
  8
0
  0
BLOCK
  8
0
  2
*U36
 70
     1
 10
0.0
 20
0.0
 30
0.0
  3
*U36
  1

  0
TEXT
  5
CE5D
  8
0
 10
601.99999999999625
 20
264.66258918568121
 30
0.0
 40
10.5
  1
15
 50
90.0
 41
0.8
  7
横文字
  0
ENDBLK
  5
CE5F
  8
0
  0
BLOCK
  8
0
  2
*U37
 70
     1
 10
0.0
 20
0.0
 30
0.0
  3
*U37
  1

  0
TEXT
  5
CE61
  8
0
 10
491.99999999999591
 20
224.6625891856543
 30
0.0
 40
10.5
  1
40
 41
0.8
  7
横文字
  0
ENDBLK
  5
CE63
  8
0
  0
BLOCK
  8
0
  2
*U38
 70
     1
 10
0.0
 20
0.0
 30
0.0
  3
*U38
  1

  0
TEXT
  5
CE65
  8
0
 10
601.99999999999636
 20
523.81840422039693
 30
0.0
 40
10.5
  1
10
 50
90.0
 41
0.8
  7
横文字
  0
ENDBLK
  5
CE67
  8
0
  0
BLOCK
  8
0
  2
*U39
 70
     1
 10
0.0
 20
0.0
 30
0.0
  3
*U39
  1

  0
TEXT
  5
CE69
  8
0
 10
877.39999999999134
 20
611.16258918570804
 30
0.0
 40
10.5
  1
186
 50
90.0
 41
0.8
  7
横文字
  0
ENDBLK
  5
CE6B
  8
0
  0
BLOCK
  8
0
  2
*U40
 70
     1
 10
0.0
 20
0.0
 30
0.0
  3
*U40
  1

  0
TEXT
  5
CE6D
  8
0
 10
877.39999999999134
 20
806.56258918570791
 30
0.0
 40
10.5
  1
204
 50
90.0
 41
0.8
  7
横文字
  0
ENDBLK
  5
CE6F
  8
0
  0
BLOCK
  8
0
  2
*U41
 70
     1
 10
0.0
 20
0.0
 30
0.0
  3
*U41
  1

  0
TEXT
  5
CE71
  8
0
 10
899.89999999999134
 20
713.76258918570795
 30
0.0
 40
10.5
  1
390
 50
90.0
 41
0.8
  7
横文字
  0
ENDBLK
  5
CE73
  8
0
  0
BLOCK
  8
0
  2
*U42
 70
     1
 10
0.0
 20
0.0
 30
0.0
  3
*U42
  1

  0
TEXT
  5
CE75
  8
0
 10
527.0
 20
483.76258918562189
 30
0.0
 40
10.5
  1
20
 41
0.8
  7
横文字
  0
ENDBLK
  5
CE77
  8
0
  0
BLOCK
  8
0
  2
*U43
 70
     1
 10
0.0
 20
0.0
 30
0.0
  3
*U43
  1

  0
TEXT
  5
CE79
  8
0
 10
492.0
 20
483.76258918562189
 30
0.0
 40
10.5
  1
50
 41
0.8
  7
横文字
  0
ENDBLK
  5
CE7B
  8
0
  0
BLOCK
  8
0
  2
*U44
 70
     1
 10
0.0
 20
0.0
 30
0.0
  3
*U44
  1

  0
TEXT
  5
CE7D
  8
0
 10
457.0
 20
483.76258918562189
 30
0.0
 40
10.5
  1
20
 41
0.8
  7
横文字
  0
ENDBLK
  5
CE7F
  8
0
  0
ENDSEC
  0
SECTION
  2
ENTITIES
  0
LINE
  5
9F
  8
0
 10
1638.0
 20
0.0
 30
0.0
 11
0.0
 21
0.0
 31
0.0
  0
LINE
  5
A0
  8
0
 10
0.0
 20
1174.5
 30
0.0
 11
1638.0
 21
1174.5
 31
0.0
  0
LINE
  5
A1
  8
0
 10
0.0
 20
1174.5
 30
0.0
 11
0.0
 21
0.0
 31
0.0
  0
LINE
  5
A2
  8
0
 10
1638.0
 20
1174.5
 30
0.0
 11
1638.0
 21
0.0
 31
0.0
  0
LINE
  5
A3
  8
0
 10
1013.0
 20
40.000000000000007
 30
0.0
 11
1013.0
 21
0.0000000000000092
 31
0.0
  0
TEXT
  5
A4
  8
0
 10
1097.9999999999959
 20
24.750000000000011
 30
0.0
 40
10.5
  1
可動式防煙たれ壁「ケムカーテン」
 11
1097.9999999999959
 21
30.000000000000021
 31
0.0
 73
     2
  0
TEXT
  5
A5
  8
0
 10
1022.999999999996
 20
24.750000000000011
 30
0.0
 40
10.5
  1
製品名称  :
 11
1022.999999999996
 21
30.000000000000021
 31
0.0
 73
     2
  0
TEXT
  5
A6
  8
0
 10
1097.9999999999959
 20
4.7500000000000071
 30
0.0
 40
10.5
  1
たて納まり・固定レール・電動
 11
1097.9999999999959
 21
10.0
 31
0.0
 73
     2
  0
TEXT
  5
A7
  8
0
 10
1022.999999999996
 20
4.7500000000000071
 30
0.0
 40
10.5
  1
納まり　　:
 11
1022.999999999996
 21
10.0
 31
0.0
 73
     2
  0
LINE
  5
A8
  8
0
 10
1013.0
 20
20.000000000000011
 30
0.0
 11
1388.0
 21
20.0
 31
0.0
  0
LINE
  5
A9
  8
0
 10
1388.0
 20
40.0
 30
0.0
 11
1388.0
 21
0.0
 31
0.0
  0
TEXT
  5
AA
  8
0
 10
1399.833333333333
 20
11.249999999999959
 30
0.0
 40
17.5
  1
東洋シヤッター株式会社
 72
     1
 11
1513.0
 21
19.999999999999961
 31
0.0
 73
     2
  0
LINE
  5
AB
  8
0
 10
1013.0
 20
40.000000000000007
 30
0.0
 11
1638.0
 21
40.0
 31
0.0
  0
TEXT
  5
AC
  8
0
 10
1297.9999999999959
 20
4.7500000000000071
 30
0.0
 40
10.5
  1
縮尺:1/3
 11
1297.9999999999959
 21
10.0
 31
0.0
 73
     2
  0
LINE
  5
AFA1
  8
0
 10
250.0
 20
549.76258918562189
 30
0.0
 11
465.0
 21
549.76258918562189
 31
0.0
  0
LINE
  5
AFA2
  8
0
 10
465.0
 20
549.76258918562189
 30
0.0
 11
465.0
 21
540.76258918562189
 31
0.0
  0
LINE
  5
AFA3
  8
0
 10
465.0
 20
540.76258918562189
 30
0.0
 11
250.0
 21
540.76258918562189
 31
0.0
  0
LINE
  5
AFA4
  8
0
 10
1000.0
 20
549.76258918562189
 30
0.0
 11
534.99999999999272
 21
549.76258918562189
 31
0.0
  0
LINE
  5
AFA5
  8
0
 10
534.99999999999272
 20
549.76258918562189
 30
0.0
 11
534.99999999999272
 21
540.76258918562189
 31
0.0
  0
LINE
  5
AFA6
  8
0
 10
534.99999999999272
 20
540.76258918562189
 30
0.0
 11
1000.0
 21
540.76258918562189
 31
0.0
  0
LINE
  5
AFA7
  8
0
  6
CENTER2
 10
500.0
 20
649.47299291377522
 30
0.0
 11
500.0
 21
265.76258918565441
 31
0.0
  0
DIMENSION
  5
AFA8
  8
0
  2
*D5
 10
475.0
 20
480.76258918562178
 30
0.0
 11
465.0
 21
489.01258918562189
 31
0.0
 70
     0
 13
455.0
 23
520.76258918562189
 33
0.0
 14
475.0
 24
520.76258918562189
 34
0.0
  0
DIMENSION
  5
AFA9
  8
0
  2
*D6
 10
525.0
 20
480.76258918562178
 30
0.0
 11
500.0
 21
489.01258918562189
 31
0.0
 70
     0
 13
475.0
 23
520.76258918562189
 33
0.0
 14
525.0
 24
520.76258918562189
 34
0.0
  0
DIMENSION
  5
AFAA
  8
0
  2
*D7
 10
545.0
 20
480.76258918562178
 30
0.0
 11
535.0
 21
489.01258918562189
 31
0.0
 70
     0
 13
525.0
 23
520.76258918562189
 33
0.0
 14
545.0
 24
520.76258918562189
 34
0.0
  0
LINE
  5
AFAB
  8
0
 10
474.99999999999631
 20
590.76258918565145
 30
0.0
 11
492.99999999999631
 21
590.76258918565145
 31
0.0
  0
LINE
  5
AFAC
  8
0
 10
495.9999999999967
 20
575.76258918565145
 30
0.0
 11
495.99999999999631
 21
410.76258918570778
 31
0.0
  0
LINE
  5
AFAD
  8
0
 10
524.99999999999625
 20
265.76258918565441
 30
0.0
 11
474.99999999999631
 21
265.76258918565441
 31
0.0
  0
LINE
  5
AFAE
  8
0
 10
474.99999999999631
 20
264.16258918565433
 30
0.0
 11
474.99999999999631
 21
400.762589185651
 31
0.0
  0
LINE
  5
AFAF
  8
0
 10
506.99999999999682
 20
590.76258918565145
 30
0.0
 11
524.99999999999625
 21
590.76258918565145
 31
0.0
  0
LINE
  5
AFB0
  8
0
 10
524.99999999999625
 20
590.76258918565145
 30
0.0
 11
524.99999999999625
 21
410.76258918570778
 31
0.0
  0
LINE
  5
AFB1
  8
0
 10
524.99999999999625
 20
264.16258918565433
 30
0.0
 11
474.99999999999631
 21
264.16258918565433
 31
0.0
  0
LINE
  5
AFB2
  8
0
 10
503.99999999999631
 20
265.76258918565441
 30
0.0
 11
503.99999999999682
 21
280.76258918565441
 31
0.0
  0
LINE
  5
AFB3
  8
0
 10
524.99999999999625
 20
400.762589185651
 30
0.0
 11
524.99999999999625
 21
264.16258918565433
 31
0.0
  0
LINE
  5
AFB4
  8
0
 10
503.99999999999682
 20
410.76258918570778
 30
0.0
 11
503.99999999999631
 21
575.762589185651
 31
0.0
  0
LINE
  5
AFB5
  8
0
 10
495.99999999999631
 20
400.762589185651
 30
0.0
 11
495.99999999999631
 21
303.76258918565418
 31
0.0
  0
LINE
  5
AFB6
  8
0
 10
474.99999999999631
 20
410.76258918570778
 30
0.0
 11
474.99999999999631
 21
590.76258918565145
 31
0.0
  0
LINE
  5
AFB7
  8
0
 10
495.9999999999967
 20
575.76258918565145
 30
0.0
 11
492.99999999999631
 21
590.76258918565145
 31
0.0
  0
LINE
  5
AFB8
  8
0
 10
503.99999999999631
 20
575.76258918565145
 30
0.0
 11
506.99999999999682
 21
590.76258918565145
 31
0.0
  0
LINE
  5
AFB9
  8
0
 10
495.99999999999631
 20
280.76258918565441
 30
0.0
 11
495.99999999999631
 21
265.76258918565441
 31
0.0
  0
LINE
  5
AFBA
  8
0
 10
503.99999999999631
 20
303.76258918565418
 30
0.0
 11
503.99999999999631
 21
400.762589185651
 31
0.0
  0
DIMENSION
  5
AFBB
  8
0
  2
*D8
 10
902.89999999999145
 20
530.76258918570772
 30
0.0
 11
894.64999999999134
 21
725.76258918570795
 31
0.0
 70
     0
 13
820.39999999999145
 23
920.76258918570795
 33
0.0
 14
554.99999999999625
 24
530.76258918570784
 34
0.0
 50
90.0
1001
ACAD
1000
DSTYLE
1002
{
1070
    50
1040
1.5707963267948959
1002
}
  0
DIMENSION
  5
AFBC
  8
0
  2
*D9
 10
880.39999999999145
 20
716.76258918570784
 30
0.0
 11
872.14999999999134
 21
818.76258918570807
 31
0.0
 70
     0
 13
820.39999999999145
 23
920.76258918570795
 33
0.0
 14
820.39999999999145
 24
716.76258918570784
 34
0.0
 50
90.0
1001
ACAD
1000
DSTYLE
1002
{
1070
    50
1040
1.5707963267948959
1002
}
  0
DIMENSION
  5
AFBD
  8
0
  2
*D10
 10
880.39999999999145
 20
530.76258918570772
 30
0.0
 11
872.14999999999134
 21
623.76258918570807
 31
0.0
 70
     0
 13
820.39999999999145
 23
716.76258918570784
 33
0.0
 14
554.99999999999625
 24
530.76258918570784
 34
0.0
 50
90.0
1001
ACAD
1000
DSTYLE
1002
{
1070
    50
1040
1.5707963267948959
1002
}
  0
DIMENSION
  5
AFBE
  8
0
  2
*D11
 10
604.99999999999625
 20
540.76258918562189
 30
0.0
 11
596.74999999999625
 21
532.41840422039695
 31
0.0
 70
   128
 13
554.99999999999625
 23
530.76258918570784
 33
0.0
 14
594.99999999999625
 24
540.76258918562189
 34
0.0
 50
90.0
1001
ACAD
1000
DSTYLE
1002
{
1070
    50
1040
1.5707963267948959
1002
}
  0
LINE
  5
AFBF
  8
0
 10
499.99999999999631
 20
325.76258918565418
 30
0.0
 11
499.99999999999631
 21
283.56258918565408
 31
0.0
  0
LINE
  5
AFC0
  8
0
 10
501.19999999999658
 20
282.36258918565431
 30
0.0
 11
517.19999999999663
 21
282.36258918565431
 31
0.0
  0
LINE
  5
AFC1
  8
0
 10
518.39999999999645
 20
283.56258918565408
 30
0.0
 11
518.39999999999645
 21
302.5625891856543
 31
0.0
  0
LINE
  5
AFC2
  8
0
 10
517.19999999999663
 20
303.76258918565418
 30
0.0
 11
508.3999999999964
 21
303.76258918565418
 31
0.0
  0
LINE
  5
AFC3
  8
0
 10
508.3999999999964
 20
303.76258918565418
 30
0.0
 11
508.3999999999964
 21
302.5625891856543
 31
0.0
  0
LINE
  5
AFC4
  8
0
 10
508.3999999999964
 20
302.5625891856543
 30
0.0
 11
517.19999999999663
 21
302.5625891856543
 31
0.0
  0
LINE
  5
AFC5
  8
0
 10
517.19999999999663
 20
302.5625891856543
 30
0.0
 11
517.19999999999663
 21
283.56258918565408
 31
0.0
  0
LINE
  5
AFC6
  8
0
 10
517.19999999999663
 20
283.56258918565408
 30
0.0
 11
501.19999999999658
 21
283.56258918565408
 31
0.0
  0
LINE
  5
AFC7
  8
0
 10
501.19999999999658
 20
283.56258918565408
 30
0.0
 11
501.19999999999658
 21
325.76258918565418
 31
0.0
  0
LINE
  5
AFC8
  8
0
 10
501.19999999999658
 20
325.76258918565418
 30
0.0
 11
499.99999999999631
 21
325.76258918565418
 31
0.0
  0
ARC
  5
AFC9
  8
0
 10
501.19999999999658
 20
283.56258918565408
 30
0.0
 40
1.1999999999999991
 50
180.0
 51
270.0
  0
ARC
  5
AFCA
  8
0
 10
517.19999999999663
 20
283.56258918565408
 30
0.0
 40
1.1999999999999991
 50
270.0
 51
0.0
  0
ARC
  5
AFCB
  8
0
 10
517.19999999999663
 20
302.5625891856543
 30
0.0
 40
1.1999999999999991
 50
0.0
 51
90.0
  0
LINE
  5
AFCC
  8
0
 10
499.99999999999631
 20
325.76258918565418
 30
0.0
 11
499.99999999999631
 21
283.56258918565408
 31
0.0
  0
LINE
  5
AFCD
  8
0
 10
498.79999999999609
 20
282.36258918565431
 30
0.0
 11
482.79999999999609
 21
282.36258918565431
 31
0.0
  0
LINE
  5
AFCE
  8
0
 10
481.59999999999621
 20
283.56258918565408
 30
0.0
 11
481.59999999999621
 21
302.5625891856543
 31
0.0
  0
LINE
  5
AFCF
  8
0
 10
482.79999999999609
 20
303.76258918565418
 30
0.0
 11
491.59999999999633
 21
303.76258918565418
 31
0.0
  0
LINE
  5
AFD0
  8
0
 10
491.59999999999633
 20
303.76258918565418
 30
0.0
 11
491.59999999999633
 21
302.5625891856543
 31
0.0
  0
LINE
  5
AFD1
  8
0
 10
491.59999999999633
 20
302.5625891856543
 30
0.0
 11
482.79999999999609
 21
302.5625891856543
 31
0.0
  0
LINE
  5
AFD2
  8
0
 10
482.79999999999609
 20
302.5625891856543
 30
0.0
 11
482.79999999999609
 21
283.56258918565408
 31
0.0
  0
LINE
  5
AFD3
  8
0
 10
482.79999999999609
 20
283.56258918565408
 30
0.0
 11
498.79999999999609
 21
283.56258918565408
 31
0.0
  0
LINE
  5
AFD4
  8
0
 10
498.79999999999609
 20
283.56258918565408
 30
0.0
 11
498.79999999999609
 21
325.76258918565418
 31
0.0
  0
LINE
  5
AFD5
  8
0
 10
498.79999999999609
 20
325.76258918565418
 30
0.0
 11
499.99999999999631
 21
325.76258918565418
 31
0.0
  0
ARC
  5
AFD6
  8
0
 10
498.79999999999609
 20
283.56258918565408
 30
0.0
 40
1.1999999999999991
 50
270.0
 51
0.0
  0
ARC
  5
AFD7
  8
0
 10
482.79999999999609
 20
283.56258918565408
 30
0.0
 40
1.1999999999999991
 50
180.0
 51
270.0
  0
ARC
  5
AFD8
  8
0
 10
482.79999999999609
 20
302.5625891856543
 30
0.0
 40
1.1999999999999991
 50
90.0
 51
180.0
  0
LINE
  5
AFD9
  8
0
 10
479.99999999999631
 20
301.76258918565418
 30
0.0
 11
479.99999999999631
 21
282.36258918565431
 31
0.0
  0
LINE
  5
AFDA
  8
0
 10
481.59999999999621
 20
280.76258918565418
 30
0.0
 11
518.39999999999645
 21
280.76258918565418
 31
0.0
  0
LINE
  5
AFDB
  8
0
 10
519.99999999999625
 20
282.36258918565431
 30
0.0
 11
519.99999999999625
 21
301.76258918565418
 31
0.0
  0
LINE
  5
AFDC
  8
0
 10
519.99999999999625
 20
301.76258918565418
 30
0.0
 11
518.39999999999645
 21
301.76258918565418
 31
0.0
  0
LINE
  5
AFDD
  8
0
 10
518.39999999999645
 20
301.76258918565418
 30
0.0
 11
518.39999999999645
 21
282.36258918565431
 31
0.0
  0
LINE
  5
AFDE
  8
0
 10
518.39999999999645
 20
282.36258918565431
 30
0.0
 11
481.59999999999621
 21
282.36258918565431
 31
0.0
  0
LINE
  5
AFDF
  8
0
 10
481.59999999999621
 20
282.36258918565431
 30
0.0
 11
481.59999999999621
 21
301.76258918565418
 31
0.0
  0
LINE
  5
AFE0
  8
0
 10
481.59999999999621
 20
301.76258918565418
 30
0.0
 11
479.99999999999631
 21
301.76258918565418
 31
0.0
  0
ARC
  5
AFE1
  8
0
 10
481.59999999999621
 20
282.36258918565431
 30
0.0
 40
1.6000000000000001
 50
180.0
 51
270.0
  0
ARC
  5
AFE2
  8
0
 10
518.39999999999645
 20
282.36258918565431
 30
0.0
 40
1.6000000000000001
 50
270.0
 51
0.0
  0
DIMENSION
  5
AFE3
  8
0
  2
*D12
 10
519.99999999999591
 20
221.6625891856543
 30
0.0
 11
499.99999999999591
 21
229.9125891856543
 31
0.0
 70
     0
 13
479.99999999999579
 23
259.16258918565433
 33
0.0
 14
519.99999999999591
 24
259.16258918565433
 34
0.0
  0
DIMENSION
  5
AFE6
  8
0
  2
*D13
 10
902.89999999999088
 20
280.76258918570772
 30
0.0
 11
902.89999999999088
 21
405.76258918570778
 31
0.0
 70
     0
  1
 
 13
554.99999999999625
 23
530.76258918570784
 33
0.0
 14
554.99999999999625
 24
280.76258918570778
 34
0.0
 50
90.0
1001
ACAD
1000
DSTYLE
1002
{
1070
    50
1040
1.5707963267948959
1002
}
  0
DIMENSION
  5
AFE7
  8
0
  2
*D14
 10
604.99999999999625
 20
265.76258918565441
 30
0.0
 11
596.74999999999625
 21
273.26258918568118
 31
0.0
 70
     0
 13
554.99999999999625
 23
280.76258918570778
 33
0.0
 14
554.99999999999625
 24
265.76258918565441
 34
0.0
 50
90.0
1001
ACAD
1000
DSTYLE
1002
{
1070
    50
1040
1.5707963267948959
1002
}
  0
DIMENSION
  5
AFE8
  8
0
  2
*D15
 10
604.99999999999625
 20
303.76258918565418
 30
0.0
 11
596.74999999999625
 21
292.26258918568112
 31
0.0
 70
     0
 13
554.99999999999625
 23
280.76258918570778
 33
0.0
 14
554.99999999999625
 24
303.76258918565418
 34
0.0
 50
90.0
1001
ACAD
1000
DSTYLE
1002
{
1070
    50
1040
1.5707963267948959
1002
}
  0
DIMENSION
  5
AFE9
  8
0
  2
*D16
 10
660.39999999999145
 20
970.76258918570795
 30
0.0
 11
553.39999999999395
 21
979.01258918570784
 31
0.0
 70
     0
 13
446.3999999999964
 23
930.76258918570784
 33
0.0
 14
660.39999999999145
 24
930.76258918570784
 34
0.0
1001
ACAD
1000
DSTYLE
1002
{
1070
    50
1040
1.5707963267948959
1002
}
  0
DIMENSION
  5
AFEC
  8
0
  2
*D17
 10
857.89999999999145
 20
705.76258918570772
 30
0.0
 11
849.649999999991
 21
705.76258918570784
 31
0.0
 70
   128
 13
820.39999999999145
 23
716.76258918570784
 33
0.0
 14
633.49999999996805
 24
705.76258918570784
 34
0.0
 50
90.0
1001
ACAD
1000
DSTYLE
1002
{
1070
    50
1040
1.5707963267948959
1002
}
  0
LINE
  5
AFED
  8
0
 10
449.99999999996771
 20
410.76258918570778
 30
0.0
 11
549.99999999996817
 21
410.76258918570778
 31
0.0
  0
LINE
  5
AFEE
  8
0
 10
449.99999999996771
 20
400.76258918570778
 30
0.0
 11
549.99999999996817
 21
400.76258918570778
 31
0.0
  0
DIMENSION
  5
AFEF
  8
0
  2
*D18
 10
394.99999999996788
 20
530.762589185651
 30
0.0
 11
386.74999999996788
 21
531.91165528548481
 31
0.0
 70
   128
 13
404.99999999996771
 23
540.76258918565145
 33
0.0
 14
444.9999999999676
 24
530.762589185651
 34
0.0
 50
90.0
  0
LINE
  5
AFF2
  8
0
  6
CENTER2
 10
1100.0
 20
340.99999999999989
 30
0.0
 11
1275.0
 21
340.99999999999989
 31
0.0
  0
DIMENSION
  5
AFF3
  8
0
  2
*D19
 10
1250.0
 20
268.49999999999989
 30
0.0
 11
1267.5
 21
276.74999999999989
 31
0.0
 70
     0
 13
1285.0
 23
305.99999999999989
 33
0.0
 14
1250.0
 24
305.99999999999989
 34
0.0
 50
180.0
  0
DIMENSION
  5
AFF4
  8
0
  2
*D20
 10
1100.0
 20
268.49999999999989
 30
0.0
 11
1173.5
 21
276.74999999999989
 31
0.0
 70
     0
  1
 W
 13
1250.0
 23
305.99999999999989
 33
0.0
 14
1100.0
 24
305.99999999999989
 34
0.0
1001
ACAD
1000
DSTYLE
1002
{
1070
   178
1070
   256
1070
     7
1000
NONE
1070
     5
1000

1070
   173
1070
     1
1070
     6
1000
ORIGIN
1070
    76
1070
     1
1002
}
  0
LINE
  5
AFFA
  8
0
 10
1260.0
 20
344.99999999999989
 30
0.0
 11
1251.5999999999999
 21
344.99999999999989
 31
0.0
  0
LINE
  5
AFFB
  8
0
 10
1250.0
 20
346.5999999999998
 30
0.0
 11
1250.0
 21
364.39999999999998
 31
0.0
  0
LINE
  5
AFFC
  8
0
 10
1251.5999999999999
 20
365.99999999999989
 30
0.0
 11
1281.8
 21
365.99999999999989
 31
0.0
  0
LINE
  5
AFFD
  8
0
 10
1283.4000000000001
 20
364.39999999999998
 30
0.0
 11
1283.4000000000001
 21
317.5999999999998
 31
0.0
  0
LINE
  5
AFFE
  8
0
 10
1283.4000000000001
 20
317.5999999999998
 30
0.0
 11
1281.8
 21
317.5999999999998
 31
0.0
  0
LINE
  5
AFFF
  8
0
 10
1281.8
 20
317.5999999999998
 30
0.0
 11
1281.8
 21
364.39999999999998
 31
0.0
  0
LINE
  5
B000
  8
0
 10
1281.8
 20
364.39999999999998
 30
0.0
 11
1251.5999999999999
 21
364.39999999999998
 31
0.0
  0
LINE
  5
B001
  8
0
 10
1251.5999999999999
 20
364.39999999999998
 30
0.0
 11
1251.5999999999999
 21
346.5999999999998
 31
0.0
  0
LINE
  5
B002
  8
0
 10
1251.5999999999999
 20
346.5999999999998
 30
0.0
 11
1260.0
 21
346.5999999999998
 31
0.0
  0
LINE
  5
B003
  8
0
 10
1260.0
 20
346.5999999999998
 30
0.0
 11
1260.0
 21
344.99999999999989
 31
0.0
  0
ARC
  5
B004
  8
0
 10
1251.5999999999999
 20
346.5999999999998
 30
0.0
 40
1.6000000000000001
 50
180.0
 51
270.0
  0
ARC
  5
B005
  8
0
 10
1251.5999999999999
 20
364.39999999999998
 30
0.0
 40
1.6000000000000001
 50
90.0
 51
180.0
  0
ARC
  5
B006
  8
0
 10
1281.8
 20
364.39999999999998
 30
0.0
 40
1.6000000000000001
 50
0.0
 51
90.0
  0
LINE
  5
B007
  8
0
 10
1260.0
 20
336.99999999999989
 30
0.0
 11
1251.5999999999999
 21
336.99999999999989
 31
0.0
  0
LINE
  5
B008
  8
0
 10
1250.0
 20
335.39999999999998
 30
0.0
 11
1250.0
 21
317.5999999999998
 31
0.0
  0
LINE
  5
B009
  8
0
 10
1251.5999999999999
 20
315.99999999999989
 30
0.0
 11
1283.4000000000001
 21
315.99999999999989
 31
0.0
  0
LINE
  5
B00A
  8
0
 10
1285.0
 20
317.5999999999998
 30
0.0
 11
1285.0
 21
345.99999999999989
 31
0.0
  0
LINE
  5
B00B
  8
0
 10
1285.0
 20
345.99999999999989
 30
0.0
 11
1283.4000000000001
 21
345.99999999999989
 31
0.0
  0
LINE
  5
B00C
  8
0
 10
1283.4000000000001
 20
345.99999999999989
 30
0.0
 11
1283.4000000000001
 21
317.5999999999998
 31
0.0
  0
LINE
  5
B00D
  8
0
 10
1283.4000000000001
 20
317.5999999999998
 30
0.0
 11
1251.5999999999999
 21
317.5999999999998
 31
0.0
  0
LINE
  5
B00E
  8
0
 10
1251.5999999999999
 20
317.5999999999998
 30
0.0
 11
1251.5999999999999
 21
335.39999999999998
 31
0.0
  0
LINE
  5
B00F
  8
0
 10
1251.5999999999999
 20
335.39999999999998
 30
0.0
 11
1260.0
 21
335.39999999999998
 31
0.0
  0
LINE
  5
B010
  8
0
 10
1260.0
 20
335.39999999999998
 30
0.0
 11
1260.0
 21
336.99999999999989
 31
0.0
  0
ARC
  5
B011
  8
0
 10
1251.5999999999999
 20
335.39999999999998
 30
0.0
 40
1.6000000000000001
 50
90.0
 51
180.0
  0
ARC
  5
B012
  8
0
 10
1251.5999999999999
 20
317.5999999999998
 30
0.0
 40
1.6000000000000001
 50
180.0
 51
270.0
  0
ARC
  5
B013
  8
0
 10
1283.4000000000001
 20
317.5999999999998
 30
0.0
 40
1.6000000000000001
 50
270.0
 51
0.0
  0
DIMENSION
  5
B014
  8
0
  2
*D21
 10
1202.5
 20
315.99999999999989
 30
0.0
 11
1194.25
 21
341.00000000000011
 31
0.0
 70
     0
 13
1240.0
 23
365.99999999999989
 33
0.0
 14
1240.0
 24
315.99999999999989
 34
0.0
 50
90.0
  0
DIMENSION
  5
B018
  8
0
  2
*D22
 10
372.5
 20
590.76258918570784
 30
0.0
 11
364.25
 21
560.76258918567953
 31
0.0
 70
     0
 13
444.9999999999676
 23
530.762589185651
 33
0.0
 14
445.0
 24
590.76258918570784
 34
0.0
 50
90.0
  0
DIMENSION
  5
B019
  8
0
  2
*D23
 10
350.0
 20
732.76258918570784
 30
0.0
 11
341.74999999999989
 21
631.76258918567953
 31
0.0
 70
     0
 13
444.9999999999676
 23
530.762589185651
 33
0.0
 14
445.0
 24
732.76258918570784
 34
0.0
 50
90.0
  0
LINE
  5
B01A
  8
0
 10
454.99999999992542
 20
540.76258918570784
 30
0.0
 11
454.99999999992542
 21
532.3625891857082
 31
0.0
  0
LINE
  5
B01B
  8
0
 10
456.59999999992482
 20
530.76258918570784
 30
0.0
 11
473.39999999992602
 21
530.76258918570784
 31
0.0
  0
LINE
  5
B01C
  8
0
 10
473.39999999992602
 20
532.3625891857082
 30
0.0
 11
456.59999999992482
 21
532.3625891857082
 31
0.0
  0
LINE
  5
B01D
  8
0
 10
456.59999999992482
 20
532.3625891857082
 30
0.0
 11
456.59999999992482
 21
540.76258918570784
 31
0.0
  0
LINE
  5
B01E
  8
0
 10
456.59999999992482
 20
540.76258918570784
 30
0.0
 11
454.99999999992542
 21
540.76258918570784
 31
0.0
  0
ARC
  5
B01F
  8
0
 10
456.59999999992482
 20
532.3625891857082
 30
0.0
 40
1.6000000000000001
 50
180.0
 51
270.0
  0
ARC
  5
B020
  8
0
 10
473.39999999992602
 20
532.3625891857082
 30
0.0
 40
1.6000000000000001
 50
270.0
 51
0.0
  0
LINE
  5
B021
  8
0
 10
544.99999999992542
 20
540.76258918570784
 30
0.0
 11
544.99999999992542
 21
532.36258918570775
 31
0.0
  0
LINE
  5
B022
  8
0
 10
543.39999999992585
 20
530.76258918570784
 30
0.0
 11
526.59999999992476
 21
530.76258918570784
 31
0.0
  0
LINE
  5
B023
  8
0
 10
526.59999999992476
 20
532.36258918570775
 30
0.0
 11
543.39999999992585
 21
532.36258918570775
 31
0.0
  0
LINE
  5
B024
  8
0
 10
543.39999999992585
 20
532.36258918570775
 30
0.0
 11
543.39999999992585
 21
540.76258918570784
 31
0.0
  0
LINE
  5
B025
  8
0
 10
543.39999999992585
 20
540.76258918570784
 30
0.0
 11
544.99999999992542
 21
540.76258918570784
 31
0.0
  0
ARC
  5
B026
  8
0
 10
543.39999999992585
 20
532.36258918570775
 30
0.0
 40
1.6000000000000001
 50
270.0
 51
0.0
  0
ARC
  5
B027
  8
0
 10
526.59999999992476
 20
532.36258918570775
 30
0.0
 40
1.6000000000000001
 50
180.0
 51
270.0
  0
DIMENSION
  5
B02D
  8
0
  2
*D24
 10
802.64770951434821
 20
993.26258918570784
 30
0.0
 11
624.52385475717233
 21
1001.512589185708
 31
0.0
 70
     0
  1
（357）
 13
446.3999999999964
 23
930.76258918570784
 33
0.0
 14
802.64770951434821
 24
930.76258918570784
 34
0.0
1001
ACAD
1000
DSTYLE
1002
{
1070
   271
1070
     2
1070
   178
1070
   256
1002
}
  0
LINE
  5
B030
  8
0
  6
CENTER2
 10
499.99999999999949
 20
626.76511277232203
 30
0.0
 11
499.99999999999949
 21
513.46511221608807
 31
0.0
  0
LINE
  5
B031
  8
0
 10
526.59999999992476
 20
565.76258918570784
 30
0.0
 11
613.49999999992497
 21
565.76258918570784
 31
0.0
  0
LINE
  5
B032
  8
0
 10
613.49999999992497
 20
565.76258918570784
 30
0.0
 11
613.49999999992497
 21
732.76258918570784
 31
0.0
  0
LINE
  5
B033
  8
0
 10
613.49999999992497
 20
732.76258918570784
 30
0.0
 11
448.399999999925
 21
732.76258918570784
 31
0.0
  0
LINE
  5
B034
  8
0
  6
HIDDEN
 10
613.49999999992497
 20
729.76258918570784
 30
0.0
 11
448.399999999925
 21
729.76258918570784
 31
0.0
  0
LINE
  5
B035
  8
0
 10
588.49999999992497
 20
707.76258918570784
 30
0.0
 11
473.399999999925
 21
707.76258918570784
 31
0.0
  0
LINE
  5
B036
  8
0
  6
HIDDEN
 10
473.399999999925
 20
707.76258918570784
 30
0.0
 11
448.399999999925
 21
707.76258918570784
 31
0.0
  0
LINE
  5
B037
  8
0
  6
HIDDEN
 10
526.59999999992476
 20
590.76258918570784
 30
0.0
 11
613.49999999992497
 21
590.76258918570784
 31
0.0
  0
LINE
  5
B038
  8
0
  6
HIDDEN
 10
526.59999999992476
 20
587.76258918570784
 30
0.0
 11
613.49999999992497
 21
587.76258918570784
 31
0.0
  0
LINE
  5
B039
  8
0
 10
526.59999999992476
 20
590.76258918570784
 30
0.0
 11
526.59999999992476
 21
565.76258918570784
 31
0.0
  0
LINE
  5
B03A
  8
0
 10
588.49999999992497
 20
565.76258918570784
 30
0.0
 11
588.49999999992497
 21
732.76258918570784
 31
0.0
  0
LINE
  5
B03B
  8
0
 10
591.49999999992485
 20
565.76258918570784
 30
0.0
 11
591.49999999992485
 21
732.76258918570784
 31
0.0
  0
LINE
  5
B03C
  8
0
 10
448.399999999925
 20
590.76258918570784
 30
0.0
 11
448.399999999925
 21
732.76258918570784
 31
0.0
  0
LINE
  5
B03D
  8
0
 10
473.399999999925
 20
590.76258918570784
 30
0.0
 11
473.399999999925
 21
732.76258918570784
 31
0.0
  0
LINE
  5
B03E
  8
0
 10
470.39999999992511
 20
590.76258918570784
 30
0.0
 11
470.39999999992511
 21
732.76258918570784
 31
0.0
  0
LINE
  5
B03F
  8
0
 10
448.399999999925
 20
590.76258918570784
 30
0.0
 11
473.399999999925
 21
590.76258918570784
 31
0.0
  0
LINE
  5
B040
  8
0
  6
HIDDEN
 10
613.49999999992497
 20
707.76258918570784
 30
0.0
 11
588.49999999992497
 21
707.76258918570784
 31
0.0
  0
LINE
  5
B041
  8
0
 10
474.99999999992491
 20
532.3625891857082
 30
0.0
 11
474.99999999992491
 21
704.16258918570827
 31
0.0
  0
LINE
  5
B042
  8
0
 10
474.99999999992491
 20
704.16258918570827
 30
0.0
 11
494.99999999992491
 21
704.16258918570827
 31
0.0
  0
LINE
  5
B043
  8
0
 10
494.99999999992491
 20
704.16258918570827
 30
0.0
 11
494.99999999992491
 21
705.76258918570784
 31
0.0
  0
LINE
  5
B044
  8
0
 10
494.99999999992491
 20
705.76258918570784
 30
0.0
 11
474.99999999992491
 21
705.76258918570784
 31
0.0
  0
LINE
  5
B045
  8
0
 10
473.399999999925
 20
704.16258918570827
 30
0.0
 11
473.399999999925
 21
532.3625891857082
 31
0.0
  0
ARC
  5
B046
  8
0
 10
474.99999999992491
 20
704.16258918570827
 30
0.0
 40
1.6000000000000001
 50
90.0
 51
180.0
  0
LINE
  5
B047
  8
0
 10
473.399999999925
 20
590.76258918570784
 30
0.0
 11
473.399999999925
 21
565.76258918570784
 31
0.0
  0
LINE
  5
B048
  8
0
 10
473.399999999925
 20
565.76258918570784
 30
0.0
 11
472.399999999925
 21
565.76258918570784
 31
0.0
  0
LINE
  5
B049
  8
0
 10
470.39999999992511
 20
567.76258918570784
 30
0.0
 11
470.39999999992511
 21
583.76258918570784
 31
0.0
  0
LINE
  5
B04A
  8
0
 10
466.399999999925
 20
587.76258918570784
 30
0.0
 11
450.399999999925
 21
587.76258918570784
 31
0.0
  0
LINE
  5
B04B
  8
0
 10
448.399999999925
 20
589.76258918570784
 30
0.0
 11
448.399999999925
 21
590.76258918570784
 31
0.0
  0
LINE
  5
B04C
  8
0
 10
448.399999999925
 20
590.76258918570784
 30
0.0
 11
473.399999999925
 21
590.76258918570784
 31
0.0
  0
ARC
  5
B04D
  8
0
 10
472.399999999925
 20
567.76258918570784
 30
0.0
 40
2.0
 50
180.0
 51
270.0
  0
ARC
  5
B04E
  8
0
 10
450.399999999925
 20
589.76258918570784
 30
0.0
 40
2.0
 50
180.0
 51
270.0
  0
ARC
  5
B04F
  8
0
 10
466.399999999925
 20
583.76258918570784
 30
0.0
 40
4.0
 50
0.0
 51
90.0
  0
LINE
  5
B050
  8
0
 10
474.99999999992491
 20
704.16258918570827
 30
0.0
 11
474.99999999992491
 21
625.76258918570784
 31
0.0
  0
LINE
  5
B051
  8
0
 10
476.59999999992482
 20
624.16258918570838
 30
0.0
 11
497.399999999925
 21
624.16258918570838
 31
0.0
  0
LINE
  5
B052
  8
0
 10
498.99999999992491
 20
625.76258918570784
 30
0.0
 11
498.99999999992491
 21
634.56258918570802
 31
0.0
  0
LINE
  5
B053
  8
0
 10
497.399999999925
 20
636.16258918570838
 30
0.0
 11
488.99999999992502
 21
636.16258918570838
 31
0.0
  0
LINE
  5
B054
  8
0
 10
488.99999999992502
 20
636.16258918570838
 30
0.0
 11
488.99999999992502
 21
634.56258918570802
 31
0.0
  0
LINE
  5
B055
  8
0
 10
488.99999999992502
 20
634.56258918570802
 30
0.0
 11
497.399999999925
 21
634.56258918570802
 31
0.0
  0
LINE
  5
B056
  8
0
 10
497.399999999925
 20
634.56258918570802
 30
0.0
 11
497.399999999925
 21
625.76258918570784
 31
0.0
  0
LINE
  5
B057
  8
0
 10
497.399999999925
 20
625.76258918570784
 30
0.0
 11
476.59999999992482
 21
625.76258918570784
 31
0.0
  0
LINE
  5
B058
  8
0
 10
476.59999999992482
 20
625.76258918570784
 30
0.0
 11
476.59999999992482
 21
704.16258918570827
 31
0.0
  0
LINE
  5
B059
  8
0
 10
476.59999999992482
 20
704.16258918570827
 30
0.0
 11
474.99999999992491
 21
704.16258918570827
 31
0.0
  0
ARC
  5
B05A
  8
0
 10
476.59999999992482
 20
625.76258918570784
 30
0.0
 40
1.6000000000000001
 50
180.0
 51
270.0
  0
ARC
  5
B05B
  8
0
 10
497.399999999925
 20
625.76258918570784
 30
0.0
 40
1.6000000000000001
 50
270.0
 51
0.0
  0
ARC
  5
B05C
  8
0
 10
497.399999999925
 20
634.56258918570802
 30
0.0
 40
1.6000000000000001
 50
0.0
 51
90.0
  0
LINE
  5
B05D
  8
0
 10
524.99999999992485
 20
532.36258918570775
 30
0.0
 11
524.99999999992485
 21
590.76258918570784
 31
0.0
  0
ARC
  5
B05E
  8
0
 10
526.59999999992476
 20
590.76258918570784
 30
0.0
 40
1.6000000000000001
 50
90.0
 51
180.0
  0
LINE
  5
B05F
  8
0
 10
526.59999999992476
 20
590.76258918570784
 30
0.0
 11
526.59999999992476
 21
532.36258918570775
 31
0.0
  0
LINE
  5
B060
  8
0
 10
568.49999999992485
 20
705.76258918570784
 30
0.0
 11
586.89999999992506
 21
705.76258918570784
 31
0.0
  0
LINE
  5
B061
  8
0
 10
588.49999999992497
 20
704.16258918570747
 30
0.0
 11
588.49999999992497
 21
592.36258918570809
 31
0.0
  0
LINE
  5
B062
  8
0
 10
586.89999999992506
 20
590.76258918570784
 30
0.0
 11
526.59999999992476
 21
590.76258918570784
 31
0.0
  0
LINE
  5
B063
  8
0
 10
526.59999999992476
 20
592.36258918570809
 30
0.0
 11
586.89999999992506
 21
592.36258918570809
 31
0.0
  0
LINE
  5
B064
  8
0
 10
586.89999999992506
 20
592.36258918570809
 30
0.0
 11
586.89999999992506
 21
704.16258918570747
 31
0.0
  0
LINE
  5
B065
  8
0
 10
586.89999999992506
 20
704.16258918570747
 30
0.0
 11
568.49999999992485
 21
704.16258918570747
 31
0.0
  0
LINE
  5
B066
  8
0
 10
568.49999999992485
 20
704.16258918570747
 30
0.0
 11
568.49999999992485
 21
705.76258918570784
 31
0.0
  0
ARC
  5
B067
  8
0
 10
586.89999999992506
 20
704.16258918570747
 30
0.0
 40
1.6000000000000001
 50
0.0
 51
90.0
  0
ARC
  5
B068
  8
0
 10
586.89999999992506
 20
592.36258918570809
 30
0.0
 40
1.6000000000000001
 50
270.0
 51
0.0
  0
LINE
  5
B069
  8
0
 10
480.94999999992473
 20
705.76258918570784
 30
0.0
 11
580.94999999992524
 21
705.76258918570784
 31
0.0
  0
LINE
  5
B06A
  8
0
 10
580.94999999992524
 20
705.76258918570784
 30
0.0
 11
580.94999999992524
 21
706.56258918570802
 31
0.0
  0
LINE
  5
B06B
  8
0
 10
580.94999999992524
 20
706.56258918570802
 30
0.0
 11
480.94999999992473
 21
706.56258918570802
 31
0.0
  0
LINE
  5
B06C
  8
0
 10
480.94999999992473
 20
706.56258918570802
 30
0.0
 11
480.94999999992473
 21
705.76258918570784
 31
0.0
  0
LINE
  5
B06D
  8
0
 10
507.49999999992491
 20
617.36258918570809
 30
0.0
 11
554.49999999992485
 21
617.36258918570809
 31
0.0
  0
LINE
  5
B06E
  8
0
 10
557.49999999992485
 20
614.3625891857082
 30
0.0
 11
557.49999999992485
 21
592.36258918570809
 31
0.0
  0
LINE
  5
B06F
  8
0
 10
557.49999999992485
 20
592.36258918570809
 30
0.0
 11
504.49999999992491
 21
592.36258918570809
 31
0.0
  0
LINE
  5
B070
  8
0
 10
504.49999999992491
 20
592.36258918570809
 30
0.0
 11
504.49999999992491
 21
614.3625891857082
 31
0.0
  0
LINE
  5
B071
  8
0
  6
HIDDEN
 10
557.49999999992485
 20
593.96258918570766
 30
0.0
 11
504.49999999992491
 21
593.96258918570766
 31
0.0
  0
ARC
  5
B072
  8
0
 10
507.49999999992491
 20
614.3625891857082
 30
0.0
 40
3.0
 50
90.0
 51
180.0
  0
ARC
  5
B073
  8
0
 10
554.49999999992485
 20
614.3625891857082
 30
0.0
 40
3.0
 50
0.0
 51
90.0
  0
CIRCLE
  5
B074
  8
0
 10
512.49999999992485
 20
612.3625891857082
 30
0.0
 40
3.5
  0
CIRCLE
  5
B075
  8
0
 10
549.49999999992485
 20
612.3625891857082
 30
0.0
 40
3.5
  0
ARC
  5
B076
  8
0
 10
512.49999999992485
 20
612.3625891857082
 30
0.0
 40
12.5
 50
23.578178478206581
 51
230.20818050046779
  0
ARC
  5
B077
  8
0
 10
549.49999999992485
 20
612.3625891857082
 30
0.0
 40
12.5
 50
309.79181949953221
 51
156.42182152179339
  0
LINE
  5
B078
  8
0
  6
CENTER2
 10
497.49999999992502
 20
612.3625891857082
 30
0.0
 11
564.49999999992485
 21
612.3625891857082
 31
0.0
  0
LINE
  5
B079
  8
0
  6
CENTER2
 10
512.49999999992485
 20
597.3625891857082
 30
0.0
 11
512.49999999992485
 21
627.3625891857082
 31
0.0
  0
LINE
  5
B07A
  8
0
  6
CENTER2
 10
549.49999999992485
 20
597.3625891857082
 30
0.0
 11
549.49999999992485
 21
627.3625891857082
 31
0.0
  0
LINE
  5
B07B
  8
0
  6
CENTER2
 10
460.399999999925
 20
701.01258918570784
 30
0.0
 11
460.399999999925
 21
1036.7625891857081
 31
0.0
  0
ARC
  5
B07C
  8
0
 10
460.39999999993591
 20
726.23828491519635
 30
0.0
 40
15.5243042705
 50
72.412046216880185
 51
107.5879537831198
  0
LINE
  5
B07D
  8
0
 10
465.09097093719168
 20
741.03689345621933
 30
0.0
 11
465.09097093719168
 21
734.76258918570784
 31
0.0
  0
LINE
  5
B07E
  8
0
 10
455.7090290626802
 20
734.76258918570784
 30
0.0
 11
455.7090290626802
 21
741.03689345621933
 31
0.0
  0
ARC
  5
B07F
  8
0
 10
452.27500015639822
 20
733.27474206101567
 30
0.0
 40
8.4878471246
 50
66.135073519812096
 51
89.953174245550159
  0
ARC
  5
B080
  8
0
 10
468.52499984347378
 20
733.27474206101567
 30
0.0
 40
8.4878471246
 50
90.046825754449827
 51
113.8649264801879
  0
LINE
  5
B081
  8
0
  6
HIDDEN
 10
469.60000000012218
 20
727.76258918570784
 30
0.0
 11
469.60000000012218
 21
725.26258918570784
 31
0.0
  0
LINE
  5
B082
  8
0
  6
HIDDEN
 10
451.19999999974971
 20
725.26258918570784
 30
0.0
 11
451.19999999974971
 21
727.76258918570784
 31
0.0
  0
ARC
  5
B083
  8
0
  6
HIDDEN
 10
460.39999999993591
 20
732.78689345621933
 30
0.0
 40
15.5243042705
 50
252.41204621688021
 51
287.58795378311981
  0
LINE
  5
B084
  8
0
  6
HIDDEN
 10
455.7090290626802
 20
717.98828491519635
 30
0.0
 11
455.7090290626802
 21
725.26258918570784
 31
0.0
  0
LINE
  5
B085
  8
0
  6
HIDDEN
 10
465.09097093719168
 20
725.26258918570784
 30
0.0
 11
465.09097093719168
 21
717.98828491519635
 31
0.0
  0
LINE
  5
B086
  8
0
  6
HIDDEN
 10
465.39999999993591
 20
712.51258918570784
 30
0.0
 11
455.39999999993591
 21
712.51258918570784
 31
0.0
  0
LINE
  5
B087
  8
0
  6
HIDDEN
 10
458.14999999993591
 20
725.26258918570784
 30
0.0
 11
460.64999999993603
 21
727.76258918570784
 31
0.0
  0
LINE
  5
B088
  8
0
  6
HIDDEN
 10
460.14999999993603
 20
725.26258918570784
 30
0.0
 11
462.64999999993591
 21
727.76258918570784
 31
0.0
  0
ARC
  5
B089
  8
0
  6
HIDDEN
 10
452.27500015639822
 20
725.75043631039989
 30
0.0
 40
8.4878471246
 50
270.0468257544498
 51
293.86492648018788
  0
ARC
  5
B08A
  8
0
  6
HIDDEN
 10
468.52499984347378
 20
725.75043631039989
 30
0.0
 40
8.4878471246
 50
246.1350735198121
 51
269.95317424555009
  0
LINE
  5
B08B
  8
0
  6
HIDDEN
 10
449.89999999993603
 20
729.76258918570784
 30
0.0
 11
449.89999999993603
 21
727.76258918570784
 31
0.0
  0
LINE
  5
B08C
  8
0
  6
HIDDEN
 10
449.89999999993603
 20
727.76258918570784
 30
0.0
 11
470.89999999993603
 21
727.76258918570784
 31
0.0
  0
LINE
  5
B08D
  8
0
  6
HIDDEN
 10
470.89999999993603
 20
727.76258918570784
 30
0.0
 11
470.89999999993603
 21
729.76258918570784
 31
0.0
  0
LINE
  5
B08E
  8
0
  6
HIDDEN
 10
470.89999999993603
 20
729.76258918570784
 30
0.0
 11
449.89999999993603
 21
729.76258918570784
 31
0.0
  0
LINE
  5
B08F
  8
0
  6
HIDDEN
 10
465.39999999993591
 20
712.51258918570784
 30
0.0
 11
465.39999999993591
 21
717.26258918570784
 31
0.0
  0
LINE
  5
B090
  8
0
  6
HIDDEN
 10
465.39999999993591
 20
712.51258918570784
 30
0.0
 11
463.89999999993591
 21
711.01258918570784
 31
0.0
  0
LINE
  5
B091
  8
0
  6
HIDDEN
 10
463.89999999993591
 20
711.01258918570784
 30
0.0
 11
456.89999999993591
 21
711.01258918570784
 31
0.0
  0
LINE
  5
B092
  8
0
  6
HIDDEN
 10
456.89999999993591
 20
711.01258918570784
 30
0.0
 11
455.39999999993591
 21
712.51258918570784
 31
0.0
  0
LINE
  5
B093
  8
0
  6
HIDDEN
 10
455.39999999993591
 20
712.51258918570784
 30
0.0
 11
455.39999999993591
 21
717.26258918570784
 31
0.0
  0
LINE
  5
B094
  8
0
  6
HIDDEN
 10
451.85694187416811
 20
717.26258918570784
 30
0.0
 11
468.94305812570383
 21
717.26258918570784
 31
0.0
  0
LINE
  5
B095
  8
0
  6
HIDDEN
 10
468.94305812570383
 20
717.26258918570784
 30
0.0
 11
470.19999999974971
 21
717.98828491519635
 31
0.0
  0
LINE
  5
B096
  8
0
  6
HIDDEN
 10
470.19999999974971
 20
717.98828491519635
 30
0.0
 11
470.19999999974971
 21
725.26258918570784
 31
0.0
  0
LINE
  5
B097
  8
0
  6
HIDDEN
 10
470.19999999974971
 20
725.26258918570784
 30
0.0
 11
450.60000000012218
 21
725.26258918570784
 31
0.0
  0
LINE
  5
B098
  8
0
  6
HIDDEN
 10
450.60000000012218
 20
725.26258918570784
 30
0.0
 11
450.60000000012218
 21
717.98828491519635
 31
0.0
  0
LINE
  5
B099
  8
0
  6
HIDDEN
 10
450.60000000012218
 20
717.98828491519635
 30
0.0
 11
451.85694187416811
 21
717.26258918570784
 31
0.0
  0
LINE
  5
B09A
  8
0
 10
449.89999999993603
 20
734.76258918570784
 30
0.0
 11
470.89999999993603
 21
734.76258918570784
 31
0.0
  0
LINE
  5
B09B
  8
0
 10
470.89999999993603
 20
734.76258918570784
 30
0.0
 11
470.89999999993603
 21
732.76258918570784
 31
0.0
  0
LINE
  5
B09C
  8
0
 10
470.89999999993603
 20
732.76258918570784
 30
0.0
 11
449.89999999993603
 21
732.76258918570784
 31
0.0
  0
LINE
  5
B09D
  8
0
 10
449.89999999993603
 20
732.76258918570784
 30
0.0
 11
449.89999999993603
 21
734.76258918570784
 31
0.0
  0
LINE
  5
B09E
  8
0
 10
450.60000000012218
 20
741.03689345621933
 30
0.0
 11
450.60000000012218
 21
734.76258918570784
 31
0.0
  0
LINE
  5
B09F
  8
0
 10
450.60000000012218
 20
734.76258918570784
 30
0.0
 11
470.19999999974971
 21
734.76258918570784
 31
0.0
  0
LINE
  5
B0A0
  8
0
 10
470.19999999974971
 20
734.76258918570784
 30
0.0
 11
470.19999999974971
 21
741.03689345621933
 31
0.0
  0
LINE
  5
B0A1
  8
0
 10
470.19999999974971
 20
741.03689345621933
 30
0.0
 11
468.94305812570383
 21
741.76258918570784
 31
0.0
  0
LINE
  5
B0A2
  8
0
 10
468.94305812570383
 20
741.76258918570784
 30
0.0
 11
451.85694187416811
 21
741.76258918570784
 31
0.0
  0
LINE
  5
B0A3
  8
0
 10
451.85694187416811
 20
741.76258918570784
 30
0.0
 11
450.60000000012218
 21
741.03689345621933
 31
0.0
  0
LINE
  5
B0A4
  8
0
 10
465.39999999987089
 20
741.76258918570784
 30
0.0
 11
465.39999999987089
 21
1036.7625891857081
 31
0.0
  0
LINE
  5
B0A5
  8
0
 10
455.39999999987089
 20
741.76258918570784
 30
0.0
 11
455.39999999987089
 21
1036.7625891857081
 31
0.0
  0
LINE
  5
B0A6
  8
0
  6
CENTER2
 10
601.49999999992497
 20
701.01258918570784
 30
0.0
 11
601.49999999992497
 21
1036.7625891857081
 31
0.0
  0
ARC
  5
B0A7
  8
0
 10
601.49999999992895
 20
726.23828491519635
 30
0.0
 40
15.5243042705
 50
72.412046216906901
 51
107.5879537830931
  0
LINE
  5
B0A8
  8
0
 10
596.80902906267318
 20
741.03689345621933
 30
0.0
 11
596.80902906267318
 21
734.76258918570784
 31
0.0
  0
LINE
  5
B0A9
  8
0
 10
606.19097093718483
 20
734.76258918570784
 30
0.0
 11
606.19097093718483
 21
741.03689345621933
 31
0.0
  0
ARC
  5
B0AA
  8
0
 10
609.62499984346675
 20
733.27474206101567
 30
0.0
 40
8.4878471246
 50
90.046825754449827
 51
113.86492648021699
  0
ARC
  5
B0AB
  8
0
 10
593.37500015639125
 20
733.27474206101567
 30
0.0
 40
8.4878471246
 50
66.135073519782978
 51
89.953174245550159
  0
LINE
  5
B0AC
  8
0
  6
HIDDEN
 10
592.29999999974268
 20
727.76258918570784
 30
0.0
 11
592.29999999974268
 21
725.26258918570784
 31
0.0
  0
LINE
  5
B0AD
  8
0
  6
HIDDEN
 10
610.70000000011532
 20
725.26258918570784
 30
0.0
 11
610.70000000011532
 21
727.76258918570784
 31
0.0
  0
ARC
  5
B0AE
  8
0
  6
HIDDEN
 10
601.49999999992895
 20
732.78689345621933
 30
0.0
 40
15.5243042705
 50
252.4120462169069
 51
287.58795378309298
  0
LINE
  5
B0AF
  8
0
  6
HIDDEN
 10
606.19097093718483
 20
717.98828491519635
 30
0.0
 11
606.19097093718483
 21
725.26258918570784
 31
0.0
  0
LINE
  5
B0B0
  8
0
  6
HIDDEN
 10
596.80902906267318
 20
725.26258918570784
 30
0.0
 11
596.80902906267318
 21
717.98828491519635
 31
0.0
  0
LINE
  5
B0B1
  8
0
  6
HIDDEN
 10
596.49999999992906
 20
712.51258918570784
 30
0.0
 11
606.49999999992895
 21
712.51258918570784
 31
0.0
  0
ARC
  5
B0B2
  8
0
  6
HIDDEN
 10
609.62499984346675
 20
725.75043631039989
 30
0.0
 40
8.4878471246
 50
246.13507351978299
 51
269.95317424555009
  0
ARC
  5
B0B3
  8
0
  6
HIDDEN
 10
593.37500015639125
 20
725.75043631039989
 30
0.0
 40
8.4878471246
 50
270.0468257544498
 51
293.86492648021698
  0
LINE
  5
B0B4
  8
0
  6
HIDDEN
 10
611.99999999992895
 20
729.76258918570784
 30
0.0
 11
611.99999999992895
 21
727.76258918570784
 31
0.0
  0
LINE
  5
B0B5
  8
0
  6
HIDDEN
 10
611.99999999992895
 20
727.76258918570784
 30
0.0
 11
590.99999999992895
 21
727.76258918570784
 31
0.0
  0
LINE
  5
B0B6
  8
0
  6
HIDDEN
 10
590.99999999992895
 20
727.76258918570784
 30
0.0
 11
590.99999999992895
 21
729.76258918570784
 31
0.0
  0
LINE
  5
B0B7
  8
0
  6
HIDDEN
 10
590.99999999992895
 20
729.76258918570784
 30
0.0
 11
611.99999999992895
 21
729.76258918570784
 31
0.0
  0
LINE
  5
B0B8
  8
0
  6
HIDDEN
 10
596.49999999992906
 20
712.51258918570784
 30
0.0
 11
596.49999999992906
 21
717.26258918570784
 31
0.0
  0
LINE
  5
B0B9
  8
0
  6
HIDDEN
 10
596.49999999992906
 20
712.51258918570784
 30
0.0
 11
597.99999999992895
 21
711.01258918570784
 31
0.0
  0
LINE
  5
B0BA
  8
0
  6
HIDDEN
 10
597.99999999992895
 20
711.01258918570784
 30
0.0
 11
604.99999999992906
 21
711.01258918570784
 31
0.0
  0
LINE
  5
B0BB
  8
0
  6
HIDDEN
 10
604.99999999992906
 20
711.01258918570784
 30
0.0
 11
606.49999999992895
 21
712.51258918570784
 31
0.0
  0
LINE
  5
B0BC
  8
0
  6
HIDDEN
 10
606.49999999992895
 20
712.51258918570784
 30
0.0
 11
606.49999999992895
 21
717.26258918570784
 31
0.0
  0
LINE
  5
B0BD
  8
0
  6
HIDDEN
 10
610.04305812569692
 20
717.26258918570784
 30
0.0
 11
592.95694187416109
 21
717.26258918570784
 31
0.0
  0
LINE
  5
B0BE
  8
0
  6
HIDDEN
 10
592.95694187416109
 20
717.26258918570784
 30
0.0
 11
591.70000000011532
 21
717.98828491519635
 31
0.0
  0
LINE
  5
B0BF
  8
0
  6
HIDDEN
 10
591.70000000011532
 20
717.98828491519635
 30
0.0
 11
591.70000000011532
 21
725.26258918570784
 31
0.0
  0
LINE
  5
B0C0
  8
0
  6
HIDDEN
 10
591.70000000011532
 20
725.26258918570784
 30
0.0
 11
611.29999999974279
 21
725.26258918570784
 31
0.0
  0
LINE
  5
B0C1
  8
0
  6
HIDDEN
 10
611.29999999974279
 20
725.26258918570784
 30
0.0
 11
611.29999999974279
 21
717.98828491519635
 31
0.0
  0
LINE
  5
B0C2
  8
0
  6
HIDDEN
 10
611.29999999974279
 20
717.98828491519635
 30
0.0
 11
610.04305812569692
 21
717.26258918570784
 31
0.0
  0
LINE
  5
B0C3
  8
0
 10
611.99999999992895
 20
734.76258918570784
 30
0.0
 11
590.99999999992895
 21
734.76258918570784
 31
0.0
  0
LINE
  5
B0C4
  8
0
 10
590.99999999992895
 20
734.76258918570784
 30
0.0
 11
590.99999999992895
 21
732.76258918570784
 31
0.0
  0
LINE
  5
B0C5
  8
0
 10
590.99999999992895
 20
732.76258918570784
 30
0.0
 11
611.99999999992895
 21
732.76258918570784
 31
0.0
  0
LINE
  5
B0C6
  8
0
 10
611.99999999992895
 20
732.76258918570784
 30
0.0
 11
611.99999999992895
 21
734.76258918570784
 31
0.0
  0
LINE
  5
B0C7
  8
0
 10
611.29999999974279
 20
741.03689345621933
 30
0.0
 11
611.29999999974279
 21
734.76258918570784
 31
0.0
  0
LINE
  5
B0C8
  8
0
 10
611.29999999974279
 20
734.76258918570784
 30
0.0
 11
591.70000000011532
 21
734.76258918570784
 31
0.0
  0
LINE
  5
B0C9
  8
0
 10
591.70000000011532
 20
734.76258918570784
 30
0.0
 11
591.70000000011532
 21
741.03689345621933
 31
0.0
  0
LINE
  5
B0CA
  8
0
 10
591.70000000011532
 20
741.03689345621933
 30
0.0
 11
592.95694187416109
 21
741.76258918570784
 31
0.0
  0
LINE
  5
B0CB
  8
0
 10
592.95694187416109
 20
741.76258918570784
 30
0.0
 11
610.04305812569692
 21
741.76258918570784
 31
0.0
  0
LINE
  5
B0CC
  8
0
 10
610.04305812569692
 20
741.76258918570784
 30
0.0
 11
611.29999999974279
 21
741.03689345621933
 31
0.0
  0
LINE
  5
B0CD
  8
0
 10
596.49999999996407
 20
741.76258918570784
 30
0.0
 11
596.49999999996407
 21
1036.7625891857081
 31
0.0
  0
LINE
  5
B0CE
  8
0
 10
606.49999999996396
 20
741.76258918570784
 30
0.0
 11
606.49999999996396
 21
1036.7625891857081
 31
0.0
  0
LINE
  5
B0CF
  8
0
  6
HIDDEN
 10
599.12466443401706
 20
725.26258918570784
 30
0.0
 11
601.62466443401718
 21
727.76258918570784
 31
0.0
  0
LINE
  5
B0D0
  8
0
  6
HIDDEN
 10
601.12466443401718
 20
725.26258918570784
 30
0.0
 11
603.62466443401706
 21
727.76258918570784
 31
0.0
  0
TEXT
  5
B0D1
  8
0
 10
390.50999999987113
 20
1025.7433512992411
 30
0.0
 40
10.5
  1
吊ボルト
 41
0.8
  7
横文字
 72
     1
 11
408.98999999987109
 21
1025.7433512992411
 31
0.0
  0
TEXT
  5
B0D2
  8
0
 10
379.6699999998711
 20
1007.743351299241
 30
0.0
 40
10.5
  1
（W 3／8）
 41
0.8
  7
横文字
 72
     1
 11
408.98999999987109
 21
1007.743351299241
 31
0.0
  0
INSERT
  5
B0D3
  8
0
  2
*U25
 10
0.0
 20
0.0
 30
0.0
1001
ACAD
1000
DSTYLE
1002
{
1070
    41
1040
2.0
1002
}
  0
DIMENSION
  5
B0D4
  8
0
  2
*D4
 10
613.49999999992542
 20
767.76258918570784
 30
0.0
 11
510.94999999992518
 21
776.01258918570784
 31
0.0
 70
   128
 13
448.399999999925
 23
732.76258918570784
 33
0.0
 14
613.49999999992542
 24
732.76258918570784
 34
0.0
1001
ACAD
1000
DSTYLE
1002
{
1070
   271
1070
     0
1070
   178
1070
   256
1002
}
  0
CIRCLE
  5
B0D5
  8
0
  6
PHANTOM2
 10
531.0
 20
651.76258918568783
 30
0.0
 40
19.899999999999999
  0
LINE
  5
B0D6
  8
0
  6
CENTER2
 10
566.0
 20
651.76258918568783
 30
0.0
 11
496.0
 21
651.76258918568783
 31
0.0
  0
LINE
  5
B0D7
  8
0
  6
CENTER2
 10
531.0
 20
616.76258918568783
 30
0.0
 11
531.0
 21
686.76258918568783
 31
0.0
  0
CIRCLE
  5
B0D8
  8
0
 10
531.0
 20
651.76258918568783
 30
0.0
 40
16.0
  0
CIRCLE
  5
B0D9
  8
0
 10
531.0
 20
651.76258918568783
 30
0.0
 40
24.0
  0
LINE
  5
B0DA
  8
0
 10
446.49999999996493
 20
716.76258918568783
 30
0.0
 11
448.399999999925
 21
716.76258918568783
 31
0.0
  0
LINE
  5
B0DB
  8
0
 10
613.49999999992497
 20
716.76258918568726
 30
0.0
 11
660.49999999996487
 21
716.76258918568783
 31
0.0
  0
LINE
  5
B0DC
  8
0
 10
660.49999999996487
 20
716.76258918568783
 30
0.0
 11
660.49999999996487
 21
723.26258918568783
 31
0.0
  0
LINE
  5
B0DD
  8
0
 10
660.49999999996487
 20
746.26258918568783
 30
0.0
 11
660.49999999996487
 21
751.2625872783392
 31
0.0
  0
LINE
  5
B0DE
  8
0
 10
660.49999999996487
 20
915.26258918568783
 30
0.0
 11
660.49999999996487
 21
920.76258918568783
 31
0.0
  0
LINE
  5
B0DF
  8
0
 10
660.49999999996487
 20
920.76258918568783
 30
0.0
 11
606.49999999996396
 21
920.76258918568737
 31
0.0
  0
LINE
  5
B0E0
  8
0
 10
596.49999999996407
 20
920.76258918568737
 30
0.0
 11
465.39999999987089
 21
920.76258918568783
 31
0.0
  0
LINE
  5
B0E1
  8
0
 10
455.39999999987089
 20
920.76258918568783
 30
0.0
 11
446.49999999996493
 21
920.76258918568783
 31
0.0
  0
LINE
  5
B0E2
  8
0
 10
446.49999999996493
 20
920.76258918568783
 30
0.0
 11
446.49999999996493
 21
716.76258918568783
 31
0.0
  0
LINE
  5
B0E3
  8
0
 10
659.49999999996487
 20
716.76258918568783
 30
0.0
 11
659.49999999996487
 21
723.26258918568783
 31
0.0
  0
LINE
  5
B0E4
  8
0
 10
659.49999999996487
 20
746.26258918568783
 30
0.0
 11
659.49999999996487
 21
751.26258727833874
 31
0.0
  0
LINE
  5
B0E5
  8
0
 10
659.49999999996487
 20
915.26258918568726
 30
0.0
 11
659.49999999996487
 21
919.76258918568783
 31
0.0
  0
LINE
  5
B0E6
  8
0
 10
659.49999999996487
 20
919.76258918568783
 30
0.0
 11
606.49999999996396
 21
919.76258918568783
 31
0.0
  0
LINE
  5
B0E7
  8
0
 10
596.49999999996407
 20
919.76258918568783
 30
0.0
 11
465.39999999987089
 21
919.76258918568783
 31
0.0
  0
LINE
  5
B0E8
  8
0
 10
455.39999999987089
 20
919.76258918568783
 30
0.0
 11
447.49999999996493
 21
919.76258918568783
 31
0.0
  0
LINE
  5
B0E9
  8
0
 10
447.49999999996493
 20
919.76258918568783
 30
0.0
 11
447.49999999996493
 21
716.76258918568783
 31
0.0
  0
LINE
  5
B0EA
  8
0
 10
658.49999999996498
 20
716.76258918568783
 30
0.0
 11
658.49999999996498
 21
723.26258918568783
 31
0.0
  0
LINE
  5
B0EB
  8
0
 10
658.49999999996498
 20
746.26258918568783
 30
0.0
 11
658.49999999996498
 21
751.2625872783392
 31
0.0
  0
LINE
  5
B0EC
  8
0
 10
658.49999999996498
 20
915.26258918568783
 30
0.0
 11
658.49999999996498
 21
918.76258918568783
 31
0.0
  0
LINE
  5
B0ED
  8
0
 10
658.49999999996498
 20
918.76258918568783
 30
0.0
 11
606.49999999996396
 21
918.76258918568817
 31
0.0
  0
LINE
  5
B0EE
  8
0
 10
596.49999999996407
 20
918.76258918568817
 30
0.0
 11
465.39999999987089
 21
918.76258918568783
 31
0.0
  0
LINE
  5
B0EF
  8
0
 10
455.39999999987089
 20
918.76258918568783
 30
0.0
 11
448.49999999996498
 21
918.76258918568783
 31
0.0
  0
LINE
  5
B0F0
  8
0
 10
448.49999999996498
 20
918.76258918568783
 30
0.0
 11
448.49999999996498
 21
732.76258918570784
 31
0.0
  0
LINE
  5
B0F1
  8
0
 10
613.49999999992497
 20
719.96258918568765
 30
0.0
 11
658.49999999996498
 21
719.96258918568765
 31
0.0
  0
LINE
  5
B0F2
  8
0
 10
448.49999999996498
 20
746.76258918568783
 30
0.0
 11
455.39999999987089
 21
746.76258918568783
 31
0.0
  0
LINE
  5
B0F3
  8
0
 10
465.39999999987089
 20
746.76258918568783
 30
0.0
 11
596.49999999996407
 21
746.76258918568783
 31
0.0
  0
LINE
  5
B0F4
  8
0
 10
606.49999999996396
 20
746.76258918568783
 30
0.0
 11
658.49999999996498
 21
746.76258918568783
 31
0.0
  0
LINE
  5
B0F5
  8
0
 10
475.00000337680189
 20
900.00980449303643
 30
0.0
 11
468.49999966405488
 21
896.25702549303662
 31
0.0
  0
LINE
  5
B0F6
  8
0
 10
475.00000047680209
 20
907.51536819303635
 30
0.0
 11
475.00000047680209
 21
900.00980639303646
 31
0.0
  0
LINE
  5
B0F7
  8
0
 10
468.50000150935188
 20
911.26814539303632
 30
0.0
 11
475.00000127680181
 21
907.51536819303635
 31
0.0
  0
LINE
  5
B0F8
  8
0
 10
465.39999999987089
 20
909.47836010197307
 30
0.0
 11
468.50000121955281
 21
911.2681464930364
 31
0.0
  0
LINE
  5
B0F9
  8
0
 10
468.49999954717663
 20
896.25702939303665
 30
0.0
 11
465.39999999987089
 21
898.04681803531219
 31
0.0
  0
ARC
  5
B0FA
  8
0
 10
468.49999999996493
 20
903.76258918568783
 30
0.0
 40
6.5000018999999991
 50
241.51537369148531
 51
118.48462630851471
  0
LINE
  5
B0FB
  8
0
 10
645.00000337680194
 20
900.00980449303643
 30
0.0
 11
638.49999966405494
 21
896.25702549303662
 31
0.0
  0
LINE
  5
B0FC
  8
0
 10
645.00000047680214
 20
907.51536819303635
 30
0.0
 11
645.00000047680214
 21
900.00980639303646
 31
0.0
  0
LINE
  5
B0FD
  8
0
 10
638.50000150935193
 20
911.26814539303632
 30
0.0
 11
645.00000127680175
 21
907.51536819303635
 31
0.0
  0
LINE
  5
B0FE
  8
0
 10
632.00000007680183
 20
907.51536939303651
 30
0.0
 11
638.5000012195527
 21
911.2681464930364
 31
0.0
  0
LINE
  5
B0FF
  8
0
 10
631.99999757680189
 20
900.00981209303654
 30
0.0
 11
631.99999757680189
 21
907.51537009303684
 31
0.0
  0
LINE
  5
B100
  8
0
 10
638.49999954717657
 20
896.25702939303665
 30
0.0
 11
631.999996576802
 21
900.00981429303647
 31
0.0
  0
CIRCLE
  5
B101
  8
0
 10
638.49999999996487
 20
903.76258918568783
 30
0.0
 40
6.5000018999999991
  0
LINE
  5
B102
  8
0
 10
475.00000047680209
 20
735.51536819303647
 30
0.0
 11
475.00000047680209
 21
732.76258918570727
 31
0.0
  0
LINE
  5
B103
  8
0
 10
470.19999999974971
 20
738.28665065410632
 30
0.0
 11
475.00000127680181
 21
735.51536819303647
 31
0.0
  0
ARC
  5
B104
  8
0
 10
468.49999999996493
 20
731.76258918568783
 30
0.0
 40
6.5000018999999991
 50
8.8498804909424766
 51
74.838635933558663
  0
LINE
  5
B105
  8
0
 10
645.00000337680194
 20
728.00980449303643
 30
0.0
 11
638.49999966405494
 21
724.25702549303651
 31
0.0
  0
LINE
  5
B106
  8
0
 10
645.00000047680214
 20
735.51536819303647
 30
0.0
 11
645.00000047680214
 21
728.00980639303634
 31
0.0
  0
LINE
  5
B107
  8
0
 10
638.50000150935193
 20
739.26814539303632
 30
0.0
 11
645.00000127680175
 21
735.51536819303647
 31
0.0
  0
LINE
  5
B108
  8
0
 10
632.00000007680183
 20
735.51536939303651
 30
0.0
 11
638.5000012195527
 21
739.2681464930364
 31
0.0
  0
LINE
  5
B109
  8
0
 10
631.99999757680189
 20
728.00981209303654
 30
0.0
 11
631.99999757680189
 21
735.51537009303684
 31
0.0
  0
LINE
  5
B10A
  8
0
 10
638.49999954717657
 20
724.25702939303665
 30
0.0
 11
631.999996576802
 21
728.00981429303647
 31
0.0
  0
CIRCLE
  5
B10B
  8
0
 10
638.49999999996487
 20
731.76258918568783
 30
0.0
 40
6.5000018999999991
  0
ARC
  5
B10C
  8
0
  6
PHANTOM2
 10
606.39999999996508
 20
837.66258918568781
 30
0.0
 40
55.0
 50
283.67201810438257
 51
256.32798189561743
  0
CIRCLE
  5
B10D
  8
0
  6
PHANTOM2
 10
606.39999999996508
 20
837.66258918568781
 30
0.0
 40
51.560000000000002
  0
LINE
  5
B10E
  8
0
  6
PHANTOM2
 10
593.39999999996508
 20
787.76836507106736
 30
0.0
 11
593.39999999996508
 21
776.66258918568792
 31
0.0
  0
LINE
  5
B10F
  8
0
  6
PHANTOM2
 10
593.39999999996508
 20
776.66258918568792
 30
0.0
 11
619.39999999996496
 21
776.66258918568792
 31
0.0
  0
LINE
  5
B110
  8
0
  6
PHANTOM2
 10
619.39999999996496
 20
776.66258918568792
 30
0.0
 11
619.39999999996553
 21
787.76836507106736
 31
0.0
  0
CIRCLE
  5
B111
  8
0
 10
480.09999999996489
 20
806.96258918568765
 30
0.0
 40
5.0
  0
CIRCLE
  5
B112
  8
0
 10
480.09999999996489
 20
806.96258918568765
 30
0.0
 40
13.0
  0
CIRCLE
  5
B113
  8
0
 10
480.09999999996489
 20
806.96258918568765
 30
0.0
 40
8.0
  0
CIRCLE
  5
B114
  8
0
 10
480.09999999996489
 20
806.96258918568765
 30
0.0
 40
15.0
  0
LINE
  5
B115
  8
0
 10
557.49993999996514
 20
793.56259918568765
 30
0.0
 11
553.49993999996514
 21
793.56259918568765
 31
0.0
  0
LINE
  5
B116
  8
0
 10
557.49993999996514
 20
789.26258918568783
 30
0.0
 11
553.49993999996514
 21
789.26258918568783
 31
0.0
  0
LINE
  5
B117
  8
0
 10
557.49993999996514
 20
793.26258918568783
 30
0.0
 11
553.49993999996514
 21
793.26258918568783
 31
0.0
  0
CIRCLE
  5
B118
  8
0
 10
555.49999999996487
 20
786.76258918568783
 30
0.0
 40
17.5
  0
CIRCLE
  5
B119
  8
0
  6
PHANTOM2
 10
555.49999999996487
 20
786.76258918568783
 30
0.0
 40
15.41
  0
ARC
  5
B11A
  8
0
 10
555.49999999996487
 20
786.76258918568783
 30
0.0
 40
5.0
 50
113.57896193744349
 51
66.422535133027964
  0
LINE
  5
B11B
  8
0
 10
553.49999999996498
 20
793.56259918568765
 30
0.0
 11
553.49999999996498
 21
792.65750440042746
 31
0.0
  0
LINE
  5
B11C
  8
0
 10
553.49999999996498
 20
791.34513759996025
 30
0.0
 11
553.49999999996498
 21
789.26258918568783
 31
0.0
  0
LINE
  5
B11D
  8
0
 10
557.49999999996498
 20
793.56259918568765
 30
0.0
 11
557.49999999996498
 21
792.65750440042746
 31
0.0
  0
LINE
  5
B11E
  8
0
 10
557.49999999996498
 20
791.34518975047013
 30
0.0
 11
557.49999999996498
 21
789.26258918568783
 31
0.0
  0
LINE
  5
B11F
  8
0
 10
554.1749999999646
 20
779.11258918568808
 30
0.0
 11
554.99999999996487
 21
779.11258918568808
 31
0.0
  0
LINE
  5
B120
  8
0
 10
555.99999999996487
 20
779.11258918568808
 30
0.0
 11
556.8249999999648
 21
779.11258918568808
 31
0.0
  0
CIRCLE
  5
B121
  8
0
 10
556.91249999996478
 20
780.62606912304545
 30
0.0
 40
0.6
  0
LINE
  5
B122
  8
0
 10
557.82499999996469
 20
780.11258918568819
 30
0.0
 11
557.82499999996514
 21
781.25948604002394
 31
0.0
  0
ARC
  5
B123
  8
0
 10
556.82499999996514
 20
780.11258918568819
 30
0.0
 40
1.0
 50
269.99999846475509
 51
0.0
  0
LINE
  5
B124
  8
0
 10
553.17499999996471
 20
780.11258918568819
 30
0.0
 11
553.17499999996471
 21
781.25948604002394
 31
0.0
  0
CIRCLE
  5
B125
  8
0
 10
554.08749999996496
 20
780.62606912304545
 30
0.0
 40
0.6
  0
ARC
  5
B126
  8
0
 10
554.1749999999646
 20
780.11258918568819
 30
0.0
 40
1.0
 50
180.00000307046369
 51
269.99999846475509
  0
LINE
  5
B127
  8
0
 10
555.99999999996487
 20
779.11258918568808
 30
0.0
 11
555.99999999996487
 21
781.78765200015448
 31
0.0
  0
LINE
  5
B128
  8
0
 10
554.99999999996487
 20
779.11258918568808
 30
0.0
 11
554.99999999996487
 21
781.78765200015448
 31
0.0
  0
ARC
  5
B129
  8
0
 10
558.82499999996526
 20
781.25948604002394
 30
0.0
 40
1.0
 50
119.2257946599124
 51
180.00000307046369
  0
ARC
  5
B12A
  8
0
 10
552.17499999996471
 20
781.25948604002394
 30
0.0
 40
1.0
 50
0.0
 51
60.774208410531401
  0
ARC
  5
B12B
  8
0
 10
555.49999999996487
 20
787.20258918568777
 30
0.0
 40
5.8099999999999987
 50
299.22579158946849
 51
240.7742053400876
  0
ARC
  5
B12C
  8
0
 10
555.49999999996487
 20
786.76258918568783
 30
0.0
 40
4.7999999999999821
 50
65.375682762997073
 51
114.6243203074638
  0
CIRCLE
  5
B12D
  8
0
 10
555.49999999996487
 20
786.76258918568783
 30
0.0
 40
17.0
  0
LINE
  5
B12E
  8
0
  6
CENTER2
 10
580.49993999996514
 20
786.76258918568783
 30
0.0
 11
530.49993999996514
 21
786.76258918568783
 31
0.0
  0
LINE
  5
B12F
  8
0
  6
CENTER2
 10
555.49999999996487
 20
811.76258918561598
 30
0.0
 11
555.49999999996544
 21
761.76258918575957
 31
0.0
  0
ARC
  5
B130
  8
0
 10
606.39999999996508
 20
837.66258918568781
 30
0.0
 40
9.0
 50
270.51010239763337
 51
89.489897602366625
  0
CIRCLE
  5
B131
  8
0
  6
PHANTOM2
 10
606.39999999996508
 20
837.66258918568781
 30
0.0
 40
26.535
  0
LINE
  5
B132
  8
0
 10
608.39999999996496
 20
844.16258918568826
 30
0.0
 11
606.49999999996396
 21
844.16258918568883
 31
0.0
  0
LINE
  5
B133
  8
0
 10
608.39999999996496
 20
844.4625891856881
 30
0.0
 11
608.39999999996496
 21
843.55750440042254
 31
0.0
  0
LINE
  5
B134
  8
0
 10
608.39999999996496
 20
840.16258918568792
 30
0.0
 11
606.49999999996396
 21
840.16258918568883
 31
0.0
  0
LINE
  5
B135
  8
0
 10
608.39999999996496
 20
844.4625891856881
 30
0.0
 11
606.49999999996396
 21
844.46258918568765
 31
0.0
  0
CIRCLE
  5
B136
  8
0
  6
PHANTOM2
 10
606.39996404839064
 20
837.66258918568781
 30
0.0
 40
25.329999999999998
  0
ARC
  5
B137
  8
0
 10
606.39999999996508
 20
837.66258918568781
 30
0.0
 40
4.6711621157122689
 50
64.649220187389503
 51
88.773321168462644
  0
LINE
  5
B138
  8
0
 10
608.39999999996496
 20
842.24516488064398
 30
0.0
 11
608.39999999996496
 21
840.16258918568792
 31
0.0
  0
LINE
  5
B139
  8
0
 10
606.89999999996326
 20
830.01258918568556
 30
0.0
 11
607.72499999996387
 21
830.01258918568556
 31
0.0
  0
CIRCLE
  5
B13A
  8
0
 10
607.81249999996362
 20
831.5260691230427
 30
0.0
 40
0.6
  0
LINE
  5
B13B
  8
0
 10
608.72499999996398
 20
831.01258918568556
 30
0.0
 11
608.72499999996398
 21
832.15948604002142
 31
0.0
  0
ARC
  5
B13C
  8
0
 10
607.72499999996387
 20
831.01258918568556
 30
0.0
 40
1.0
 50
270.0
 51
359.99999692951019
  0
LINE
  5
B13D
  8
0
 10
606.89999999996326
 20
830.01258918568556
 30
0.0
 11
606.89999999996326
 21
832.68765200015241
 31
0.0
  0
ARC
  5
B13E
  8
0
 10
609.72499999996398
 20
832.15948604002142
 30
0.0
 40
1.0
 50
119.2257936232641
 51
179.99999692951019
  0
ARC
  5
B13F
  8
0
 10
606.39999999996508
 20
837.66258918568781
 30
0.0
 40
29.500000000000028
 50
109.6086153962155
 51
250.39138460378439
  0
ARC
  5
B140
  8
0
 10
606.39999999996508
 20
837.66258918568781
 30
0.0
 40
29.500000000000028
 50
270.19422335336958
 51
89.805776646630406
  0
ARC
  5
B141
  8
0
 10
606.39999999996508
 20
837.66258918568781
 30
0.0
 40
9.0000000000000551
 50
270.63663287225842
 51
89.363367127741625
  0
ARC
  5
B142
  8
0
 10
606.39999999996326
 20
838.1025891856857
 30
0.0
 40
5.809999999999742
 50
299.2257926261459
 51
89.013793308082228
  0
ARC
  5
B143
  8
0
 10
606.39999999996508
 20
837.66258918568781
 30
0.0
 40
5.0000000000004343
 50
271.14599199837448
 51
66.421821521821457
  0
CIRCLE
  5
B144
  8
0
  6
PHANTOM2
 10
747.63999999996395
 20
873.76258918568772
 30
0.0
 40
36.57
  0
LINE
  5
B145
  8
0
 10
694.63999999996395
 20
865.51258918568783
 30
0.0
 11
694.63999999996395
 21
860.26258518568739
 31
0.0
  0
LINE
  5
B146
  8
0
 10
798.63999999996395
 20
852.26258518568739
 30
0.0
 11
800.63999999996395
 21
852.26258518568739
 31
0.0
  0
LINE
  5
B147
  8
0
 10
694.63999999996395
 20
852.26258518568739
 30
0.0
 11
696.63999999996395
 21
852.26258518568739
 31
0.0
  0
ARC
  5
B148
  8
0
 10
799.63999999996395
 20
853.26258518568739
 30
0.0
 40
1.0
 50
270.00000307046372
 51
0.0000030704637251
  0
ARC
  5
B14A
  8
0
 10
695.13999999996395
 20
897.76258518568739
 30
0.0
 40
1.0
 50
89.999996929510203
 51
179.99999692951019
  0
ARC
  5
B14B
  8
0
 10
800.13999999996395
 20
897.76258518568739
 30
0.0
 40
1.0
 50
0.0000030704637251
 51
89.999996929510203
  0
LINE
  5
B14C
  8
0
 10
800.63999999996395
 20
885.45980918568785
 30
0.0
 11
800.63999999996395
 21
853.26258518568739
 31
0.0
  0
ARC
  5
B14D
  8
0
 10
800.63999999996395
 20
854.26258518568739
 30
0.0
 40
2.0
 50
270.00000307046372
 51
0.0000030704637251
  0
LINE
  5
B14E
  8
0
 10
802.63999999996395
 20
858.26258518568727
 30
0.0
 11
802.63999999996395
 21
854.26258518568739
 31
0.0
  0
ARC
  5
B14F
  8
0
 10
800.63999999996395
 20
858.26258518568727
 30
0.0
 40
2.0
 50
0.0000030704637251
 51
89.999996929510203
  0
ARC
  5
B150
  8
0
 10
694.63999999996395
 20
858.26258518568727
 30
0.0
 40
2.0
 50
89.999996929510203
 51
179.99999692951019
  0
ARC
  5
B151
  8
0
 10
694.63999999996395
 20
854.26258518568739
 30
0.0
 40
2.0
 50
179.99999692951019
 51
270.00000307046372
  0
LINE
  5
B152
  8
0
 10
692.63999999996395
 20
858.26258518568727
 30
0.0
 11
692.63999999996395
 21
854.26258518568739
 31
0.0
  0
ARC
  5
B153
  8
0
 10
801.63999999996395
 20
885.45980918568785
 30
0.0
 40
1.0
 50
148.99728195509209
 51
179.99999692951019
  0
ARC
  5
B154
  8
0
 10
798.63999999996395
 20
887.26258518568739
 30
0.0
 40
2.5
 50
328.99728809599299
 51
0.0000030704637251
  0
LINE
  5
B155
  8
0
 10
801.13999999996395
 20
887.26258518568739
 30
0.0
 11
801.13999999996395
 21
897.76258518568739
 31
0.0
  0
LINE
  5
B156
  8
0
 10
694.13999999996395
 20
887.01258918568737
 30
0.0
 11
694.13999999996395
 21
897.76258518568739
 31
0.0
  0
LINE
  5
B157
  8
0
 10
695.13999999996395
 20
898.76258518568739
 30
0.0
 11
696.63999999996395
 21
898.76258518568739
 31
0.0
  0
LINE
  5
B15A
  8
0
 10
778.86498999195555
 20
898.76258918568772
 30
0.0
 11
800.14000002675937
 21
898.76258918568772
 31
0.0
  0
LINE
  5
B15B
  8
0
 10
696.63999999996395
 20
898.76258918568772
 30
0.0
 11
716.41501000797234
 21
898.76258918568772
 31
0.0
  0
LINE
  5
B15C
  8
0
  6
CENTER2
 10
747.63999999996395
 20
918.76258918568783
 30
0.0
 11
747.63999999996395
 21
828.76258918568783
 31
0.0
  0
LINE
  5
B15D
  8
0
  6
CENTER2
 10
702.63999999996395
 20
873.76258918568772
 30
0.0
 11
784.209999999964
 21
873.76258918568772
 31
0.0
  0
LINE
  5
B15E
  8
0
 10
710.13999999996395
 20
839.76258918568772
 30
0.0
 11
697.63999999996395
 21
839.76258918568772
 31
0.0
  0
LINE
  5
B15F
  8
0
 10
797.63999999996395
 20
839.76258918568772
 30
0.0
 11
785.13999999996395
 21
839.76258918568772
 31
0.0
  0
LINE
  5
B160
  8
0
 10
710.13999999996395
 20
838.76258918568783
 30
0.0
 11
710.13999999996395
 21
839.76258918568772
 31
0.0
  0
LINE
  5
B161
  8
0
 10
785.13999999996395
 20
838.76258918568783
 30
0.0
 11
785.13999999996395
 21
839.76258918568772
 31
0.0
  0
ARC
  5
B162
  8
0
 10
747.63999999996395
 20
873.76258918568772
 30
0.0
 40
40.000000000000007
 50
38.682187453489249
 51
141.31781254651059
  0
ARC
  5
B176
  8
0
 10
797.63999999996395
 20
840.76258918568772
 30
0.0
 40
1.0
 50
270.00000153524491
 51
0.0
  0
ARC
  5
B177
  8
0
 10
697.63999999996395
 20
840.76258918568772
 30
0.0
 40
1.0
 50
179.99999692951019
 51
270.00000153524491
  0
LINE
  5
B190
  8
0
 10
798.63999999996395
 20
852.26258518568739
 30
0.0
 11
798.63999999996395
 21
840.76258918568772
 31
0.0
  0
LINE
  5
B1B7
  8
0
 10
692.63999999996395
 20
865.51258918568783
 30
0.0
 11
694.63999999996395
 21
865.51258918568783
 31
0.0
  0
ARC
  5
B1B8
  8
0
 10
692.63999999996395
 20
870.01258918568783
 30
0.0
 40
4.5
 50
180.0
 51
270.0
  0
LINE
  5
B1BF
  8
0
 10
688.13999999996395
 20
882.51258918568783
 30
0.0
 11
688.13999999996395
 21
870.01258918568783
 31
0.0
  0
ARC
  5
B1C0
  8
0
 10
692.63999999996395
 20
882.51258918568783
 30
0.0
 40
4.5
 50
90.0
 51
180.0
  0
LINE
  5
B1C3
  8
0
 10
692.63999999996395
 20
887.01258918568772
 30
0.0
 11
694.13999999996395
 21
887.01258918568772
 31
0.0
  0
ARC
  5
B1C4
  8
0
 10
774.74998999996376
 20
777.76258518567909
 30
0.0
 40
2.0999985000005741
 50
272.19076091140067
 51
87.921193296274794
  0
ARC
  5
B1C5
  8
0
 10
769.45000999995591
 20
777.76258518568784
 30
0.0
 40
2.099998499991226
 50
92.224538654344215
 51
267.66328795429013
  0
CIRCLE
  5
B1C6
  8
0
  6
PHANTOM2
 10
736.09999999996478
 20
777.76258518568739
 30
0.0
 40
25.329999999999998
  0
CIRCLE
  5
B1C7
  8
0
 10
736.09999999996478
 20
777.76258518568739
 30
0.0
 40
4.0
  0
ARC
  5
B1C8
  8
0
 10
790.89998999996442
 20
830.56259918568776
 30
0.0
 40
6.1999997999999987
 50
0.0
 51
89.999983535206596
  0
ARC
  5
B1C9
  8
0
 10
790.89998999996442
 20
830.56259918568776
 30
0.0
 40
2.999999799999999
 50
0.0
 51
86.177254603699893
  0
CIRCLE
  5
B1CA
  8
0
 10
736.09999999996478
 20
777.76258518568739
 30
0.0
 40
11.0
  0
LINE
  5
B1CB
  8
0
 10
779.09999999996489
 20
782.76258518568739
 30
0.0
 11
779.09999999996489
 21
772.76258518568727
 31
0.0
  0
LINE
  5
B1CC
  8
0
 10
766.09999999996478
 20
795.93105018568804
 30
0.0
 11
766.09999999996478
 21
739.76258518568727
 31
0.0
  0
LINE
  5
B1CD
  8
0
 10
688.09999999996489
 20
817.76258918568783
 30
0.0
 11
764.09999999996489
 21
817.76258918568783
 31
0.0
  0
LINE
  5
B1CE
  8
0
 10
791.09999999996478
 20
838.76258918568783
 30
0.0
 11
791.09999999996478
 21
716.76258918568783
 31
0.0
  0
LINE
  5
B1CF
  8
0
 10
666.09999999996444
 20
838.76258918568783
 30
0.0
 11
728.27508326892621
 21
838.76258918568783
 31
0.0
  0
LINE
  5
B1D0
  8
0
 10
668.09999999996444
 20
836.76258918568783
 30
0.0
 11
732.44131584639297
 21
836.76258918568783
 31
0.0
  0
LINE
  5
B1D1
  8
0
 10
797.09999999996489
 20
830.56259918568776
 30
0.0
 11
797.09999999996489
 21
798.76259318568725
 31
0.0
  0
LINE
  5
B1D2
  8
0
 10
793.89999999996508
 20
830.56259918568776
 30
0.0
 11
793.89999999996508
 21
798.76259318568725
 31
0.0
  0
LINE
  5
B1D3
  8
0
 10
766.09999999996478
 20
815.76258918568772
 30
0.0
 11
766.09999999996478
 21
795.93105018568804
 31
0.0
  0
ARC
  5
B1D4
  8
0
 10
764.09999999996489
 20
815.76258918568772
 30
0.0
 40
2.0
 50
0.0
 51
90.0
  0
LINE
  5
B1D5
  8
0
 10
686.09999999996478
 20
815.76258918568772
 30
0.0
 11
686.09999999996478
 21
739.76258518568727
 31
0.0
  0
ARC
  5
B1D6
  8
0
 10
688.09999999996489
 20
739.76258518568727
 30
0.0
 40
2.0
 50
180.0
 51
270.0
  0
ARC
  5
B1D7
  8
0
 10
688.09999999996489
 20
815.76258918568772
 30
0.0
 40
2.0
 50
90.0
 51
180.0
  0
LINE
  5
B1D8
  8
0
 10
688.09999999996489
 20
737.76258518568739
 30
0.0
 11
764.09999999996489
 21
737.76258518568739
 31
0.0
  0
ARC
  5
B1D9
  8
0
 10
764.09999999996489
 20
739.76258518568727
 30
0.0
 40
2.0
 50
270.0
 51
0.0
  0
LINE
  5
B1DA
  8
0
 10
668.09999999996489
 20
838.76258918568783
 30
0.0
 11
668.09999999996489
 21
716.76258918568783
 31
0.0
  0
LINE
  5
B1DB
  8
0
 10
668.09999999996489
 20
718.76258918568783
 30
0.0
 11
791.09999999996478
 21
718.76258918568783
 31
0.0
  0
LINE
  5
B1DC
  8
0
 10
666.09999999996478
 20
716.76258918568783
 30
0.0
 11
791.09999999996478
 21
716.76258918568783
 31
0.0
  0
LINE
  5
B1DD
  8
0
 10
666.09999999996478
 20
838.76258918568783
 30
0.0
 11
666.09999999996478
 21
716.76258918568783
 31
0.0
  0
LINE
  5
B1DE
  8
0
 10
767.00491673100078
 20
838.76258918568783
 30
0.0
 11
791.09999999996478
 21
838.76258918568783
 31
0.0
  0
LINE
  5
B1DF
  8
0
 10
762.8386841535347
 20
836.76258918568783
 30
0.0
 11
790.89998999996442
 21
836.76258918568783
 31
0.0
  0
CIRCLE
  5
B1E0
  8
0
 10
772.09740846742352
 20
777.75999365314692
 30
0.0
 40
2.706134336630337
  0
CIRCLE
  5
B1E1
  8
0
 10
772.09740846742352
 20
777.75999365314692
 30
0.0
 40
3.444007851119828
  0
LINE
  5
B1E2
  8
0
 10
779.09999999996489
 20
782.76258518568739
 30
0.0
 11
766.09999999996478
 21
782.76258518568739
 31
0.0
  0
LINE
  5
B1E3
  8
0
 10
779.09999999996489
 20
772.76258518568727
 30
0.0
 11
766.09999999996478
 21
772.76258518568727
 31
0.0
  0
LINE
  5
B1E4
  8
0
  6
CENTER2
 10
706.09999999996489
 20
777.76258518568739
 30
0.0
 11
766.09999999996478
 21
777.76258518568739
 31
0.0
  0
LINE
  5
B1E5
  8
0
  6
CENTER2
 10
736.09999999996478
 20
807.76258518568739
 30
0.0
 11
736.09999999996478
 21
747.76258518568727
 31
0.0
  0
LINE
  5
B1E6
  8
0
 10
797.09999999996489
 20
798.76259318568725
 30
0.0
 11
793.89999999996508
 21
798.76259318568725
 31
0.0
  0
LINE
  5
B1E7
  8
0
 10
666.10000047683661
 20
751.2625872783392
 30
0.0
 11
666.10000047683661
 21
915.26258918568783
 31
0.0
  0
LINE
  5
B1E8
  8
0
 10
666.10000047683661
 20
915.26258918568783
 30
0.0
 11
626.10000047683661
 21
915.26258918568783
 31
0.0
  0
LINE
  5
B1E9
  8
0
 10
626.10000047683661
 20
915.26258918568783
 30
0.0
 11
626.10000047683661
 21
908.01258918568783
 31
0.0
  0
LINE
  5
B1EA
  8
0
 10
626.10000047683661
 20
908.01258918568783
 30
0.0
 11
632.86121009122871
 21
908.01258918568817
 31
0.0
  0
LINE
  5
B1EB
  8
0
 10
632.86121424869896
 20
899.51258918568828
 30
0.0
 11
626.10000047683661
 21
899.51258918568772
 31
0.0
  0
LINE
  5
B1EC
  8
0
 10
626.10000047683661
 20
899.51258918568772
 30
0.0
 11
626.10000047683661
 21
892.26258918568783
 31
0.0
  0
LINE
  5
B1ED
  8
0
 10
626.10000047683661
 20
892.26258918568783
 30
0.0
 11
646.10000047683661
 21
892.26258918568783
 31
0.0
  0
LINE
  5
B1EE
  8
0
 10
646.10000047683661
 20
892.26258918568783
 30
0.0
 11
646.10000047683661
 21
751.2625872783392
 31
0.0
  0
LINE
  5
B1EF
  8
0
 10
646.10000047683661
 20
751.2625872783392
 30
0.0
 11
666.10000047683661
 21
751.2625872783392
 31
0.0
  0
LINE
  5
B1F0
  8
0
 10
666.10000047683661
 20
746.26258918568783
 30
0.0
 11
626.10000047683661
 21
746.26258918568783
 31
0.0
  0
LINE
  5
B1F1
  8
0
 10
626.10000047683661
 20
746.26258918568783
 30
0.0
 11
626.10000047683661
 21
736.01258918568783
 31
0.0
  0
LINE
  5
B1F2
  8
0
 10
626.10000047683661
 20
736.01258918568783
 30
0.0
 11
632.86121009122871
 21
736.01258918568817
 31
0.0
  0
LINE
  5
B1F3
  8
0
 10
632.86121424869987
 20
727.51258918568817
 30
0.0
 11
626.10000047683661
 21
727.51258918568783
 31
0.0
  0
LINE
  5
B1F4
  8
0
 10
626.10000047683661
 20
727.51258918568783
 30
0.0
 11
626.10000047683661
 21
723.26258918568783
 31
0.0
  0
LINE
  5
B1F5
  8
0
 10
626.10000047683661
 20
723.26258918568783
 30
0.0
 11
666.10000047683661
 21
723.26258918568783
 31
0.0
  0
LINE
  5
B1F6
  8
0
 10
666.10000047683661
 20
723.26258918568783
 30
0.0
 11
666.10000047683661
 21
746.26258918568783
 31
0.0
  0
LINE
  5
B1F7
  8
0
  6
PHANTOM2
 10
570.74426016540735
 20
784.5085634519628
 30
0.0
 11
550.68596867568522
 21
648.85180968529039
 31
0.0
  0
LINE
  5
B1F8
  8
0
  6
PHANTOM2
 10
540.43583593417486
 20
790.00898118280838
 30
0.0
 11
511.54660188778593
 21
655.95487995419535
 31
0.0
  0
LINE
  5
B1F9
  8
0
  6
PHANTOM2
 10
598.07497235821745
 20
862.85782960454753
 30
0.0
 11
736.16661538120707
 21
908.48615964424096
 31
0.0
  0
LINE
  5
B1FA
  8
0
  6
PHANTOM2
 10
611.18566194904076
 20
811.56271055169509
 30
0.0
 11
754.23550244871831
 21
837.79226464658348
 31
0.0
  0
LINE
  5
B1FB
  8
0
  6
PHANTOM2
 10
617.02032728221047
 20
860.65860590123521
 30
0.0
 11
746.72036323378506
 21
800.7586019012341
 31
0.0
  0
LINE
  5
B1FC
  8
0
  6
PHANTOM2
 10
595.77960081457104
 20
814.66657247014064
 30
0.0
 11
725.47963676614472
 21
754.76656847013999
 31
0.0
  0
LINE
  5
CCFA
  8
0
 10
696.63999999996395
 20
852.26258518568739
 30
0.0
 11
696.63999999996395
 21
840.76258918568772
 31
0.0
  0
ARC
  5
CCFC
  8
0
 10
747.63999999996395
 20
873.76258918568772
 30
0.0
 40
40.000000000000007
 50
241.04497562814021
 51
298.95502437186019
  0
ENDSEC
  0
EOF
