  0
SECTION
  2
HEADER
  9
$ACADVER
  1
AC1009
  9
$INSBASE
 10
0.0
 20
0.0
 30
0.0
  9
$EXTMIN
 10
-0.4998397926137841
 20
-0.3584016095373954
 30
-0.0015258207003583
  9
$EXTMAX
 10
16380.499916067931
 20
11745.35845630145
 30
0.0000000349246037
  9
$LIMMIN
 10
0.0
 20
0.0
  9
$LIMMAX
 10
420.0
 20
297.0
  9
$ORTHOMODE
 70
     0
  9
$REGENMODE
 70
     1
  9
$FILLMODE
 70
     1
  9
$QTEXTMODE
 70
     0
  9
$MIRRTEXT
 70
     1
  9
$DRAGMODE
 70
     2
  9
$LTSCALE
 40
7.5
  9
$OSMODE
 70
  3071
  9
$ATTMODE
 70
     1
  9
$TEXTSIZE
 40
105.0
  9
$TRACEWID
 40
1.0
  9
$TEXTSTYLE
  7
文字
  9
$CLAYER
  8
0
  9
$CELTYPE
  6
BYLAYER
  9
$CECOLOR
 62
   256
  9
$DIMSCALE
 40
30.0
  9
$DIMASZ
 40
2.0
  9
$DIMEXO
 40
5.0
  9
$DIMDLI
 40
7.5
  9
$DIMRND
 40
0.0
  9
$DIMDLE
 40
0.0
  9
$DIMEXE
 40
1.0
  9
$DIMTP
 40
0.0
  9
$DIMTM
 40
0.0
  9
$DIMTXT
 40
3.5
  9
$DIMCEN
 40
1.0
  9
$DIMTSZ
 40
0.0
  9
$DIMTOL
 70
     0
  9
$DIMLIM
 70
     0
  9
$DIMTIH
 70
     0
  9
$DIMTOH
 70
     0
  9
$DIMSE1
 70
     0
  9
$DIMSE2
 70
     0
  9
$DIMTAD
 70
     1
  9
$DIMZIN
 70
     8
  9
$DIMBLK
  1
ORIGIN
  9
$DIMASO
 70
     1
  9
$DIMSHO
 70
     1
  9
$DIMPOST
  1

  9
$DIMAPOST
  1

  9
$DIMALT
 70
     0
  9
$DIMALTD
 70
     3
  9
$DIMALTF
 40
0.03937007874016
  9
$DIMLFAC
 40
1.0
  9
$DIMTOFL
 70
     1
  9
$DIMTVP
 40
0.0
  9
$DIMTIX
 70
     1
  9
$DIMSOXD
 70
     0
  9
$DIMSAH
 70
     0
  9
$DIMBLK1
  1

  9
$DIMBLK2
  1

  9
$DIMSTYLE
  2
寸法線30
  9
$DIMCLRD
 70
   256
  9
$DIMCLRE
 70
   256
  9
$DIMCLRT
 70
   256
  9
$DIMTFAC
 40
1.0
  9
$DIMGAP
 40
1.0
  9
$LUNITS
 70
     2
  9
$LUPREC
 70
     4
  9
$SKETCHINC
 40
1.0
  9
$FILLETRAD
 40
0.0
  9
$AUNITS
 70
     0
  9
$AUPREC
 70
     0
  9
$MENU
  1
.
  9
$ELEVATION
 40
0.0
  9
$PELEVATION
 40
0.0
  9
$THICKNESS
 40
0.0
  9
$LIMCHECK
 70
     0
  9
$BLIPMODE
 70
     0
  9
$CHAMFERA
 40
10.0
  9
$CHAMFERB
 40
10.0
  9
$SKPOLY
 70
     0
  9
$TDCREATE
 40
2452654.657629028
  9
$TDUPDATE
 40
2456778.705970949
  9
$TDINDWG
 40
0.8008830093
  9
$TDUSRTIMER
 40
0.8008812037
  9
$USRTIMER
 70
     1
  9
$ANGBASE
 50
0.0
  9
$ANGDIR
 70
     0
  9
$PDMODE
 70
     0
  9
$PDSIZE
 40
0.0
  9
$PLINEWID
 40
0.0
  9
$COORDS
 70
     2
  9
$SPLFRAME
 70
     0
  9
$SPLINETYPE
 70
     6
  9
$SPLINESEGS
 70
     8
  9
$ATTDIA
 70
     0
  9
$ATTREQ
 70
     1
  9
$HANDLING
 70
     1
  9
$HANDSEED
  5
979F
  9
$SURFTAB1
 70
     6
  9
$SURFTAB2
 70
     6
  9
$SURFTYPE
 70
     6
  9
$SURFU
 70
     6
  9
$SURFV
 70
     6
  9
$UCSNAME
  2

  9
$UCSORG
 10
0.0
 20
0.0
 30
0.0
  9
$UCSXDIR
 10
1.0
 20
0.0
 30
0.0
  9
$UCSYDIR
 10
0.0
 20
1.0
 30
0.0
  9
$PUCSNAME
  2

  9
$PUCSORG
 10
0.0
 20
0.0
 30
0.0
  9
$PUCSXDIR
 10
1.0
 20
0.0
 30
0.0
  9
$PUCSYDIR
 10
0.0
 20
1.0
 30
0.0
  9
$USERI1
 70
     0
  9
$USERI2
 70
     0
  9
$USERI3
 70
     0
  9
$USERI4
 70
     0
  9
$USERI5
 70
     0
  9
$USERR1
 40
0.0
  9
$USERR2
 40
0.0
  9
$USERR3
 40
0.0
  9
$USERR4
 40
0.0
  9
$USERR5
 40
0.0
  9
$WORLDVIEW
 70
     1
  9
$SHADEDGE
 70
     3
  9
$SHADEDIF
 70
    70
  9
$TILEMODE
 70
     1
  9
$MAXACTVP
 70
    64
  9
$PLIMCHECK
 70
     0
  9
$PEXTMIN
 10
1.0000000000000000E+020
 20
1.0000000000000000E+020
 30
1.0000000000000000E+020
  9
$PEXTMAX
 10
-1.0000000000000000E+020
 20
-1.0000000000000000E+020
 30
-1.0000000000000000E+020
  9
$PLIMMIN
 10
0.0
 20
0.0
  9
$PLIMMAX
 10
420.0
 20
297.0
  9
$UNITMODE
 70
     0
  9
$VISRETAIN
 70
     1
  9
$PLINEGEN
 70
     0
  9
$PSLTSCALE
 70
     1
  0
ENDSEC
  0
SECTION
  2
TABLES
  0
TABLE
  2
VPORT
 70
     1
  0
VPORT
  2
*ACTIVE
 70
     0
 10
0.0
 20
0.0
 11
1.0
 21
1.0
 12
8190.0000381376594
 22
5872.5000273459573
 13
0.0
 23
0.0
 14
10.0
 24
10.0
 15
10.0
 25
10.0
 16
0.0
 26
0.0
 36
1.0
 17
0.0
 27
0.0
 37
0.0
 40
11826.443434254021
 41
1.7981651376146781
 42
50.0
 43
0.0
 44
0.0
 50
0.0
 51
0.0
 71
     0
 72
   100
 73
     1
 74
     3
 75
     0
 76
     0
 77
     0
 78
     0
  0
ENDTAB
  0
TABLE
  2
LTYPE
 70
     4
  0
LTYPE
  2
CONTINUOUS
 70
     0
  3
Solid line
 72
    65
 73
     0
 40
0.0
  0
LTYPE
  2
HIDDEN
 70
     0
  3
Hidden __ __ __ __ __ __ __ __ __ __ __ __ __ _
 72
    65
 73
     2
 40
9.5249999999999986
 49
6.3499999999999979
 49
-3.174999999999998
  0
LTYPE
  2
CENTER2
 70
     0
  3
Center (.5x) ___ _ ___ _ ___ _ ___ _ ___ _ ___
 72
    65
 73
     4
 40
28.574999999999999
 49
19.050000000000001
 49
-3.174999999999998
 49
3.174999999999998
 49
-3.174999999999998
  0
LTYPE
  2
PHANTOM2
 70
     0
  3
Phantom (.5x) ___ _ _ ___ _ _ ___ _ _ ___ _ _
 72
    65
 73
     6
 40
31.75
 49
15.875
 49
-3.174999999999998
 49
3.174999999999998
 49
-3.174999999999998
 49
3.174999999999998
 49
-3.174999999999998
  0
ENDTAB
  0
TABLE
  2
LAYER
 70
     2
  0
LAYER
  2
0
 70
     0
 62
     7
  6
CONTINUOUS
  0
LAYER
  2
DEFPOINTS
 70
     0
 62
     7
  6
CONTINUOUS
  0
ENDTAB
  0
TABLE
  2
STYLE
 70
     4
  0
STYLE
  2
STANDARD
 70
     0
 40
0.0
 41
1.0
 50
0.0
 71
     0
 42
105.0
  3
romans.shx
  4
bigfont.shx
  0
STYLE
  2
文字
 70
     0
 40
0.0
 41
0.8
 50
0.0
 71
     0
 42
105.0
  3
romans.shx
  4
extfont.shx
  0
STYLE
  2
横文字
 70
     0
 40
0.0
 41
0.8
 50
0.0
 71
     0
 42
105.0
  3
romans.shx
  4
extfont.shx
  0
ENDTAB
  0
TABLE
  2
VIEW
 70
     0
  0
ENDTAB
  0
TABLE
  2
UCS
 70
     0
  0
ENDTAB
  0
TABLE
  2
APPID
 70
    81
  0
APPID
  2
ACAD
 70
     0
  0
APPID
  2
ACADANNOTATIVE
 70
     0
  0
APPID
  2
ADE
 70
     0
  0
APPID
  2
DCO15
 70
     0
  0
APPID
  2
SETH_MM
 70
     0
  0
APPID
  2
ACAD_PSEXT
 70
     0
  0
APPID
  2
ACAD_EXEMPT_FROM_CAD_STANDARDS
 70
     0
  0
APPID
  2
ACAD_MLEADERVER
 70
     0
  0
APPID
  2
AUTOESSSHUTTERLINE1
 70
     0
  0
APPID
  2
AUTOESSSHUTTERLINE2
 70
     0
  0
APPID
  2
AUTOESSSHUTTERPT
 70
     0
  0
APPID
  2
MAKICIRCLE
 70
     0
  0
APPID
  2
ACAD_DSTYLE_DIMJAG
 70
     0
  0
APPID
  2
ACAD_DSTYLE_DIMTALN
 70
     0
  0
APPID
  2
SETW_MM
 70
     0
  0
APPID
  2
PARADIMLINE
 70
     0
  0
APPID
  2
PARABASEPT
 70
     0
  0
APPID
  2
MIRRORCHK_L
 70
     0
  0
APPID
  2
MIRRORCHK_R
 70
     0
  0
APPID
  2
LINKSPLIT1
 70
     0
  0
APPID
  2
LINKSPLIT2
 70
     0
  0
APPID
  2
LINKSPLIT3
 70
     0
  0
APPID
  2
LINKSPLIT4
 70
     0
  0
APPID
  2
TBANLLINE
 70
     0
  0
APPID
  2
TBANRLINE
 70
     0
  0
APPID
  2
TBANHLINE
 70
     0
  0
APPID
  2
ARCLINEA1
 70
     0
  0
APPID
  2
ARCLINEA2
 70
     0
  0
APPID
  2
ARCLINEB1
 70
     0
  0
APPID
  2
ARCLINEB2
 70
     0
  0
APPID
  2
ODPDW
 70
     0
  0
APPID
  2
ODPDH
 70
     0
  0
APPID
  2
ODWLINE1
 70
     0
  0
APPID
  2
ODWLINE2
 70
     0
  0
APPID
  2
ODSY
 70
     0
  0
APPID
  2
EDWDW
 70
     0
  0
APPID
  2
EDWDH
 70
     0
  0
APPID
  2
LINKSPLIT11
 70
     0
  0
APPID
  2
LINKSPLIT12
 70
     0
  0
APPID
  2
LINKSPLIT13
 70
     0
  0
APPID
  2
LINKSPLIT14
 70
     0
  0
APPID
  2
AUTOESSDOORPTH1
 70
     0
  0
APPID
  2
AUTOESSDOORPTH2
 70
     0
  0
APPID
  2
AUTOESSDOORPTV1
 70
     0
  0
APPID
  2
AUTOESSDOORPTV2
 70
     0
  0
APPID
  2
TBANPT1
 70
     0
  0
APPID
  2
TBANPT2
 70
     0
  0
APPID
  2
SETDH_MM
 70
     0
  0
APPID
  2
SETV1_MM
 70
     0
  0
APPID
  2
SETV2_MM
 70
     0
  0
APPID
  2
KAIKOUDIM
 70
     0
  0
APPID
  2
TBANK
 70
     0
  0
APPID
  2
TBANR
 70
     0
  0
APPID
  2
TBANO
 70
     0
  0
APPID
  2
TBANHATA1
 70
     0
  0
APPID
  2
TBANHATA2
 70
     0
  0
APPID
  2
TBANMEN
 70
     0
  0
APPID
  2
TBANW
 70
     0
  0
APPID
  2
TBANH
 70
     0
  0
APPID
  2
ARCLINEA3
 70
     0
  0
APPID
  2
ARCLINEB3
 70
     0
  0
APPID
  2
WORKNAME_UE
 70
     0
  0
APPID
  2
WORKNAME
 70
     0
  0
APPID
  2
SD1
 70
     0
  0
APPID
  2
SD2
 70
     0
  0
APPID
  2
DELETEOBJ
 70
     0
  0
APPID
  2
TBANTEXT
 70
     0
  0
APPID
  2
MAKITEXT
 70
     0
  0
APPID
  2
N_01
 70
     0
  0
APPID
  2
N_02
 70
     0
  0
APPID
  2
N_03
 70
     0
  0
APPID
  2
N_04
 70
     0
  0
APPID
  2
N_05
 70
     0
  0
APPID
  2
N_06
 70
     0
  0
APPID
  2
N_07
 70
     0
  0
APPID
  2
N_08
 70
     0
  0
APPID
  2
N_09
 70
     0
  0
APPID
  2
N_10
 70
     0
  0
APPID
  2
N_11
 70
     0
  0
APPID
  2
N_12
 70
     0
  0
APPID
  2
N_13
 70
     0
  0
ENDTAB
  0
TABLE
  2
DIMSTYLE
 70
     3
  0
DIMSTYLE
  2
STANDARD
 70
     0
  3

  4

  5

  6

  7

 40
30.0
 41
1.0
 42
5.0
 43
7.5
 44
1.0
 45
0.0
 46
0.0
 47
0.0
 48
0.0
140
3.5
141
2.5
142
0.0
143
25.399999999999999
144
1.0
145
0.0
146
1.0
147
1.0
 71
     0
 72
     0
 73
     0
 74
     0
 75
     0
 76
     0
 77
     1
 78
     8
170
     0
171
     2
172
     1
173
     0
174
     1
175
     0
176
     0
177
     0
178
     0
  0
DIMSTYLE
  2
寸法線30
 70
     0
  3

  4

  5

  6

  7

 40
30.0
 41
2.0
 42
5.0
 43
7.5
 44
1.0
 45
0.0
 46
0.0
 47
0.0
 48
0.0
140
3.5
141
1.0
142
0.0
143
0.03937007874016
144
1.0
145
0.0
146
1.0
147
1.0
 71
     0
 72
     0
 73
     0
 74
     0
 75
     0
 76
     0
 77
     1
 78
     8
170
     0
171
     3
172
     1
173
     0
174
     1
175
     0
176
   256
177
   256
178
   256
  0
ENDTAB
  0
ENDSEC
  0
SECTION
  2
BLOCKS
  0
BLOCK
  8
0
  2
$MODEL_SPACE
 70
     0
 10
0.0
 20
0.0
 30
0.0
  3
$MODEL_SPACE
  1

  0
ENDBLK
  5
969D
  8
0
  0
BLOCK
 67
     1
  8
0
  2
$PAPER_SPACE
 70
     0
 10
0.0
 20
0.0
 30
0.0
  3
$PAPER_SPACE
  1

  0
ENDBLK
  5
9699
 67
     1
  8
0
  0
BLOCK
  8
0
  2
_ORIGIN
 70
     0
 10
0.0
 20
0.0
 30
0.0
  3
_ORIGIN
  1

  0
CIRCLE
  5
A7
  8
0
  6
BYBLOCK
 62
     0
 10
0.0
 20
0.0
 30
0.0
 40
0.5
  0
LINE
  5
A8
  8
0
  6
BYBLOCK
 62
     0
 10
0.0
 20
0.0
 30
0.0
 11
-1.0
 21
0.0
 31
0.0
  0
ENDBLK
  5
AA
  8
0
  0
BLOCK
  8
0
  2
_OPEN30
 70
     0
 10
0.0
 20
0.0
 30
0.0
  3
_OPEN30
  1

  0
LINE
  5
AC
  8
0
  6
BYBLOCK
 62
     0
 10
-1.0
 20
0.26794919
 30
0.0
 11
0.0
 21
0.0
 31
0.0
  0
LINE
  5
AD
  8
0
  6
BYBLOCK
 62
     0
 10
0.0
 20
0.0
 30
0.0
 11
-1.0
 21
-0.26794919
 31
0.0
  0
LINE
  5
AE
  8
0
  6
BYBLOCK
 62
     0
 10
0.0
 20
0.0
 30
0.0
 11
-1.0
 21
0.0
 31
0.0
  0
ENDBLK
  5
B0
  8
0
  0
BLOCK
  8
0
  2
*D4
 70
     1
 10
0.0
 20
0.0
 30
0.0
  3
*D4
  1

  0
LINE
  5
94D2
  8
0
 10
8500.0
 20
3500.0000000000259
 30
0.0
 11
8500.0
 21
3805.0000000000259
 31
0.0
  0
LINE
  5
94D3
  8
0
 10
8900.0
 20
3500.0000000000259
 30
0.0
 11
8900.0
 21
3805.0000000000259
 31
0.0
  0
LINE
  5
94D4
  8
0
 10
8470.0
 20
3775.0000000000259
 30
0.0
 11
8440.0
 21
3775.0000000000259
 31
0.0
  0
LINE
  5
94D5
  8
0
 10
8930.0
 20
3775.0000000000259
 30
0.0
 11
8960.0
 21
3775.0000000000259
 31
0.0
  0
LINE
  5
94D6
  8
0
 10
8500.0
 20
3775.0000000000259
 30
0.0
 11
8900.0
 21
3775.0000000000259
 31
0.0
  0
INSERT
  5
94D7
  8
0
  2
_ORIGIN
 10
8500.0
 20
3775.0000000000259
 30
0.0
 41
30.0
 42
30.0
 43
30.0
  0
INSERT
  5
94D8
  8
0
  2
_ORIGIN
 10
8900.0
 20
3775.0000000000259
 30
0.0
 41
30.0
 42
30.0
 43
30.0
 50
180.0
  0
INSERT
  5
94D9
  8
0
  2
*U5
 10
0.0
 20
0.0
 30
0.0
  0
POINT
  5
94DA
  8
DEFPOINTS
 62
     0
 10
8500.0
 20
3350.0000000000259
 30
0.0
  0
POINT
  5
94DB
  8
DEFPOINTS
 62
     0
 10
8900.0
 20
3350.0000000000259
 30
0.0
  0
POINT
  5
94DC
  8
DEFPOINTS
 62
     0
 10
8900.0
 20
3775.0000000000259
 30
0.0
  0
ENDBLK
  5
9430
  8
0
  0
BLOCK
  8
0
  2
*U5
 70
     1
 10
0.0
 20
0.0
 30
0.0
  3
*U5
  1

  0
TEXT
  5
95FE
  8
0
 10
8484.3999999999996
 20
3805.0000000000259
 30
0.0
 40
105.0
  1
400以上
 41
0.8
  7
文字
  0
ENDBLK
  5
9600
  8
0
  0
BLOCK
  8
0
  2
*D6
 70
     1
 10
0.0
 20
0.0
 30
0.0
  3
*D6
  1

  0
LINE
  5
94DD
  8
0
 10
5023.0
 20
3000.0000000000409
 30
0.0
 11
5043.0
 21
3000.0000000000409
 31
0.0
  0
LINE
  5
94DE
  8
0
 10
5323.0
 20
2750.0000000000032
 30
0.0
 11
5043.0
 21
2750.0000000000041
 31
0.0
  0
LINE
  5
94DF
  8
0
 10
5073.0
 20
2970.0000000000409
 30
0.0
 11
5073.0
 21
2780.0000000000041
 31
0.0
  0
INSERT
  5
94E0
  8
0
  2
*U7
 10
0.0
 20
0.0
 30
0.0
  0
INSERT
  5
94E1
  8
0
  2
_ORIGIN
 10
5073.0
 20
3000.0000000000409
 30
0.0
 41
30.0
 42
30.0
 43
30.0
 50
90.0
  0
INSERT
  5
94E2
  8
0
  2
_ORIGIN
 10
5073.0
 20
2750.0000000000041
 30
0.0
 41
30.0
 42
30.0
 43
30.0
 50
270.0
  0
POINT
  5
94E3
  8
DEFPOINTS
 62
     0
 10
5173.0
 20
3000.00000000004
 30
0.0
  0
POINT
  5
94E4
  8
DEFPOINTS
 62
     0
 10
5473.0
 20
2750.0000000000032
 30
0.0
  0
POINT
  5
94E5
  8
DEFPOINTS
 62
     0
 10
5073.0
 20
2750.0000000000041
 30
0.0
  0
ENDBLK
  5
943E
  8
0
  0
BLOCK
  8
0
  2
*U7
 70
     1
 10
0.0
 20
0.0
 30
0.0
  3
*U7
  1

  0
TEXT
  5
9602
  8
0
 10
5043.0
 20
2747.50000000004
 30
0.0
 40
105.0
  1
250
 50
90.0
 41
0.8
  7
文字
  0
ENDBLK
  5
9604
  8
0
  0
BLOCK
  8
0
  2
*D8
 70
     1
 10
0.0
 20
0.0
 30
0.0
  3
*D8
  1

  0
LINE
  5
94E6
  8
0
 10
6500.0
 20
8300.0
 30
0.0
 11
5945.0
 21
8300.0
 31
0.0
  0
LINE
  5
94E7
  8
0
 10
6500.0
 20
8200.0
 30
0.0
 11
5945.0
 21
8200.0
 31
0.0
  0
LINE
  5
94E8
  8
0
 10
5975.0
 20
8330.0
 30
0.0
 11
5975.0
 21
8360.0
 31
0.0
  0
LINE
  5
94E9
  8
0
 10
5975.0
 20
8170.0000000000027
 30
0.0
 11
5975.0
 21
8140.0
 31
0.0
  0
LINE
  5
94EA
  8
0
 10
5975.0
 20
8300.0
 30
0.0
 11
5975.0
 21
8200.0
 31
0.0
  0
INSERT
  5
94EB
  8
0
  2
_ORIGIN
 10
5975.0
 20
8300.0
 30
0.0
 41
30.0
 42
30.0
 43
30.0
 50
270.0
  0
INSERT
  5
94EC
  8
0
  2
_ORIGIN
 10
5975.0
 20
8200.0
 30
0.0
 41
30.0
 42
30.0
 43
30.0
 50
90.0
  0
INSERT
  5
94ED
  8
0
  2
*U9
 10
0.0
 20
0.0
 30
0.0
  0
POINT
  5
94EE
  8
DEFPOINTS
 62
     0
 10
6650.0
 20
8300.0
 30
0.0
  0
POINT
  5
94EF
  8
DEFPOINTS
 62
     0
 10
6650.0
 20
8200.0
 30
0.0
  0
POINT
  5
94F0
  8
DEFPOINTS
 62
     0
 10
5975.0
 20
8200.0
 30
0.0
  0
ENDBLK
  5
944A
  8
0
  0
BLOCK
  8
0
  2
*U9
 70
     1
 10
0.0
 20
0.0
 30
0.0
  3
*U9
  1

  0
TEXT
  5
9606
  8
0
 10
5944.9999999999991
 20
8214.0000000000018
 30
0.0
 40
105.0
  1
Y
 50
90.0
 41
0.8
  7
文字
  0
ENDBLK
  5
9608
  8
0
  0
BLOCK
  8
0
  2
*D10
 70
     1
 10
0.0
 20
0.0
 30
0.0
  3
*D10
  1

  0
LINE
  5
94F1
  8
0
 10
6500.0
 20
8200.0
 30
0.0
 11
5945.0000000000009
 21
8200.0
 31
0.0
  0
LINE
  5
94F2
  8
0
 10
5975.0
 20
6000.0
 30
0.0
 11
5945.0
 21
6000.0
 31
0.0
  0
LINE
  5
94F3
  8
0
 10
5975.0000000000009
 20
8170.0000000000027
 30
0.0
 11
5975.0
 21
6030.0
 31
0.0
  0
INSERT
  5
94F4
  8
0
  2
_ORIGIN
 10
5975.0000000000009
 20
8200.0
 30
0.0
 41
30.0
 42
30.0
 43
30.0
 50
90.0
  0
INSERT
  5
94F5
  8
0
  2
_ORIGIN
 10
5975.0
 20
6000.0
 30
0.0
 41
30.0
 42
30.0
 43
30.0
 50
270.0
  0
INSERT
  5
94F6
  8
0
  2
*U11
 10
0.0
 20
0.0
 30
0.0
  0
POINT
  5
94F7
  8
DEFPOINTS
 62
     0
 10
6650.0
 20
8200.0
 30
0.0
  0
POINT
  5
94F8
  8
DEFPOINTS
 62
     0
 10
6125.0
 20
6000.0
 30
0.0
  0
POINT
  5
94F9
  8
DEFPOINTS
 62
     0
 10
5975.0
 20
6000.0
 30
0.0
  0
ENDBLK
  5
9458
  8
0
  0
BLOCK
  8
0
  2
*U11
 70
     1
 10
0.0
 20
0.0
 30
0.0
  3
*U11
  1

  0
TEXT
  5
960A
  8
0
 10
5944.9999999999991
 20
6666.0000000000027
 30
0.0
 40
105.0
  1
有効開口高=H-Y
 50
90.0
 41
0.8
  7
文字
  0
ENDBLK
  5
960C
  8
0
  0
BLOCK
  8
0
  2
*D12
 70
     1
 10
0.0
 20
0.0
 30
0.0
  3
*D12
  1

  0
LINE
  5
94FA
  8
0
 10
5500.0
 20
3500.0000000000259
 30
0.0
 11
5500.0
 21
4030.000000000025
 31
0.0
  0
LINE
  5
94FB
  8
0
 10
8500.0
 20
3500.0000000000259
 30
0.0
 11
8500.0
 21
4030.000000000025
 31
0.0
  0
LINE
  5
94FC
  8
0
 10
5530.0
 20
4000.0000000000241
 30
0.0
 11
8470.0
 21
4000.0000000000241
 31
0.0
  0
INSERT
  5
94FD
  8
0
  2
_ORIGIN
 10
5500.0
 20
4000.0000000000241
 30
0.0
 41
30.0
 42
30.0
 43
30.0
 50
180.0
  0
INSERT
  5
94FE
  8
0
  2
_ORIGIN
 10
8500.0
 20
4000.0000000000241
 30
0.0
 41
30.0
 42
30.0
 43
30.0
  0
INSERT
  5
94FF
  8
0
  2
*U13
 10
0.0
 20
0.0
 30
0.0
  0
POINT
  5
9500
  8
DEFPOINTS
 62
     0
 10
5500.0
 20
3350.0000000000259
 30
0.0
  0
POINT
  5
9501
  8
DEFPOINTS
 62
     0
 10
8500.0
 20
3350.0000000000259
 30
0.0
  0
POINT
  5
9502
  8
DEFPOINTS
 62
     0
 10
8500.0
 20
4000.0000000000241
 30
0.0
  0
ENDBLK
  5
9464
  8
0
  0
BLOCK
  8
0
  2
*U13
 70
     1
 10
0.0
 20
0.0
 30
0.0
  3
*U13
  1

  0
TEXT
  5
960E
  8
0
 10
6952.0
 20
4030.000000000025
 30
0.0
 40
105.0
  1
W
 41
0.8
  7
文字
  0
ENDBLK
  5
9610
  8
0
  0
BLOCK
  8
0
  2
*D14
 70
     1
 10
0.0
 20
0.0
 30
0.0
  3
*D14
  1

  0
LINE
  5
9503
  8
0
 10
6500.0
 20
8300.0
 30
0.0
 11
5720.0000000000009
 21
8300.0
 31
0.0
  0
LINE
  5
9504
  8
0
 10
5750.0
 20
6000.0
 30
0.0
 11
5720.0
 21
6000.0
 31
0.0
  0
LINE
  5
9505
  8
0
 10
5750.0
 20
8270.0
 30
0.0
 11
5750.0
 21
6030.0
 31
0.0
  0
INSERT
  5
9506
  8
0
  2
_ORIGIN
 10
5750.0
 20
8300.0
 30
0.0
 41
30.0
 42
30.0
 43
30.0
 50
90.0
  0
INSERT
  5
9507
  8
0
  2
_ORIGIN
 10
5750.0
 20
6000.0
 30
0.0
 41
30.0
 42
30.0
 43
30.0
 50
270.0
  0
INSERT
  5
9508
  8
0
  2
*U15
 10
0.0
 20
0.0
 30
0.0
  0
POINT
  5
9509
  8
DEFPOINTS
 62
     0
 10
6650.0
 20
8300.0
 30
0.0
  0
POINT
  5
950A
  8
DEFPOINTS
 62
     0
 10
5900.0
 20
6000.0
 30
0.0
  0
POINT
  5
950B
  8
DEFPOINTS
 62
     0
 10
5750.0
 20
6000.0
 30
0.0
  0
ENDBLK
  5
9470
  8
0
  0
BLOCK
  8
0
  2
*U15
 70
     1
 10
0.0
 20
0.0
 30
0.0
  3
*U15
  1

  0
TEXT
  5
9612
  8
0
 10
5719.9999999999973
 20
7106.0000000000009
 30
0.0
 40
105.0
  1
H
 50
90.0
 41
0.8
  7
文字
  0
ENDBLK
  5
9614
  8
0
  0
BLOCK
  8
0
  2
*D16
 70
     1
 10
0.0
 20
0.0
 30
0.0
  3
*D16
  1

  0
LINE
  5
950C
  8
0
 10
6500.0
 20
8300.0
 30
0.0
 11
5720.0
 21
8300.0
 31
0.0
  0
LINE
  5
950D
  8
0
 10
6500.0
 20
9090.0
 30
0.0
 11
5720.0
 21
9090.0
 31
0.0
  0
LINE
  5
950E
  8
0
 10
5750.0
 20
8330.0
 30
0.0
 11
5750.0
 21
9060.0
 31
0.0
  0
INSERT
  5
950F
  8
0
  2
_ORIGIN
 10
5750.0
 20
8300.0
 30
0.0
 41
30.0
 42
30.0
 43
30.0
 50
270.0
  0
INSERT
  5
9510
  8
0
  2
_ORIGIN
 10
5750.0
 20
9090.0
 30
0.0
 41
30.0
 42
30.0
 43
30.0
 50
90.0
  0
INSERT
  5
9511
  8
0
  2
*U17
 10
0.0
 20
0.0
 30
0.0
  0
POINT
  5
9512
  8
DEFPOINTS
 62
     0
 10
6650.0
 20
8300.0
 30
0.0
  0
POINT
  5
9513
  8
DEFPOINTS
 62
     0
 10
6650.0
 20
9090.0
 30
0.0
  0
POINT
  5
9514
  8
DEFPOINTS
 62
     0
 10
5750.0
 20
9090.0
 30
0.0
  0
ENDBLK
  5
947C
  8
0
  0
BLOCK
  8
0
  2
*U17
 70
     1
 10
0.0
 20
0.0
 30
0.0
  3
*U17
  1

  0
TEXT
  5
9616
  8
0
 10
5719.9999999999973
 20
8339.4000000000033
 30
0.0
 40
105.0
  1
HR=790以上
 50
90.0
 41
0.8
  7
文字
  0
ENDBLK
  5
9618
  8
0
  0
BLOCK
  8
0
  2
*D18
 70
     1
 10
0.0
 20
0.0
 30
0.0
  3
*D18
  1

  0
LINE
  5
9515
  8
0
 10
6500.0
 20
8300.0
 30
0.0
 11
5945.0
 21
8300.0
 31
0.0
  0
LINE
  5
9516
  8
0
 10
6500.0
 20
8790.0
 30
0.0
 11
5945.0
 21
8790.0
 31
0.0
  0
LINE
  5
9517
  8
0
 10
5975.0
 20
8330.0
 30
0.0
 11
5975.0
 21
8760.0
 31
0.0
  0
INSERT
  5
9518
  8
0
  2
_ORIGIN
 10
5975.0
 20
8300.0
 30
0.0
 41
30.0
 42
30.0
 43
30.0
 50
270.0
  0
INSERT
  5
9519
  8
0
  2
_ORIGIN
 10
5975.0
 20
8790.0
 30
0.0
 41
30.0
 42
30.0
 43
30.0
 50
90.0
  0
INSERT
  5
951A
  8
0
  2
*U19
 10
0.0
 20
0.0
 30
0.0
  0
POINT
  5
951B
  8
DEFPOINTS
 62
     0
 10
6650.0
 20
8300.0
 30
0.0
  0
POINT
  5
951C
  8
DEFPOINTS
 62
     0
 10
6650.0
 20
8790.0
 30
0.0
  0
POINT
  5
951D
  8
DEFPOINTS
 62
     0
 10
5975.0
 20
8790.0
 30
0.0
  0
ENDBLK
  5
9488
  8
0
  0
BLOCK
  8
0
  2
*U19
 70
     1
 10
0.0
 20
0.0
 30
0.0
  3
*U19
  1

  0
TEXT
  5
961A
  8
0
 10
5944.9999999999991
 20
8333.0000000000036
 30
0.0
 40
105.0
  1
h=490
 50
90.0
 41
0.8
  7
文字
  0
ENDBLK
  5
961C
  8
0
  0
BLOCK
  8
0
  2
*D20
 70
     1
 10
0.0
 20
0.0
 30
0.0
  3
*D20
  1

  0
LINE
  5
951E
  8
0
 10
7400.0
 20
6020.0
 30
0.0
 11
8029.9999999999973
 21
6020.0
 31
0.0
  0
LINE
  5
951F
  8
0
 10
7400.0
 20
8415.0
 30
0.0
 11
8030.0
 21
8415.0
 31
0.0
  0
LINE
  5
9520
  8
0
 10
7999.9999999999973
 20
6050.0
 30
0.0
 11
8000.0
 21
8385.0
 31
0.0
  0
INSERT
  5
9521
  8
0
  2
_ORIGIN
 10
7999.9999999999973
 20
6020.0
 30
0.0
 41
30.0
 42
30.0
 43
30.0
 50
270.0
  0
INSERT
  5
9522
  8
0
  2
_ORIGIN
 10
8000.0
 20
8415.0
 30
0.0
 41
30.0
 42
30.0
 43
30.0
 50
90.0
  0
INSERT
  5
9523
  8
0
  2
*U21
 10
0.0
 20
0.0
 30
0.0
  0
POINT
  5
9524
  8
DEFPOINTS
 62
     0
 10
7250.0
 20
6020.0
 30
0.0
  0
POINT
  5
9525
  8
DEFPOINTS
 62
     0
 10
7250.0
 20
8415.0
 30
0.0
  0
POINT
  5
9526
  8
DEFPOINTS
 62
     0
 10
8000.0
 20
8415.0
 30
0.0
  0
ENDBLK
  5
9494
  8
0
  0
BLOCK
  8
0
  2
*U21
 70
     1
 10
0.0
 20
0.0
 30
0.0
  3
*U21
  1

  0
TEXT
  5
961E
  8
0
 10
7969.9999999999973
 20
7131.5000000000009
 30
0.0
 40
105.0
  1
DH
 50
90.0
 41
0.8
  7
文字
  0
ENDBLK
  5
9620
  8
0
  0
BLOCK
  8
0
  2
*D22
 70
     1
 10
0.0
 20
0.0
 30
0.0
  3
*D22
  1

  0
LINE
  5
9527
  8
0
 10
7000.0
 20
9565.0
 30
0.0
 11
7000.0
 21
9595.0
 31
0.0
  0
LINE
  5
9528
  8
0
 10
7110.0
 20
9340.0
 30
0.0
 11
7110.0
 21
9595.0
 31
0.0
  0
LINE
  5
9529
  8
0
 10
6970.0
 20
9565.0
 30
0.0
 11
6940.0
 21
9565.0
 31
0.0
  0
LINE
  5
952A
  8
0
 10
7140.0
 20
9565.0
 30
0.0
 11
7170.0
 21
9565.0
 31
0.0
  0
LINE
  5
952B
  8
0
 10
7000.0
 20
9565.0
 30
0.0
 11
7110.0
 21
9565.0
 31
0.0
  0
INSERT
  5
952C
  8
0
  2
_ORIGIN
 10
7000.0
 20
9565.0
 30
0.0
 41
30.0
 42
30.0
 43
30.0
  0
INSERT
  5
952D
  8
0
  2
_ORIGIN
 10
7110.0
 20
9565.0
 30
0.0
 41
30.0
 42
30.0
 43
30.0
 50
180.0
  0
INSERT
  5
952E
  8
0
  2
*U23
 10
0.0
 20
0.0
 30
0.0
  0
POINT
  5
952F
  8
DEFPOINTS
 62
     0
 10
7000.0
 20
9415.0
 30
0.0
  0
POINT
  5
9530
  8
DEFPOINTS
 62
     0
 10
7110.0
 20
9190.0
 30
0.0
  0
POINT
  5
9531
  8
DEFPOINTS
 62
     0
 10
7110.0
 20
9565.0
 30
0.0
  0
ENDBLK
  5
94A0
  8
0
  0
BLOCK
  8
0
  2
*U23
 70
     1
 10
0.0
 20
0.0
 30
0.0
  3
*U23
  1

  0
TEXT
  5
9622
  8
0
 10
6929.0
 20
9595.0
 30
0.0
 40
105.0
  1
110
 41
0.8
  7
文字
  0
ENDBLK
  5
9624
  8
0
  0
BLOCK
  8
0
  2
*D24
 70
     1
 10
0.0
 20
0.0
 30
0.0
  3
*D24
  1

  0
LINE
  5
9532
  8
0
 10
5475.0
 20
2600.0000000000241
 30
0.0
 11
5475.0
 21
2220.0000000000241
 31
0.0
  0
LINE
  5
9533
  8
0
 10
8525.0
 20
2600.0000000000241
 30
0.0
 11
8525.0
 21
2220.0000000000241
 31
0.0
  0
LINE
  5
9534
  8
0
 10
5505.0
 20
2250.0000000000241
 30
0.0
 11
8495.0
 21
2250.0000000000241
 31
0.0
  0
INSERT
  5
9535
  8
0
  2
_ORIGIN
 10
5475.0
 20
2250.0000000000241
 30
0.0
 41
30.0
 42
30.0
 43
30.0
 50
180.0
  0
INSERT
  5
9536
  8
0
  2
_ORIGIN
 10
8525.0
 20
2250.0000000000241
 30
0.0
 41
30.0
 42
30.0
 43
30.0
  0
INSERT
  5
9537
  8
0
  2
*U25
 10
0.0
 20
0.0
 30
0.0
  0
POINT
  5
9538
  8
DEFPOINTS
 62
     0
 10
5475.0
 20
2750.0000000000241
 30
0.0
  0
POINT
  5
9539
  8
DEFPOINTS
 62
     0
 10
8525.0
 20
2750.0000000000241
 30
0.0
  0
POINT
  5
953A
  8
DEFPOINTS
 62
     0
 10
8525.0
 20
2250.0000000000241
 30
0.0
  0
ENDBLK
  5
94AE
  8
0
  0
BLOCK
  8
0
  2
*U25
 70
     1
 10
0.0
 20
0.0
 30
0.0
  3
*U25
  1

  0
TEXT
  5
9626
  8
0
 10
6906.0
 20
2280.0000000000241
 30
0.0
 40
105.0
  1
DW
 41
0.8
  7
文字
  0
ENDBLK
  5
9628
  8
0
  0
BLOCK
  8
0
  2
*D26
 70
     1
 10
0.0
 20
0.0
 30
0.0
  3
*D26
  1

  0
LINE
  5
953B
  8
0
 10
5500.0
 20
3500.0000000000259
 30
0.0
 11
5500.0
 21
3805.0000000000259
 31
0.0
  0
LINE
  5
953C
  8
0
 10
5350.0
 20
3500.0000000000259
 30
0.0
 11
5350.0
 21
3805.0000000000259
 31
0.0
  0
LINE
  5
953D
  8
0
 10
5530.0
 20
3775.0000000000259
 30
0.0
 11
5560.0
 21
3775.0000000000259
 31
0.0
  0
LINE
  5
953E
  8
0
 10
5320.0
 20
3775.0000000000259
 30
0.0
 11
5290.0
 21
3775.0000000000259
 31
0.0
  0
LINE
  5
953F
  8
0
 10
5500.0
 20
3775.0000000000259
 30
0.0
 11
5350.0
 21
3775.0000000000259
 31
0.0
  0
INSERT
  5
9540
  8
0
  2
_ORIGIN
 10
5500.0
 20
3775.0000000000259
 30
0.0
 41
30.0
 42
30.0
 43
30.0
 50
180.0
  0
INSERT
  5
9541
  8
0
  2
_ORIGIN
 10
5350.0
 20
3775.0000000000259
 30
0.0
 41
30.0
 42
30.0
 43
30.0
  0
INSERT
  5
9542
  8
0
  2
*U27
 10
0.0
 20
0.0
 30
0.0
  0
POINT
  5
9543
  8
DEFPOINTS
 62
     0
 10
5500.0
 20
3350.0000000000259
 30
0.0
  0
POINT
  5
9544
  8
DEFPOINTS
 62
     0
 10
5350.0
 20
3350.0000000000259
 30
0.0
  0
POINT
  5
9545
  8
DEFPOINTS
 62
     0
 10
5350.0
 20
3775.0000000000259
 30
0.0
  0
ENDBLK
  5
94BA
  8
0
  0
BLOCK
  8
0
  2
*U27
 70
     1
 10
0.0
 20
0.0
 30
0.0
  3
*U27
  1

  0
TEXT
  5
962A
  8
0
 10
5203.3999999999996
 20
3805.0000000000259
 30
0.0
 40
105.0
  1
150以上
 41
0.8
  7
文字
  0
ENDBLK
  5
962C
  8
0
  0
BLOCK
  8
0
  2
*D28
 70
     1
 10
0.0
 20
0.0
 30
0.0
  3
*D28
  1

  0
LINE
  5
9546
  8
0
 10
6928.1630286081981
 20
8756.6564976417376
 30
0.0
 11
6790.2360435359606
 21
9216.4131145477641
 31
0.0
  0
LINE
  5
9547
  8
0
 10
9557.3961815396488
 20
9545.42644352362
 30
0.0
 11
9419.4691964674148
 21
10005.18306042965
 31
0.0
  0
LINE
  5
9548
  8
0
 10
6827.5912686596021
 20
9196.2987625581518
 30
0.0
 11
9399.3548444778025
 21
9967.8278353060032
 31
0.0
  0
INSERT
  5
9549
  8
0
  2
_ORIGIN
 10
6798.8564801029761
 20
9187.6783259911408
 30
0.0
 41
30.0
 42
30.0
 43
30.0
 50
196.69924423404251
  0
INSERT
  5
954A
  8
0
  2
_ORIGIN
 10
9428.0896330344276
 20
9976.4482718730233
 30
0.0
 41
30.0
 42
30.0
 43
30.0
 50
16.699244234042531
  0
INSERT
  5
954B
  8
0
  2
*U29
 10
0.0
 20
0.0
 30
0.0
  0
POINT
  5
954C
  8
DEFPOINTS
 62
     0
 10
6971.2652114432731
 20
8612.9825548586014
 30
0.0
  0
POINT
  5
954D
  8
DEFPOINTS
 62
     0
 10
9600.4983643747237
 20
9401.7525007404838
 30
0.0
  0
POINT
  5
954E
  8
DEFPOINTS
 62
     0
 10
9428.0896330344276
 20
9976.4482718730233
 30
0.0
  0
ENDBLK
  5
94C8
  8
0
  0
BLOCK
  8
0
  2
*U29
 70
     1
 10
0.0
 20
0.0
 30
0.0
  3
*U29
  1

  0
TEXT
  5
962E
  8
0
 10
7855.8177858442514
 20
9536.0876372412422
 30
0.0
 40
105.0
  1
DH+350
 50
16.699244234042531
 41
0.8
  7
文字
  0
ENDBLK
  5
9630
  8
0
  0
BLOCK
  8
0
  2
*U30
 70
     1
 10
0.0
 20
0.0
 30
0.0
  3
*U30
  1

  0
INSERT
  5
95D1
  8
0
  2
_OPEN30
 10
7171.5570985969662
 20
8722.3079517539827
 30
0.0
 41
60.0
 42
60.0
 43
60.0
 50
104.9999999999997
  0
POLYLINE
  5
95D2
  8
0
 66
     1
 10
0.0
 20
0.0
 30
0.0
  0
VERTEX
  5
974F
  8
0
 10
7187.0862413031191
 20
8664.352402176637
 30
0.0
  0
VERTEX
  5
9750
  8
0
 10
7322.9095953884889
 20
8157.4527438756068
 30
0.0
  0
VERTEX
  5
9751
  8
0
 10
7903.9095953884898
 20
8157.4527438756068
 30
0.0
  0
SEQEND
  5
9752
  8
0
  0
ENDBLK
  5
95D8
  8
0
  0
BLOCK
  8
0
  2
*U31
 70
     1
 10
0.0
 20
0.0
 30
0.0
  3
*U31
  1

  0
INSERT
  5
95DA
  8
0
  2
_OPEN30
 10
7475.027254474966
 20
9055.7867727402481
 30
0.0
 41
60.0
 42
60.0
 43
60.0
 50
255.00000000000031
  0
POLYLINE
  5
95DB
  8
0
 66
     1
 10
0.0
 20
0.0
 30
0.0
  0
VERTEX
  5
9753
  8
0
 10
7490.5563971811198
 20
9113.7423223175883
 30
0.0
  0
VERTEX
  5
9754
  8
0
 10
7539.7320157505983
 20
9297.2682293125126
 30
0.0
  0
VERTEX
  5
9755
  8
0
 10
7930.3320157505932
 20
9297.2682293125126
 30
0.0
  0
SEQEND
  5
9756
  8
0
  0
ENDBLK
  5
95E1
  8
0
  0
BLOCK
  8
0
  2
*U32
 70
     1
 10
0.0
 20
0.0
 30
0.0
  3
*U32
  1

  0
INSERT
  5
95E3
  8
0
  2
_OPEN30
 10
7000.0
 20
2750.0000000000032
 30
0.0
 41
60.0
 42
60.0
 43
60.0
 50
104.9999999999997
  0
POLYLINE
  5
95E4
  8
0
 66
     1
 10
0.0
 20
0.0
 30
0.0
  0
VERTEX
  5
9757
  8
0
 10
7015.5291427061511
 20
2692.0444504226598
 30
0.0
  0
VERTEX
  5
9758
  8
0
 10
7064.7047612756278
 20
2508.5185434277369
 30
0.0
  0
VERTEX
  5
9759
  8
0
 10
7348.9047612756331
 20
2508.5185434277369
 30
0.0
  0
SEQEND
  5
975A
  8
0
  0
ENDBLK
  5
95EA
  8
0
  0
BLOCK
  8
0
  2
*U33
 70
     1
 10
0.0
 20
0.0
 30
0.0
  3
*U33
  1

  0
INSERT
  5
95EC
  8
0
  2
_OPEN30
 10
7016.0000000000073
 20
7171.0475088412213
 30
0.0
 41
60.0
 42
60.0
 43
60.0
 50
300.0
  0
POLYLINE
  5
95ED
  8
0
 66
     1
 10
0.0
 20
0.0
 30
0.0
  0
VERTEX
  5
975B
  8
0
 10
6986.0000000000073
 20
7223.009033068287
 30
0.0
  0
VERTEX
  5
975C
  8
0
 10
6885.4957445612672
 20
7397.0875098650658
 30
0.0
  0
VERTEX
  5
975D
  8
0
 10
6500.4957445612672
 20
7397.0875098650658
 30
0.0
  0
SEQEND
  5
975E
  8
0
  0
ENDBLK
  5
95F3
  8
0
  0
BLOCK
  8
0
  2
*U34
 70
     1
 10
0.0
 20
0.0
 30
0.0
  3
*U34
  1

  0
INSERT
  5
95F5
  8
0
  2
_OPEN30
 10
8417.4656705427333
 20
8887.1060030034241
 30
0.0
 41
60.0
 42
60.0
 43
60.0
 50
105.0000000000005
  0
POLYLINE
  5
95F6
  8
0
 66
     1
 10
0.0
 20
0.0
 30
0.0
  0
VERTEX
  5
975F
  8
0
 10
8432.9948132488826
 20
8829.1504534260803
 30
0.0
  0
VERTEX
  5
9760
  8
0
 10
8508.0523363286193
 20
8549.0319638022484
 30
0.0
  0
VERTEX
  5
9761
  8
0
 10
10096.252336328611
 20
8549.0319638022484
 30
0.0
  0
SEQEND
  5
9762
  8
0
  0
ENDBLK
  5
95FC
  8
0
  0
ENDSEC
  0
SECTION
  2
ENTITIES
  0
LINE
  5
6011
  8
0
 10
16380.0
 20
0.0
 30
0.0
 11
0.0
 21
0.0
 31
0.0
  0
LINE
  5
6012
  8
0
 10
0.0
 20
11745.0
 30
0.0
 11
16380.0
 21
11745.0
 31
0.0
  0
LINE
  5
6013
  8
0
 10
0.0
 20
11745.0
 30
0.0
 11
0.0
 21
0.0
 31
0.0
  0
LINE
  5
6014
  8
0
 10
16380.0
 20
11745.0
 30
0.0
 11
16380.0
 21
0.0
 31
0.0
  0
LINE
  5
92D6
  8
0
 10
10130.0
 20
400.0
 30
0.0
 11
10130.0
 21
0.0
 31
0.0
  0
TEXT
  5
92D7
  8
0
 10
10979.99999999996
 20
247.5
 30
0.0
 40
105.0
  1
オーバードア（電動直結式）
 11
10979.99999999996
 21
300.0
 31
0.0
 73
     2
  0
TEXT
  5
92D8
  8
0
 10
10229.99999999996
 20
247.5
 30
0.0
 40
105.0
  1
製品名称  :
 11
10229.99999999996
 21
300.0
 31
0.0
 73
     2
  0
LINE
  5
92D9
  8
0
 10
10130.0
 20
200.0
 30
0.0
 11
13880.0
 21
200.0
 31
0.0
  0
LINE
  5
92DA
  8
0
 10
13880.0
 20
400.0
 30
0.0
 11
13880.0
 21
0.0
 31
0.0
  0
TEXT
  5
92DB
  8
0
 10
13998.33333333333
 20
112.5
 30
0.0
 40
175.0
  1
東洋シヤッター株式会社
 72
     1
 11
15130.0
 21
200.0
 31
0.0
 73
     2
  0
LINE
  5
92DC
  8
0
 10
10130.0
 20
400.0
 30
0.0
 11
16380.0
 21
400.0
 31
0.0
  0
TEXT
  5
92DD
  8
0
 10
12979.99999999996
 20
47.5
 30
0.0
 40
105.0
  1
縮尺:1/30
 11
12979.99999999996
 21
100.0
 31
0.0
 73
     2
  0
LINE
  5
92DE
  8
0
 10
5474.9999999999936
 20
2932.5
 30
0.0
 11
8524.9999999999909
 21
2932.5
 31
0.0
  0
LINE
  5
92DF
  8
0
 10
8524.9999999999909
 20
2932.5
 30
0.0
 11
8524.9999999999909
 21
2984.0
 31
0.0
  0
LINE
  5
92E0
  8
0
 10
8524.9999999999909
 20
2984.0
 30
0.0
 11
5474.9999999999936
 21
2984.0
 31
0.0
  0
LINE
  5
92E1
  8
0
 10
5474.9999999999936
 20
2984.0
 30
0.0
 11
5474.9999999999936
 21
2932.5
 31
0.0
  0
ARC
  5
92E2
  8
0
 10
8577.2999999999865
 20
2997.6999999999971
 30
0.0
 40
2.299999999999998
 50
90.0
 51
180.0
  0
LINE
  5
92E3
  8
0
 10
8614.9999999999909
 20
2997.6999999999971
 30
0.0
 11
8614.9999999999909
 21
3000.0
 31
0.0
  0
LINE
  5
92E4
  8
0
 10
8577.2999999999865
 20
2997.6999999999971
 30
0.0
 11
8614.9999999999909
 21
2997.6999999999971
 31
0.0
  0
LINE
  5
92E5
  8
0
 10
8577.2999999999865
 20
2884.0
 30
0.0
 11
8577.2999999999865
 21
2997.6999999999971
 31
0.0
  0
LINE
  5
92E6
  8
0
 10
8574.9999999999927
 20
2884.0
 30
0.0
 11
8577.2999999999865
 21
2884.0
 31
0.0
  0
LINE
  5
92E7
  8
0
 10
8574.9999999999927
 20
2997.6999999999971
 30
0.0
 11
8574.9999999999927
 21
2884.0
 31
0.0
  0
LINE
  5
92E8
  8
0
 10
8614.9999999999909
 20
3000.0
 30
0.0
 11
8577.2999999999865
 21
3000.0
 31
0.0
  0
ARC
  5
92E9
  8
0
 10
8562.4999999999909
 20
2886.4999999999391
 30
0.0
 40
5.7499999999704414
 50
180.0
 51
0.0
  0
ARC
  5
92EA
  8
0
 10
8562.4999999999909
 20
2921.5
 30
0.0
 40
5.7499999999704414
 50
0.0
 51
180.0
  0
LINE
  5
92EB
  8
0
 10
8556.7500000000218
 20
2886.4999999999391
 30
0.0
 11
8556.7500000000218
 21
2921.5
 31
0.0
  0
LINE
  5
92EC
  8
0
 10
8568.2500000000218
 20
2921.5
 30
0.0
 11
8568.2500000000218
 21
2886.4999999999391
 31
0.0
  0
ARC
  5
92ED
  8
0
 10
8568.9999999999909
 20
2889.7190997647272
 30
0.0
 40
4.0
 50
329.99999999989421
 51
0.0
  0
ARC
  5
92EE
  8
0
 10
8568.9999999999909
 20
2889.719099764734
 30
0.0
 40
6.0
 50
329.99999999989421
 51
0.0
  0
ARC
  5
92EF
  8
0
 10
8569.9999999999909
 20
2925.5
 30
0.0
 40
3.0
 50
0.0
 51
90.0
  0
ARC
  5
92F0
  8
0
 10
8569.9999999999909
 20
2925.5
 30
0.0
 40
5.0
 50
0.0
 51
90.0
  0
LINE
  5
92F1
  8
0
 10
8551.5529946162005
 20
2887.4999999999968
 30
0.0
 11
8554.4397459621468
 21
2882.4999999999968
 31
0.0
  0
LINE
  5
92F2
  8
0
 10
8553.2850454237632
 20
2888.4999999999959
 30
0.0
 11
8551.5529946162005
 21
2887.4999999999968
 31
0.0
  0
LINE
  5
92F3
  8
0
 10
8556.1717967697077
 20
2883.4999999999968
 30
0.0
 11
8553.2850454237632
 21
2888.4999999999959
 31
0.0
  0
LINE
  5
92F4
  8
0
 10
8572.4641016151309
 20
2887.7190997647272
 30
0.0
 11
8570.0282032302348
 21
2883.5000000000182
 31
0.0
  0
LINE
  5
92F5
  8
0
 10
8574.1961524227008
 20
2886.719099764734
 30
0.0
 11
8571.760254037792
 21
2882.5
 31
0.0
  0
ARC
  5
92F6
  8
0
 10
8563.0999999999894
 20
2887.5
 30
0.0
 40
8.0
 50
210.0000000001059
 51
329.99999999989421
  0
ARC
  5
92F7
  8
0
 10
8563.0999999999894
 20
2887.5
 30
0.0
 40
10.0
 50
210.0000000001059
 51
329.99999999989421
  0
LINE
  5
92F8
  8
0
 10
8572.9999999999909
 20
2925.5
 30
0.0
 11
8572.9999999999909
 21
2889.7190997647272
 31
0.0
  0
LINE
  5
92F9
  8
0
 10
8549.9999999999909
 20
2928.5
 30
0.0
 11
8569.9999999999909
 21
2928.5
 31
0.0
  0
LINE
  5
92FA
  8
0
 10
8549.9999999999909
 20
2930.5
 30
0.0
 11
8549.9999999999909
 21
2928.5
 31
0.0
  0
LINE
  5
92FB
  8
0
 10
8569.9999999999909
 20
2930.5
 30
0.0
 11
8549.9999999999909
 21
2930.5
 31
0.0
  0
LINE
  5
92FC
  8
0
 10
8574.9999999999927
 20
2889.719099764734
 30
0.0
 11
8574.9999999999927
 21
2925.5
 31
0.0
  0
LINE
  5
92FD
  8
0
 10
8515.6999999999898
 20
2882.5
 30
0.0
 11
8517.9999999999909
 21
2882.5
 31
0.0
  0
LINE
  5
92FE
  8
0
 10
8451.9999999999909
 20
2882.5
 30
0.0
 11
8454.2999999999865
 21
2882.5
 31
0.0
  0
LINE
  5
92FF
  8
0
 10
8428.2500000000236
 20
2897.5
 30
0.0
 11
8556.7500000000218
 21
2897.5
 31
0.0
  0
LINE
  5
9300
  8
0
 10
8428.2500000000236
 20
2910.5
 30
0.0
 11
8428.2500000000236
 21
2897.5
 31
0.0
  0
LINE
  5
9301
  8
0
 10
8556.7500000000218
 20
2910.5
 30
0.0
 11
8428.2500000000236
 21
2910.5
 31
0.0
  0
LINE
  5
9302
  8
0
 10
8515.6999999999898
 20
2930.1999999999971
 30
0.0
 11
8515.6999999999898
 21
2882.5
 31
0.0
  0
LINE
  5
9303
  8
0
 10
8454.2999999999865
 20
2930.1999999999971
 30
0.0
 11
8515.6999999999898
 21
2930.1999999999971
 31
0.0
  0
LINE
  5
9304
  8
0
 10
8454.2999999999865
 20
2882.5
 30
0.0
 11
8454.2999999999865
 21
2930.1999999999971
 31
0.0
  0
LINE
  5
9305
  8
0
 10
8451.9999999999909
 20
2932.5
 30
0.0
 11
8451.9999999999909
 21
2882.5
 31
0.0
  0
LINE
  5
9306
  8
0
 10
8517.9999999999909
 20
2932.5
 30
0.0
 11
8451.9999999999909
 21
2932.5
 31
0.0
  0
LINE
  5
9307
  8
0
 10
8517.9999999999909
 20
2882.5
 30
0.0
 11
8517.9999999999909
 21
2932.5
 31
0.0
  0
LINE
  5
9308
  8
0
  6
PHANTOM2
 10
8624.9999999999782
 20
2999.9999999999891
 30
0.0
 11
8624.9999999999782
 21
1500.0000000000221
 31
0.0
  0
LINE
  5
9309
  8
0
  6
PHANTOM2
 10
8624.9999999999782
 20
1250.0000000000221
 30
0.0
 11
8549.9999999999782
 21
1250.0000000000221
 31
0.0
  0
LINE
  5
930A
  8
0
  6
PHANTOM2
 10
8549.9999999999782
 20
1250.0000000000221
 30
0.0
 11
8549.9999999999782
 21
1450.0000000000221
 31
0.0
  0
LINE
  5
930B
  8
0
  6
PHANTOM2
 10
8574.9999999999782
 20
1250.0000000000221
 30
0.0
 11
8574.9999999999782
 21
1450.0000000000221
 31
0.0
  0
ARC
  5
930C
  8
0
 10
5422.699999999998
 20
2997.7000000000012
 30
0.0
 40
2.299999999999998
 50
0.0
 51
90.0
  0
LINE
  5
930D
  8
0
 10
5384.9999999999936
 20
2997.7000000000012
 30
0.0
 11
5384.9999999999936
 21
3000.0
 31
0.0
  0
LINE
  5
930E
  8
0
 10
5422.699999999998
 20
2997.7000000000012
 30
0.0
 11
5384.9999999999936
 21
2997.7000000000012
 31
0.0
  0
LINE
  5
930F
  8
0
 10
5422.699999999998
 20
2884.0
 30
0.0
 11
5422.699999999998
 21
2997.7000000000012
 31
0.0
  0
LINE
  5
9310
  8
0
 10
5424.9999999999927
 20
2884.0
 30
0.0
 11
5422.699999999998
 21
2884.0
 31
0.0
  0
LINE
  5
9311
  8
0
 10
5424.9999999999927
 20
2997.7000000000012
 30
0.0
 11
5424.9999999999927
 21
2884.0
 31
0.0
  0
LINE
  5
9312
  8
0
 10
5384.9999999999936
 20
3000.0
 30
0.0
 11
5422.699999999998
 21
3000.0
 31
0.0
  0
ARC
  5
9313
  8
0
 10
5437.4999999999918
 20
2886.4999999999409
 30
0.0
 40
5.7499999999704414
 50
180.0
 51
0.0
  0
ARC
  5
9314
  8
0
 10
5437.4999999999918
 20
2921.5
 30
0.0
 40
5.7499999999704414
 50
0.0
 51
180.0
  0
LINE
  5
9315
  8
0
 10
5443.2499999999618
 20
2886.4999999999409
 30
0.0
 11
5443.2499999999618
 21
2921.5
 31
0.0
  0
LINE
  5
9316
  8
0
 10
5431.7499999999636
 20
2921.5
 30
0.0
 11
5431.7499999999636
 21
2886.4999999999409
 31
0.0
  0
ARC
  5
9317
  8
0
 10
5430.9999999999927
 20
2889.7190997647272
 30
0.0
 40
4.0
 50
180.0
 51
210.0000000001059
  0
ARC
  5
9318
  8
0
 10
5430.9999999999927
 20
2889.719099764734
 30
0.0
 40
6.0
 50
180.0
 51
210.0000000001059
  0
ARC
  5
9319
  8
0
 10
5429.9999999999918
 20
2925.5
 30
0.0
 40
3.0
 50
90.0
 51
180.0
  0
ARC
  5
931A
  8
0
 10
5429.9999999999918
 20
2925.5
 30
0.0
 40
5.0
 50
90.0
 51
180.0
  0
LINE
  5
931B
  8
0
 10
5448.4470053837858
 20
2887.5
 30
0.0
 11
5445.5602540378386
 21
2882.5
 31
0.0
  0
LINE
  5
931C
  8
0
 10
5446.7149545762222
 20
2888.4999999999959
 30
0.0
 11
5448.4470053837858
 21
2887.5
 31
0.0
  0
LINE
  5
931D
  8
0
 10
5443.828203230275
 20
2883.4999999999968
 30
0.0
 11
5446.7149545762222
 21
2888.4999999999959
 31
0.0
  0
LINE
  5
931E
  8
0
 10
5427.5358983848564
 20
2887.7190997647272
 30
0.0
 11
5429.9717967697507
 21
2883.5000000000182
 31
0.0
  0
LINE
  5
931F
  8
0
 10
5425.8038475772837
 20
2886.719099764734
 30
0.0
 11
5428.2397459621943
 21
2882.5
 31
0.0
  0
ARC
  5
9320
  8
0
 10
5436.8999999999942
 20
2887.5
 30
0.0
 40
8.0
 50
210.0000000001059
 51
329.99999999989421
  0
ARC
  5
9321
  8
0
 10
5436.8999999999942
 20
2887.5
 30
0.0
 40
10.0
 50
210.0000000001059
 51
329.99999999989421
  0
LINE
  5
9322
  8
0
 10
5426.9999999999918
 20
2925.5
 30
0.0
 11
5426.9999999999918
 21
2889.7190997647272
 31
0.0
  0
LINE
  5
9323
  8
0
 10
5449.9999999999927
 20
2928.5
 30
0.0
 11
5429.9999999999918
 21
2928.5
 31
0.0
  0
LINE
  5
9324
  8
0
 10
5449.9999999999927
 20
2930.5
 30
0.0
 11
5449.9999999999927
 21
2928.5
 31
0.0
  0
LINE
  5
9325
  8
0
 10
5429.9999999999918
 20
2930.5
 30
0.0
 11
5449.9999999999927
 21
2930.5
 31
0.0
  0
LINE
  5
9326
  8
0
 10
5424.9999999999927
 20
2889.719099764734
 30
0.0
 11
5424.9999999999927
 21
2925.5
 31
0.0
  0
LINE
  5
9327
  8
0
 10
5484.2999999999902
 20
2882.5
 30
0.0
 11
5481.9999999999927
 21
2882.5
 31
0.0
  0
LINE
  5
9328
  8
0
 10
5547.9999999999918
 20
2882.5
 30
0.0
 11
5545.699999999998
 21
2882.5
 31
0.0
  0
LINE
  5
9329
  8
0
 10
5571.7499999999654
 20
2897.5
 30
0.0
 11
5443.2499999999618
 21
2897.5
 31
0.0
  0
LINE
  5
932A
  8
0
 10
5571.7499999999654
 20
2910.5
 30
0.0
 11
5571.7499999999654
 21
2897.5
 31
0.0
  0
LINE
  5
932B
  8
0
 10
5443.2499999999618
 20
2910.5
 30
0.0
 11
5571.7499999999654
 21
2910.5
 31
0.0
  0
LINE
  5
932C
  8
0
 10
5484.2999999999902
 20
2930.2000000000012
 30
0.0
 11
5484.2999999999902
 21
2882.5
 31
0.0
  0
LINE
  5
932D
  8
0
 10
5545.699999999998
 20
2930.2000000000012
 30
0.0
 11
5484.2999999999902
 21
2930.2000000000012
 31
0.0
  0
LINE
  5
932E
  8
0
 10
5545.699999999998
 20
2882.5
 30
0.0
 11
5545.699999999998
 21
2930.2000000000012
 31
0.0
  0
LINE
  5
932F
  8
0
 10
5547.9999999999918
 20
2932.5
 30
0.0
 11
5547.9999999999918
 21
2882.5
 31
0.0
  0
LINE
  5
9330
  8
0
 10
5481.9999999999927
 20
2932.5
 30
0.0
 11
5547.9999999999918
 21
2932.5
 31
0.0
  0
LINE
  5
9331
  8
0
 10
5481.9999999999927
 20
2882.5
 30
0.0
 11
5481.9999999999927
 21
2932.5
 31
0.0
  0
LINE
  5
9332
  8
0
  6
PHANTOM2
 10
5375.0000000000073
 20
2999.9999999999891
 30
0.0
 11
5375.0000000000073
 21
1500.0000000000221
 31
0.0
  0
LINE
  5
9333
  8
0
  6
PHANTOM2
 10
5375.0000000000073
 20
1250.0000000000221
 30
0.0
 11
5450.0000000000064
 21
1250.0000000000221
 31
0.0
  0
LINE
  5
9334
  8
0
  6
PHANTOM2
 10
5450.0000000000064
 20
1250.0000000000221
 30
0.0
 11
5450.0000000000064
 21
1450.0000000000221
 31
0.0
  0
LINE
  5
9335
  8
0
  6
PHANTOM2
 10
5425.0000000000064
 20
1250.0000000000221
 30
0.0
 11
5425.0
 21
1450.0000000000221
 31
0.0
  0
DIMENSION
  5
9336
  8
0
  2
*D12
 10
8500.0
 20
4000.0000000000241
 30
0.0
 11
7000.0
 21
4082.5000000000259
 31
0.0
  1
W
 13
5500.0
 23
3350.0000000000259
 33
0.0
 14
8500.0
 24
3350.0000000000259
 34
0.0
1001
ACAD
1000
DSTYLE
1002
{
1070
    41
1040
1.0
1002
}
  0
LINE
  5
9337
  8
0
 10
7016.0000000000073
 20
8414.9999999999709
 30
0.0
 11
7067.5000000000064
 21
8414.9999999999709
 31
0.0
  0
LINE
  5
9338
  8
0
 10
7067.5000000000064
 20
8414.9999999999709
 30
0.0
 11
7067.5000000000064
 21
6019.9999999999691
 31
0.0
  0
LINE
  5
9339
  8
0
 10
7067.5000000000064
 20
6019.9999999999691
 30
0.0
 11
7016.0000000000073
 21
6019.9999999999691
 31
0.0
  0
LINE
  5
933A
  8
0
 10
7016.0000000000073
 20
6019.9999999999691
 30
0.0
 11
7016.0000000000073
 21
8414.9999999999709
 31
0.0
  0
LINE
  5
933B
  8
0
 10
5250.0
 20
6000.0
 30
0.0
 11
11745.0
 21
6000.0
 31
0.0
  0
LINE
  5
933C
  8
0
 10
7104.0
 20
6000.0
 30
0.0
 11
7135.8198617225571
 21
8205.0000000000036
 31
0.0
  0
LINE
  5
933D
  8
0
  6
HIDDEN
 10
7050.9963323068368
 20
6000.0
 30
0.0
 11
7067.5000000000064
 21
7402.8117537458647
 31
0.0
  0
DIMENSION
  5
933E
  8
0
  2
*D14
 10
5750.0
 20
6000.0
 30
0.0
 11
5667.4999999999991
 21
7150.0000000000027
 31
0.0
  1
H
 13
6650.0
 23
8300.0
 33
0.0
 14
5900.0
 24
6000.0
 34
0.0
 50
90.0
1001
ACAD
1000
DSTYLE
1002
{
1070
    41
1040
1.0
1002
}
  0
DIMENSION
  5
933F
  8
0
  2
*D16
 10
5750.0
 20
9090.0
 30
0.0
 11
5667.4999999999991
 21
8695.0000000000018
 31
0.0
  1
HR=790以上
 13
6650.0
 23
8300.0
 33
0.0
 14
6650.0
 24
9090.0
 34
0.0
 50
90.0
1001
ACAD
1000
DSTYLE
1002
{
1070
    41
1040
1.0
1002
}
  0
DIMENSION
  5
9340
  8
0
  2
*D18
 10
5975.0
 20
8790.0
 30
0.0
 11
5892.4999999999991
 21
8545.0000000000018
 31
0.0
  1
h=490
 13
6650.0
 23
8300.0
 33
0.0
 14
6650.0
 24
8790.0
 34
0.0
 50
90.0
1001
ACAD
1000
DSTYLE
1002
{
1070
    41
1040
1.0
1002
}
  0
LINE
  5
9341
  8
0
 10
7136.0
 20
8557.9999263366371
 30
0.0
 11
7136.0
 21
8417.9626215376084
 31
0.0
  0
LINE
  5
9342
  8
0
 10
7067.5000000000064
 20
7402.8117537458647
 30
0.0
 11
7082.8198617225416
 21
8205.0
 31
0.0
  0
DIMENSION
  5
9343
  8
0
  2
*D20
 10
8000.0
 20
8415.0
 30
0.0
 11
7917.4999999999964
 21
7217.5000000000018
 31
0.0
  1
DH
 13
7250.0
 23
6020.0
 33
0.0
 14
7250.0
 24
8415.0
 34
0.0
 50
90.0
1001
ACAD
1000
DSTYLE
1002
{
1070
    41
1040
1.0
1002
}
  0
DIMENSION
  5
9344
  8
0
  2
*D22
 10
7110.0
 20
9565.0
 30
0.0
 11
7055.0
 21
9647.5
 31
0.0
 13
7000.0
 23
9415.0
 33
0.0
 14
7110.0
 24
9190.0
 34
0.0
1001
ACAD
1000
DSTYLE
1002
{
1070
    41
1040
1.0
1002
}
  0
LINE
  5
9345
  8
0
 10
5500.0
 20
1500.0000000000221
 30
0.0
 11
5325.0
 21
1500.0000000000221
 31
0.0
  0
LINE
  5
9346
  8
0
 10
5500.0
 20
1450.0000000000221
 30
0.0
 11
5325.0
 21
1450.0000000000221
 31
0.0
  0
LINE
  5
9347
  8
0
  6
PHANTOM2
 10
5375.0000000000073
 20
1450.0000000000221
 30
0.0
 11
5375.0000000000073
 21
1250.0000000000221
 31
0.0
  0
LINE
  5
9348
  8
0
  6
PHANTOM2
 10
5425.0
 20
1500.0000000000221
 30
0.0
 11
5424.9999999999927
 21
2889.719099764734
 31
0.0
  0
LINE
  5
9349
  8
0
  6
PHANTOM2
 10
5450.0000000000064
 20
1500.0000000000221
 30
0.0
 11
5450.0000000000064
 21
2889.719099764734
 31
0.0
  0
LINE
  5
934A
  8
0
 10
8674.9999999999727
 20
1500.0000000000221
 30
0.0
 11
8499.9999999999709
 21
1500.0000000000221
 31
0.0
  0
LINE
  5
934B
  8
0
 10
8674.9999999999727
 20
1450.0000000000221
 30
0.0
 11
8499.9999999999709
 21
1450.0000000000221
 31
0.0
  0
LINE
  5
934C
  8
0
  6
PHANTOM2
 10
8624.9999999999782
 20
1450.0000000000221
 30
0.0
 11
8624.9999999999782
 21
1250.0000000000221
 31
0.0
  0
LINE
  5
934D
  8
0
  6
PHANTOM2
 10
8549.9999999999782
 20
1500.0000000000221
 30
0.0
 11
8549.9999999999782
 21
2889.719099764734
 31
0.0
  0
LINE
  5
934E
  8
0
  6
PHANTOM2
 10
8574.9999999999782
 20
1500.0000000000221
 30
0.0
 11
8574.9999999999927
 21
2889.719099764734
 31
0.0
  0
DIMENSION
  5
934F
  8
0
  2
*D24
 10
8525.0
 20
2250.0000000000241
 30
0.0
 11
7000.0
 21
2332.5000000000241
 31
0.0
  1
DW
 13
5475.0
 23
2750.0000000000241
 33
0.0
 14
8525.0
 24
2750.0000000000241
 34
0.0
1001
ACAD
1000
DSTYLE
1002
{
1070
    41
1040
1.0
1002
}
  0
LINE
  5
9350
  8
0
 10
7092.9992387806633
 20
6000.0
 30
0.0
 11
7124.8198617225562
 21
8205.0
 31
0.0
  0
DIMENSION
  5
9351
  8
0
  2
*D26
 10
5350.0
 20
3775.0000000000259
 30
0.0
 11
5425.0
 21
3857.5000000000259
 31
0.0
  1
150以上
 13
5500.0
 23
3350.0000000000259
 33
0.0
 14
5350.0
 24
3350.0000000000259
 34
0.0
1001
ACAD
1000
DSTYLE
1002
{
1070
    41
1040
1.0
1002
}
  0
LINE
  5
9352
  8
0
 10
9644.462590866513
 20
9255.2050791016918
 30
0.0
 11
9629.2331529314397
 21
9305.9698722183948
 31
0.0
  0
LINE
  5
9353
  8
0
 10
7417.7198807544337
 20
8598.6666032257926
 30
0.0
 11
9641.3017641252663
 21
9265.7411682391157
 31
0.0
  0
LINE
  5
9354
  8
0
 10
7420.8807074956712
 20
8588.1305140883705
 30
0.0
 11
9644.462590866513
 21
9255.2050791016918
 31
0.0
  0
ARC
  5
9355
  8
0
 10
7535.8198617225407
 20
8205.0000000000055
 30
0.0
 40
399.9999999999855
 50
106.6992442341607
 51
180.0
  0
ARC
  5
9356
  8
0
 10
7535.8198617225407
 20
8205.0000000000055
 30
0.0
 40
453.0
 50
106.6992442341607
 51
180.0
  0
ARC
  5
9357
  8
0
 10
7535.8198617225407
 20
8205.0000000000055
 30
0.0
 40
410.99999999998528
 50
106.6992442341607
 51
180.0
  0
LINE
  5
9358
  8
0
 10
7405.651269560607
 20
8638.8953072050826
 30
0.0
 11
7136.0
 21
8557.999926336639
 31
0.0
  0
LINE
  5
9359
  8
0
  6
HIDDEN
 10
7000.0
 20
8517.1999263365142
 30
0.0
 11
7014.3673942783653
 21
8469.3086120754597
 31
0.0
  0
LINE
  5
935A
  8
0
  6
HIDDEN
 10
7014.3673942783653
 20
8469.3086120754597
 30
0.0
 11
7136.0
 21
8505.7983937920653
 31
0.0
  0
LINE
  5
935B
  8
0
 10
7136.0
 20
8557.999926336639
 30
0.0
 11
7000.0
 21
8557.9999263366371
 31
0.0
  0
LINE
  5
935C
  8
0
 10
7136.0
 20
8505.7983937920653
 30
0.0
 11
7221.8620211396783
 21
8531.5570001340529
 31
0.0
  0
LINE
  5
935D
  8
0
  6
HIDDEN
 10
7136.0
 20
8557.9999263366426
 30
0.0
 11
7000.0
 21
8517.1999263365142
 31
0.0
  0
DIMENSION
  5
935E
  8
0
  2
*D28
 10
9428.0896330344276
 20
9976.4482718730233
 30
0.0
 11
8089.7668560094098
 21
9661.0839674628041
 31
0.0
 70
     1
  1
DH+350
 13
6971.2652114432713
 23
8612.9825548586014
 33
0.0
 14
9600.4983643747237
 24
9401.7525007404838
 34
0.0
1001
ACAD
1000
DSTYLE
1002
{
1070
    41
1040
1.0
1002
}
  0
LINE
  5
935F
  8
0
 10
9629.2331529314397
 20
9305.9698722183948
 30
0.0
 11
7405.651269560607
 21
8638.8953072050754
 31
0.0
  0
LINE
  5
9360
  8
0
 10
7000.0
 20
8875.0
 30
0.0
 11
7000.0
 21
8705.0
 31
0.0
  0
LINE
  5
9361
  8
0
 10
7000.0
 20
8705.0
 30
0.0
 11
7190.0
 21
8705.0
 31
0.0
  0
LINE
  5
9362
  8
0
 10
7210.0
 20
8725.0
 30
0.0
 11
7210.0
 21
8772.4999999999836
 31
0.0
  0
LINE
  5
9363
  8
0
 10
7190.0
 20
8875.0
 30
0.0
 11
7000.0
 21
8875.0
 31
0.0
  0
LINE
  5
9364
  8
0
 10
7190.0
 20
8875.0
 30
0.0
 11
7210.0
 21
8855.0
 31
0.0
  0
LINE
  5
9365
  8
0
 10
7210.0
 20
8725.0
 30
0.0
 11
7190.0
 21
8705.0
 31
0.0
  0
LINE
  5
9366
  8
0
 10
7003.1999999999962
 20
8875.0
 30
0.0
 11
7003.1999999999962
 21
8705.0
 31
0.0
  0
LINE
  5
9367
  8
0
 10
7187.0373286141257
 20
8807.4999999999873
 30
0.0
 11
7210.0
 21
8807.4999999999873
 31
0.0
  0
LINE
  5
9368
  8
0
 10
7210.0
 20
8772.4999999999836
 30
0.0
 11
7187.0373286141203
 21
8772.4999999999836
 31
0.0
  0
LINE
  5
9369
  8
0
 10
7210.0
 20
8807.4999999999873
 30
0.0
 11
7210.0
 21
8855.0
 31
0.0
  0
CIRCLE
  5
936A
  8
0
 10
7110.0
 20
8790.0
 30
0.0
 40
79.0
  0
LINE
  5
936B
  8
0
  6
CENTER2
 10
7110.0
 20
8890.0
 30
0.0
 11
7110.0
 21
8690.0
 31
0.0
  0
LINE
  5
936C
  8
0
  6
CENTER2
 10
7009.0
 20
8789.9999999999836
 30
0.0
 11
7210.0
 21
8789.9999999999836
 31
0.0
  0
TEXT
  5
936D
  8
0
 10
7375.4095953884889
 20
8187.4527438756058
 30
0.0
 40
105.0
  1
巻取ドラム
 41
0.8
  7
横文字
 72
     1
 11
7613.4095953884889
 21
8187.4527438756058
 31
0.0
  0
INSERT
  5
936E
  8
0
  2
*U30
 10
0.0
 20
0.0
 30
0.0
  0
LINE
  5
936F
  8
0
 10
7310.0000000000218
 20
8900.0
 30
0.0
 11
7510.0000000000218
 21
8900.0
 31
0.0
  0
LINE
  5
9370
  8
0
 10
7515.00000000002
 20
8905.0
 30
0.0
 11
7515.00000000002
 21
9090.0
 31
0.0
  0
LINE
  5
9371
  8
0
 10
7515.00000000002
 20
9090.0
 30
0.0
 11
7305.0000000000218
 21
9090.0
 31
0.0
  0
LINE
  5
9372
  8
0
 10
7305.0000000000218
 20
9090.0
 30
0.0
 11
7305.0000000000218
 21
8905.0
 31
0.0
  0
LINE
  5
9373
  8
0
 10
7305.0000000000218
 20
8905.0
 30
0.0
 11
7310.0000000000218
 21
8900.0
 31
0.0
  0
LINE
  5
9374
  8
0
 10
7510.0000000000218
 20
8900.0
 30
0.0
 11
7515.00000000002
 21
8905.0
 31
0.0
  0
CIRCLE
  5
9375
  8
0
 10
7410.0000000000218
 20
8970.0000000000218
 30
0.0
 40
52.0
  0
LINE
  5
9376
  8
0
 10
7410.0
 20
9030.00000000002
 30
0.0
 11
7410.0000000000418
 21
8910.0000000000236
 31
0.0
  0
LINE
  5
9377
  8
0
 10
7470.0000000000209
 20
8970.0000000000218
 30
0.0
 11
7350.0000000000209
 21
8970.0000000000218
 31
0.0
  0
TEXT
  5
9378
  8
0
 10
7592.2320157505983
 20
9327.2682293125126
 30
0.0
 40
105.0
  1
開閉機
 41
0.8
  7
横文字
 72
     1
 11
7735.0320157505994
 21
9327.2682293125126
 31
0.0
  0
INSERT
  5
9379
  8
0
  2
*U31
 10
0.0
 20
0.0
 30
0.0
  0
CIRCLE
  5
937A
  8
0
 10
7110.0
 20
8789.9999999999836
 30
0.0
 40
48.0
  0
LINE
  5
937B
  8
0
  6
HIDDEN
 10
7436.2422266905141
 20
8925.1073999603177
 30
0.0
 11
7134.2235938681479
 21
8748.5606768864091
 31
0.0
  0
LINE
  5
937C
  8
0
  6
HIDDEN
 10
7382.7381654663914
 20
9014.2808353338405
 30
0.0
 11
7084.8352296612647
 21
8830.8746172312021
 31
0.0
  0
LINE
  5
937D
  8
0
  6
PHANTOM2
 10
8588.0
 20
2527.50000000002
 30
0.0
 11
8848.0
 21
2527.50000000002
 31
0.0
  0
LINE
  5
937E
  8
0
  6
PHANTOM2
 10
8588.0
 20
2652.50000000002
 30
0.0
 11
8848.0
 21
2652.50000000002
 31
0.0
  0
LINE
  5
937F
  8
0
  6
PHANTOM2
 10
8848.0
 20
2652.50000000002
 30
0.0
 11
8848.0
 21
2527.50000000002
 31
0.0
  0
LINE
  5
9380
  8
0
  6
PHANTOM2
 10
8398.0
 20
2695.0000000000568
 30
0.0
 11
8588.0
 21
2695.0000000000568
 31
0.0
  0
LINE
  5
9381
  8
0
  6
PHANTOM2
 10
8588.0
 20
2695.0000000000568
 30
0.0
 11
8588.0
 21
2485.0000000000559
 31
0.0
  0
LINE
  5
9382
  8
0
  6
PHANTOM2
 10
8588.0
 20
2485.0000000000559
 30
0.0
 11
8398.0
 21
2485.0000000000559
 31
0.0
  0
LINE
  5
9383
  8
0
  6
PHANTOM2
 10
8398.0
 20
2485.0000000000559
 30
0.0
 11
8398.0
 21
2695.0000000000568
 31
0.0
  0
LINE
  5
9384
  8
0
  6
PHANTOM2
 10
8366.4000000000033
 20
2642.0000000000559
 30
0.0
 11
8366.4000000000033
 21
2538.0000000000568
 31
0.0
  0
LINE
  5
9385
  8
0
  6
PHANTOM2
 10
8366.4000000000033
 20
2538.0000000000568
 30
0.0
 11
8373.5999999999967
 21
2538.0000000000568
 31
0.0
  0
LINE
  5
9386
  8
0
  6
PHANTOM2
 10
8373.5999999999967
 20
2538.0000000000568
 30
0.0
 11
8373.5999999999967
 21
2642.0000000000559
 31
0.0
  0
LINE
  5
9387
  8
0
  6
PHANTOM2
 10
8373.5999999999967
 20
2642.0000000000559
 30
0.0
 11
8366.4000000000033
 21
2642.0000000000559
 31
0.0
  0
LINE
  5
9388
  8
0
  6
PHANTOM2
 10
8398.0
 20
2621.5000000000568
 30
0.0
 11
8373.5999999999967
 21
2621.5000000000568
 31
0.0
  0
LINE
  5
9389
  8
0
  6
PHANTOM2
 10
8398.0
 20
2558.5000000000568
 30
0.0
 11
8373.5999999999967
 21
2558.5000000000568
 31
0.0
  0
LINE
  5
938A
  8
0
  6
PHANTOM2
 10
8798.0
 20
2652.50000000002
 30
0.0
 11
8798.0
 21
2527.50000000002
 31
0.0
  0
LINE
  5
938B
  8
0
  6
CENTER2
 10
8298.0
 20
2590.00000000002
 30
0.0
 11
8948.0
 21
2590.00000000002
 31
0.0
  0
LINE
  5
938C
  8
0
  6
PHANTOM2
 10
4500.0
 20
3150.0
 30
0.0
 11
5500.0
 21
3150.0
 31
0.0
  0
LINE
  5
938D
  8
0
  6
PHANTOM2
 10
5500.0
 20
3150.0
 30
0.0
 11
5500.0
 21
3000.0
 31
0.0
  0
LINE
  5
938E
  8
0
  6
PHANTOM2
 10
5500.0
 20
3000.0
 30
0.0
 11
4500.0
 21
3000.0
 31
0.0
  0
LINE
  5
938F
  8
0
  6
PHANTOM2
 10
9500.0
 20
3150.0
 30
0.0
 11
8500.0
 21
3150.0
 31
0.0
  0
LINE
  5
9390
  8
0
  6
PHANTOM2
 10
8500.0
 20
3150.0
 30
0.0
 11
8500.0
 21
3000.0
 31
0.0
  0
LINE
  5
9391
  8
0
  6
PHANTOM2
 10
8500.0
 20
3000.0
 30
0.0
 11
9500.0
 21
3000.0
 31
0.0
  0
LINE
  5
9392
  8
0
  6
PHANTOM2
 10
6850.0
 20
10278.248271873021
 30
0.0
 11
6850.0
 21
8300.0
 31
0.0
  0
LINE
  5
9393
  8
0
  6
PHANTOM2
 10
6850.0
 20
8300.0
 30
0.0
 11
7000.0
 21
8300.0
 31
0.0
  0
LINE
  5
9394
  8
0
  6
PHANTOM2
 10
7000.0
 20
8300.0
 30
0.0
 11
7000.0
 21
10278.248271873021
 31
0.0
  0
DIMENSION
  5
9395
  8
0
  2
*D4
 10
8900.0
 20
3775.0000000000259
 30
0.0
 11
8700.0
 21
3857.5000000000259
 31
0.0
  1
400以上
 13
8500.0
 23
3350.0000000000259
 33
0.0
 14
8900.0
 24
3350.0000000000259
 34
0.0
1001
ACAD
1000
DSTYLE
1002
{
1070
    41
1040
1.0
1002
}
  0
LINE
  5
9396
  8
0
 10
7350.4995320000207
 20
8831.0
 30
0.0
 11
7469.4995320000207
 21
8831.0
 31
0.0
  0
LINE
  5
9397
  8
0
 10
7348.9995320000207
 20
8832.5000000000018
 30
0.0
 11
7348.9995320000207
 21
8844.0
 31
0.0
  0
LINE
  5
9398
  8
0
 10
7470.9995320000207
 20
8832.5000000000018
 30
0.0
 11
7470.9995320000207
 21
8844.0
 31
0.0
  0
LINE
  5
9399
  8
0
 10
7349.9996111470828
 20
8844.0
 30
0.0
 11
7348.9995320000207
 21
8844.0
 31
0.0
  0
LINE
  5
939A
  8
0
 10
7470.9995320000207
 20
8844.0
 30
0.0
 11
7469.9995320000244
 21
8844.0
 31
0.0
  0
ARC
  5
939B
  8
0
 10
7469.4995320000207
 20
8832.5000000000018
 30
0.0
 40
1.5
 50
270.00000255881957
 51
359.99999795290262
  0
ARC
  5
939C
  8
0
 10
7350.4995320000207
 20
8832.5000000000018
 30
0.0
 40
1.5
 50
180.00000102344441
 51
270.00000255881957
  0
LINE
  5
939D
  8
0
 10
7469.9999965588431
 20
8900.0
 30
0.0
 11
7469.9996111470819
 21
8844.0
 31
0.0
  0
LINE
  5
939E
  8
0
 10
7349.9999965588422
 20
8900.0
 30
0.0
 11
7349.9996111470828
 21
8844.0
 31
0.0
  0
LINE
  5
939F
  8
0
 10
8532.5000000000455
 20
2780.0000000000259
 30
0.0
 11
8532.5000000000455
 21
2722.3000000000252
 31
0.0
  0
LINE
  5
93A0
  8
0
 10
8534.8000000000466
 20
2720.000000000025
 30
0.0
 11
8595.2000000000407
 21
2720.000000000025
 31
0.0
  0
LINE
  5
93A1
  8
0
 10
8597.5000000000418
 20
2722.3000000000252
 30
0.0
 11
8597.5000000000418
 21
2780.0000000000259
 31
0.0
  0
LINE
  5
93A2
  8
0
 10
8597.5000000000418
 20
2780.0000000000259
 30
0.0
 11
8595.2000000000407
 21
2780.0000000000259
 31
0.0
  0
LINE
  5
93A3
  8
0
 10
8595.2000000000407
 20
2780.0000000000259
 30
0.0
 11
8595.2000000000407
 21
2722.3000000000252
 31
0.0
  0
LINE
  5
93A4
  8
0
 10
8595.2000000000407
 20
2722.3000000000252
 30
0.0
 11
8534.8000000000466
 21
2722.3000000000252
 31
0.0
  0
LINE
  5
93A5
  8
0
 10
8534.8000000000466
 20
2722.3000000000252
 30
0.0
 11
8534.8000000000466
 21
2780.0000000000259
 31
0.0
  0
LINE
  5
93A6
  8
0
 10
8534.8000000000466
 20
2780.0000000000259
 30
0.0
 11
8532.5000000000455
 21
2780.0000000000259
 31
0.0
  0
ARC
  5
93A7
  8
0
 10
8534.8000000000466
 20
2722.3000000000252
 30
0.0
 40
2.299999999999998
 50
180.0
 51
270.0
  0
ARC
  5
93A8
  8
0
 10
8595.2000000000407
 20
2722.3000000000252
 30
0.0
 40
2.299999999999998
 50
270.0
 51
0.0
  0
LINE
  5
93A9
  8
0
 10
8597.5000000000418
 20
2780.0000000000259
 30
0.0
 11
8622.4999999999909
 21
2780.0000000000259
 31
0.0
  0
LINE
  5
93AA
  8
0
 10
8627.4999999999945
 20
2775.0000000000259
 30
0.0
 11
8627.4999999999945
 21
2730.0000000000259
 31
0.0
  0
LINE
  5
93AB
  8
0
 10
8622.4999999999909
 20
2780.0000000000259
 30
0.0
 11
8627.4999999999945
 21
2775.0000000000259
 31
0.0
  0
LINE
  5
93AC
  8
0
 10
8622.4999999999909
 20
2725.0000000000259
 30
0.0
 11
8597.4999999999909
 21
2725.0000000000259
 31
0.0
  0
LINE
  5
93AD
  8
0
 10
8627.4999999999945
 20
2730.0000000000259
 30
0.0
 11
8622.4999999999909
 21
2725.0000000000259
 31
0.0
  0
CIRCLE
  5
93AE
  8
0
 10
8614.9999999999909
 20
2750.0000000000032
 30
0.0
 40
6.0
  0
LINE
  5
93AF
  8
0
 10
8532.5000000000455
 20
2780.0000000000259
 30
0.0
 11
8507.5000000000946
 21
2780.0000000000259
 31
0.0
  0
LINE
  5
93B0
  8
0
 10
8502.5000000000946
 20
2775.0000000000259
 30
0.0
 11
8502.5000000000946
 21
2730.0000000000259
 31
0.0
  0
LINE
  5
93B1
  8
0
 10
8507.5000000000946
 20
2780.0000000000259
 30
0.0
 11
8502.5000000000946
 21
2775.0000000000259
 31
0.0
  0
LINE
  5
93B2
  8
0
 10
8507.5000000000946
 20
2725.0000000000259
 30
0.0
 11
8532.5000000000946
 21
2725.0000000000259
 31
0.0
  0
LINE
  5
93B3
  8
0
 10
8502.5000000000946
 20
2730.0000000000259
 30
0.0
 11
8507.5000000000946
 21
2725.0000000000259
 31
0.0
  0
CIRCLE
  5
93B4
  8
0
 10
8515.0000000000946
 20
2750.0000000000032
 30
0.0
 40
6.0
  0
LINE
  5
93B5
  8
0
 10
8582.4999999999945
 20
2743.0000000000041
 30
0.0
 11
8582.4999999999945
 21
2757.000000000005
 31
0.0
  0
ARC
  5
93B6
  8
0
 10
8580.4999999999909
 20
2757.000000000005
 30
0.0
 40
2.0
 50
0.0
 51
90.0
  0
LINE
  5
93B7
  8
0
 10
8580.4999999999909
 20
2759.0000000000041
 30
0.0
 11
8549.4999999999909
 21
2759.0000000000041
 31
0.0
  0
ARC
  5
93B8
  8
0
 10
8549.4999999999909
 20
2757.000000000005
 30
0.0
 40
2.0
 50
90.0
 51
180.0
  0
LINE
  5
93B9
  8
0
 10
8547.4999999999909
 20
2757.000000000005
 30
0.0
 11
8547.4999999999909
 21
2743.0000000000041
 31
0.0
  0
ARC
  5
93BA
  8
0
 10
8549.4999999999909
 20
2743.0000000000041
 30
0.0
 40
2.0
 50
180.0
 51
270.0
  0
LINE
  5
93BB
  8
0
 10
8549.4999999999909
 20
2741.0000000000041
 30
0.0
 11
8580.4999999999909
 21
2741.0000000000041
 31
0.0
  0
ARC
  5
93BC
  8
0
 10
8580.4999999999909
 20
2743.0000000000041
 30
0.0
 40
2.0
 50
270.0
 51
0.0
  0
LINE
  5
93BD
  8
0
  6
CENTER2
 10
8547.4999999999909
 20
2750.0000000000032
 30
0.0
 11
5452.5000000001019
 21
2750.0000000000032
 31
0.0
  0
LINE
  5
93BE
  8
0
 10
5467.50000000005
 20
2780.0000000000259
 30
0.0
 11
5467.50000000005
 21
2722.3000000000252
 31
0.0
  0
LINE
  5
93BF
  8
0
 10
5465.2000000000489
 20
2720.000000000025
 30
0.0
 11
5404.8000000000538
 21
2720.000000000025
 31
0.0
  0
LINE
  5
93C0
  8
0
 10
5402.50000000005
 20
2722.3000000000252
 30
0.0
 11
5402.50000000005
 21
2780.0000000000259
 31
0.0
  0
LINE
  5
93C1
  8
0
 10
5402.50000000005
 20
2780.0000000000259
 30
0.0
 11
5404.8000000000538
 21
2780.0000000000259
 31
0.0
  0
LINE
  5
93C2
  8
0
 10
5404.8000000000538
 20
2780.0000000000259
 30
0.0
 11
5404.8000000000538
 21
2722.3000000000252
 31
0.0
  0
LINE
  5
93C3
  8
0
 10
5404.8000000000538
 20
2722.3000000000252
 30
0.0
 11
5465.2000000000489
 21
2722.3000000000252
 31
0.0
  0
LINE
  5
93C4
  8
0
 10
5465.2000000000489
 20
2722.3000000000252
 30
0.0
 11
5465.2000000000489
 21
2780.0000000000259
 31
0.0
  0
LINE
  5
93C5
  8
0
 10
5465.2000000000489
 20
2780.0000000000259
 30
0.0
 11
5467.50000000005
 21
2780.0000000000259
 31
0.0
  0
ARC
  5
93C6
  8
0
 10
5465.2000000000489
 20
2722.3000000000252
 30
0.0
 40
2.299999999999998
 50
270.0
 51
0.0
  0
ARC
  5
93C7
  8
0
 10
5404.8000000000538
 20
2722.3000000000252
 30
0.0
 40
2.299999999999998
 50
180.0
 51
270.0
  0
LINE
  5
93C8
  8
0
 10
5402.50000000005
 20
2780.0000000000259
 30
0.0
 11
5377.5000000001019
 21
2780.0000000000259
 31
0.0
  0
LINE
  5
93C9
  8
0
 10
5372.500000000101
 20
2775.0000000000259
 30
0.0
 11
5372.500000000101
 21
2730.0000000000259
 31
0.0
  0
LINE
  5
93CA
  8
0
 10
5377.5000000001019
 20
2780.0000000000259
 30
0.0
 11
5372.500000000101
 21
2775.0000000000259
 31
0.0
  0
LINE
  5
93CB
  8
0
 10
5377.5000000001019
 20
2725.0000000000259
 30
0.0
 11
5402.5000000001019
 21
2725.0000000000259
 31
0.0
  0
LINE
  5
93CC
  8
0
 10
5372.500000000101
 20
2730.0000000000259
 30
0.0
 11
5377.5000000001019
 21
2725.0000000000259
 31
0.0
  0
CIRCLE
  5
93CD
  8
0
 10
5385.000000000101
 20
2750.0000000000032
 30
0.0
 40
6.0
  0
LINE
  5
93CE
  8
0
 10
5467.50000000005
 20
2780.0000000000259
 30
0.0
 11
5492.5
 21
2780.0000000000259
 31
0.0
  0
LINE
  5
93CF
  8
0
 10
5497.5
 20
2775.0000000000259
 30
0.0
 11
5497.5
 21
2730.0000000000259
 31
0.0
  0
LINE
  5
93D0
  8
0
 10
5492.5
 20
2780.0000000000259
 30
0.0
 11
5497.5
 21
2775.0000000000259
 31
0.0
  0
LINE
  5
93D1
  8
0
 10
5492.5
 20
2725.0000000000259
 30
0.0
 11
5467.5000000000009
 21
2725.0000000000259
 31
0.0
  0
LINE
  5
93D2
  8
0
 10
5497.5
 20
2730.0000000000259
 30
0.0
 11
5492.5
 21
2725.0000000000259
 31
0.0
  0
CIRCLE
  5
93D3
  8
0
 10
5485.0
 20
2750.0000000000032
 30
0.0
 40
6.0
  0
LINE
  5
93D4
  8
0
 10
5417.5000000001019
 20
2743.0000000000041
 30
0.0
 11
5417.5000000001019
 21
2757.000000000005
 31
0.0
  0
ARC
  5
93D5
  8
0
 10
5419.5000000001019
 20
2757.000000000005
 30
0.0
 40
2.0
 50
90.0
 51
180.0
  0
LINE
  5
93D6
  8
0
 10
5419.5000000001019
 20
2759.0000000000041
 30
0.0
 11
5450.5000000001019
 21
2759.0000000000041
 31
0.0
  0
ARC
  5
93D7
  8
0
 10
5450.5000000001019
 20
2757.000000000005
 30
0.0
 40
2.0
 50
0.0
 51
90.0
  0
LINE
  5
93D8
  8
0
 10
5452.5000000001019
 20
2757.000000000005
 30
0.0
 11
5452.5000000001019
 21
2743.0000000000041
 31
0.0
  0
ARC
  5
93D9
  8
0
 10
5450.5000000001019
 20
2743.0000000000041
 30
0.0
 40
2.0
 50
270.0
 51
0.0
  0
LINE
  5
93DA
  8
0
 10
5450.5000000001019
 20
2741.0000000000041
 30
0.0
 11
5419.5000000001019
 21
2741.0000000000041
 31
0.0
  0
ARC
  5
93DB
  8
0
 10
5419.5000000001019
 20
2743.0000000000041
 30
0.0
 40
2.0
 50
180.0
 51
270.0
  0
TEXT
  5
93DC
  8
0
 10
7117.2047612756332
 20
2538.5185434277391
 30
0.0
 40
105.0
  1
光軸
 41
0.8
  7
横文字
 72
     1
 11
7206.8047612756327
 21
2538.5185434277391
 31
0.0
  0
INSERT
  5
93DD
  8
0
  2
*U32
 10
0.0
 20
0.0
 30
0.0
  0
DIMENSION
  5
93DE
  8
0
  2
*D6
 10
5073.0
 20
2750.0000000000041
 30
0.0
 11
4990.5
 21
2867.50000000004
 31
0.0
 70
   128
 13
5173.0
 23
3000.00000000004
 33
0.0
 14
5473.0
 24
2750.0000000000032
 34
0.0
 50
90.0
1001
ACAD
1000
DSTYLE
1002
{
1070
    41
1040
1.0
1002
}
  0
TEXT
  5
93DF
  8
0
 10
10979.999999999971
 20
47.5
 30
0.0
 40
105.0
  1
勾配
 11
10979.999999999971
 21
100.0
 31
0.0
 73
     2
  0
TEXT
  5
93E0
  8
0
 10
10229.999999999971
 20
47.5
 30
0.0
 40
105.0
  1
納まり　  :
 11
10229.999999999971
 21
100.0
 31
0.0
 73
     2
  0
TEXT
  5
93E1
  8
0
 10
6552.9957445612663
 20
7427.0875098650658
 30
0.0
 40
105.0
  1
パネル
 41
0.8
  7
文字
 72
     1
 11
6692.9957445612672
 21
7427.0875098650658
 31
0.0
  0
INSERT
  5
93E2
  8
0
  2
*U33
 10
0.0
 20
0.0
 30
0.0
  0
TEXT
  5
93E3
  8
0
 10
8915.7523363286182
 20
8579.0319638022484
 30
0.0
 40
105.0
  1
勾配型水平レール
 41
0.8
  7
横文字
 72
     1
 11
9302.1523363286178
 21
8579.0319638022484
 31
0.0
  0
INSERT
  5
93E4
  8
0
  2
*U34
 10
0.0
 20
0.0
 30
0.0
  0
TEXT
  5
93E5
  8
0
 10
8560.5523363286175
 20
8399.0319638022484
 30
0.0
 40
105.0
  1
（3／10・6／10・10／10）
 41
0.8
  7
横文字
 72
     1
 11
9302.1523363286178
 21
8399.0319638022484
 31
0.0
  0
DIMENSION
  5
93E6
  8
0
  2
*D8
 10
5975.0
 20
8200.0
 30
0.0
 11
5892.4999999999991
 21
8250.0000000000018
 31
0.0
  1
Y
 13
6650.0
 23
8300.0
 33
0.0
 14
6650.0
 24
8200.0
 34
0.0
 50
90.0
1001
ACAD
1000
DSTYLE
1002
{
1070
    41
1040
1.0
1002
}
  0
DIMENSION
  5
93E7
  8
0
  2
*D10
 10
5975.0
 20
6000.0
 30
0.0
 11
5892.4999999999991
 21
7100.0000000000009
 31
0.0
  1
有効開口高=H-Y
 13
6650.0
 23
8200.0
 33
0.0
 14
6125.0
 24
6000.0
 34
0.0
 50
90.0
1001
ACAD
1000
DSTYLE
1002
{
1070
    41
1040
1.0
1002
}
  0
TEXT
  5
93E8
  8
0
 10
13410.0
 20
10647.5
 30
0.0
 40
105.0
  1
パネル
 41
0.8
  7
文字
 72
     1
 11
13550.0
 21
10700.0
 31
0.0
 73
     2
  0
TEXT
  5
93E9
  8
0
 10
13064.0
 20
10247.5
 30
0.0
 40
105.0
  1
Y
 41
0.8
  7
文字
 72
     1
 11
13100.0
 21
10300.0
 31
0.0
 73
     2
  0
LINE
  5
93EA
  8
0
 10
15900.0
 20
10800.0
 30
0.0
 11
13800.0
 21
10800.0
 31
0.0
  0
LINE
  5
93EB
  8
0
 10
12900.0
 20
11000.0
 30
0.0
 11
12900.0
 21
10000.0
 31
0.0
  0
LINE
  5
93EC
  8
0
 10
15900.0
 20
10600.0
 30
0.0
 11
12900.0
 21
10600.0
 31
0.0
  0
LINE
  5
93ED
  8
0
 10
14300.0
 20
10400.0
 30
0.0
 11
15900.0
 21
10400.0
 31
0.0
  0
LINE
  5
93EE
  8
0
 10
13300.0
 20
11000.0
 30
0.0
 11
13300.0
 21
10000.0
 31
0.0
  0
LINE
  5
93EF
  8
0
 10
13800.0
 20
11000.0
 30
0.0
 11
13800.0
 21
10000.0
 31
0.0
  0
TEXT
  5
93F0
  8
0
 10
13510.0
 20
10247.5
 30
0.0
 40
105.0
  1
0
 41
0.8
  7
文字
 72
     1
 11
13550.0
 21
10300.0
 31
0.0
 73
     2
  0
TEXT
  5
93F1
  8
0
 10
13359.6
 20
10847.5
 30
0.0
 40
105.0
  1
スチール
 41
0.8
  7
文字
 72
     1
 11
13550.0
 21
10900.0
 31
0.0
 73
     2
  0
TEXT
  5
93F2
  8
0
 10
13960.4
 20
10647.5
 30
0.0
 40
105.0
  1
標準
 41
0.8
  7
文字
 72
     1
 11
14050.0
 21
10700.0
 31
0.0
 73
     2
  0
LINE
  5
93F3
  8
0
 10
14300.0
 20
10800.0
 30
0.0
 11
14300.0
 21
10000.0
 31
0.0
  0
TEXT
  5
93F4
  8
0
 10
14521.200000000001
 20
10647.5
 30
0.0
 40
105.0
  1
ワイド1
 41
0.8
  7
文字
 72
     1
 11
14700.0
 21
10700.0
 31
0.0
 73
     2
  0
LINE
  5
93F5
  8
0
 10
15100.0
 20
10800.0
 30
0.0
 11
15100.0
 21
10000.0
 31
0.0
  0
TEXT
  5
93F6
  8
0
 10
15309.200000000001
 20
10647.5
 30
0.0
 40
105.0
  1
ワイド2
 41
0.8
  7
文字
 72
     1
 11
15500.0
 21
10700.0
 31
0.0
 73
     2
  0
LINE
  5
93F7
  8
0
 10
15900.0
 20
11000.0
 30
0.0
 11
15900.0
 21
10000.0
 31
0.0
  0
TEXT
  5
93F8
  8
0
 10
14087.200000000001
 20
10847.5
 30
0.0
 40
105.0
  1
アルミパネル・FRPパネル
 41
0.8
  7
文字
 72
     1
 11
14700.0
 21
10900.0
 31
0.0
 73
     2
  0
LINE
  5
93F9
  8
0
 10
15900.0
 20
11000.0
 30
0.0
 11
12900.0
 21
11000.0
 31
0.0
  0
TEXT
  5
93FA
  8
0
 10
14010.0
 20
10247.5
 30
0.0
 40
105.0
  1
0
 41
0.8
  7
文字
 72
     1
 11
14050.0
 21
10300.0
 31
0.0
 73
     2
  0
TEXT
  5
93FB
  8
0
 10
14379.200000000001
 20
10447.5
 30
0.0
 40
105.0
  1
70（3／10）
 41
0.8
  7
文字
 72
     1
 11
14700.0
 21
10500.0
 31
0.0
 73
     2
  0
LINE
  5
93FC
  8
0
 10
12900.0
 20
11000.0
 30
0.0
 11
13300.0
 21
10600.0
 31
0.0
  0
TEXT
  5
93FD
  8
0
 10
12900.0
 20
11047.5
 30
0.0
 40
105.0
  1
有効開口高=H-Y
 41
0.8
  7
文字
 11
12900.0
 21
11100.0
 31
0.0
 73
     2
  0
TEXT
  5
93FE
  8
0
 10
14377.200000000001
 20
10247.5
 30
0.0
 40
105.0
  1
65（6／10）
 41
0.8
  7
文字
 72
     1
 11
14700.0
 21
10300.0
 31
0.0
 73
     2
  0
TEXT
  5
93FF
  8
0
 10
14337.200000000001
 20
10047.5
 30
0.0
 40
105.0
  1
60（10／10）
 41
0.8
  7
文字
 72
     1
 11
14700.0
 21
10100.0
 31
0.0
 73
     2
  0
TEXT
  5
9400
  8
0
 10
15133.200000000001
 20
10447.5
 30
0.0
 40
105.0
  1
100（3／10）
 41
0.8
  7
文字
 72
     1
 11
15500.0
 21
10500.0
 31
0.0
 73
     2
  0
TEXT
  5
9401
  8
0
 10
15179.200000000001
 20
10247.5
 30
0.0
 40
105.0
  1
95（6／10）
 41
0.8
  7
文字
 72
     1
 11
15500.0
 21
10300.0
 31
0.0
 73
     2
  0
TEXT
  5
9402
  8
0
 10
15139.200000000001
 20
10047.5
 30
0.0
 40
105.0
  1
90（10／10）
 41
0.8
  7
文字
 72
     1
 11
15500.0
 21
10100.0
 31
0.0
 73
     2
  0
LINE
  5
9403
  8
0
 10
12900.0
 20
10000.0
 30
0.0
 11
15900.0
 21
10000.0
 31
0.0
  0
LINE
  5
9404
  8
0
 10
14300.0
 20
10200.0
 30
0.0
 11
15900.0
 21
10200.0
 31
0.0
  0
TEXT
  5
9405
  8
0
 10
15531.200000000001
 20
11047.5
 30
0.0
 40
105.0
  1
（mm）
 41
0.8
  7
文字
 72
     2
 11
15900.0
 21
11100.0
 31
0.0
 73
     2
  0
LINE
  5
9406
  8
0
  6
PHANTOM2
 10
7070.7000000000053
 20
6029.8000000000102
 30
0.0
 11
7095.5000000000073
 21
6029.8000000000102
 31
0.0
  0
LINE
  5
9407
  8
0
  6
PHANTOM2
 10
7070.7000000000053
 20
6222.5000000000073
 30
0.0
 11
7067.5000000000064
 21
6222.5000000000073
 31
0.0
  0
LINE
  5
9408
  8
0
  6
PHANTOM2
 10
7095.5000000000073
 20
6033.0000000000082
 30
0.0
 11
7095.5000000000073
 21
6029.8000000000102
 31
0.0
  0
LINE
  5
9409
  8
0
  6
PHANTOM2
 10
7070.7000000000053
 20
6033.0000000000082
 30
0.0
 11
7095.5000000000073
 21
6033.0000000000082
 31
0.0
  0
ARC
  5
940A
  8
0
  6
PHANTOM2
 10
7070.7000000000053
 20
6033.0000000000082
 30
0.0
 40
3.2000000000000002
 50
180.0
 51
270.0
  0
LINE
  5
940B
  8
0
  6
PHANTOM2
 10
7163.5000000000073
 20
6138.4999999999691
 30
0.0
 11
7163.5000000000073
 21
6137.5000000000073
 31
0.0
  0
LINE
  5
940C
  8
0
  6
PHANTOM2
 10
7163.5000000000073
 20
6055.5000000000073
 30
0.0
 11
7158.5952617056382
 21
6055.5000000000073
 31
0.0
  0
LINE
  5
940D
  8
0
  6
PHANTOM2
 10
7136.5000000000082
 20
6055.5000000000073
 30
0.0
 11
7070.7000000000053
 21
6055.5000000000073
 31
0.0
  0
LINE
  5
940E
  8
0
  6
PHANTOM2
 10
7163.5000000000073
 20
6137.5000000000073
 30
0.0
 11
7141.0295766755744
 21
6137.5000000000073
 31
0.0
  0
LINE
  5
940F
  8
0
  6
PHANTOM2
 10
7104.8594262750121
 20
6114.1176127356302
 30
0.0
 11
7138.232212400565
 21
6136.6442433703842
 31
0.0
  0
ARC
  5
9410
  8
0
  6
PHANTOM2
 10
7141.0295766755744
 20
6132.5000000000073
 30
0.0
 40
5.0
 50
90.0
 51
124.01934998959349
  0
LINE
  5
9411
  8
0
  6
PHANTOM2
 10
7163.5000000000073
 20
6058.49999999997
 30
0.0
 11
7163.5000000000073
 21
6055.5000000000073
 31
0.0
  0
LINE
  5
9412
  8
0
  6
PHANTOM2
 10
7163.5000000000073
 20
6138.4999999999691
 30
0.0
 11
7166.7000000000053
 21
6138.4999999999691
 31
0.0
  0
LINE
  5
9413
  8
0
  6
PHANTOM2
 10
7163.5000000000073
 20
6058.49999999997
 30
0.0
 11
7166.7000000000053
 21
6058.49999999997
 31
0.0
  0
LINE
  5
9414
  8
0
  6
PHANTOM2
 10
7166.7000000000053
 20
6138.4999999999691
 30
0.0
 11
7166.7000000000053
 21
6101.7290599168118
 31
0.0
  0
LINE
  5
9415
  8
0
  6
PHANTOM2
 10
7166.7000000000053
 20
6095.3290599168104
 30
0.0
 11
7166.7000000000053
 21
6058.49999999997
 31
0.0
  0
ARC
  5
9416
  8
0
  6
PHANTOM2
 10
7163.5000000000073
 20
6095.3290599168104
 30
0.0
 40
3.2000000000000002
 50
0.0
 51
90.0
  0
ARC
  5
9417
  8
0
  6
PHANTOM2
 10
7163.5000000000073
 20
6101.7290599168118
 30
0.0
 40
3.2000000000000002
 50
270.0
 51
0.0
  0
LINE
  5
9418
  8
0
  6
PHANTOM2
 10
7070.7000000000053
 20
6150.5000000000082
 30
0.0
 11
7104.8594262750121
 21
6114.1176127356366
 31
0.0
  0
LINE
  5
9419
  8
0
  6
PHANTOM2
 10
7070.7000000000053
 20
6055.5000000000073
 30
0.0
 11
7070.7000000000053
 21
6033.0000000000082
 31
0.0
  0
ARC
  5
941A
  8
0
  6
PHANTOM2
 10
7169.5000000000082
 20
6032.8000000000102
 30
0.0
 40
12.5
 50
239.9999999999429
 51
59.999999999942858
  0
LINE
  5
941B
  8
0
  6
PHANTOM2
 10
7163.2500000000082
 20
6021.9746824527028
 30
0.0
 11
7139.0000000000073
 21
6035.9754264805506
 31
0.0
  0
LINE
  5
941C
  8
0
  6
PHANTOM2
 10
7175.7500000000073
 20
6043.6253175473094
 30
0.0
 11
7161.0000000000073
 21
6052.1412340178576
 31
0.0
  0
ARC
  5
941D
  8
0
  6
PHANTOM2
 10
7163.5000000000073
 20
6056.4713610367844
 30
0.0
 40
5.0
 50
191.20221111558769
 51
239.9999999999429
  0
LINE
  5
941E
  8
0
  6
PHANTOM2
 10
7136.5000000000082
 20
6055.5000000000073
 30
0.0
 11
7136.5000000000082
 21
6040.3055534994719
 31
0.0
  0
ARC
  5
941F
  8
0
  6
PHANTOM2
 10
7141.5000000000073
 20
6040.3055534994719
 30
0.0
 40
5.0
 50
180.0
 51
239.9999999999429
  0
LINE
  5
9420
  8
0
  6
PHANTOM2
 10
7204.9000000000087
 20
6120.5000000000437
 30
0.0
 11
7204.9000000000087
 21
6151.1110695100851
 31
0.0
  0
LINE
  5
9421
  8
0
  6
PHANTOM2
 10
7203.7000000000044
 20
6120.5000000000437
 30
0.0
 11
7203.7000000000044
 21
6150.5000000000418
 31
0.0
  0
LINE
  5
9422
  8
0
  6
PHANTOM2
 10
7204.9000000000087
 20
6120.5000000000437
 30
0.0
 11
7203.7000000000044
 21
6120.5000000000437
 31
0.0
  0
LINE
  5
9423
  8
0
  6
PHANTOM2
 10
7148.7000000000053
 20
6190.5000000000418
 30
0.0
 11
7203.7000000000044
 21
6150.5000000000418
 31
0.0
  0
LINE
  5
9424
  8
0
  6
PHANTOM2
 10
7148.7000000000053
 20
6190.5000000000418
 30
0.0
 11
7070.7000000000053
 21
6190.5000000000418
 31
0.0
  0
LINE
  5
9425
  8
0
  6
PHANTOM2
 10
7071.9000000000096
 20
6191.7000000000389
 30
0.0
 11
7071.9000000000096
 21
6224.6040862788577
 31
0.0
  0
LINE
  5
9426
  8
0
  6
PHANTOM2
 10
7149.0902205763186
 20
6191.7000000000389
 30
0.0
 11
7071.9000000000096
 21
6191.7000000000389
 31
0.0
  0
LINE
  5
9427
  8
0
  6
PHANTOM2
 10
7149.0902205763186
 20
6191.7000000000389
 30
0.0
 11
7204.9000000000087
 21
6151.1110695100851
 31
0.0
  0
LINE
  5
9428
  8
0
  6
PHANTOM2
 10
7068.9000000000087
 20
6234.5000000000437
 30
0.0
 11
7070.7000000000053
 21
6224.4969790327668
 31
0.0
  0
LINE
  5
9429
  8
0
  6
PHANTOM2
 10
7070.0810311808236
 20
6234.7125214105608
 30
0.0
 11
7071.9000000000096
 21
6224.6040862788577
 31
0.0
  0
LINE
  5
942A
  8
0
  6
PHANTOM2
 10
7070.0810311808236
 20
6234.7125214105608
 30
0.0
 11
7068.9000000000087
 21
6234.5000000000437
 31
0.0
  0
LINE
  5
942B
  8
0
  6
PHANTOM2
 10
7070.7000000000053
 20
6190.5000000000364
 30
0.0
 11
7070.7000000000053
 21
6150.5000000000082
 31
0.0
  0
LINE
  5
942C
  8
0
  6
PHANTOM2
 10
7070.7000000000053
 20
6222.5000000000073
 30
0.0
 11
7070.7000000000053
 21
6224.4969790327668
 31
0.0
  0
LINE
  5
942D
  8
0
  6
PHANTOM2
 10
7067.5000000000064
 20
6222.5000000000073
 30
0.0
 11
7067.5000000000064
 21
6033.0000000000082
 31
0.0
  0
ENDSEC
  0
EOF
