  0
SECTION
  2
HEADER
  9
$ACADVER
  1
AC1009
  9
$INSBASE
 10
0.0
 20
0.0
 30
0.0
  9
$EXTMIN
 10
-0.4998397926137841
 20
-0.3584016095373954
 30
-0.0015258207003583
  9
$EXTMAX
 10
16380.499916067931
 20
11745.35845630145
 30
0.0000000349246037
  9
$LIMMIN
 10
0.0
 20
0.0
  9
$LIMMAX
 10
420.0
 20
297.0
  9
$ORTHOMODE
 70
     0
  9
$REGENMODE
 70
     1
  9
$FILLMODE
 70
     1
  9
$QTEXTMODE
 70
     0
  9
$MIRRTEXT
 70
     1
  9
$DRAGMODE
 70
     2
  9
$LTSCALE
 40
7.5
  9
$OSMODE
 70
  3071
  9
$ATTMODE
 70
     1
  9
$TEXTSIZE
 40
105.0
  9
$TRACEWID
 40
1.0
  9
$TEXTSTYLE
  7
文字
  9
$CLAYER
  8
0
  9
$CELTYPE
  6
BYLAYER
  9
$CECOLOR
 62
   256
  9
$DIMSCALE
 40
30.0
  9
$DIMASZ
 40
2.0
  9
$DIMEXO
 40
5.0
  9
$DIMDLI
 40
7.5
  9
$DIMRND
 40
0.0
  9
$DIMDLE
 40
0.0
  9
$DIMEXE
 40
1.0
  9
$DIMTP
 40
0.0
  9
$DIMTM
 40
0.0
  9
$DIMTXT
 40
3.5
  9
$DIMCEN
 40
1.0
  9
$DIMTSZ
 40
0.0
  9
$DIMTOL
 70
     0
  9
$DIMLIM
 70
     0
  9
$DIMTIH
 70
     0
  9
$DIMTOH
 70
     0
  9
$DIMSE1
 70
     0
  9
$DIMSE2
 70
     0
  9
$DIMTAD
 70
     1
  9
$DIMZIN
 70
     8
  9
$DIMBLK
  1
ORIGIN
  9
$DIMASO
 70
     1
  9
$DIMSHO
 70
     1
  9
$DIMPOST
  1

  9
$DIMAPOST
  1

  9
$DIMALT
 70
     0
  9
$DIMALTD
 70
     3
  9
$DIMALTF
 40
0.03937007874016
  9
$DIMLFAC
 40
1.0
  9
$DIMTOFL
 70
     1
  9
$DIMTVP
 40
0.0
  9
$DIMTIX
 70
     1
  9
$DIMSOXD
 70
     0
  9
$DIMSAH
 70
     0
  9
$DIMBLK1
  1

  9
$DIMBLK2
  1

  9
$DIMSTYLE
  2
寸法線30
  9
$DIMCLRD
 70
   256
  9
$DIMCLRE
 70
   256
  9
$DIMCLRT
 70
   256
  9
$DIMTFAC
 40
1.0
  9
$DIMGAP
 40
1.0
  9
$LUNITS
 70
     2
  9
$LUPREC
 70
     4
  9
$SKETCHINC
 40
1.0
  9
$FILLETRAD
 40
0.0
  9
$AUNITS
 70
     0
  9
$AUPREC
 70
     0
  9
$MENU
  1
.
  9
$ELEVATION
 40
0.0
  9
$PELEVATION
 40
0.0
  9
$THICKNESS
 40
0.0
  9
$LIMCHECK
 70
     0
  9
$BLIPMODE
 70
     0
  9
$CHAMFERA
 40
10.0
  9
$CHAMFERB
 40
10.0
  9
$SKPOLY
 70
     0
  9
$TDCREATE
 40
2452654.657629028
  9
$TDUPDATE
 40
2456778.7062498732
  9
$TDINDWG
 40
0.7996786111000001
  9
$TDUSRTIMER
 40
0.7996768056
  9
$USRTIMER
 70
     1
  9
$ANGBASE
 50
0.0
  9
$ANGDIR
 70
     0
  9
$PDMODE
 70
     0
  9
$PDSIZE
 40
0.0
  9
$PLINEWID
 40
0.0
  9
$COORDS
 70
     2
  9
$SPLFRAME
 70
     0
  9
$SPLINETYPE
 70
     6
  9
$SPLINESEGS
 70
     8
  9
$ATTDIA
 70
     0
  9
$ATTREQ
 70
     1
  9
$HANDLING
 70
     1
  9
$HANDSEED
  5
7CC8
  9
$SURFTAB1
 70
     6
  9
$SURFTAB2
 70
     6
  9
$SURFTYPE
 70
     6
  9
$SURFU
 70
     6
  9
$SURFV
 70
     6
  9
$UCSNAME
  2

  9
$UCSORG
 10
0.0
 20
0.0
 30
0.0
  9
$UCSXDIR
 10
1.0
 20
0.0
 30
0.0
  9
$UCSYDIR
 10
0.0
 20
1.0
 30
0.0
  9
$PUCSNAME
  2

  9
$PUCSORG
 10
0.0
 20
0.0
 30
0.0
  9
$PUCSXDIR
 10
1.0
 20
0.0
 30
0.0
  9
$PUCSYDIR
 10
0.0
 20
1.0
 30
0.0
  9
$USERI1
 70
     0
  9
$USERI2
 70
     0
  9
$USERI3
 70
     0
  9
$USERI4
 70
     0
  9
$USERI5
 70
     0
  9
$USERR1
 40
0.0
  9
$USERR2
 40
0.0
  9
$USERR3
 40
0.0
  9
$USERR4
 40
0.0
  9
$USERR5
 40
0.0
  9
$WORLDVIEW
 70
     1
  9
$SHADEDGE
 70
     3
  9
$SHADEDIF
 70
    70
  9
$TILEMODE
 70
     1
  9
$MAXACTVP
 70
    64
  9
$PLIMCHECK
 70
     0
  9
$PEXTMIN
 10
1.0000000000000000E+020
 20
1.0000000000000000E+020
 30
1.0000000000000000E+020
  9
$PEXTMAX
 10
-1.0000000000000000E+020
 20
-1.0000000000000000E+020
 30
-1.0000000000000000E+020
  9
$PLIMMIN
 10
0.0
 20
0.0
  9
$PLIMMAX
 10
420.0
 20
297.0
  9
$UNITMODE
 70
     0
  9
$VISRETAIN
 70
     1
  9
$PLINEGEN
 70
     0
  9
$PSLTSCALE
 70
     1
  0
ENDSEC
  0
SECTION
  2
TABLES
  0
TABLE
  2
VPORT
 70
     1
  0
VPORT
  2
*ACTIVE
 70
     0
 10
0.0
 20
0.0
 11
1.0
 21
1.0
 12
8190.0000381376594
 22
5872.5000273459573
 13
0.0
 23
0.0
 14
10.0
 24
10.0
 15
10.0
 25
10.0
 16
0.0
 26
0.0
 36
1.0
 17
0.0
 27
0.0
 37
0.0
 40
11826.443434254021
 41
1.7981651376146781
 42
50.0
 43
0.0
 44
0.0
 50
0.0
 51
0.0
 71
     0
 72
   100
 73
     1
 74
     3
 75
     0
 76
     0
 77
     0
 78
     0
  0
ENDTAB
  0
TABLE
  2
LTYPE
 70
     4
  0
LTYPE
  2
CONTINUOUS
 70
     0
  3
Solid line
 72
    65
 73
     0
 40
0.0
  0
LTYPE
  2
HIDDEN
 70
     0
  3
Hidden __ __ __ __ __ __ __ __ __ __ __ __ __ _
 72
    65
 73
     2
 40
9.5249999999999986
 49
6.3499999999999979
 49
-3.174999999999998
  0
LTYPE
  2
CENTER2
 70
     0
  3
Center (.5x) ___ _ ___ _ ___ _ ___ _ ___ _ ___
 72
    65
 73
     4
 40
28.574999999999999
 49
19.050000000000001
 49
-3.174999999999998
 49
3.174999999999998
 49
-3.174999999999998
  0
LTYPE
  2
PHANTOM2
 70
     0
  3
Phantom (.5x) ___ _ _ ___ _ _ ___ _ _ ___ _ _
 72
    65
 73
     6
 40
31.75
 49
15.875
 49
-3.174999999999998
 49
3.174999999999998
 49
-3.174999999999998
 49
3.174999999999998
 49
-3.174999999999998
  0
ENDTAB
  0
TABLE
  2
LAYER
 70
     2
  0
LAYER
  2
0
 70
     0
 62
     7
  6
CONTINUOUS
  0
LAYER
  2
DEFPOINTS
 70
     0
 62
     7
  6
CONTINUOUS
  0
ENDTAB
  0
TABLE
  2
STYLE
 70
     4
  0
STYLE
  2
STANDARD
 70
     0
 40
0.0
 41
1.0
 50
0.0
 71
     0
 42
105.0
  3
romans.shx
  4
bigfont.shx
  0
STYLE
  2
文字
 70
     0
 40
0.0
 41
0.8
 50
0.0
 71
     0
 42
105.0
  3
romans.shx
  4
extfont.shx
  0
STYLE
  2
横文字
 70
     0
 40
0.0
 41
0.8
 50
0.0
 71
     0
 42
105.0
  3
romans.shx
  4
extfont.shx
  0
ENDTAB
  0
TABLE
  2
VIEW
 70
     0
  0
ENDTAB
  0
TABLE
  2
UCS
 70
     0
  0
ENDTAB
  0
TABLE
  2
APPID
 70
    81
  0
APPID
  2
ACAD
 70
     0
  0
APPID
  2
ACADANNOTATIVE
 70
     0
  0
APPID
  2
ADE
 70
     0
  0
APPID
  2
DCO15
 70
     0
  0
APPID
  2
SETH_MM
 70
     0
  0
APPID
  2
ACAD_PSEXT
 70
     0
  0
APPID
  2
ACAD_EXEMPT_FROM_CAD_STANDARDS
 70
     0
  0
APPID
  2
ACAD_MLEADERVER
 70
     0
  0
APPID
  2
AUTOESSSHUTTERLINE1
 70
     0
  0
APPID
  2
AUTOESSSHUTTERLINE2
 70
     0
  0
APPID
  2
AUTOESSSHUTTERPT
 70
     0
  0
APPID
  2
MAKICIRCLE
 70
     0
  0
APPID
  2
ACAD_DSTYLE_DIMJAG
 70
     0
  0
APPID
  2
ACAD_DSTYLE_DIMTALN
 70
     0
  0
APPID
  2
SETW_MM
 70
     0
  0
APPID
  2
PARADIMLINE
 70
     0
  0
APPID
  2
PARABASEPT
 70
     0
  0
APPID
  2
MIRRORCHK_L
 70
     0
  0
APPID
  2
MIRRORCHK_R
 70
     0
  0
APPID
  2
LINKSPLIT1
 70
     0
  0
APPID
  2
LINKSPLIT2
 70
     0
  0
APPID
  2
LINKSPLIT3
 70
     0
  0
APPID
  2
LINKSPLIT4
 70
     0
  0
APPID
  2
TBANLLINE
 70
     0
  0
APPID
  2
TBANRLINE
 70
     0
  0
APPID
  2
TBANHLINE
 70
     0
  0
APPID
  2
ARCLINEA1
 70
     0
  0
APPID
  2
ARCLINEA2
 70
     0
  0
APPID
  2
ARCLINEB1
 70
     0
  0
APPID
  2
ARCLINEB2
 70
     0
  0
APPID
  2
ODPDW
 70
     0
  0
APPID
  2
ODPDH
 70
     0
  0
APPID
  2
ODWLINE1
 70
     0
  0
APPID
  2
ODWLINE2
 70
     0
  0
APPID
  2
ODSY
 70
     0
  0
APPID
  2
EDWDW
 70
     0
  0
APPID
  2
EDWDH
 70
     0
  0
APPID
  2
LINKSPLIT11
 70
     0
  0
APPID
  2
LINKSPLIT12
 70
     0
  0
APPID
  2
LINKSPLIT13
 70
     0
  0
APPID
  2
LINKSPLIT14
 70
     0
  0
APPID
  2
AUTOESSDOORPTH1
 70
     0
  0
APPID
  2
AUTOESSDOORPTH2
 70
     0
  0
APPID
  2
AUTOESSDOORPTV1
 70
     0
  0
APPID
  2
AUTOESSDOORPTV2
 70
     0
  0
APPID
  2
TBANPT1
 70
     0
  0
APPID
  2
TBANPT2
 70
     0
  0
APPID
  2
SETDH_MM
 70
     0
  0
APPID
  2
SETV1_MM
 70
     0
  0
APPID
  2
SETV2_MM
 70
     0
  0
APPID
  2
KAIKOUDIM
 70
     0
  0
APPID
  2
TBANK
 70
     0
  0
APPID
  2
TBANR
 70
     0
  0
APPID
  2
TBANO
 70
     0
  0
APPID
  2
TBANHATA1
 70
     0
  0
APPID
  2
TBANHATA2
 70
     0
  0
APPID
  2
TBANMEN
 70
     0
  0
APPID
  2
TBANW
 70
     0
  0
APPID
  2
TBANH
 70
     0
  0
APPID
  2
ARCLINEA3
 70
     0
  0
APPID
  2
ARCLINEB3
 70
     0
  0
APPID
  2
WORKNAME_UE
 70
     0
  0
APPID
  2
WORKNAME
 70
     0
  0
APPID
  2
SD1
 70
     0
  0
APPID
  2
SD2
 70
     0
  0
APPID
  2
DELETEOBJ
 70
     0
  0
APPID
  2
TBANTEXT
 70
     0
  0
APPID
  2
MAKITEXT
 70
     0
  0
APPID
  2
N_01
 70
     0
  0
APPID
  2
N_02
 70
     0
  0
APPID
  2
N_03
 70
     0
  0
APPID
  2
N_04
 70
     0
  0
APPID
  2
N_05
 70
     0
  0
APPID
  2
N_06
 70
     0
  0
APPID
  2
N_07
 70
     0
  0
APPID
  2
N_08
 70
     0
  0
APPID
  2
N_09
 70
     0
  0
APPID
  2
N_10
 70
     0
  0
APPID
  2
N_11
 70
     0
  0
APPID
  2
N_12
 70
     0
  0
APPID
  2
N_13
 70
     0
  0
ENDTAB
  0
TABLE
  2
DIMSTYLE
 70
     3
  0
DIMSTYLE
  2
STANDARD
 70
     0
  3

  4

  5

  6

  7

 40
30.0
 41
1.0
 42
5.0
 43
7.5
 44
1.0
 45
0.0
 46
0.0
 47
0.0
 48
0.0
140
3.5
141
2.5
142
0.0
143
25.399999999999999
144
1.0
145
0.0
146
1.0
147
1.0
 71
     0
 72
     0
 73
     0
 74
     0
 75
     0
 76
     0
 77
     1
 78
     8
170
     0
171
     2
172
     1
173
     0
174
     1
175
     0
176
     0
177
     0
178
     0
  0
DIMSTYLE
  2
寸法線30
 70
     0
  3

  4

  5

  6

  7

 40
30.0
 41
2.0
 42
5.0
 43
7.5
 44
1.0
 45
0.0
 46
0.0
 47
0.0
 48
0.0
140
3.5
141
1.0
142
0.0
143
0.03937007874016
144
1.0
145
0.0
146
1.0
147
1.0
 71
     0
 72
     0
 73
     0
 74
     0
 75
     0
 76
     0
 77
     1
 78
     8
170
     0
171
     3
172
     1
173
     0
174
     1
175
     0
176
   256
177
   256
178
   256
  0
ENDTAB
  0
ENDSEC
  0
SECTION
  2
BLOCKS
  0
BLOCK
  8
0
  2
$MODEL_SPACE
 70
     0
 10
0.0
 20
0.0
 30
0.0
  3
$MODEL_SPACE
  1

  0
ENDBLK
  5
7BBE
  8
0
  0
BLOCK
 67
     1
  8
0
  2
$PAPER_SPACE
 70
     0
 10
0.0
 20
0.0
 30
0.0
  3
$PAPER_SPACE
  1

  0
ENDBLK
  5
7BBA
 67
     1
  8
0
  0
BLOCK
  8
0
  2
_ORIGIN
 70
     0
 10
0.0
 20
0.0
 30
0.0
  3
_ORIGIN
  1

  0
CIRCLE
  5
A7
  8
0
  6
BYBLOCK
 62
     0
 10
0.0
 20
0.0
 30
0.0
 40
0.5
  0
LINE
  5
A8
  8
0
  6
BYBLOCK
 62
     0
 10
0.0
 20
0.0
 30
0.0
 11
-1.0
 21
0.0
 31
0.0
  0
ENDBLK
  5
AA
  8
0
  0
BLOCK
  8
0
  2
_OPEN30
 70
     0
 10
0.0
 20
0.0
 30
0.0
  3
_OPEN30
  1

  0
LINE
  5
AC
  8
0
  6
BYBLOCK
 62
     0
 10
-1.0
 20
0.26794919
 30
0.0
 11
0.0
 21
0.0
 31
0.0
  0
LINE
  5
AD
  8
0
  6
BYBLOCK
 62
     0
 10
0.0
 20
0.0
 30
0.0
 11
-1.0
 21
-0.26794919
 31
0.0
  0
LINE
  5
AE
  8
0
  6
BYBLOCK
 62
     0
 10
0.0
 20
0.0
 30
0.0
 11
-1.0
 21
0.0
 31
0.0
  0
ENDBLK
  5
B0
  8
0
  0
BLOCK
  8
0
  2
*D4
 70
     1
 10
0.0
 20
0.0
 30
0.0
  3
*D4
  1

  0
LINE
  5
79D5
  8
0
 10
5500.0
 20
3500.0000000000291
 30
0.0
 11
5500.0
 21
4030.0000000000282
 31
0.0
  0
LINE
  5
79D6
  8
0
 10
8500.0
 20
3500.0000000000291
 30
0.0
 11
8500.0
 21
4030.0000000000282
 31
0.0
  0
LINE
  5
79D7
  8
0
 10
5530.0
 20
4000.0000000000291
 30
0.0
 11
8470.0
 21
4000.0000000000291
 31
0.0
  0
INSERT
  5
79D8
  8
0
  2
_ORIGIN
 10
5500.0
 20
4000.0000000000291
 30
0.0
 41
30.0
 42
30.0
 43
30.0
 50
180.0
  0
INSERT
  5
79D9
  8
0
  2
_ORIGIN
 10
8500.0
 20
4000.0000000000291
 30
0.0
 41
30.0
 42
30.0
 43
30.0
  0
INSERT
  5
79DA
  8
0
  2
*U5
 10
0.0
 20
0.0
 30
0.0
  0
POINT
  5
79DB
  8
DEFPOINTS
 62
     0
 10
5500.0
 20
3350.0000000000291
 30
0.0
  0
POINT
  5
79DC
  8
DEFPOINTS
 62
     0
 10
8500.0
 20
3350.0000000000291
 30
0.0
  0
POINT
  5
79DD
  8
DEFPOINTS
 62
     0
 10
8500.0
 20
4000.0000000000291
 30
0.0
  0
ENDBLK
  5
7917
  8
0
  0
BLOCK
  8
0
  2
*U5
 70
     1
 10
0.0
 20
0.0
 30
0.0
  3
*U5
  1

  0
TEXT
  5
7B17
  8
0
 10
6952.0
 20
4030.0000000000282
 30
0.0
 40
105.0
  1
W
 41
0.8
  7
文字
  0
ENDBLK
  5
7B19
  8
0
  0
BLOCK
  8
0
  2
*D6
 70
     1
 10
0.0
 20
0.0
 30
0.0
  3
*D6
  1

  0
LINE
  5
79DE
  8
0
 10
6500.0
 20
8800.0
 30
0.0
 11
5495.0
 21
8800.0
 31
0.0
  0
LINE
  5
79DF
  8
0
 10
5475.0
 20
6000.0
 30
0.0
 11
5495.0
 21
6000.0
 31
0.0
  0
LINE
  5
79E0
  8
0
 10
5525.0000000000009
 20
8770.0
 30
0.0
 11
5525.0
 21
6030.0
 31
0.0
  0
INSERT
  5
79E1
  8
0
  2
_ORIGIN
 10
5525.0000000000009
 20
8800.0
 30
0.0
 41
30.0
 42
30.0
 43
30.0
 50
90.0
  0
INSERT
  5
79E2
  8
0
  2
_ORIGIN
 10
5525.0
 20
6000.0
 30
0.0
 41
30.0
 42
30.0
 43
30.0
 50
270.0
  0
INSERT
  5
79E3
  8
0
  2
*U7
 10
0.0
 20
0.0
 30
0.0
  0
POINT
  5
79E4
  8
DEFPOINTS
 62
     0
 10
6650.0
 20
8800.0
 30
0.0
  0
POINT
  5
79E5
  8
DEFPOINTS
 62
     0
 10
5625.0
 20
6000.0
 30
0.0
  0
POINT
  5
79E6
  8
DEFPOINTS
 62
     0
 10
5525.0
 20
6000.0
 30
0.0
  0
ENDBLK
  5
7923
  8
0
  0
BLOCK
  8
0
  2
*U7
 70
     1
 10
0.0
 20
0.0
 30
0.0
  3
*U7
  1

  0
TEXT
  5
7B1B
  8
0
 10
5494.9999999999991
 20
7356.0000000000027
 30
0.0
 40
105.0
  1
H
 50
90.0
 41
0.8
  7
文字
  0
ENDBLK
  5
7B1D
  8
0
  0
BLOCK
  8
0
  2
*D8
 70
     1
 10
0.0
 20
0.0
 30
0.0
  3
*D8
  1

  0
LINE
  5
79E7
  8
0
 10
6500.0
 20
8800.0
 30
0.0
 11
5495.0
 21
8800.0
 31
0.0
  0
LINE
  5
79E8
  8
0
 10
6500.0
 20
9408.7999999999956
 30
0.0
 11
5495.0
 21
9408.7999999999956
 31
0.0
  0
LINE
  5
79E9
  8
0
 10
5525.0
 20
8770.0
 30
0.0
 11
5525.0
 21
8740.0
 31
0.0
  0
LINE
  5
79EA
  8
0
 10
5525.0
 20
9438.7999999999956
 30
0.0
 11
5525.0
 21
9468.7999999999956
 31
0.0
  0
LINE
  5
79EB
  8
0
 10
5525.0
 20
8800.0
 30
0.0
 11
5525.0
 21
9408.7999999999956
 31
0.0
  0
INSERT
  5
79EC
  8
0
  2
_ORIGIN
 10
5525.0
 20
8800.0
 30
0.0
 41
30.0
 42
30.0
 43
30.0
 50
90.0
  0
INSERT
  5
79ED
  8
0
  2
_ORIGIN
 10
5525.0
 20
9408.7999999999956
 30
0.0
 41
30.0
 42
30.0
 43
30.0
 50
270.0
  0
INSERT
  5
79EE
  8
0
  2
*U9
 10
0.0
 20
0.0
 30
0.0
  0
POINT
  5
79EF
  8
DEFPOINTS
 62
     0
 10
6650.0
 20
8800.0
 30
0.0
  0
POINT
  5
79F0
  8
DEFPOINTS
 62
     0
 10
6650.0
 20
9408.7999999999956
 30
0.0
  0
POINT
  5
79F1
  8
DEFPOINTS
 62
     0
 10
5525.0
 20
9408.7999999999956
 30
0.0
  0
ENDBLK
  5
792F
  8
0
  0
BLOCK
  8
0
  2
*U9
 70
     1
 10
0.0
 20
0.0
 30
0.0
  3
*U9
  1

  0
TEXT
  5
7B1F
  8
0
 10
5494.9999999999991
 20
8674.0
 30
0.0
 40
105.0
  1
HR=570～725
 50
90.0
 41
0.8
  7
文字
  0
ENDBLK
  5
7B21
  8
0
  0
BLOCK
  8
0
  2
*D10
 70
     1
 10
0.0
 20
0.0
 30
0.0
  3
*D10
  1

  0
LINE
  5
79F2
  8
0
 10
6500.0
 20
8800.0
 30
0.0
 11
5720.0
 21
8800.0
 31
0.0
  0
LINE
  5
79F3
  8
0
 10
6500.0
 20
9230.0
 30
0.0
 11
5720.0
 21
9230.0
 31
0.0
  0
LINE
  5
79F4
  8
0
 10
5750.0
 20
8830.0
 30
0.0
 11
5750.0
 21
9200.0
 31
0.0
  0
INSERT
  5
79F5
  8
0
  2
_ORIGIN
 10
5750.0
 20
8800.0
 30
0.0
 41
30.0
 42
30.0
 43
30.0
 50
270.0
  0
INSERT
  5
79F6
  8
0
  2
_ORIGIN
 10
5750.0
 20
9230.0
 30
0.0
 41
30.0
 42
30.0
 43
30.0
 50
90.0
  0
INSERT
  5
79F7
  8
0
  2
*U11
 10
0.0
 20
0.0
 30
0.0
  0
POINT
  5
79F8
  8
DEFPOINTS
 62
     0
 10
6650.0
 20
8800.0
 30
0.0
  0
POINT
  5
79F9
  8
DEFPOINTS
 62
     0
 10
6650.0
 20
9230.0
 30
0.0
  0
POINT
  5
79FA
  8
DEFPOINTS
 62
     0
 10
5750.0
 20
9230.0
 30
0.0
  0
ENDBLK
  5
793D
  8
0
  0
BLOCK
  8
0
  2
*U11
 70
     1
 10
0.0
 20
0.0
 30
0.0
  3
*U11
  1

  0
TEXT
  5
7B23
  8
0
 10
5719.9999999999973
 20
8895.0000000000018
 30
0.0
 40
105.0
  1
430
 50
90.0
 41
0.8
  7
文字
  0
ENDBLK
  5
7B25
  8
0
  0
BLOCK
  8
0
  2
*D12
 70
     1
 10
0.0
 20
0.0
 30
0.0
  3
*D12
  1

  0
LINE
  5
79FB
  8
0
 10
7400.0
 20
6020.0
 30
0.0
 11
8029.9999999999973
 21
6020.0
 31
0.0
  0
LINE
  5
79FC
  8
0
 10
7400.0
 20
8840.0
 30
0.0
 11
8030.0
 21
8840.0
 31
0.0
  0
LINE
  5
79FD
  8
0
 10
7999.9999999999973
 20
6050.0
 30
0.0
 11
8000.0
 21
8810.0
 31
0.0
  0
INSERT
  5
79FE
  8
0
  2
_ORIGIN
 10
7999.9999999999973
 20
6020.0
 30
0.0
 41
30.0
 42
30.0
 43
30.0
 50
270.0
  0
INSERT
  5
79FF
  8
0
  2
_ORIGIN
 10
8000.0
 20
8840.0
 30
0.0
 41
30.0
 42
30.0
 43
30.0
 50
90.0
  0
INSERT
  5
7A00
  8
0
  2
*U13
 10
0.0
 20
0.0
 30
0.0
  0
POINT
  5
7A01
  8
DEFPOINTS
 62
     0
 10
7250.0
 20
6020.0
 30
0.0
  0
POINT
  5
7A02
  8
DEFPOINTS
 62
     0
 10
7250.0
 20
8840.0
 30
0.0
  0
POINT
  5
7A03
  8
DEFPOINTS
 62
     0
 10
8000.0
 20
8840.0
 30
0.0
  0
ENDBLK
  5
7949
  8
0
  0
BLOCK
  8
0
  2
*U13
 70
     1
 10
0.0
 20
0.0
 30
0.0
  3
*U13
  1

  0
TEXT
  5
7B27
  8
0
 10
7969.9999999999973
 20
7344.0000000000018
 30
0.0
 40
105.0
  1
DH
 50
90.0
 41
0.8
  7
文字
  0
ENDBLK
  5
7B29
  8
0
  0
BLOCK
  8
0
  2
*D14
 70
     1
 10
0.0
 20
0.0
 30
0.0
  3
*D14
  1

  0
LINE
  5
7A04
  8
0
 10
10570.0
 20
9208.5224474705647
 30
0.0
 11
11050.0
 21
9208.5224474705647
 31
0.0
  0
LINE
  5
7A05
  8
0
 10
10570.0
 20
9408.8000000000047
 30
0.0
 11
11050.0
 21
9408.8000000000047
 31
0.0
  0
LINE
  5
7A06
  8
0
 10
11020.0
 20
9178.522447470561
 30
0.0
 11
11020.0
 21
9148.522447470561
 31
0.0
  0
LINE
  5
7A07
  8
0
 10
11020.0
 20
9438.8000000000047
 30
0.0
 11
11020.0
 21
9468.8000000000029
 31
0.0
  0
LINE
  5
7A08
  8
0
 10
11020.0
 20
9208.5224474705647
 30
0.0
 11
11020.0
 21
9408.8000000000047
 31
0.0
  0
INSERT
  5
7A09
  8
0
  2
_ORIGIN
 10
11020.0
 20
9208.5224474705647
 30
0.0
 41
30.0
 42
30.0
 43
30.0
 50
90.0
  0
INSERT
  5
7A0A
  8
0
  2
_ORIGIN
 10
11020.0
 20
9408.8000000000047
 30
0.0
 41
30.0
 42
30.0
 43
30.0
 50
270.0
  0
INSERT
  5
7A0B
  8
0
  2
*U15
 10
0.0
 20
0.0
 30
0.0
  0
POINT
  5
7A0C
  8
DEFPOINTS
 62
     0
 10
10420.0
 20
9208.5224474705647
 30
0.0
  0
POINT
  5
7A0D
  8
DEFPOINTS
 62
     0
 10
10420.0
 20
9408.8000000000047
 30
0.0
  0
POINT
  5
7A0E
  8
DEFPOINTS
 62
     0
 10
11020.0
 20
9408.8000000000047
 30
0.0
  0
ENDBLK
  5
7955
  8
0
  0
BLOCK
  8
0
  2
*U15
 70
     1
 10
0.0
 20
0.0
 30
0.0
  3
*U15
  1

  0
TEXT
  5
7B2B
  8
0
 10
10990.0
 20
9093.0612237352852
 30
0.0
 40
105.0
  1
200以上
 50
90.0
 41
0.8
  7
文字
  0
ENDBLK
  5
7B2D
  8
0
  0
BLOCK
  8
0
  2
*D16
 70
     1
 10
0.0
 20
0.0
 30
0.0
  3
*D16
  1

  0
LINE
  5
7A0F
  8
0
 10
5475.0
 20
2600.0000000000291
 30
0.0
 11
5475.0
 21
2220.0000000000291
 31
0.0
  0
LINE
  5
7A10
  8
0
 10
8525.0
 20
2600.0000000000291
 30
0.0
 11
8525.0
 21
2220.0000000000291
 31
0.0
  0
LINE
  5
7A11
  8
0
 10
5505.0
 20
2250.0000000000291
 30
0.0
 11
8495.0
 21
2250.0000000000291
 31
0.0
  0
INSERT
  5
7A12
  8
0
  2
_ORIGIN
 10
5475.0
 20
2250.0000000000291
 30
0.0
 41
30.0
 42
30.0
 43
30.0
 50
180.0
  0
INSERT
  5
7A13
  8
0
  2
_ORIGIN
 10
8525.0
 20
2250.0000000000291
 30
0.0
 41
30.0
 42
30.0
 43
30.0
  0
INSERT
  5
7A14
  8
0
  2
*U17
 10
0.0
 20
0.0
 30
0.0
  0
POINT
  5
7A15
  8
DEFPOINTS
 62
     0
 10
5475.0
 20
2750.0000000000291
 30
0.0
  0
POINT
  5
7A16
  8
DEFPOINTS
 62
     0
 10
8525.0
 20
2750.0000000000291
 30
0.0
  0
POINT
  5
7A17
  8
DEFPOINTS
 62
     0
 10
8525.0
 20
2250.0000000000291
 30
0.0
  0
ENDBLK
  5
7963
  8
0
  0
BLOCK
  8
0
  2
*U17
 70
     1
 10
0.0
 20
0.0
 30
0.0
  3
*U17
  1

  0
TEXT
  5
7B2F
  8
0
 10
6906.0
 20
2280.0000000000291
 30
0.0
 40
105.0
  1
DW
 41
0.8
  7
文字
  0
ENDBLK
  5
7B31
  8
0
  0
BLOCK
  8
0
  2
*D18
 70
     1
 10
0.0
 20
0.0
 30
0.0
  3
*D18
  1

  0
LINE
  5
7A18
  8
0
 10
5500.0
 20
3500.0000000000291
 30
0.0
 11
5500.0
 21
3805.0000000000291
 31
0.0
  0
LINE
  5
7A19
  8
0
 10
5350.0
 20
3500.0000000000291
 30
0.0
 11
5350.0
 21
3805.0000000000291
 31
0.0
  0
LINE
  5
7A1A
  8
0
 10
5530.0
 20
3775.0000000000291
 30
0.0
 11
5560.0
 21
3775.0000000000291
 31
0.0
  0
LINE
  5
7A1B
  8
0
 10
5320.0
 20
3775.0000000000291
 30
0.0
 11
5290.0
 21
3775.0000000000291
 31
0.0
  0
LINE
  5
7A1C
  8
0
 10
5500.0
 20
3775.0000000000291
 30
0.0
 11
5350.0
 21
3775.0000000000291
 31
0.0
  0
INSERT
  5
7A1D
  8
0
  2
_ORIGIN
 10
5500.0
 20
3775.0000000000291
 30
0.0
 41
30.0
 42
30.0
 43
30.0
 50
180.0
  0
INSERT
  5
7A1E
  8
0
  2
_ORIGIN
 10
5350.0
 20
3775.0000000000291
 30
0.0
 41
30.0
 42
30.0
 43
30.0
  0
INSERT
  5
7A1F
  8
0
  2
*U19
 10
0.0
 20
0.0
 30
0.0
  0
POINT
  5
7A20
  8
DEFPOINTS
 62
     0
 10
5500.0
 20
3350.0000000000291
 30
0.0
  0
POINT
  5
7A21
  8
DEFPOINTS
 62
     0
 10
5350.0
 20
3350.0000000000291
 30
0.0
  0
POINT
  5
7A22
  8
DEFPOINTS
 62
     0
 10
5350.0
 20
3775.0000000000291
 30
0.0
  0
ENDBLK
  5
796F
  8
0
  0
BLOCK
  8
0
  2
*U19
 70
     1
 10
0.0
 20
0.0
 30
0.0
  3
*U19
  1

  0
TEXT
  5
7B33
  8
0
 10
5203.3999999999996
 20
3805.0000000000291
 30
0.0
 40
105.0
  1
150以上
 41
0.8
  7
文字
  0
ENDBLK
  5
7B35
  8
0
  0
BLOCK
  8
0
  2
*D20
 70
     1
 10
0.0
 20
0.0
 30
0.0
  3
*D20
  1

  0
LINE
  5
7A23
  8
0
 10
8500.0
 20
3500.0000000000291
 30
0.0
 11
8500.0
 21
3805.0000000000291
 31
0.0
  0
LINE
  5
7A24
  8
0
 10
8770.0
 20
3500.0000000000291
 30
0.0
 11
8770.0
 21
3805.0000000000291
 31
0.0
  0
LINE
  5
7A25
  8
0
 10
8470.0
 20
3775.0000000000291
 30
0.0
 11
8440.0
 21
3775.0000000000291
 31
0.0
  0
LINE
  5
7A26
  8
0
 10
8800.0
 20
3775.0000000000291
 30
0.0
 11
8830.0
 21
3775.0000000000291
 31
0.0
  0
LINE
  5
7A27
  8
0
 10
8500.0
 20
3775.0000000000291
 30
0.0
 11
8770.0
 21
3775.0000000000291
 31
0.0
  0
INSERT
  5
7A28
  8
0
  2
_ORIGIN
 10
8500.0
 20
3775.0000000000291
 30
0.0
 41
30.0
 42
30.0
 43
30.0
  0
INSERT
  5
7A29
  8
0
  2
_ORIGIN
 10
8770.0
 20
3775.0000000000291
 30
0.0
 41
30.0
 42
30.0
 43
30.0
 50
180.0
  0
INSERT
  5
7A2A
  8
0
  2
*U21
 10
0.0
 20
0.0
 30
0.0
  0
POINT
  5
7A2B
  8
DEFPOINTS
 62
     0
 10
8500.0
 20
3350.0000000000291
 30
0.0
  0
POINT
  5
7A2C
  8
DEFPOINTS
 62
     0
 10
8770.0
 20
3350.0000000000291
 30
0.0
  0
POINT
  5
7A2D
  8
DEFPOINTS
 62
     0
 10
8770.0
 20
3775.0000000000291
 30
0.0
  0
ENDBLK
  5
797D
  8
0
  0
BLOCK
  8
0
  2
*U21
 70
     1
 10
0.0
 20
0.0
 30
0.0
  3
*U21
  1

  0
TEXT
  5
7B37
  8
0
 10
8419.4000000000033
 20
3805.0000000000291
 30
0.0
 40
105.0
  1
270以上
 41
0.8
  7
文字
  0
ENDBLK
  5
7B39
  8
0
  0
BLOCK
  8
0
  2
*D22
 70
     1
 10
0.0
 20
0.0
 30
0.0
  3
*D22
  1

  0
LINE
  5
7A2E
  8
0
 10
7000.0
 20
10208.800000000039
 30
0.0
 11
7000.0
 21
10238.80000000005
 31
0.0
  0
LINE
  5
7A2F
  8
0
 10
10420.0
 20
9758.8000000000466
 30
0.0
 11
10420.0
 21
10238.80000000005
 31
0.0
  0
LINE
  5
7A30
  8
0
 10
7030.0
 20
10208.800000000039
 30
0.0
 11
10390.0
 21
10208.800000000039
 31
0.0
  0
INSERT
  5
7A31
  8
0
  2
_ORIGIN
 10
7000.0
 20
10208.800000000039
 30
0.0
 41
30.0
 42
30.0
 43
30.0
 50
180.0
  0
INSERT
  5
7A32
  8
0
  2
_ORIGIN
 10
10420.0
 20
10208.800000000039
 30
0.0
 41
30.0
 42
30.0
 43
30.0
  0
INSERT
  5
7A33
  8
0
  2
*U23
 10
0.0
 20
0.0
 30
0.0
  0
POINT
  5
7A34
  8
DEFPOINTS
 62
     0
 10
7000.0
 20
10058.800000000039
 30
0.0
  0
POINT
  5
7A35
  8
DEFPOINTS
 62
     0
 10
10420.0
 20
9608.8000000000466
 30
0.0
  0
POINT
  5
7A36
  8
DEFPOINTS
 62
     0
 10
10420.0
 20
10208.800000000039
 30
0.0
  0
ENDBLK
  5
798B
  8
0
  0
BLOCK
  8
0
  2
*U23
 70
     1
 10
0.0
 20
0.0
 30
0.0
  3
*U23
  1

  0
TEXT
  5
7B3B
  8
0
 10
8450.0
 20
10238.80000000005
 30
0.0
 40
105.0
  1
DH+600
 41
0.8
  7
文字
  0
ENDBLK
  5
7B3D
  8
0
  0
BLOCK
  8
0
  2
*D24
 70
     1
 10
0.0
 20
0.0
 30
0.0
  3
*D24
  1

  0
LINE
  5
7A37
  8
0
 10
7000.0
 20
9983.8000000000466
 30
0.0
 11
7000.0
 21
10013.800000000039
 31
0.0
  0
LINE
  5
7A38
  8
0
 10
7110.0
 20
9758.8000000000466
 30
0.0
 11
7110.0
 21
10013.800000000039
 31
0.0
  0
LINE
  5
7A39
  8
0
 10
6970.0
 20
9983.8000000000466
 30
0.0
 11
6940.0
 21
9983.8000000000466
 31
0.0
  0
LINE
  5
7A3A
  8
0
 10
7140.0
 20
9983.8000000000466
 30
0.0
 11
7170.0
 21
9983.8000000000466
 31
0.0
  0
LINE
  5
7A3B
  8
0
 10
7000.0
 20
9983.8000000000466
 30
0.0
 11
7110.0
 21
9983.8000000000466
 31
0.0
  0
INSERT
  5
7A3C
  8
0
  2
_ORIGIN
 10
7000.0
 20
9983.8000000000466
 30
0.0
 41
30.0
 42
30.0
 43
30.0
  0
INSERT
  5
7A3D
  8
0
  2
_ORIGIN
 10
7110.0
 20
9983.8000000000466
 30
0.0
 41
30.0
 42
30.0
 43
30.0
 50
180.0
  0
INSERT
  5
7A3E
  8
0
  2
*U25
 10
0.0
 20
0.0
 30
0.0
  0
POINT
  5
7A3F
  8
DEFPOINTS
 62
     0
 10
7000.0
 20
9833.8000000000466
 30
0.0
  0
POINT
  5
7A40
  8
DEFPOINTS
 62
     0
 10
7110.0
 20
9608.8000000000466
 30
0.0
  0
POINT
  5
7A41
  8
DEFPOINTS
 62
     0
 10
7110.0
 20
9983.8000000000466
 30
0.0
  0
ENDBLK
  5
7997
  8
0
  0
BLOCK
  8
0
  2
*U25
 70
     1
 10
0.0
 20
0.0
 30
0.0
  3
*U25
  1

  0
TEXT
  5
7B3F
  8
0
 10
6929.0
 20
10013.800000000039
 30
0.0
 40
105.0
  1
110
 41
0.8
  7
文字
  0
ENDBLK
  5
7B41
  8
0
  0
BLOCK
  8
0
  2
*D26
 70
     1
 10
0.0
 20
0.0
 30
0.0
  3
*D26
  1

  0
LINE
  5
7A42
  8
0
 10
7110.0
 20
9758.8000000000466
 30
0.0
 11
7110.0
 21
10013.800000000039
 31
0.0
  0
LINE
  5
7A43
  8
0
 10
7410.0
 20
9758.8000000000466
 30
0.0
 11
7410.0
 21
10013.800000000039
 31
0.0
  0
LINE
  5
7A44
  8
0
 10
7140.0
 20
9983.8000000000466
 30
0.0
 11
7380.0
 21
9983.8000000000466
 31
0.0
  0
INSERT
  5
7A45
  8
0
  2
*U27
 10
0.0
 20
0.0
 30
0.0
  0
INSERT
  5
7A46
  8
0
  2
_ORIGIN
 10
7110.0
 20
9983.8000000000466
 30
0.0
 41
30.0
 42
30.0
 43
30.0
 50
180.0
  0
INSERT
  5
7A47
  8
0
  2
_ORIGIN
 10
7410.0
 20
9983.8000000000466
 30
0.0
 41
30.0
 42
30.0
 43
30.0
  0
POINT
  5
7A48
  8
DEFPOINTS
 62
     0
 10
7110.0
 20
9608.8000000000466
 30
0.0
  0
POINT
  5
7A49
  8
DEFPOINTS
 62
     0
 10
7410.0
 20
9608.8000000000466
 30
0.0
  0
POINT
  5
7A4A
  8
DEFPOINTS
 62
     0
 10
7410.0
 20
9983.8000000000466
 30
0.0
  0
ENDBLK
  5
79A5
  8
0
  0
BLOCK
  8
0
  2
*U27
 70
     1
 10
0.0
 20
0.0
 30
0.0
  3
*U27
  1

  0
TEXT
  5
7B43
  8
0
 10
7215.0
 20
10013.800000000039
 30
0.0
 40
105.0
  1
300
 41
0.8
  7
文字
  0
ENDBLK
  5
7B45
  8
0
  0
BLOCK
  8
0
  2
*D28
 70
     1
 10
0.0
 20
0.0
 30
0.0
  3
*D28
  1

  0
LINE
  5
7A4B
  8
0
 10
7960.0
 20
9408.8000000000047
 30
0.0
 11
7940.0
 21
9408.8000000000047
 31
0.0
  0
LINE
  5
7A4C
  8
0
 10
7560.0
 20
9238.8000000000029
 30
0.0
 11
7940.0
 21
9238.8000000000029
 31
0.0
  0
LINE
  5
7A4D
  8
0
 10
7910.0
 20
9378.8000000000029
 30
0.0
 11
7910.0
 21
9268.8000000000047
 31
0.0
  0
INSERT
  5
7A4E
  8
0
  2
*U29
 10
0.0
 20
0.0
 30
0.0
  0
INSERT
  5
7A4F
  8
0
  2
_ORIGIN
 10
7910.0
 20
9408.8000000000047
 30
0.0
 41
30.0
 42
30.0
 43
30.0
 50
90.0
  0
INSERT
  5
7A50
  8
0
  2
_ORIGIN
 10
7910.0
 20
9238.8000000000029
 30
0.0
 41
30.0
 42
30.0
 43
30.0
 50
270.0
  0
POINT
  5
7A51
  8
DEFPOINTS
 62
     0
 10
7810.0
 20
9408.8000000000047
 30
0.0
  0
POINT
  5
7A52
  8
DEFPOINTS
 62
     0
 10
7410.0
 20
9238.8000000000029
 30
0.0
  0
POINT
  5
7A53
  8
DEFPOINTS
 62
     0
 10
7910.0
 20
9238.8000000000029
 30
0.0
  0
ENDBLK
  5
79B1
  8
0
  0
BLOCK
  8
0
  2
*U29
 70
     1
 10
0.0
 20
0.0
 30
0.0
  3
*U29
  1

  0
TEXT
  5
7B47
  8
0
 10
7880.0
 20
9167.8000000000029
 30
0.0
 40
105.0
  1
170
 50
90.0
 41
0.8
  7
文字
  0
ENDBLK
  5
7B49
  8
0
  0
BLOCK
  8
0
  2
*D30
 70
     1
 10
0.0
 20
0.0
 30
0.0
  3
*D30
  1

  0
LINE
  5
7A54
  8
0
 10
6500.0
 20
8800.0
 30
0.0
 11
5720.0
 21
8800.0
 31
0.0
  0
LINE
  5
7A55
  8
0
 10
6500.0
 20
8700.0
 30
0.0
 11
5720.0
 21
8700.0
 31
0.0
  0
LINE
  5
7A56
  8
0
 10
5750.0
 20
8830.0
 30
0.0
 11
5750.0
 21
8860.0
 31
0.0
  0
LINE
  5
7A57
  8
0
 10
5750.0
 20
8670.0
 30
0.0
 11
5750.0
 21
8640.0
 31
0.0
  0
LINE
  5
7A58
  8
0
 10
5750.0
 20
8800.0
 30
0.0
 11
5750.0
 21
8700.0
 31
0.0
  0
INSERT
  5
7A59
  8
0
  2
_ORIGIN
 10
5750.0
 20
8800.0
 30
0.0
 41
30.0
 42
30.0
 43
30.0
 50
270.0
  0
INSERT
  5
7A5A
  8
0
  2
_ORIGIN
 10
5750.0
 20
8700.0
 30
0.0
 41
30.0
 42
30.0
 43
30.0
 50
90.0
  0
INSERT
  5
7A5B
  8
0
  2
*U31
 10
0.0
 20
0.0
 30
0.0
  0
POINT
  5
7A5C
  8
DEFPOINTS
 62
     0
 10
6650.0
 20
8800.0
 30
0.0
  0
POINT
  5
7A5D
  8
DEFPOINTS
 62
     0
 10
6650.0
 20
8700.0
 30
0.0
  0
POINT
  5
7A5E
  8
DEFPOINTS
 62
     0
 10
5750.0
 20
8700.0
 30
0.0
  0
ENDBLK
  5
79BD
  8
0
  0
BLOCK
  8
0
  2
*U31
 70
     1
 10
0.0
 20
0.0
 30
0.0
  3
*U31
  1

  0
TEXT
  5
7B4B
  8
0
 10
5719.9999999999973
 20
8714.0000000000018
 30
0.0
 40
105.0
  1
Y
 50
90.0
 41
0.8
  7
文字
  0
ENDBLK
  5
7B4D
  8
0
  0
BLOCK
  8
0
  2
*D32
 70
     1
 10
0.0
 20
0.0
 30
0.0
  3
*D32
  1

  0
LINE
  5
7A5F
  8
0
 10
6500.0
 20
8700.0
 30
0.0
 11
5720.0000000000009
 21
8700.0
 31
0.0
  0
LINE
  5
7A60
  8
0
 10
5750.0
 20
5999.9999999999918
 30
0.0
 11
5720.0
 21
5999.9999999999918
 31
0.0
  0
LINE
  5
7A61
  8
0
 10
5750.0
 20
8670.0
 30
0.0
 11
5750.0
 21
6029.9999999999927
 31
0.0
  0
INSERT
  5
7A62
  8
0
  2
_ORIGIN
 10
5750.0
 20
8700.0
 30
0.0
 41
30.0
 42
30.0
 43
30.0
 50
90.0
  0
INSERT
  5
7A63
  8
0
  2
_ORIGIN
 10
5750.0
 20
5999.9999999999918
 30
0.0
 41
30.0
 42
30.0
 43
30.0
 50
270.0
  0
INSERT
  5
7A64
  8
0
  2
*U33
 10
0.0
 20
0.0
 30
0.0
  0
POINT
  5
7A65
  8
DEFPOINTS
 62
     0
 10
6650.0
 20
8700.0
 30
0.0
  0
POINT
  5
7A66
  8
DEFPOINTS
 62
     0
 10
5900.0
 20
5999.9999999999918
 30
0.0
  0
POINT
  5
7A67
  8
DEFPOINTS
 62
     0
 10
5750.0
 20
5999.9999999999918
 30
0.0
  0
ENDBLK
  5
79CB
  8
0
  0
BLOCK
  8
0
  2
*U33
 70
     1
 10
0.0
 20
0.0
 30
0.0
  3
*U33
  1

  0
TEXT
  5
7B4F
  8
0
 10
5719.9999999999973
 20
6915.9999999999964
 30
0.0
 40
105.0
  1
有効開口高=H-Y
 50
90.0
 41
0.8
  7
文字
  0
ENDBLK
  5
7B51
  8
0
  0
BLOCK
  8
0
  2
*U34
 70
     1
 10
0.0
 20
0.0
 30
0.0
  3
*U34
  1

  0
INSERT
  5
7AEA
  8
0
  2
_OPEN30
 10
7135.0
 20
9255.0
 30
0.0
 41
60.0
 42
60.0
 43
60.0
 50
240.0000000000002
  0
POLYLINE
  5
7AEB
  8
0
 66
     1
 10
0.0
 20
0.0
 30
0.0
  0
VERTEX
  5
7C78
  8
0
 10
7165.0
 20
9306.9615242270684
 30
0.0
  0
VERTEX
  5
7C79
  8
0
 10
7510.0
 20
9904.5190528383318
 30
0.0
  0
VERTEX
  5
7C7A
  8
0
 10
8091.0
 20
9904.5190528383318
 30
0.0
  0
SEQEND
  5
7C7B
  8
0
  0
ENDBLK
  5
7AF1
  8
0
  0
BLOCK
  8
0
  2
*U35
 70
     1
 10
0.0
 20
0.0
 30
0.0
  3
*U35
  1

  0
INSERT
  5
7AF3
  8
0
  2
_OPEN30
 10
5450.0000000000064
 20
1750.0000000000221
 30
0.0
 41
60.0
 42
60.0
 43
60.0
 50
120.0000000000003
  0
POLYLINE
  5
7AF4
  8
0
 66
     1
 10
0.0
 20
0.0
 30
0.0
  0
VERTEX
  5
7C7C
  8
0
 10
5480.0000000000073
 20
1698.0384757729551
 30
0.0
  0
VERTEX
  5
7C7D
  8
0
 10
5675.0000000000073
 20
1360.28856829703
 30
0.0
  0
VERTEX
  5
7C7E
  8
0
 10
6250.4000000000087
 20
1360.28856829703
 30
0.0
  0
SEQEND
  5
7C7F
  8
0
  0
ENDBLK
  5
7AFA
  8
0
  0
BLOCK
  8
0
  2
*U36
 70
     1
 10
0.0
 20
0.0
 30
0.0
  3
*U36
  1

  0
INSERT
  5
7AFC
  8
0
  2
_OPEN30
 10
7481.1043555237493
 20
9255.6749999999938
 30
0.0
 41
60.0
 42
60.0
 43
60.0
 50
240.0000000000002
  0
POLYLINE
  5
7AFD
  8
0
 66
     1
 10
0.0
 20
0.0
 30
0.0
  0
VERTEX
  5
7C80
  8
0
 10
7511.1043555237466
 20
9307.6365242270622
 30
0.0
  0
VERTEX
  5
7C81
  8
0
 10
7731.1043555237493
 20
9688.6877018922205
 30
0.0
  0
VERTEX
  5
7C82
  8
0
 10
8614.5043555237517
 20
9688.6877018922205
 30
0.0
  0
SEQEND
  5
7C83
  8
0
  0
ENDBLK
  5
7B03
  8
0
  0
BLOCK
  8
0
  2
*U37
 70
     1
 10
0.0
 20
0.0
 30
0.0
  3
*U37
  1

  0
INSERT
  5
7B05
  8
0
  2
_OPEN30
 10
8422.6469170888668
 20
9075.5859411044075
 30
0.0
 41
60.0
 42
60.0
 43
60.0
 50
105.0000000000003
  0
POLYLINE
  5
7B06
  8
0
 66
     1
 10
0.0
 20
0.0
 30
0.0
  0
VERTEX
  5
7C84
  8
0
 10
8438.1760597950197
 20
9017.6303915270637
 30
0.0
  0
VERTEX
  5
7C85
  8
0
 10
8513.2335828747528
 20
8737.5119019032281
 30
0.0
  0
VERTEX
  5
7C86
  8
0
 10
9755.8335828747513
 20
8737.5119019032281
 30
0.0
  0
SEQEND
  5
7C87
  8
0
  0
ENDBLK
  5
7B0C
  8
0
  0
BLOCK
  8
0
  2
*U38
 70
     1
 10
0.0
 20
0.0
 30
0.0
  3
*U38
  1

  0
INSERT
  5
7B0E
  8
0
  2
_OPEN30
 10
7016.0000000000073
 20
7171.0475088412213
 30
0.0
 41
60.0
 42
60.0
 43
60.0
 50
300.0
  0
POLYLINE
  5
7B0F
  8
0
 66
     1
 10
0.0
 20
0.0
 30
0.0
  0
VERTEX
  5
7C88
  8
0
 10
6986.0000000000073
 20
7223.009033068287
 30
0.0
  0
VERTEX
  5
7C89
  8
0
 10
6885.4957445612672
 20
7397.0875098650658
 30
0.0
  0
VERTEX
  5
7C8A
  8
0
 10
6500.4957445612672
 20
7397.0875098650658
 30
0.0
  0
SEQEND
  5
7C8B
  8
0
  0
ENDBLK
  5
7B15
  8
0
  0
ENDSEC
  0
SECTION
  2
ENTITIES
  0
LINE
  5
6011
  8
0
 10
16380.0
 20
0.0
 30
0.0
 11
0.0
 21
0.0
 31
0.0
  0
LINE
  5
6012
  8
0
 10
0.0
 20
11745.0
 30
0.0
 11
16380.0
 21
11745.0
 31
0.0
  0
LINE
  5
6013
  8
0
 10
0.0
 20
11745.0
 30
0.0
 11
0.0
 21
0.0
 31
0.0
  0
LINE
  5
6014
  8
0
 10
16380.0
 20
11745.0
 30
0.0
 11
16380.0
 21
0.0
 31
0.0
  0
LINE
  5
77F0
  8
0
 10
10130.0
 20
400.0
 30
0.0
 11
10130.0
 21
0.0
 31
0.0
  0
TEXT
  5
77F1
  8
0
 10
10979.99999999996
 20
247.5
 30
0.0
 40
105.0
  1
オーバードア（チェーンホイスト式）
 11
10979.99999999996
 21
300.0
 31
0.0
 73
     2
  0
TEXT
  5
77F2
  8
0
 10
10229.99999999996
 20
247.5
 30
0.0
 40
105.0
  1
製品名称  :
 11
10229.99999999996
 21
300.0
 31
0.0
 73
     2
  0
LINE
  5
77F3
  8
0
 10
10130.0
 20
200.0
 30
0.0
 11
13880.0
 21
200.0
 31
0.0
  0
LINE
  5
77F4
  8
0
 10
13880.0
 20
400.0
 30
0.0
 11
13880.0
 21
0.0
 31
0.0
  0
TEXT
  5
77F5
  8
0
 10
13998.33333333333
 20
112.5
 30
0.0
 40
175.0
  1
東洋シヤッター株式会社
 72
     1
 11
15130.0
 21
200.0
 31
0.0
 73
     2
  0
LINE
  5
77F6
  8
0
 10
10130.0
 20
400.0
 30
0.0
 11
16380.0
 21
400.0
 31
0.0
  0
TEXT
  5
77F7
  8
0
 10
12979.99999999996
 20
47.5
 30
0.0
 40
105.0
  1
縮尺:1/30
 11
12979.99999999996
 21
100.0
 31
0.0
 73
     2
  0
LINE
  5
77F8
  8
0
 10
5474.9999999999936
 20
2932.5
 30
0.0
 11
8524.9999999999909
 21
2932.5
 31
0.0
  0
LINE
  5
77F9
  8
0
 10
8524.9999999999909
 20
2932.5
 30
0.0
 11
8524.9999999999909
 21
2984.0
 31
0.0
  0
LINE
  5
77FA
  8
0
 10
8524.9999999999909
 20
2984.0
 30
0.0
 11
5474.9999999999936
 21
2984.0
 31
0.0
  0
LINE
  5
77FB
  8
0
 10
5474.9999999999936
 20
2984.0
 30
0.0
 11
5474.9999999999936
 21
2932.5
 31
0.0
  0
ARC
  5
77FC
  8
0
 10
8577.299999999992
 20
2997.7000000000048
 30
0.0
 40
2.299999999999998
 50
90.0
 51
180.0
  0
LINE
  5
77FD
  8
0
 10
8614.9999999999909
 20
2997.7000000000048
 30
0.0
 11
8614.9999999999909
 21
3000.0
 31
0.0
  0
LINE
  5
77FE
  8
0
 10
8577.299999999992
 20
2997.7000000000048
 30
0.0
 11
8614.9999999999909
 21
2997.7000000000048
 31
0.0
  0
LINE
  5
77FF
  8
0
 10
8577.299999999992
 20
2884.0
 30
0.0
 11
8577.299999999992
 21
2997.7000000000048
 31
0.0
  0
LINE
  5
7800
  8
0
 10
8574.9999999999927
 20
2884.0
 30
0.0
 11
8577.299999999992
 21
2884.0
 31
0.0
  0
LINE
  5
7801
  8
0
 10
8574.9999999999927
 20
2997.7000000000048
 30
0.0
 11
8574.9999999999927
 21
2884.0
 31
0.0
  0
LINE
  5
7802
  8
0
 10
8614.9999999999909
 20
3000.0
 30
0.0
 11
8577.299999999992
 21
3000.0
 31
0.0
  0
ARC
  5
7803
  8
0
 10
8562.4999999999909
 20
2886.4999999999409
 30
0.0
 40
5.7499999999704414
 50
180.0
 51
0.0
  0
ARC
  5
7804
  8
0
 10
8562.4999999999909
 20
2921.5
 30
0.0
 40
5.7499999999704414
 50
0.0
 51
180.0
  0
LINE
  5
7805
  8
0
 10
8556.7500000000218
 20
2886.4999999999409
 30
0.0
 11
8556.7500000000218
 21
2921.5
 31
0.0
  0
LINE
  5
7806
  8
0
 10
8568.2500000000218
 20
2921.5
 30
0.0
 11
8568.2500000000218
 21
2886.4999999999409
 31
0.0
  0
ARC
  5
7807
  8
0
 10
8568.9999999999909
 20
2889.7190997647272
 30
0.0
 40
4.0
 50
330.00000000001052
 51
0.0
  0
ARC
  5
7808
  8
0
 10
8568.9999999999909
 20
2889.719099764734
 30
0.0
 40
6.0
 50
330.00000000001052
 51
0.0
  0
ARC
  5
7809
  8
0
 10
8569.9999999999909
 20
2925.5
 30
0.0
 40
3.0
 50
0.0
 51
90.0
  0
ARC
  5
780A
  8
0
 10
8569.9999999999909
 20
2925.5
 30
0.0
 40
5.0
 50
0.0
 51
90.0
  0
LINE
  5
780B
  8
0
 10
8551.5529946162005
 20
2887.5
 30
0.0
 11
8554.4397459621468
 21
2882.5
 31
0.0
  0
LINE
  5
780C
  8
0
 10
8553.2850454237632
 20
2888.5
 30
0.0
 11
8551.5529946162005
 21
2887.5
 31
0.0
  0
LINE
  5
780D
  8
0
 10
8556.1717967697077
 20
2883.5
 30
0.0
 11
8553.2850454237632
 21
2888.5
 31
0.0
  0
LINE
  5
780E
  8
0
 10
8572.4641016151309
 20
2887.7190997647272
 30
0.0
 11
8570.0282032302384
 21
2883.5000000000209
 31
0.0
  0
LINE
  5
780F
  8
0
 10
8574.1961524227008
 20
2886.719099764734
 30
0.0
 11
8571.760254037792
 21
2882.5
 31
0.0
  0
ARC
  5
7810
  8
0
 10
8563.0999999999894
 20
2887.5
 30
0.0
 40
8.0
 50
209.9999999999896
 51
330.00000000001052
  0
ARC
  5
7811
  8
0
 10
8563.0999999999894
 20
2887.5
 30
0.0
 40
10.0
 50
209.9999999999896
 51
329.99999999989421
  0
LINE
  5
7812
  8
0
 10
8572.9999999999909
 20
2925.5
 30
0.0
 11
8572.9999999999909
 21
2889.7190997647272
 31
0.0
  0
LINE
  5
7813
  8
0
 10
8549.9999999999909
 20
2928.5
 30
0.0
 11
8569.9999999999909
 21
2928.5
 31
0.0
  0
LINE
  5
7814
  8
0
 10
8549.9999999999909
 20
2930.5
 30
0.0
 11
8549.9999999999909
 21
2928.5
 31
0.0
  0
LINE
  5
7815
  8
0
 10
8569.9999999999909
 20
2930.5
 30
0.0
 11
8549.9999999999909
 21
2930.5
 31
0.0
  0
LINE
  5
7816
  8
0
 10
8574.9999999999927
 20
2889.719099764734
 30
0.0
 11
8574.9999999999927
 21
2925.5
 31
0.0
  0
LINE
  5
7817
  8
0
 10
8515.6999999999935
 20
2882.5
 30
0.0
 11
8517.9999999999909
 21
2882.5
 31
0.0
  0
LINE
  5
7818
  8
0
 10
8451.9999999999909
 20
2882.5
 30
0.0
 11
8454.299999999992
 21
2882.5
 31
0.0
  0
LINE
  5
7819
  8
0
 10
8428.2500000000236
 20
2897.5
 30
0.0
 11
8556.7500000000218
 21
2897.5
 31
0.0
  0
LINE
  5
781A
  8
0
 10
8428.2500000000236
 20
2910.5
 30
0.0
 11
8428.2500000000236
 21
2897.5
 31
0.0
  0
LINE
  5
781B
  8
0
 10
8556.7500000000218
 20
2910.5
 30
0.0
 11
8428.2500000000236
 21
2910.5
 31
0.0
  0
LINE
  5
781C
  8
0
 10
8515.6999999999935
 20
2930.2000000000039
 30
0.0
 11
8515.6999999999935
 21
2882.5
 31
0.0
  0
LINE
  5
781D
  8
0
 10
8454.299999999992
 20
2930.2000000000039
 30
0.0
 11
8515.6999999999935
 21
2930.2000000000039
 31
0.0
  0
LINE
  5
781E
  8
0
 10
8454.299999999992
 20
2882.5
 30
0.0
 11
8454.299999999992
 21
2930.2000000000039
 31
0.0
  0
LINE
  5
781F
  8
0
 10
8451.9999999999909
 20
2932.5
 30
0.0
 11
8451.9999999999909
 21
2882.5
 31
0.0
  0
LINE
  5
7820
  8
0
 10
8517.9999999999909
 20
2932.5
 30
0.0
 11
8451.9999999999909
 21
2932.5
 31
0.0
  0
LINE
  5
7821
  8
0
 10
8517.9999999999909
 20
2882.5
 30
0.0
 11
8517.9999999999909
 21
2932.5
 31
0.0
  0
LINE
  5
7822
  8
0
  6
PHANTOM2
 10
8624.9999999999782
 20
2999.9999999999932
 30
0.0
 11
8624.9999999999782
 21
1500.0000000000221
 31
0.0
  0
LINE
  5
7823
  8
0
  6
PHANTOM2
 10
8624.9999999999782
 20
1250.0000000000221
 30
0.0
 11
8549.9999999999782
 21
1250.0000000000221
 31
0.0
  0
LINE
  5
7824
  8
0
  6
PHANTOM2
 10
8549.9999999999782
 20
1250.0000000000221
 30
0.0
 11
8549.9999999999782
 21
1450.0000000000221
 31
0.0
  0
LINE
  5
7825
  8
0
  6
PHANTOM2
 10
8574.9999999999782
 20
1250.0000000000221
 30
0.0
 11
8574.9999999999782
 21
1450.0000000000221
 31
0.0
  0
ARC
  5
7826
  8
0
 10
5422.6999999999935
 20
2997.7000000000048
 30
0.0
 40
2.299999999999998
 50
0.0
 51
90.0
  0
LINE
  5
7827
  8
0
 10
5384.9999999999936
 20
2997.7000000000048
 30
0.0
 11
5384.9999999999936
 21
3000.0
 31
0.0
  0
LINE
  5
7828
  8
0
 10
5422.6999999999935
 20
2997.7000000000048
 30
0.0
 11
5384.9999999999936
 21
2997.7000000000048
 31
0.0
  0
LINE
  5
7829
  8
0
 10
5422.6999999999935
 20
2884.0
 30
0.0
 11
5422.6999999999935
 21
2997.7000000000048
 31
0.0
  0
LINE
  5
782A
  8
0
 10
5424.9999999999927
 20
2884.0
 30
0.0
 11
5422.6999999999935
 21
2884.0
 31
0.0
  0
LINE
  5
782B
  8
0
 10
5424.9999999999927
 20
2997.7000000000048
 30
0.0
 11
5424.9999999999927
 21
2884.0
 31
0.0
  0
LINE
  5
782C
  8
0
 10
5384.9999999999936
 20
3000.0
 30
0.0
 11
5422.6999999999935
 21
3000.0
 31
0.0
  0
ARC
  5
782D
  8
0
 10
5437.4999999999918
 20
2886.4999999999409
 30
0.0
 40
5.7499999999704414
 50
180.0
 51
0.0
  0
ARC
  5
782E
  8
0
 10
5437.4999999999918
 20
2921.5
 30
0.0
 40
5.7499999999704414
 50
0.0
 51
180.0
  0
LINE
  5
782F
  8
0
 10
5443.2499999999618
 20
2886.4999999999409
 30
0.0
 11
5443.2499999999618
 21
2921.5
 31
0.0
  0
LINE
  5
7830
  8
0
 10
5431.7499999999636
 20
2921.5
 30
0.0
 11
5431.7499999999636
 21
2886.4999999999409
 31
0.0
  0
ARC
  5
7831
  8
0
 10
5430.9999999999927
 20
2889.7190997647272
 30
0.0
 40
4.0
 50
180.0
 51
209.9999999999896
  0
ARC
  5
7832
  8
0
 10
5430.9999999999927
 20
2889.719099764734
 30
0.0
 40
6.0
 50
180.0
 51
209.9999999999896
  0
ARC
  5
7833
  8
0
 10
5429.9999999999918
 20
2925.5
 30
0.0
 40
3.0
 50
90.0
 51
180.0
  0
ARC
  5
7834
  8
0
 10
5429.9999999999918
 20
2925.5
 30
0.0
 40
5.0
 50
90.0
 51
180.0
  0
LINE
  5
7835
  8
0
 10
5448.4470053837858
 20
2887.5
 30
0.0
 11
5445.5602540378386
 21
2882.5
 31
0.0
  0
LINE
  5
7836
  8
0
 10
5446.7149545762222
 20
2888.5
 30
0.0
 11
5448.4470053837858
 21
2887.5
 31
0.0
  0
LINE
  5
7837
  8
0
 10
5443.828203230275
 20
2883.5
 30
0.0
 11
5446.7149545762222
 21
2888.5
 31
0.0
  0
LINE
  5
7838
  8
0
 10
5427.5358983848564
 20
2887.7190997647272
 30
0.0
 11
5429.971796769747
 21
2883.5000000000209
 31
0.0
  0
LINE
  5
7839
  8
0
 10
5425.8038475772837
 20
2886.719099764734
 30
0.0
 11
5428.2397459621943
 21
2882.5
 31
0.0
  0
ARC
  5
783A
  8
0
 10
5436.8999999999942
 20
2887.5
 30
0.0
 40
8.0
 50
209.9999999999896
 51
330.00000000001052
  0
ARC
  5
783B
  8
0
 10
5436.8999999999942
 20
2887.5
 30
0.0
 40
10.0
 50
210.0000000001059
 51
330.00000000001052
  0
LINE
  5
783C
  8
0
 10
5426.9999999999918
 20
2925.5
 30
0.0
 11
5426.9999999999918
 21
2889.7190997647272
 31
0.0
  0
LINE
  5
783D
  8
0
 10
5449.9999999999927
 20
2928.5
 30
0.0
 11
5429.9999999999918
 21
2928.5
 31
0.0
  0
LINE
  5
783E
  8
0
 10
5449.9999999999927
 20
2930.5
 30
0.0
 11
5449.9999999999927
 21
2928.5
 31
0.0
  0
LINE
  5
783F
  8
0
 10
5429.9999999999918
 20
2930.5
 30
0.0
 11
5449.9999999999927
 21
2930.5
 31
0.0
  0
LINE
  5
7840
  8
0
 10
5424.9999999999927
 20
2889.719099764734
 30
0.0
 11
5424.9999999999927
 21
2925.5
 31
0.0
  0
LINE
  5
7841
  8
0
 10
5484.299999999992
 20
2882.5
 30
0.0
 11
5481.9999999999927
 21
2882.5
 31
0.0
  0
LINE
  5
7842
  8
0
 10
5547.9999999999918
 20
2882.5
 30
0.0
 11
5545.6999999999935
 21
2882.5
 31
0.0
  0
LINE
  5
7843
  8
0
 10
5571.7499999999654
 20
2897.5
 30
0.0
 11
5443.2499999999618
 21
2897.5
 31
0.0
  0
LINE
  5
7844
  8
0
 10
5571.7499999999654
 20
2910.5
 30
0.0
 11
5571.7499999999654
 21
2897.5
 31
0.0
  0
LINE
  5
7845
  8
0
 10
5443.2499999999618
 20
2910.5
 30
0.0
 11
5571.7499999999654
 21
2910.5
 31
0.0
  0
LINE
  5
7846
  8
0
 10
5484.299999999992
 20
2930.2000000000039
 30
0.0
 11
5484.299999999992
 21
2882.5
 31
0.0
  0
LINE
  5
7847
  8
0
 10
5545.6999999999935
 20
2930.2000000000039
 30
0.0
 11
5484.299999999992
 21
2930.2000000000039
 31
0.0
  0
LINE
  5
7848
  8
0
 10
5545.6999999999935
 20
2882.5
 30
0.0
 11
5545.6999999999935
 21
2930.2000000000039
 31
0.0
  0
LINE
  5
7849
  8
0
 10
5547.9999999999918
 20
2932.5
 30
0.0
 11
5547.9999999999918
 21
2882.5
 31
0.0
  0
LINE
  5
784A
  8
0
 10
5481.9999999999927
 20
2932.5
 30
0.0
 11
5547.9999999999918
 21
2932.5
 31
0.0
  0
LINE
  5
784B
  8
0
 10
5481.9999999999927
 20
2882.5
 30
0.0
 11
5481.9999999999927
 21
2932.5
 31
0.0
  0
LINE
  5
784C
  8
0
  6
PHANTOM2
 10
5375.0000000000073
 20
2999.9999999999932
 30
0.0
 11
5375.0000000000073
 21
1500.0000000000221
 31
0.0
  0
LINE
  5
784D
  8
0
  6
PHANTOM2
 10
5375.0000000000073
 20
1250.0000000000221
 30
0.0
 11
5450.0000000000064
 21
1250.0000000000221
 31
0.0
  0
LINE
  5
784E
  8
0
  6
PHANTOM2
 10
5450.0000000000064
 20
1250.0000000000221
 30
0.0
 11
5450.0000000000064
 21
1450.0000000000221
 31
0.0
  0
LINE
  5
784F
  8
0
  6
PHANTOM2
 10
5425.0000000000064
 20
1250.0000000000221
 30
0.0
 11
5425.0000000000045
 21
1450.0000000000221
 31
0.0
  0
DIMENSION
  5
7850
  8
0
  2
*D4
 10
8500.0
 20
4000.0000000000291
 30
0.0
 11
7000.0
 21
4082.5000000000291
 31
0.0
  1
W
 13
5500.0
 23
3350.0000000000291
 33
0.0
 14
8500.0
 24
3350.0000000000291
 34
0.0
1001
ACAD
1000
DSTYLE
1002
{
1070
    41
1040
1.0
1002
}
  0
LINE
  5
7851
  8
0
 10
7016.0000000000073
 20
8839.9999999999709
 30
0.0
 11
7067.5000000000064
 21
8839.9999999999709
 31
0.0
  0
LINE
  5
7852
  8
0
 10
7067.5000000000064
 20
8839.9999999999709
 30
0.0
 11
7067.5000000000064
 21
6019.9999999999691
 31
0.0
  0
LINE
  5
7853
  8
0
 10
7067.5000000000064
 20
6019.9999999999691
 30
0.0
 11
7016.0000000000073
 21
6019.9999999999691
 31
0.0
  0
LINE
  5
7854
  8
0
 10
7016.0000000000073
 20
6019.9999999999691
 30
0.0
 11
7016.0000000000073
 21
8839.9999999999709
 31
0.0
  0
LINE
  5
7855
  8
0
 10
5250.0
 20
6000.0
 30
0.0
 11
11745.0
 21
6000.0
 31
0.0
  0
LINE
  5
7856
  8
0
 10
7104.0
 20
6000.0
 30
0.0
 11
7134.9054550059827
 21
8640.1531278376606
 31
0.0
  0
LINE
  5
7857
  8
0
  6
HIDDEN
 10
7050.9963323068368
 20
6000.0
 30
0.0
 11
7067.5000000000064
 21
7402.8117537458647
 31
0.0
  0
DIMENSION
  5
7858
  8
0
  2
*D6
 10
5525.0
 20
6000.0
 30
0.0
 11
5442.4999999999991
 21
7400.0000000000027
 31
0.0
  1
H
 13
6650.0
 23
8800.0
 33
0.0
 14
5625.0
 24
6000.0
 34
0.0
 50
90.0
1001
ACAD
1000
DSTYLE
1002
{
1070
    41
1040
1.0
1002
}
  0
DIMENSION
  5
7859
  8
0
  2
*D8
 10
5525.0
 20
9408.7999999999956
 30
0.0
 11
5442.4999999999991
 21
9104.3999999999996
 31
0.0
  1
HR=570～725
 13
6650.0
 23
8800.0
 33
0.0
 14
6650.0
 24
9408.7999999999956
 34
0.0
 50
90.0
1001
ACAD
1000
DSTYLE
1002
{
1070
    41
1040
1.0
1002
}
  0
DIMENSION
  5
785A
  8
0
  2
*D10
 10
5750.0
 20
9230.0
 30
0.0
 11
5667.4999999999991
 21
9015.0
 31
0.0
 13
6650.0
 23
8800.0
 33
0.0
 14
6650.0
 24
9230.0
 34
0.0
 50
90.0
1001
ACAD
1000
DSTYLE
1002
{
1070
    41
1040
1.0
1002
}
  0
LINE
  5
785B
  8
0
 10
7067.5000000000064
 20
7402.8117537458647
 30
0.0
 11
7081.9055950799448
 21
8640.4767880429936
 31
0.0
  0
DIMENSION
  5
785C
  8
0
  2
*D12
 10
8000.0
 20
8840.0
 30
0.0
 11
7917.5
 21
7430.0000000000027
 31
0.0
  1
DH
 13
7250.0
 23
6020.0
 33
0.0
 14
7250.0
 24
8840.0
 34
0.0
 50
90.0
1001
ACAD
1000
DSTYLE
1002
{
1070
    41
1040
1.0
1002
}
  0
TEXT
  5
785D
  8
0
 10
7562.4999999999973
 20
9934.5190528383318
 30
0.0
 40
105.0
  1
巻取ドラム
 41
0.8
  7
横文字
 72
     1
 11
7800.4999999999982
 21
9934.5190528383318
 31
0.0
  0
INSERT
  5
785E
  8
0
  2
*U34
 10
0.0
 20
0.0
 30
0.0
  0
DIMENSION
  5
785F
  8
0
  2
*D14
 10
11020.0
 20
9408.8000000000047
 30
0.0
 11
10937.5
 21
9308.6612237352838
 31
0.0
  1
200以上
 13
10420.0
 23
9208.5224474705647
 33
0.0
 14
10420.0
 24
9408.8000000000047
 34
0.0
 50
90.0
1001
ACAD
1000
DSTYLE
1002
{
1070
    41
1040
1.0
1002
}
  0
LINE
  5
7860
  8
0
 10
5500.0
 20
1500.0000000000221
 30
0.0
 11
5325.0
 21
1500.0000000000221
 31
0.0
  0
LINE
  5
7861
  8
0
 10
5500.0
 20
1450.0000000000221
 30
0.0
 11
5325.0
 21
1450.0000000000221
 31
0.0
  0
LINE
  5
7862
  8
0
  6
PHANTOM2
 10
5375.0000000000073
 20
1450.0000000000221
 30
0.0
 11
5375.0000000000073
 21
1250.0000000000221
 31
0.0
  0
LINE
  5
7863
  8
0
  6
PHANTOM2
 10
5425.0000000000045
 20
1494.0000000000221
 30
0.0
 11
5424.9999999999927
 21
2889.719099764734
 31
0.0
  0
LINE
  5
7864
  8
0
  6
PHANTOM2
 10
5450.0000000000064
 20
1494.0000000000221
 30
0.0
 11
5450.0000000000064
 21
2889.719099764734
 31
0.0
  0
LINE
  5
7865
  8
0
 10
8674.9999999999727
 20
1500.0000000000221
 30
0.0
 11
8499.9999999999709
 21
1500.0000000000221
 31
0.0
  0
LINE
  5
7866
  8
0
 10
8674.9999999999727
 20
1450.0000000000221
 30
0.0
 11
8499.9999999999709
 21
1450.0000000000221
 31
0.0
  0
LINE
  5
7867
  8
0
  6
PHANTOM2
 10
8624.9999999999782
 20
1450.0000000000221
 30
0.0
 11
8624.9999999999782
 21
1250.0000000000221
 31
0.0
  0
LINE
  5
7868
  8
0
  6
PHANTOM2
 10
8549.9999999999782
 20
1494.0000000000221
 30
0.0
 11
8549.9999999999782
 21
2889.719099764734
 31
0.0
  0
LINE
  5
7869
  8
0
  6
PHANTOM2
 10
8574.9999999999782
 20
1494.0000000000221
 30
0.0
 11
8574.9999999999927
 21
2889.719099764734
 31
0.0
  0
DIMENSION
  5
786A
  8
0
  2
*D16
 10
8525.0
 20
2250.0000000000291
 30
0.0
 11
7000.0
 21
2332.5000000000291
 31
0.0
  1
DW
 13
5475.0
 23
2750.0000000000291
 33
0.0
 14
8525.0
 24
2750.0000000000291
 34
0.0
1001
ACAD
1000
DSTYLE
1002
{
1070
    41
1040
1.0
1002
}
  0
TEXT
  5
786B
  8
0
 10
5727.5000000000091
 20
1390.28856829703
 30
0.0
 40
105.0
  1
水平レール
 41
0.8
  7
横文字
 72
     1
 11
5962.700000000008
 21
1390.28856829703
 31
0.0
  0
INSERT
  5
786C
  8
0
  2
*U35
 10
0.0
 20
0.0
 30
0.0
  0
LINE
  5
786D
  8
0
 10
7092.9992387806633
 20
6000.0
 30
0.0
 11
7123.9042368331211
 21
8640.1142867878661
 31
0.0
  0
DIMENSION
  5
786E
  8
0
  2
*D18
 10
5350.0
 20
3775.0000000000291
 30
0.0
 11
5425.0
 21
3857.50000000003
 31
0.0
  1
150以上
 13
5500.0
 23
3350.0000000000291
 33
0.0
 14
5350.0
 24
3350.0000000000291
 34
0.0
1001
ACAD
1000
DSTYLE
1002
{
1070
    41
1040
1.0
1002
}
  0
DIMENSION
  5
786F
  8
0
  2
*D20
 10
8770.0
 20
3775.0000000000291
 30
0.0
 11
8635.0
 21
3857.50000000003
 31
0.0
  1
270以上
 13
8500.0
 23
3350.0000000000291
 33
0.0
 14
8770.0
 24
3350.0000000000291
 34
0.0
1001
ACAD
1000
DSTYLE
1002
{
1070
    41
1040
1.0
1002
}
  0
LINE
  5
7870
  8
0
 10
7000.0
 20
9315.0000000000127
 30
0.0
 11
7000.0
 21
9145.0000000000127
 31
0.0
  0
LINE
  5
7871
  8
0
 10
7000.0
 20
9145.0000000000127
 30
0.0
 11
7190.0
 21
9145.0000000000127
 31
0.0
  0
LINE
  5
7872
  8
0
 10
7210.0
 20
9165.0000000000127
 30
0.0
 11
7210.0
 21
9212.5
 31
0.0
  0
LINE
  5
7873
  8
0
 10
7190.0
 20
9315.0000000000127
 30
0.0
 11
7000.0
 21
9315.0000000000127
 31
0.0
  0
LINE
  5
7874
  8
0
 10
7190.0
 20
9315.0000000000127
 30
0.0
 11
7210.0
 21
9295.0000000000146
 31
0.0
  0
LINE
  5
7875
  8
0
 10
7210.0
 20
9165.0000000000127
 30
0.0
 11
7190.0
 21
9145.0000000000127
 31
0.0
  0
LINE
  5
7876
  8
0
 10
7003.2000000000025
 20
9315.0000000000127
 30
0.0
 11
7003.2000000000025
 21
9145.0000000000127
 31
0.0
  0
LINE
  5
7877
  8
0
 10
7187.0373286141257
 20
9247.5
 30
0.0
 11
7210.0
 21
9247.5
 31
0.0
  0
LINE
  5
7878
  8
0
 10
7210.0
 20
9212.5
 30
0.0
 11
7187.0373286141203
 21
9212.5
 31
0.0
  0
LINE
  5
7879
  8
0
 10
7210.0
 20
9247.5
 30
0.0
 11
7210.0
 21
9295.0000000000146
 31
0.0
  0
CIRCLE
  5
787A
  8
0
 10
7110.0
 20
9230.0000000000164
 30
0.0
 40
79.0
  0
LINE
  5
787B
  8
0
  6
CENTER2
 10
7110.0
 20
9330.0000000000164
 30
0.0
 11
7110.0
 21
9130.0000000000127
 31
0.0
  0
LINE
  5
787C
  8
0
  6
CENTER2
 10
7009.0
 20
9230.0
 30
0.0
 11
7210.0
 21
9230.0
 31
0.0
  0
LINE
  5
787D
  8
0
 10
7540.0000000000082
 20
9408.7999999999956
 30
0.0
 11
7280.0000000000073
 21
9408.7999999999956
 31
0.0
  0
LINE
  5
787E
  8
0
 10
7280.0000000000073
 20
9408.7999999999956
 30
0.0
 11
7280.0000000000073
 21
9398.7999999999956
 31
0.0
  0
LINE
  5
787F
  8
0
 10
7280.0000000000073
 20
9398.7999999999956
 30
0.0
 11
7320.0000000000064
 21
9363.7999999999956
 31
0.0
  0
LINE
  5
7880
  8
0
 10
7320.0000000000064
 20
9363.7999999999956
 30
0.0
 11
7500.0000000000073
 21
9363.7999999999956
 31
0.0
  0
LINE
  5
7881
  8
0
 10
7540.0000000000082
 20
9408.7999999999956
 30
0.0
 11
7540.0000000000082
 21
9398.7999999999956
 31
0.0
  0
LINE
  5
7882
  8
0
 10
7540.0000000000082
 20
9398.7999999999956
 30
0.0
 11
7500.0000000000073
 21
9363.7999999999956
 31
0.0
  0
LINE
  5
7883
  8
0
 10
7510.0
 20
9372.5499999999956
 30
0.0
 11
7510.0
 21
9138.8000000000102
 31
0.0
  0
LINE
  5
7884
  8
0
 10
7510.0
 20
9138.8000000000102
 30
0.0
 11
7310.0
 21
9138.8000000000102
 31
0.0
  0
LINE
  5
7885
  8
0
 10
7310.0
 20
9138.8000000000102
 30
0.0
 11
7310.0
 21
9372.5499999999993
 31
0.0
  0
CIRCLE
  5
7886
  8
0
 10
7410.0
 20
9238.8000000000102
 30
0.0
 40
25.5
  0
LINE
  5
7887
  8
0
  6
CENTER2
 10
7410.0
 20
9188.8000000000102
 30
0.0
 11
7410.0
 21
9288.8000000000102
 31
0.0
  0
LINE
  5
7888
  8
0
  6
CENTER2
 10
7360.0
 20
9238.8000000000102
 30
0.0
 11
7460.0
 21
9238.8000000000102
 31
0.0
  0
LINE
  5
7889
  8
0
 10
7310.0
 20
9138.8000000000102
 30
0.0
 11
7305.0
 21
9138.8000000000102
 31
0.0
  0
LINE
  5
788A
  8
0
 10
7305.0
 20
9138.8000000000102
 30
0.0
 11
7305.0
 21
9176.1000000000076
 31
0.0
  0
LINE
  5
788B
  8
0
 10
7305.0
 20
9176.1000000000076
 30
0.0
 11
7310.0
 21
9176.1000000000076
 31
0.0
  0
LINE
  5
788C
  8
0
 10
7510.0
 20
9138.8000000000102
 30
0.0
 11
7515.0
 21
9138.8000000000102
 31
0.0
  0
LINE
  5
788D
  8
0
 10
7515.0
 20
9138.8000000000102
 30
0.0
 11
7515.0
 21
9176.1000000000076
 31
0.0
  0
LINE
  5
788E
  8
0
 10
7515.0
 20
9176.1000000000076
 30
0.0
 11
7510.0
 21
9176.1000000000076
 31
0.0
  0
LINE
  5
788F
  8
0
  6
HIDDEN
 10
7333.00000000003
 20
9138.8000000000102
 30
0.0
 11
7333.00000000003
 21
6477.0
 31
0.0
  0
LINE
  5
7890
  8
0
  6
HIDDEN
 10
7487.0000000000291
 20
6477.0
 30
0.0
 11
7487.0000000000291
 21
9138.8000000000102
 31
0.0
  0
ARC
  5
7891
  8
0
  6
HIDDEN
 10
7410.0000000000291
 20
6477.0
 30
0.0
 40
77.0
 50
180.0
 51
0.0
  0
LINE
  5
7892
  8
0
 10
10422.11830603248
 20
9155.5647966583037
 30
0.0
 11
10420.0
 21
9208.5224474705647
 31
0.0
  0
LINE
  5
7893
  8
0
  6
HIDDEN
 10
7000.0046452077731
 20
9071.7226332827195
 30
0.0
 11
7002.1229512402642
 21
9018.7649824704622
 31
0.0
  0
LINE
  5
7894
  8
0
 10
7535.7190166203518
 20
9051.1176215684773
 30
0.0
 11
10421.67865761049
 21
9166.5560072080771
 31
0.0
  0
LINE
  5
7895
  8
0
 10
7535.9320926726132
 20
9040.117348127751
 30
0.0
 11
10422.118306032329
 21
9155.5647966621418
 31
0.0
  0
LINE
  5
7896
  8
0
  6
HIDDEN
 10
7116.0
 20
9023.3200644208482
 30
0.0
 11
7002.1229512402642
 21
9018.7649824704622
 31
0.0
  0
LINE
  5
7897
  8
0
 10
7116.0
 20
9023.3200644208482
 30
0.0
 11
7305.7995076030538
 21
9030.9120447249716
 31
0.0
  0
LINE
  5
7898
  8
0
 10
10420.00000958171
 20
9208.5222079276191
 30
0.0
 11
7534.9054535213427
 21
9093.1186651177068
 31
0.0
  0
ARC
  5
7899
  8
0
 10
7534.9054535213891
 20
8640.1186651177177
 30
0.0
 40
399.9999999999996
 50
89.852944611111255
 51
179.9950635791553
  0
ARC
  5
789A
  8
0
 10
7534.9054535213891
 20
8640.1186651177177
 30
0.0
 40
411.00121671158541
 50
89.881756113252337
 51
180.00061036269631
  0
ARC
  5
789B
  8
0
 10
7534.9054535213891
 20
8640.1186651177177
 30
0.0
 40
452.99999999999272
 50
90.0
 51
179.95470433931951
  0
LINE
  5
789C
  8
0
 10
7498.7233572942432
 20
9091.6713817661748
 30
0.0
 11
7115.9999999999873
 21
9076.3624474744047
 31
0.0
  0
LINE
  5
789D
  8
0
 10
7116.0
 20
9076.3624474744047
 30
0.0
 11
7000.0046452077731
 21
9076.3624474744047
 31
0.0
  0
LINE
  5
789E
  8
0
 10
7116.0
 20
9076.3624469768547
 30
0.0
 11
7116.0
 21
8812.5345025864226
 31
0.0
  0
LINE
  5
789F
  8
0
  6
HIDDEN
 10
7115.9999999999782
 20
9076.3624474744047
 30
0.0
 11
7000.0046452077731
 21
9071.7226332827195
 31
0.0
  0
DIMENSION
  5
78A0
  8
0
  2
*D22
 10
10420.0
 20
10208.800000000039
 30
0.0
 11
8710.0
 21
10291.300000000039
 31
0.0
  1
DH+600
 13
7000.0
 23
10058.800000000039
 33
0.0
 14
10420.0
 24
9608.8000000000466
 34
0.0
1001
ACAD
1000
DSTYLE
1002
{
1070
    41
1040
1.0
1002
}
  0
DIMENSION
  5
78A1
  8
0
  2
*D24
 10
7110.0
 20
9983.8000000000466
 30
0.0
 11
7055.0
 21
10066.30000000005
 31
0.0
 13
7000.0
 23
9833.8000000000466
 33
0.0
 14
7110.0
 24
9608.8000000000466
 34
0.0
1001
ACAD
1000
DSTYLE
1002
{
1070
    41
1040
1.0
1002
}
  0
DIMENSION
  5
78A2
  8
0
  2
*D26
 10
7410.0
 20
9983.8000000000466
 30
0.0
 11
7335.0
 21
10066.30000000005
 31
0.0
 70
   128
 13
7110.0
 23
9608.8000000000466
 33
0.0
 14
7410.0
 24
9608.8000000000466
 34
0.0
1001
ACAD
1000
DSTYLE
1002
{
1070
    41
1040
1.0
1002
}
  0
TEXT
  5
78A3
  8
0
 10
7783.6043555237457
 20
9718.6877018922187
 30
0.0
 40
105.0
  1
チェーンホイスト
 41
0.8
  7
横文字
 72
     1
 11
8172.8043555237464
 21
9718.6877018922187
 31
0.0
  0
INSERT
  5
78A4
  8
0
  2
*U36
 10
0.0
 20
0.0
 30
0.0
  0
LINE
  5
78A5
  8
0
  6
HIDDEN
 10
7121.796982912304
 20
9308.1142188987924
 30
0.0
 11
7413.8078868894136
 21
9264.0140833154346
 31
0.0
  0
LINE
  5
78A6
  8
0
  6
HIDDEN
 10
7415.279294096189
 20
9213.8524739934892
 30
0.0
 11
7126.3554601411379
 21
9152.7115860974645
 31
0.0
  0
DIMENSION
  5
78A7
  8
0
  2
*D28
 10
7910.0
 20
9238.8000000000029
 30
0.0
 11
7827.5
 21
9293.7999999999993
 31
0.0
 70
   128
 13
7810.0
 23
9408.8000000000047
 33
0.0
 14
7410.0
 24
9238.8000000000029
 34
0.0
 50
90.0
1001
ACAD
1000
DSTYLE
1002
{
1070
    41
1040
1.0
1002
}
  0
LINE
  5
78A8
  8
0
  6
HIDDEN
 10
8691.0
 20
2507.5000000000291
 30
0.0
 11
8691.0
 21
2672.50000000003
 31
0.0
  0
LINE
  5
78A9
  8
0
  6
HIDDEN
 10
8691.0
 20
2672.50000000003
 30
0.0
 11
8699.0000000000291
 21
2672.50000000003
 31
0.0
  0
LINE
  5
78AA
  8
0
  6
HIDDEN
 10
8719.0
 20
2672.50000000003
 30
0.0
 11
8719.0
 21
2507.5000000000291
 31
0.0
  0
LINE
  5
78AB
  8
0
  6
HIDDEN
 10
8673.5999999999985
 20
2460.0000000000291
 30
0.0
 11
8736.4000000000033
 21
2460.0000000000291
 31
0.0
  0
LINE
  5
78AC
  8
0
  6
HIDDEN
 10
8736.4000000000033
 20
2460.0000000000291
 30
0.0
 11
8736.4000000000033
 21
2720.0000000000291
 31
0.0
  0
LINE
  5
78AD
  8
0
  6
HIDDEN
 10
8736.4000000000033
 20
2720.0000000000291
 30
0.0
 11
8673.5999999999985
 21
2720.0000000000291
 31
0.0
  0
LINE
  5
78AE
  8
0
  6
HIDDEN
 10
8673.5999999999985
 20
2720.0000000000291
 30
0.0
 11
8673.5999999999985
 21
2460.0000000000291
 31
0.0
  0
LINE
  5
78AF
  8
0
  6
HIDDEN
 10
8676.8000000000029
 20
2720.0000000000291
 30
0.0
 11
8676.8000000000029
 21
2460.0000000000291
 31
0.0
  0
LINE
  5
78B0
  8
0
  6
HIDDEN
 10
8733.2000000000007
 20
2460.0000000000291
 30
0.0
 11
8733.2000000000007
 21
2720.0000000000291
 31
0.0
  0
LINE
  5
78B1
  8
0
  6
HIDDEN
 10
8695.5
 20
2507.5000000000291
 30
0.0
 11
8695.5
 21
2672.50000000003
 31
0.0
  0
LINE
  5
78B2
  8
0
  6
HIDDEN
 10
8714.4999999999982
 20
2672.50000000003
 30
0.0
 11
8714.4999999999982
 21
2507.5000000000291
 31
0.0
  0
LINE
  5
78B3
  8
0
  6
HIDDEN
 10
8699.0000000000346
 20
2672.5
 30
0.0
 11
8702.0000000000346
 21
2664.2575677416389
 31
0.0
  0
LINE
  5
78B4
  8
0
  6
HIDDEN
 10
8702.0000000000346
 20
2664.2575677416389
 30
0.0
 11
8702.0000000000346
 21
2657.0
 31
0.0
  0
LINE
  5
78B5
  8
0
  6
HIDDEN
 10
8708.0000000000346
 20
2657.0
 30
0.0
 11
8708.0000000000346
 21
2664.2575677416389
 31
0.0
  0
LINE
  5
78B6
  8
0
  6
HIDDEN
 10
8708.0000000000346
 20
2664.2575677416389
 30
0.0
 11
8711.0000000000346
 21
2672.5
 31
0.0
  0
LINE
  5
78B7
  8
0
  6
HIDDEN
 10
8711.0000000000455
 20
2672.50000000003
 30
0.0
 11
8719.0
 21
2672.50000000003
 31
0.0
  0
ARC
  5
78B8
  8
0
  6
HIDDEN
 10
8705.0000000000346
 20
2657.0
 30
0.0
 40
3.0
 50
180.0
 51
0.0
  0
LINE
  5
78B9
  8
0
  6
HIDDEN
 10
8691.0
 20
2507.5000000000291
 30
0.0
 11
8699.0000000000291
 21
2507.5000000000291
 31
0.0
  0
LINE
  5
78BA
  8
0
  6
HIDDEN
 10
8699.0000000000418
 20
2507.5000000000509
 30
0.0
 11
8702.0000000000418
 21
2515.7424322584202
 31
0.0
  0
LINE
  5
78BB
  8
0
  6
HIDDEN
 10
8702.0000000000418
 20
2515.7424322584202
 30
0.0
 11
8702.0000000000418
 21
2523.0000000000509
 31
0.0
  0
LINE
  5
78BC
  8
0
  6
HIDDEN
 10
8708.0000000000418
 20
2523.0000000000509
 30
0.0
 11
8708.0000000000418
 21
2515.7424322584202
 31
0.0
  0
LINE
  5
78BD
  8
0
  6
HIDDEN
 10
8708.0000000000418
 20
2515.7424322584202
 30
0.0
 11
8711.0000000000418
 21
2507.5000000000509
 31
0.0
  0
LINE
  5
78BE
  8
0
  6
HIDDEN
 10
8711.0000000000509
 20
2507.5000000000291
 30
0.0
 11
8719.0
 21
2507.5000000000291
 31
0.0
  0
ARC
  5
78BF
  8
0
  6
HIDDEN
 10
8705.0000000000418
 20
2523.0000000000509
 30
0.0
 40
3.0
 50
0.0
 51
180.0
  0
LINE
  5
78C0
  8
0
  6
CENTER2
 10
8705.0
 20
2820.0000000000291
 30
0.0
 11
8705.0
 21
2360.0000000000291
 31
0.0
  0
TEXT
  5
78C1
  8
0
 10
8565.7335828747546
 20
8767.5119019032281
 30
0.0
 40
105.0
  1
1／25勾配型水平レール
 41
0.8
  7
横文字
 72
     1
 11
9134.533582874752
 21
8767.5119019032281
 31
0.0
  0
INSERT
  5
78C2
  8
0
  2
*U37
 10
0.0
 20
0.0
 30
0.0
  0
LINE
  5
78C3
  8
0
  6
PHANTOM2
 10
7000.0
 20
10508.800000000039
 30
0.0
 11
7000.0
 21
9558.7999999999956
 31
0.0
  0
LINE
  5
78C4
  8
0
  6
PHANTOM2
 10
6850.0
 20
10508.800000000039
 30
0.0
 11
6850.0
 21
8800.0
 31
0.0
  0
LINE
  5
78C5
  8
0
  6
PHANTOM2
 10
6850.0
 20
8800.0
 30
0.0
 11
7000.0
 21
8800.0
 31
0.0
  0
LINE
  5
78C6
  8
0
  6
PHANTOM2
 10
7000.0
 20
9558.8000000000029
 30
0.0
 11
11420.0
 21
9558.8000000000029
 31
0.0
  0
LINE
  5
78C7
  8
0
  6
PHANTOM2
 10
7000.0
 20
9408.8000000000047
 30
0.0
 11
11420.0
 21
9408.8000000000047
 31
0.0
  0
LINE
  5
78C8
  8
0
  6
PHANTOM2
 10
7000.0
 20
9408.8000000000047
 30
0.0
 11
7000.0
 21
8800.0
 31
0.0
  0
LINE
  5
78C9
  8
0
  6
PHANTOM2
 10
4500.0
 20
3000.0
 30
0.0
 11
5500.0
 21
3000.0
 31
0.0
  0
LINE
  5
78CA
  8
0
  6
PHANTOM2
 10
8500.0
 20
3150.0
 30
0.0
 11
8500.0
 21
3000.0
 31
0.0
  0
LINE
  5
78CB
  8
0
  6
PHANTOM2
 10
5500.0
 20
3150.0
 30
0.0
 11
5500.0
 21
3000.0
 31
0.0
  0
LINE
  5
78CC
  8
0
  6
PHANTOM2
 10
4500.0
 20
3150.0
 30
0.0
 11
5500.0
 21
3150.0
 31
0.0
  0
LINE
  5
78CD
  8
0
  6
PHANTOM2
 10
8500.0
 20
3150.0
 30
0.0
 11
9500.0
 21
3150.0
 31
0.0
  0
LINE
  5
78CE
  8
0
  6
PHANTOM2
 10
8500.0
 20
3000.0
 30
0.0
 11
9500.0
 21
3000.0
 31
0.0
  0
TEXT
  5
78CF
  8
0
 10
10979.999999999971
 20
47.5
 30
0.0
 40
105.0
  1
スタンダード
 11
10979.999999999971
 21
100.0
 31
0.0
 73
     2
  0
TEXT
  5
78D0
  8
0
 10
10229.999999999971
 20
47.5
 30
0.0
 40
105.0
  1
納まり　  :
 11
10229.999999999971
 21
100.0
 31
0.0
 73
     2
  0
TEXT
  5
78D1
  8
0
 10
6552.9957445612663
 20
7427.0875098650658
 30
0.0
 40
105.0
  1
パネル
 41
0.8
  7
文字
 72
     1
 11
6692.9957445612672
 21
7427.0875098650658
 31
0.0
  0
INSERT
  5
78D2
  8
0
  2
*U38
 10
0.0
 20
0.0
 30
0.0
  0
DIMENSION
  5
78D3
  8
0
  2
*D30
 10
5750.0
 20
8700.0
 30
0.0
 11
5667.4999999999991
 21
8750.0000000000018
 31
0.0
  1
Y
 13
6650.0
 23
8800.0
 33
0.0
 14
6650.0
 24
8700.0
 34
0.0
 50
90.0
1001
ACAD
1000
DSTYLE
1002
{
1070
    41
1040
1.0
1002
}
  0
DIMENSION
  5
78D4
  8
0
  2
*D32
 10
5750.0
 20
5999.9999999999918
 30
0.0
 11
5667.4999999999991
 21
7349.9999999999973
 31
0.0
  1
有効開口高=H-Y
 13
6650.0
 23
8700.0
 33
0.0
 14
5900.0
 24
5999.9999999999918
 34
0.0
 50
90.0
1001
ACAD
1000
DSTYLE
1002
{
1070
    41
1040
1.0
1002
}
  0
TEXT
  5
78D5
  8
0
 10
13410.0
 20
10647.5
 30
0.0
 40
105.0
  1
パネル
 41
0.8
  7
文字
 72
     1
 11
13550.0
 21
10700.0
 31
0.0
 73
     2
  0
TEXT
  5
78D6
  8
0
 10
13064.0
 20
10447.5
 30
0.0
 40
105.0
  1
Y
 41
0.8
  7
文字
 72
     1
 11
13100.0
 21
10500.0
 31
0.0
 73
     2
  0
LINE
  5
78D7
  8
0
 10
15300.0
 20
10800.0
 30
0.0
 11
13800.0
 21
10800.0
 31
0.0
  0
LINE
  5
78D8
  8
0
 10
12900.0
 20
11000.0
 30
0.0
 11
12900.0
 21
10400.0
 31
0.0
  0
LINE
  5
78D9
  8
0
 10
15300.0
 20
10600.0
 30
0.0
 11
12900.0
 21
10600.0
 31
0.0
  0
LINE
  5
78DA
  8
0
 10
12900.0
 20
10400.0
 30
0.0
 11
15300.0
 21
10400.0
 31
0.0
  0
LINE
  5
78DB
  8
0
 10
13300.0
 20
11000.0
 30
0.0
 11
13300.0
 21
10400.0
 31
0.0
  0
LINE
  5
78DC
  8
0
 10
13800.0
 20
11000.0
 30
0.0
 11
13800.0
 21
10400.0
 31
0.0
  0
TEXT
  5
78DD
  8
0
 10
13510.0
 20
10447.5
 30
0.0
 40
105.0
  1
0
 41
0.8
  7
文字
 72
     1
 11
13550.0
 21
10500.0
 31
0.0
 73
     2
  0
TEXT
  5
78DE
  8
0
 10
13359.6
 20
10847.5
 30
0.0
 40
105.0
  1
スチール
 41
0.8
  7
文字
 72
     1
 11
13550.0
 21
10900.0
 31
0.0
 73
     2
  0
TEXT
  5
78DF
  8
0
 10
13960.4
 20
10647.5
 30
0.0
 40
105.0
  1
標準
 41
0.8
  7
文字
 72
     1
 11
14050.0
 21
10700.0
 31
0.0
 73
     2
  0
LINE
  5
78E0
  8
0
 10
14300.0
 20
10800.0
 30
0.0
 11
14300.0
 21
10400.0
 31
0.0
  0
TEXT
  5
78E1
  8
0
 10
14371.200000000001
 20
10647.5
 30
0.0
 40
105.0
  1
ワイド1
 41
0.8
  7
文字
 72
     1
 11
14550.0
 21
10700.0
 31
0.0
 73
     2
  0
LINE
  5
78E2
  8
0
 10
14800.0
 20
10800.0
 30
0.0
 11
14800.0
 21
10400.0
 31
0.0
  0
TEXT
  5
78E3
  8
0
 10
14859.200000000001
 20
10647.5
 30
0.0
 40
105.0
  1
ワイド2
 41
0.8
  7
文字
 72
     1
 11
15050.0
 21
10700.0
 31
0.0
 73
     2
  0
LINE
  5
78E4
  8
0
 10
15300.0
 20
11000.0
 30
0.0
 11
15300.0
 21
10400.0
 31
0.0
  0
TEXT
  5
78E5
  8
0
 10
13937.200000000001
 20
10847.5
 30
0.0
 40
105.0
  1
アルミパネル・FRPパネル
 41
0.8
  7
文字
 72
     1
 11
14550.0
 21
10900.0
 31
0.0
 73
     2
  0
LINE
  5
78E6
  8
0
 10
15300.0
 20
11000.0
 30
0.0
 11
12900.0
 21
11000.0
 31
0.0
  0
TEXT
  5
78E7
  8
0
 10
14010.0
 20
10447.5
 30
0.0
 40
105.0
  1
0
 41
0.8
  7
文字
 72
     1
 11
14050.0
 21
10500.0
 31
0.0
 73
     2
  0
TEXT
  5
78E8
  8
0
 10
14470.0
 20
10447.5
 30
0.0
 40
105.0
  1
70
 41
0.8
  7
文字
 72
     1
 11
14550.0
 21
10500.0
 31
0.0
 73
     2
  0
TEXT
  5
78E9
  8
0
 10
14924.0
 20
10447.5
 30
0.0
 40
105.0
  1
100
 41
0.8
  7
文字
 72
     1
 11
15050.0
 21
10500.0
 31
0.0
 73
     2
  0
LINE
  5
78EA
  8
0
 10
12900.0
 20
11000.0
 30
0.0
 11
13300.0
 21
10600.0
 31
0.0
  0
TEXT
  5
78EB
  8
0
 10
12900.0
 20
11047.5
 30
0.0
 40
105.0
  1
有効開口高=H-Y
 41
0.8
  7
文字
 11
12900.0
 21
11100.0
 31
0.0
 73
     2
  0
TEXT
  5
78EC
  8
0
 10
14931.200000000001
 20
11047.5
 30
0.0
 40
105.0
  1
（mm）
 41
0.8
  7
文字
 72
     2
 11
15300.0
 21
11100.0
 31
0.0
 73
     2
  0
LINE
  5
78ED
  8
0
  6
PHANTOM2
 10
7070.7000000000053
 20
6029.8000000000102
 30
0.0
 11
7095.5000000000073
 21
6029.8000000000102
 31
0.0
  0
LINE
  5
78EE
  8
0
  6
PHANTOM2
 10
7070.7000000000053
 20
6222.5000000000073
 30
0.0
 11
7067.5000000000064
 21
6222.5000000000073
 31
0.0
  0
LINE
  5
78EF
  8
0
  6
PHANTOM2
 10
7095.5000000000073
 20
6033.0000000000082
 30
0.0
 11
7095.5000000000073
 21
6029.8000000000102
 31
0.0
  0
LINE
  5
78F0
  8
0
  6
PHANTOM2
 10
7070.7000000000053
 20
6033.0000000000082
 30
0.0
 11
7095.5000000000073
 21
6033.0000000000082
 31
0.0
  0
ARC
  5
78F1
  8
0
  6
PHANTOM2
 10
7070.7000000000053
 20
6033.0000000000082
 30
0.0
 40
3.2000000000000002
 50
180.0
 51
270.0
  0
LINE
  5
78F2
  8
0
  6
PHANTOM2
 10
7163.5000000000073
 20
6138.4999999999691
 30
0.0
 11
7163.5000000000073
 21
6137.5000000000073
 31
0.0
  0
LINE
  5
78F3
  8
0
  6
PHANTOM2
 10
7163.5000000000073
 20
6055.5000000000073
 30
0.0
 11
7158.5952617056382
 21
6055.5000000000073
 31
0.0
  0
LINE
  5
78F4
  8
0
  6
PHANTOM2
 10
7136.5000000000082
 20
6055.5000000000073
 30
0.0
 11
7070.7000000000053
 21
6055.5000000000073
 31
0.0
  0
LINE
  5
78F5
  8
0
  6
PHANTOM2
 10
7163.5000000000073
 20
6137.5000000000073
 30
0.0
 11
7141.0295766755744
 21
6137.5000000000073
 31
0.0
  0
LINE
  5
78F6
  8
0
  6
PHANTOM2
 10
7104.8594262750121
 20
6114.1176127356302
 30
0.0
 11
7138.232212400565
 21
6136.6442433703842
 31
0.0
  0
ARC
  5
78F7
  8
0
  6
PHANTOM2
 10
7141.0295766755744
 20
6132.5000000000073
 30
0.0
 40
5.0
 50
90.0
 51
124.01934998959349
  0
LINE
  5
78F8
  8
0
  6
PHANTOM2
 10
7163.5000000000073
 20
6058.49999999997
 30
0.0
 11
7163.5000000000073
 21
6055.5000000000073
 31
0.0
  0
LINE
  5
78F9
  8
0
  6
PHANTOM2
 10
7163.5000000000073
 20
6138.4999999999691
 30
0.0
 11
7166.7000000000053
 21
6138.4999999999691
 31
0.0
  0
LINE
  5
78FA
  8
0
  6
PHANTOM2
 10
7163.5000000000073
 20
6058.49999999997
 30
0.0
 11
7166.7000000000089
 21
6058.49999999997
 31
0.0
  0
LINE
  5
78FB
  8
0
  6
PHANTOM2
 10
7166.7000000000053
 20
6138.4999999999691
 30
0.0
 11
7166.7000000000053
 21
6101.7290599168118
 31
0.0
  0
LINE
  5
78FC
  8
0
  6
PHANTOM2
 10
7166.7000000000089
 20
6095.3290599168104
 30
0.0
 11
7166.7000000000089
 21
6058.49999999997
 31
0.0
  0
ARC
  5
78FD
  8
0
  6
PHANTOM2
 10
7163.5000000000073
 20
6095.3290599168104
 30
0.0
 40
3.2000000000000002
 50
0.0
 51
90.0
  0
ARC
  5
78FE
  8
0
  6
PHANTOM2
 10
7163.5000000000073
 20
6101.7290599168118
 30
0.0
 40
3.2000000000000002
 50
270.0
 51
0.0
  0
LINE
  5
78FF
  8
0
  6
PHANTOM2
 10
7070.7000000000053
 20
6150.5000000000082
 30
0.0
 11
7104.8594262750121
 21
6114.1176127356366
 31
0.0
  0
LINE
  5
7900
  8
0
  6
PHANTOM2
 10
7070.7000000000053
 20
6055.5000000000073
 30
0.0
 11
7070.7000000000053
 21
6033.0000000000082
 31
0.0
  0
ARC
  5
7901
  8
0
  6
PHANTOM2
 10
7169.5000000000082
 20
6032.8000000000102
 30
0.0
 40
12.5
 50
239.9999999999429
 51
59.999999999942858
  0
LINE
  5
7902
  8
0
  6
PHANTOM2
 10
7163.2500000000082
 20
6021.9746824527028
 30
0.0
 11
7139.0000000000073
 21
6035.9754264805506
 31
0.0
  0
LINE
  5
7903
  8
0
  6
PHANTOM2
 10
7175.7500000000073
 20
6043.6253175473094
 30
0.0
 11
7161.0000000000073
 21
6052.1412340178576
 31
0.0
  0
ARC
  5
7904
  8
0
  6
PHANTOM2
 10
7163.5000000000073
 20
6056.4713610367844
 30
0.0
 40
5.0
 50
191.20221111558621
 51
239.9999999999429
  0
LINE
  5
7905
  8
0
  6
PHANTOM2
 10
7136.5000000000082
 20
6055.5000000000073
 30
0.0
 11
7136.5000000000082
 21
6040.3055534994719
 31
0.0
  0
ARC
  5
7906
  8
0
  6
PHANTOM2
 10
7141.5000000000073
 20
6040.3055534994719
 30
0.0
 40
5.0
 50
180.0
 51
239.9999999999429
  0
LINE
  5
7907
  8
0
  6
PHANTOM2
 10
7204.9000000000087
 20
6120.5000000000437
 30
0.0
 11
7204.9000000000087
 21
6151.1110695100851
 31
0.0
  0
LINE
  5
7908
  8
0
  6
PHANTOM2
 10
7203.7000000000044
 20
6120.5000000000437
 30
0.0
 11
7203.7000000000044
 21
6150.5000000000418
 31
0.0
  0
LINE
  5
7909
  8
0
  6
PHANTOM2
 10
7204.9000000000087
 20
6120.5000000000437
 30
0.0
 11
7203.7000000000044
 21
6120.5000000000437
 31
0.0
  0
LINE
  5
790A
  8
0
  6
PHANTOM2
 10
7148.7000000000053
 20
6190.5000000000418
 30
0.0
 11
7203.7000000000044
 21
6150.5000000000418
 31
0.0
  0
LINE
  5
790B
  8
0
  6
PHANTOM2
 10
7148.7000000000053
 20
6190.5000000000418
 30
0.0
 11
7070.7000000000053
 21
6190.5000000000418
 31
0.0
  0
LINE
  5
790C
  8
0
  6
PHANTOM2
 10
7071.9000000000096
 20
6191.7000000000389
 30
0.0
 11
7071.9000000000096
 21
6224.6040862788577
 31
0.0
  0
LINE
  5
790D
  8
0
  6
PHANTOM2
 10
7149.0902205763159
 20
6191.7000000000389
 30
0.0
 11
7071.9000000000096
 21
6191.7000000000389
 31
0.0
  0
LINE
  5
790E
  8
0
  6
PHANTOM2
 10
7149.0902205763159
 20
6191.7000000000389
 30
0.0
 11
7204.9000000000087
 21
6151.1110695100851
 31
0.0
  0
LINE
  5
790F
  8
0
  6
PHANTOM2
 10
7068.9000000000087
 20
6234.5000000000437
 30
0.0
 11
7070.7000000000053
 21
6224.4969790327668
 31
0.0
  0
LINE
  5
7910
  8
0
  6
PHANTOM2
 10
7070.0810311808264
 20
6234.7125214105608
 30
0.0
 11
7071.9000000000096
 21
6224.6040862788577
 31
0.0
  0
LINE
  5
7911
  8
0
  6
PHANTOM2
 10
7070.0810311808264
 20
6234.7125214105608
 30
0.0
 11
7068.9000000000087
 21
6234.5000000000437
 31
0.0
  0
LINE
  5
7912
  8
0
  6
PHANTOM2
 10
7070.7000000000053
 20
6190.5000000000364
 30
0.0
 11
7070.7000000000053
 21
6150.5000000000082
 31
0.0
  0
LINE
  5
7913
  8
0
  6
PHANTOM2
 10
7070.7000000000053
 20
6222.5000000000073
 30
0.0
 11
7070.7000000000053
 21
6224.4969790327668
 31
0.0
  0
LINE
  5
7914
  8
0
  6
PHANTOM2
 10
7067.5000000000064
 20
6222.5000000000073
 30
0.0
 11
7067.5000000000064
 21
6033.0000000000082
 31
0.0
  0
ENDSEC
  0
EOF
