  0
SECTION
  2
HEADER
  9
$ACADVER
  1
AC1009
  9
$INSBASE
 10
0.0
 20
0.0
 30
0.0
  9
$EXTMIN
 10
-0.4998397926137841
 20
-0.3584016095373954
 30
-0.0015258207003583
  9
$EXTMAX
 10
16380.499916067931
 20
11745.35845630145
 30
0.0000000349246037
  9
$LIMMIN
 10
0.0
 20
0.0
  9
$LIMMAX
 10
420.0
 20
297.0
  9
$ORTHOMODE
 70
     0
  9
$REGENMODE
 70
     1
  9
$FILLMODE
 70
     1
  9
$QTEXTMODE
 70
     0
  9
$MIRRTEXT
 70
     1
  9
$DRAGMODE
 70
     2
  9
$LTSCALE
 40
7.5
  9
$OSMODE
 70
  3071
  9
$ATTMODE
 70
     1
  9
$TEXTSIZE
 40
105.0
  9
$TRACEWID
 40
1.0
  9
$TEXTSTYLE
  7
文字
  9
$CLAYER
  8
0
  9
$CELTYPE
  6
BYLAYER
  9
$CECOLOR
 62
   256
  9
$DIMSCALE
 40
30.0
  9
$DIMASZ
 40
2.0
  9
$DIMEXO
 40
5.0
  9
$DIMDLI
 40
7.5
  9
$DIMRND
 40
0.0
  9
$DIMDLE
 40
0.0
  9
$DIMEXE
 40
1.0
  9
$DIMTP
 40
0.0
  9
$DIMTM
 40
0.0
  9
$DIMTXT
 40
3.5
  9
$DIMCEN
 40
1.0
  9
$DIMTSZ
 40
0.0
  9
$DIMTOL
 70
     0
  9
$DIMLIM
 70
     0
  9
$DIMTIH
 70
     0
  9
$DIMTOH
 70
     0
  9
$DIMSE1
 70
     0
  9
$DIMSE2
 70
     0
  9
$DIMTAD
 70
     1
  9
$DIMZIN
 70
     8
  9
$DIMBLK
  1
ORIGIN
  9
$DIMASO
 70
     1
  9
$DIMSHO
 70
     1
  9
$DIMPOST
  1

  9
$DIMAPOST
  1

  9
$DIMALT
 70
     0
  9
$DIMALTD
 70
     3
  9
$DIMALTF
 40
0.03937007874016
  9
$DIMLFAC
 40
1.0
  9
$DIMTOFL
 70
     1
  9
$DIMTVP
 40
0.0
  9
$DIMTIX
 70
     1
  9
$DIMSOXD
 70
     0
  9
$DIMSAH
 70
     0
  9
$DIMBLK1
  1

  9
$DIMBLK2
  1

  9
$DIMSTYLE
  2
寸法線30
  9
$DIMCLRD
 70
   256
  9
$DIMCLRE
 70
   256
  9
$DIMCLRT
 70
   256
  9
$DIMTFAC
 40
1.0
  9
$DIMGAP
 40
1.0
  9
$LUNITS
 70
     2
  9
$LUPREC
 70
     4
  9
$SKETCHINC
 40
1.0
  9
$FILLETRAD
 40
0.0
  9
$AUNITS
 70
     0
  9
$AUPREC
 70
     0
  9
$MENU
  1
.
  9
$ELEVATION
 40
0.0
  9
$PELEVATION
 40
0.0
  9
$THICKNESS
 40
0.0
  9
$LIMCHECK
 70
     0
  9
$BLIPMODE
 70
     0
  9
$CHAMFERA
 40
10.0
  9
$CHAMFERB
 40
10.0
  9
$SKPOLY
 70
     0
  9
$TDCREATE
 40
2452654.657629028
  9
$TDUPDATE
 40
2456778.7065525809
  9
$TDINDWG
 40
0.7997459491
  9
$TDUSRTIMER
 40
0.7997441204
  9
$USRTIMER
 70
     1
  9
$ANGBASE
 50
0.0
  9
$ANGDIR
 70
     0
  9
$PDMODE
 70
     0
  9
$PDSIZE
 40
0.0
  9
$PLINEWID
 40
0.0
  9
$COORDS
 70
     2
  9
$SPLFRAME
 70
     0
  9
$SPLINETYPE
 70
     6
  9
$SPLINESEGS
 70
     8
  9
$ATTDIA
 70
     0
  9
$ATTREQ
 70
     1
  9
$HANDLING
 70
     1
  9
$HANDSEED
  5
77EF
  9
$SURFTAB1
 70
     6
  9
$SURFTAB2
 70
     6
  9
$SURFTYPE
 70
     6
  9
$SURFU
 70
     6
  9
$SURFV
 70
     6
  9
$UCSNAME
  2

  9
$UCSORG
 10
0.0
 20
0.0
 30
0.0
  9
$UCSXDIR
 10
1.0
 20
0.0
 30
0.0
  9
$UCSYDIR
 10
0.0
 20
1.0
 30
0.0
  9
$PUCSNAME
  2

  9
$PUCSORG
 10
0.0
 20
0.0
 30
0.0
  9
$PUCSXDIR
 10
1.0
 20
0.0
 30
0.0
  9
$PUCSYDIR
 10
0.0
 20
1.0
 30
0.0
  9
$USERI1
 70
     0
  9
$USERI2
 70
     0
  9
$USERI3
 70
     0
  9
$USERI4
 70
     0
  9
$USERI5
 70
     0
  9
$USERR1
 40
0.0
  9
$USERR2
 40
0.0
  9
$USERR3
 40
0.0
  9
$USERR4
 40
0.0
  9
$USERR5
 40
0.0
  9
$WORLDVIEW
 70
     1
  9
$SHADEDGE
 70
     3
  9
$SHADEDIF
 70
    70
  9
$TILEMODE
 70
     1
  9
$MAXACTVP
 70
    64
  9
$PLIMCHECK
 70
     0
  9
$PEXTMIN
 10
1.0000000000000000E+020
 20
1.0000000000000000E+020
 30
1.0000000000000000E+020
  9
$PEXTMAX
 10
-1.0000000000000000E+020
 20
-1.0000000000000000E+020
 30
-1.0000000000000000E+020
  9
$PLIMMIN
 10
0.0
 20
0.0
  9
$PLIMMAX
 10
420.0
 20
297.0
  9
$UNITMODE
 70
     0
  9
$VISRETAIN
 70
     1
  9
$PLINEGEN
 70
     0
  9
$PSLTSCALE
 70
     1
  0
ENDSEC
  0
SECTION
  2
TABLES
  0
TABLE
  2
VPORT
 70
     1
  0
VPORT
  2
*ACTIVE
 70
     0
 10
0.0
 20
0.0
 11
1.0
 21
1.0
 12
8190.0000381376594
 22
5872.5000273459573
 13
0.0
 23
0.0
 14
10.0
 24
10.0
 15
10.0
 25
10.0
 16
0.0
 26
0.0
 36
1.0
 17
0.0
 27
0.0
 37
0.0
 40
11826.443434254021
 41
1.7981651376146781
 42
50.0
 43
0.0
 44
0.0
 50
0.0
 51
0.0
 71
     0
 72
   100
 73
     1
 74
     3
 75
     0
 76
     0
 77
     0
 78
     0
  0
ENDTAB
  0
TABLE
  2
LTYPE
 70
     4
  0
LTYPE
  2
CONTINUOUS
 70
     0
  3
Solid line
 72
    65
 73
     0
 40
0.0
  0
LTYPE
  2
HIDDEN
 70
     0
  3
Hidden __ __ __ __ __ __ __ __ __ __ __ __ __ _
 72
    65
 73
     2
 40
9.5249999999999986
 49
6.3499999999999979
 49
-3.174999999999998
  0
LTYPE
  2
CENTER2
 70
     0
  3
Center (.5x) ___ _ ___ _ ___ _ ___ _ ___ _ ___
 72
    65
 73
     4
 40
28.574999999999999
 49
19.050000000000001
 49
-3.174999999999998
 49
3.174999999999998
 49
-3.174999999999998
  0
LTYPE
  2
PHANTOM2
 70
     0
  3
Phantom (.5x) ___ _ _ ___ _ _ ___ _ _ ___ _ _
 72
    65
 73
     6
 40
31.75
 49
15.875
 49
-3.174999999999998
 49
3.174999999999998
 49
-3.174999999999998
 49
3.174999999999998
 49
-3.174999999999998
  0
ENDTAB
  0
TABLE
  2
LAYER
 70
     2
  0
LAYER
  2
0
 70
     0
 62
     7
  6
CONTINUOUS
  0
LAYER
  2
DEFPOINTS
 70
     0
 62
     7
  6
CONTINUOUS
  0
ENDTAB
  0
TABLE
  2
STYLE
 70
     4
  0
STYLE
  2
STANDARD
 70
     0
 40
0.0
 41
1.0
 50
0.0
 71
     0
 42
105.0
  3
romans.shx
  4
bigfont.shx
  0
STYLE
  2
文字
 70
     0
 40
0.0
 41
0.8
 50
0.0
 71
     0
 42
105.0
  3
romans.shx
  4
extfont.shx
  0
STYLE
  2
横文字
 70
     0
 40
0.0
 41
0.8
 50
0.0
 71
     0
 42
105.0
  3
romans.shx
  4
extfont.shx
  0
ENDTAB
  0
TABLE
  2
VIEW
 70
     0
  0
ENDTAB
  0
TABLE
  2
UCS
 70
     0
  0
ENDTAB
  0
TABLE
  2
APPID
 70
    81
  0
APPID
  2
ACAD
 70
     0
  0
APPID
  2
ACADANNOTATIVE
 70
     0
  0
APPID
  2
ADE
 70
     0
  0
APPID
  2
DCO15
 70
     0
  0
APPID
  2
SETH_MM
 70
     0
  0
APPID
  2
ACAD_PSEXT
 70
     0
  0
APPID
  2
ACAD_EXEMPT_FROM_CAD_STANDARDS
 70
     0
  0
APPID
  2
ACAD_MLEADERVER
 70
     0
  0
APPID
  2
AUTOESSSHUTTERLINE1
 70
     0
  0
APPID
  2
AUTOESSSHUTTERLINE2
 70
     0
  0
APPID
  2
AUTOESSSHUTTERPT
 70
     0
  0
APPID
  2
MAKICIRCLE
 70
     0
  0
APPID
  2
ACAD_DSTYLE_DIMJAG
 70
     0
  0
APPID
  2
ACAD_DSTYLE_DIMTALN
 70
     0
  0
APPID
  2
SETW_MM
 70
     0
  0
APPID
  2
PARADIMLINE
 70
     0
  0
APPID
  2
PARABASEPT
 70
     0
  0
APPID
  2
MIRRORCHK_L
 70
     0
  0
APPID
  2
MIRRORCHK_R
 70
     0
  0
APPID
  2
LINKSPLIT1
 70
     0
  0
APPID
  2
LINKSPLIT2
 70
     0
  0
APPID
  2
LINKSPLIT3
 70
     0
  0
APPID
  2
LINKSPLIT4
 70
     0
  0
APPID
  2
TBANLLINE
 70
     0
  0
APPID
  2
TBANRLINE
 70
     0
  0
APPID
  2
TBANHLINE
 70
     0
  0
APPID
  2
ARCLINEA1
 70
     0
  0
APPID
  2
ARCLINEA2
 70
     0
  0
APPID
  2
ARCLINEB1
 70
     0
  0
APPID
  2
ARCLINEB2
 70
     0
  0
APPID
  2
ODPDW
 70
     0
  0
APPID
  2
ODPDH
 70
     0
  0
APPID
  2
ODWLINE1
 70
     0
  0
APPID
  2
ODWLINE2
 70
     0
  0
APPID
  2
ODSY
 70
     0
  0
APPID
  2
EDWDW
 70
     0
  0
APPID
  2
EDWDH
 70
     0
  0
APPID
  2
LINKSPLIT11
 70
     0
  0
APPID
  2
LINKSPLIT12
 70
     0
  0
APPID
  2
LINKSPLIT13
 70
     0
  0
APPID
  2
LINKSPLIT14
 70
     0
  0
APPID
  2
AUTOESSDOORPTH1
 70
     0
  0
APPID
  2
AUTOESSDOORPTH2
 70
     0
  0
APPID
  2
AUTOESSDOORPTV1
 70
     0
  0
APPID
  2
AUTOESSDOORPTV2
 70
     0
  0
APPID
  2
TBANPT1
 70
     0
  0
APPID
  2
TBANPT2
 70
     0
  0
APPID
  2
SETDH_MM
 70
     0
  0
APPID
  2
SETV1_MM
 70
     0
  0
APPID
  2
SETV2_MM
 70
     0
  0
APPID
  2
KAIKOUDIM
 70
     0
  0
APPID
  2
TBANK
 70
     0
  0
APPID
  2
TBANR
 70
     0
  0
APPID
  2
TBANO
 70
     0
  0
APPID
  2
TBANHATA1
 70
     0
  0
APPID
  2
TBANHATA2
 70
     0
  0
APPID
  2
TBANMEN
 70
     0
  0
APPID
  2
TBANW
 70
     0
  0
APPID
  2
TBANH
 70
     0
  0
APPID
  2
ARCLINEA3
 70
     0
  0
APPID
  2
ARCLINEB3
 70
     0
  0
APPID
  2
WORKNAME_UE
 70
     0
  0
APPID
  2
WORKNAME
 70
     0
  0
APPID
  2
SD1
 70
     0
  0
APPID
  2
SD2
 70
     0
  0
APPID
  2
DELETEOBJ
 70
     0
  0
APPID
  2
TBANTEXT
 70
     0
  0
APPID
  2
MAKITEXT
 70
     0
  0
APPID
  2
N_01
 70
     0
  0
APPID
  2
N_02
 70
     0
  0
APPID
  2
N_03
 70
     0
  0
APPID
  2
N_04
 70
     0
  0
APPID
  2
N_05
 70
     0
  0
APPID
  2
N_06
 70
     0
  0
APPID
  2
N_07
 70
     0
  0
APPID
  2
N_08
 70
     0
  0
APPID
  2
N_09
 70
     0
  0
APPID
  2
N_10
 70
     0
  0
APPID
  2
N_11
 70
     0
  0
APPID
  2
N_12
 70
     0
  0
APPID
  2
N_13
 70
     0
  0
ENDTAB
  0
TABLE
  2
DIMSTYLE
 70
     3
  0
DIMSTYLE
  2
STANDARD
 70
     0
  3

  4

  5

  6

  7

 40
30.0
 41
1.0
 42
5.0
 43
7.5
 44
1.0
 45
0.0
 46
0.0
 47
0.0
 48
0.0
140
3.5
141
2.5
142
0.0
143
25.399999999999999
144
1.0
145
0.0
146
1.0
147
1.0
 71
     0
 72
     0
 73
     0
 74
     0
 75
     0
 76
     0
 77
     1
 78
     8
170
     0
171
     2
172
     1
173
     0
174
     1
175
     0
176
     0
177
     0
178
     0
  0
DIMSTYLE
  2
寸法線30
 70
     0
  3

  4

  5

  6

  7

 40
30.0
 41
2.0
 42
5.0
 43
7.5
 44
1.0
 45
0.0
 46
0.0
 47
0.0
 48
0.0
140
3.5
141
1.0
142
0.0
143
0.03937007874016
144
1.0
145
0.0
146
1.0
147
1.0
 71
     0
 72
     0
 73
     0
 74
     0
 75
     0
 76
     0
 77
     1
 78
     8
170
     0
171
     3
172
     1
173
     0
174
     1
175
     0
176
   256
177
   256
178
   256
  0
ENDTAB
  0
ENDSEC
  0
SECTION
  2
BLOCKS
  0
BLOCK
  8
0
  2
$MODEL_SPACE
 70
     0
 10
0.0
 20
0.0
 30
0.0
  3
$MODEL_SPACE
  1

  0
ENDBLK
  5
7701
  8
0
  0
BLOCK
 67
     1
  8
0
  2
$PAPER_SPACE
 70
     0
 10
0.0
 20
0.0
 30
0.0
  3
$PAPER_SPACE
  1

  0
ENDBLK
  5
76FD
 67
     1
  8
0
  0
BLOCK
  8
0
  2
_ORIGIN
 70
     0
 10
0.0
 20
0.0
 30
0.0
  3
_ORIGIN
  1

  0
CIRCLE
  5
A7
  8
0
  6
BYBLOCK
 62
     0
 10
0.0
 20
0.0
 30
0.0
 40
0.5
  0
LINE
  5
A8
  8
0
  6
BYBLOCK
 62
     0
 10
0.0
 20
0.0
 30
0.0
 11
-1.0
 21
0.0
 31
0.0
  0
ENDBLK
  5
AA
  8
0
  0
BLOCK
  8
0
  2
_OPEN30
 70
     0
 10
0.0
 20
0.0
 30
0.0
  3
_OPEN30
  1

  0
LINE
  5
AC
  8
0
  6
BYBLOCK
 62
     0
 10
-1.0
 20
0.26794919
 30
0.0
 11
0.0
 21
0.0
 31
0.0
  0
LINE
  5
AD
  8
0
  6
BYBLOCK
 62
     0
 10
0.0
 20
0.0
 30
0.0
 11
-1.0
 21
-0.26794919
 31
0.0
  0
LINE
  5
AE
  8
0
  6
BYBLOCK
 62
     0
 10
0.0
 20
0.0
 30
0.0
 11
-1.0
 21
0.0
 31
0.0
  0
ENDBLK
  5
B0
  8
0
  0
BLOCK
  8
0
  2
*D4
 70
     1
 10
0.0
 20
0.0
 30
0.0
  3
*D4
  1

  0
LINE
  5
7566
  8
0
 10
5500.0
 20
2500.0000000000259
 30
0.0
 11
5500.0
 21
3030.0000000000259
 31
0.0
  0
LINE
  5
7567
  8
0
 10
8500.0
 20
2500.0000000000259
 30
0.0
 11
8500.0
 21
3030.0000000000259
 31
0.0
  0
LINE
  5
7568
  8
0
 10
5530.0
 20
3000.0000000000259
 30
0.0
 11
8470.0
 21
3000.0000000000259
 31
0.0
  0
INSERT
  5
7569
  8
0
  2
_ORIGIN
 10
5500.0
 20
3000.0000000000259
 30
0.0
 41
30.0
 42
30.0
 43
30.0
 50
180.0
  0
INSERT
  5
756A
  8
0
  2
_ORIGIN
 10
8500.0
 20
3000.0000000000259
 30
0.0
 41
30.0
 42
30.0
 43
30.0
  0
INSERT
  5
756B
  8
0
  2
*U5
 10
0.0
 20
0.0
 30
0.0
  0
POINT
  5
756C
  8
DEFPOINTS
 62
     0
 10
5500.0
 20
2350.0000000000259
 30
0.0
  0
POINT
  5
756D
  8
DEFPOINTS
 62
     0
 10
8500.0
 20
2350.0000000000259
 30
0.0
  0
POINT
  5
756E
  8
DEFPOINTS
 62
     0
 10
8500.0
 20
3000.0000000000259
 30
0.0
  0
ENDBLK
  5
74E0
  8
0
  0
BLOCK
  8
0
  2
*U5
 70
     1
 10
0.0
 20
0.0
 30
0.0
  3
*U5
  1

  0
TEXT
  5
766A
  8
0
 10
6952.0
 20
3030.0000000000259
 30
0.0
 40
105.0
  1
W
 41
0.8
  7
文字
  0
ENDBLK
  5
766C
  8
0
  0
BLOCK
  8
0
  2
*D6
 70
     1
 10
0.0
 20
0.0
 30
0.0
  3
*D6
  1

  0
LINE
  5
756F
  8
0
 10
6500.0
 20
7500.0
 30
0.0
 11
5720.0000000000009
 21
7500.0000000000027
 31
0.0
  0
LINE
  5
7570
  8
0
 10
5700.0
 20
5000.0
 30
0.0
 11
5720.0
 21
5000.0
 31
0.0
  0
LINE
  5
7571
  8
0
 10
5750.0
 20
7470.0000000000027
 30
0.0
 11
5750.0
 21
5030.0
 31
0.0
  0
INSERT
  5
7572
  8
0
  2
_ORIGIN
 10
5750.0
 20
7500.0000000000027
 30
0.0
 41
30.0
 42
30.0
 43
30.0
 50
90.0
  0
INSERT
  5
7573
  8
0
  2
_ORIGIN
 10
5750.0
 20
5000.0
 30
0.0
 41
30.0
 42
30.0
 43
30.0
 50
270.0
  0
INSERT
  5
7574
  8
0
  2
*U7
 10
0.0
 20
0.0
 30
0.0
  0
POINT
  5
7575
  8
DEFPOINTS
 62
     0
 10
6650.0
 20
7500.0
 30
0.0
  0
POINT
  5
7576
  8
DEFPOINTS
 62
     0
 10
5850.0
 20
5000.0
 30
0.0
  0
POINT
  5
7577
  8
DEFPOINTS
 62
     0
 10
5750.0
 20
5000.0
 30
0.0
  0
ENDBLK
  5
74EC
  8
0
  0
BLOCK
  8
0
  2
*U7
 70
     1
 10
0.0
 20
0.0
 30
0.0
  3
*U7
  1

  0
TEXT
  5
766E
  8
0
 10
5719.9999999999973
 20
6206.0000000000027
 30
0.0
 40
105.0
  1
H
 50
90.0
 41
0.8
  7
文字
  0
ENDBLK
  5
7670
  8
0
  0
BLOCK
  8
0
  2
*D8
 70
     1
 10
0.0
 20
0.0
 30
0.0
  3
*D8
  1

  0
LINE
  5
7578
  8
0
 10
6500.0
 20
7500.0
 30
0.0
 11
5720.0
 21
7500.0000000000027
 31
0.0
  0
LINE
  5
7579
  8
0
 10
6500.0
 20
10050.0
 30
0.0
 11
5720.0
 21
10050.0
 31
0.0
  0
LINE
  5
757A
  8
0
 10
5750.0
 20
7530.0000000000018
 30
0.0
 11
5750.0
 21
10020.0
 31
0.0
  0
INSERT
  5
757B
  8
0
  2
_ORIGIN
 10
5750.0
 20
7500.0000000000027
 30
0.0
 41
30.0
 42
30.0
 43
30.0
 50
270.0
  0
INSERT
  5
757C
  8
0
  2
_ORIGIN
 10
5750.0
 20
10050.0
 30
0.0
 41
30.0
 42
30.0
 43
30.0
 50
90.0
  0
INSERT
  5
757D
  8
0
  2
*U9
 10
0.0
 20
0.0
 30
0.0
  0
POINT
  5
757E
  8
DEFPOINTS
 62
     0
 10
6650.0
 20
7500.0
 30
0.0
  0
POINT
  5
757F
  8
DEFPOINTS
 62
     0
 10
6650.0
 20
10050.0
 30
0.0
  0
POINT
  5
7580
  8
DEFPOINTS
 62
     0
 10
5750.0
 20
10050.0
 30
0.0
  0
ENDBLK
  5
74F8
  8
0
  0
BLOCK
  8
0
  2
*U9
 70
     1
 10
0.0
 20
0.0
 30
0.0
  3
*U9
  1

  0
TEXT
  5
7672
  8
0
 10
5719.9999999999973
 20
8281.4000000000033
 30
0.0
 40
105.0
  1
HR=DH+500以上
 50
90.0
 41
0.8
  7
文字
  0
ENDBLK
  5
7674
  8
0
  0
BLOCK
  8
0
  2
*D10
 70
     1
 10
0.0
 20
0.0
 30
0.0
  3
*D10
  1

  0
LINE
  5
7581
  8
0
 10
6500.0
 20
7500.0
 30
0.0
 11
5945.0
 21
7500.0000000000027
 31
0.0
  0
LINE
  5
7582
  8
0
 10
6500.0
 20
9500.0
 30
0.0
 11
5945.0
 21
9500.0
 31
0.0
  0
LINE
  5
7583
  8
0
 10
5975.0
 20
7530.0000000000018
 30
0.0
 11
5975.0
 21
9470.0
 31
0.0
  0
INSERT
  5
7584
  8
0
  2
_ORIGIN
 10
5975.0
 20
7500.0000000000027
 30
0.0
 41
30.0
 42
30.0
 43
30.0
 50
270.0
  0
INSERT
  5
7585
  8
0
  2
_ORIGIN
 10
5975.0
 20
9500.0
 30
0.0
 41
30.0
 42
30.0
 43
30.0
 50
90.0
  0
INSERT
  5
7586
  8
0
  2
*U11
 10
0.0
 20
0.0
 30
0.0
  0
POINT
  5
7587
  8
DEFPOINTS
 62
     0
 10
6650.0
 20
7500.0
 30
0.0
  0
POINT
  5
7588
  8
DEFPOINTS
 62
     0
 10
6650.0
 20
9500.0
 30
0.0
  0
POINT
  5
7589
  8
DEFPOINTS
 62
     0
 10
5975.0
 20
9500.0
 30
0.0
  0
ENDBLK
  5
7504
  8
0
  0
BLOCK
  8
0
  2
*U11
 70
     1
 10
0.0
 20
0.0
 30
0.0
  3
*U11
  1

  0
TEXT
  5
7676
  8
0
 10
5944.9999999999991
 20
8280.0000000000018
 30
0.0
 40
105.0
  1
DH-50
 50
90.0
 41
0.8
  7
文字
  0
ENDBLK
  5
7678
  8
0
  0
BLOCK
  8
0
  2
*D12
 70
     1
 10
0.0
 20
0.0
 30
0.0
  3
*D12
  1

  0
LINE
  5
758A
  8
0
 10
7400.0
 20
5020.0
 30
0.0
 11
8029.9999999999973
 21
5020.0
 31
0.0
  0
LINE
  5
758B
  8
0
 10
7400.0
 20
7585.0000000000018
 30
0.0
 11
8030.0
 21
7585.0000000000018
 31
0.0
  0
LINE
  5
758C
  8
0
 10
7999.9999999999973
 20
5050.0
 30
0.0
 11
8000.0
 21
7555.0000000000027
 31
0.0
  0
INSERT
  5
758D
  8
0
  2
_ORIGIN
 10
7999.9999999999973
 20
5020.0
 30
0.0
 41
30.0
 42
30.0
 43
30.0
 50
270.0
  0
INSERT
  5
758E
  8
0
  2
_ORIGIN
 10
8000.0
 20
7585.0000000000018
 30
0.0
 41
30.0
 42
30.0
 43
30.0
 50
90.0
  0
INSERT
  5
758F
  8
0
  2
*U13
 10
0.0
 20
0.0
 30
0.0
  0
POINT
  5
7590
  8
DEFPOINTS
 62
     0
 10
7250.0
 20
5020.0
 30
0.0
  0
POINT
  5
7591
  8
DEFPOINTS
 62
     0
 10
7250.0
 20
7585.0000000000018
 30
0.0
  0
POINT
  5
7592
  8
DEFPOINTS
 62
     0
 10
8000.0
 20
7585.0000000000018
 30
0.0
  0
ENDBLK
  5
7510
  8
0
  0
BLOCK
  8
0
  2
*U13
 70
     1
 10
0.0
 20
0.0
 30
0.0
  3
*U13
  1

  0
TEXT
  5
767A
  8
0
 10
7969.9999999999973
 20
6216.5000000000027
 30
0.0
 40
105.0
  1
DH
 50
90.0
 41
0.8
  7
文字
  0
ENDBLK
  5
767C
  8
0
  0
BLOCK
  8
0
  2
*D14
 70
     1
 10
0.0
 20
0.0
 30
0.0
  3
*D14
  1

  0
LINE
  5
7593
  8
0
 10
5475.0
 20
1600.000000000025
 30
0.0
 11
5475.0
 21
1220.000000000025
 31
0.0
  0
LINE
  5
7594
  8
0
 10
8525.0
 20
1600.000000000025
 30
0.0
 11
8525.0
 21
1220.000000000025
 31
0.0
  0
LINE
  5
7595
  8
0
 10
5505.0
 20
1250.000000000025
 30
0.0
 11
8495.0
 21
1250.000000000025
 31
0.0
  0
INSERT
  5
7596
  8
0
  2
_ORIGIN
 10
5475.0
 20
1250.000000000025
 30
0.0
 41
30.0
 42
30.0
 43
30.0
 50
180.0
  0
INSERT
  5
7597
  8
0
  2
_ORIGIN
 10
8525.0
 20
1250.000000000025
 30
0.0
 41
30.0
 42
30.0
 43
30.0
  0
INSERT
  5
7598
  8
0
  2
*U15
 10
0.0
 20
0.0
 30
0.0
  0
POINT
  5
7599
  8
DEFPOINTS
 62
     0
 10
5475.0
 20
1750.000000000025
 30
0.0
  0
POINT
  5
759A
  8
DEFPOINTS
 62
     0
 10
8525.0
 20
1750.000000000025
 30
0.0
  0
POINT
  5
759B
  8
DEFPOINTS
 62
     0
 10
8525.0
 20
1250.000000000025
 30
0.0
  0
ENDBLK
  5
751C
  8
0
  0
BLOCK
  8
0
  2
*U15
 70
     1
 10
0.0
 20
0.0
 30
0.0
  3
*U15
  1

  0
TEXT
  5
767E
  8
0
 10
6906.0
 20
1280.000000000025
 30
0.0
 40
105.0
  1
DW
 41
0.8
  7
文字
  0
ENDBLK
  5
7680
  8
0
  0
BLOCK
  8
0
  2
*D16
 70
     1
 10
0.0
 20
0.0
 30
0.0
  3
*D16
  1

  0
LINE
  5
759C
  8
0
 10
5500.0
 20
2500.0000000000259
 30
0.0
 11
5500.0
 21
2805.0000000000259
 31
0.0
  0
LINE
  5
759D
  8
0
 10
5340.0000000000009
 20
2500.0000000000259
 30
0.0
 11
5340.0000000000009
 21
2805.0000000000259
 31
0.0
  0
LINE
  5
759E
  8
0
 10
5530.0
 20
2775.0000000000259
 30
0.0
 11
5560.0
 21
2775.0000000000259
 31
0.0
  0
LINE
  5
759F
  8
0
 10
5310.0000000000009
 20
2775.0000000000259
 30
0.0
 11
5280.0000000000009
 21
2775.0000000000259
 31
0.0
  0
LINE
  5
75A0
  8
0
 10
5500.0
 20
2775.0000000000259
 30
0.0
 11
5340.0000000000009
 21
2775.0000000000259
 31
0.0
  0
INSERT
  5
75A1
  8
0
  2
_ORIGIN
 10
5500.0
 20
2775.0000000000259
 30
0.0
 41
30.0
 42
30.0
 43
30.0
 50
180.0
  0
INSERT
  5
75A2
  8
0
  2
_ORIGIN
 10
5340.0000000000009
 20
2775.0000000000259
 30
0.0
 41
30.0
 42
30.0
 43
30.0
  0
INSERT
  5
75A3
  8
0
  2
*U17
 10
0.0
 20
0.0
 30
0.0
  0
POINT
  5
75A4
  8
DEFPOINTS
 62
     0
 10
5500.0
 20
2350.0000000000259
 30
0.0
  0
POINT
  5
75A5
  8
DEFPOINTS
 62
     0
 10
5340.0000000000009
 20
2350.0000000000259
 30
0.0
  0
POINT
  5
75A6
  8
DEFPOINTS
 62
     0
 10
5340.0000000000009
 20
2775.0000000000259
 30
0.0
  0
ENDBLK
  5
7528
  8
0
  0
BLOCK
  8
0
  2
*U17
 70
     1
 10
0.0
 20
0.0
 30
0.0
  3
*U17
  1

  0
TEXT
  5
7682
  8
0
 10
5198.3999999999987
 20
2805.0000000000259
 30
0.0
 40
105.0
  1
160以上
 41
0.8
  7
文字
  0
ENDBLK
  5
7684
  8
0
  0
BLOCK
  8
0
  2
*D18
 70
     1
 10
0.0
 20
0.0
 30
0.0
  3
*D18
  1

  0
LINE
  5
75A7
  8
0
 10
8500.0
 20
2500.0000000000259
 30
0.0
 11
8500.0
 21
2805.0000000000259
 31
0.0
  0
LINE
  5
75A8
  8
0
 10
8660.0
 20
2500.0000000000259
 30
0.0
 11
8660.0
 21
2805.0000000000259
 31
0.0
  0
LINE
  5
75A9
  8
0
 10
8470.0
 20
2775.0000000000259
 30
0.0
 11
8440.0
 21
2775.0000000000259
 31
0.0
  0
LINE
  5
75AA
  8
0
 10
8690.0
 20
2775.0000000000259
 30
0.0
 11
8720.0
 21
2775.0000000000259
 31
0.0
  0
LINE
  5
75AB
  8
0
 10
8500.0
 20
2775.0000000000259
 30
0.0
 11
8660.0
 21
2775.0000000000259
 31
0.0
  0
INSERT
  5
75AC
  8
0
  2
_ORIGIN
 10
8500.0
 20
2775.0000000000259
 30
0.0
 41
30.0
 42
30.0
 43
30.0
  0
INSERT
  5
75AD
  8
0
  2
_ORIGIN
 10
8660.0
 20
2775.0000000000259
 30
0.0
 41
30.0
 42
30.0
 43
30.0
 50
180.0
  0
INSERT
  5
75AE
  8
0
  2
*U19
 10
0.0
 20
0.0
 30
0.0
  0
POINT
  5
75AF
  8
DEFPOINTS
 62
     0
 10
8500.0
 20
2350.0000000000259
 30
0.0
  0
POINT
  5
75B0
  8
DEFPOINTS
 62
     0
 10
8660.0
 20
2350.0000000000259
 30
0.0
  0
POINT
  5
75B1
  8
DEFPOINTS
 62
     0
 10
8660.0
 20
2775.0000000000259
 30
0.0
  0
ENDBLK
  5
7536
  8
0
  0
BLOCK
  8
0
  2
*U19
 70
     1
 10
0.0
 20
0.0
 30
0.0
  3
*U19
  1

  0
TEXT
  5
7686
  8
0
 10
8358.4000000000033
 20
2805.0000000000259
 30
0.0
 40
105.0
  1
160以上
 41
0.8
  7
文字
  0
ENDBLK
  5
7688
  8
0
  0
BLOCK
  8
0
  2
*D20
 70
     1
 10
0.0
 20
0.0
 30
0.0
  3
*D20
  1

  0
LINE
  5
75B2
  8
0
 10
7000.0
 20
10400.0
 30
0.0
 11
7000.0
 21
10430.0
 31
0.0
  0
LINE
  5
75B3
  8
0
 10
7550.0
 20
10200.0
 30
0.0
 11
7550.0
 21
10430.0
 31
0.0
  0
LINE
  5
75B4
  8
0
 10
7030.0
 20
10400.0
 30
0.0
 11
7520.0
 21
10400.0
 31
0.0
  0
INSERT
  5
75B5
  8
0
  2
_ORIGIN
 10
7000.0
 20
10400.0
 30
0.0
 41
30.0
 42
30.0
 43
30.0
 50
180.0
  0
INSERT
  5
75B6
  8
0
  2
_ORIGIN
 10
7550.0
 20
10400.0
 30
0.0
 41
30.0
 42
30.0
 43
30.0
  0
INSERT
  5
75B7
  8
0
  2
*U21
 10
0.0
 20
0.0
 30
0.0
  0
POINT
  5
75B8
  8
DEFPOINTS
 62
     0
 10
7000.0
 20
10250.0
 30
0.0
  0
POINT
  5
75B9
  8
DEFPOINTS
 62
     0
 10
7550.0
 20
10050.0
 30
0.0
  0
POINT
  5
75BA
  8
DEFPOINTS
 62
     0
 10
7550.0
 20
10400.0
 30
0.0
  0
ENDBLK
  5
7544
  8
0
  0
BLOCK
  8
0
  2
*U21
 70
     1
 10
0.0
 20
0.0
 30
0.0
  3
*U21
  1

  0
TEXT
  5
768A
  8
0
 10
7155.0
 20
10430.0
 30
0.0
 40
105.0
  1
550
 41
0.8
  7
文字
  0
ENDBLK
  5
768C
  8
0
  0
BLOCK
  8
0
  2
*D22
 70
     1
 10
0.0
 20
0.0
 30
0.0
  3
*D22
  1

  0
LINE
  5
75BB
  8
0
 10
7000.0
 20
8725.0000000000582
 30
0.0
 11
7000.0
 21
8745.0000000000582
 31
0.0
  0
LINE
  5
75BC
  8
0
 10
7460.0
 20
9250.0000000000582
 30
0.0
 11
7460.0
 21
8745.0000000000582
 31
0.0
  0
LINE
  5
75BD
  8
0
 10
7030.0
 20
8775.0000000000582
 30
0.0
 11
7430.0
 21
8775.0000000000582
 31
0.0
  0
INSERT
  5
75BE
  8
0
  2
_ORIGIN
 10
7000.0
 20
8775.0000000000582
 30
0.0
 41
30.0
 42
30.0
 43
30.0
 50
180.0
  0
INSERT
  5
75BF
  8
0
  2
_ORIGIN
 10
7460.0
 20
8775.0000000000582
 30
0.0
 41
30.0
 42
30.0
 43
30.0
  0
INSERT
  5
75C0
  8
0
  2
*U23
 10
0.0
 20
0.0
 30
0.0
  0
POINT
  5
75C1
  8
DEFPOINTS
 62
     0
 10
7000.0
 20
8875.0000000000582
 30
0.0
  0
POINT
  5
75C2
  8
DEFPOINTS
 62
     0
 10
7460.0
 20
9400.0000000000582
 30
0.0
  0
POINT
  5
75C3
  8
DEFPOINTS
 62
     0
 10
7460.0
 20
8775.0000000000582
 30
0.0
  0
ENDBLK
  5
7550
  8
0
  0
BLOCK
  8
0
  2
*U23
 70
     1
 10
0.0
 20
0.0
 30
0.0
  3
*U23
  1

  0
TEXT
  5
768E
  8
0
 10
7110.0
 20
8805.0000000000582
 30
0.0
 40
105.0
  1
460
 41
0.8
  7
文字
  0
ENDBLK
  5
7690
  8
0
  0
BLOCK
  8
0
  2
*D24
 70
     1
 10
0.0
 20
0.0
 30
0.0
  3
*D24
  1

  0
LINE
  5
75C4
  8
0
 10
7000.0
 20
8950.0000000000564
 30
0.0
 11
7000.0
 21
8970.0000000000582
 31
0.0
  0
LINE
  5
75C5
  8
0
 10
7160.0
 20
9250.0
 30
0.0
 11
7160.0
 21
8970.0000000000582
 31
0.0
  0
LINE
  5
75C6
  8
0
 10
7030.0
 20
9000.0000000000582
 30
0.0
 11
7130.0
 21
9000.0000000000582
 31
0.0
  0
INSERT
  5
75C7
  8
0
  2
*U25
 10
0.0
 20
0.0
 30
0.0
  0
INSERT
  5
75C8
  8
0
  2
_ORIGIN
 10
7000.0
 20
9000.0000000000582
 30
0.0
 41
30.0
 42
30.0
 43
30.0
 50
180.0
  0
INSERT
  5
75C9
  8
0
  2
_ORIGIN
 10
7160.0
 20
9000.0000000000582
 30
0.0
 41
30.0
 42
30.0
 43
30.0
  0
POINT
  5
75CA
  8
DEFPOINTS
 62
     0
 10
7000.0
 20
9100.0000000000582
 30
0.0
  0
POINT
  5
75CB
  8
DEFPOINTS
 62
     0
 10
7160.0
 20
9400.0
 30
0.0
  0
POINT
  5
75CC
  8
DEFPOINTS
 62
     0
 10
7160.0
 20
9000.0000000000582
 30
0.0
  0
ENDBLK
  5
755C
  8
0
  0
BLOCK
  8
0
  2
*U25
 70
     1
 10
0.0
 20
0.0
 30
0.0
  3
*U25
  1

  0
TEXT
  5
7692
  8
0
 10
7004.0
 20
9030.0000000000564
 30
0.0
 40
105.0
  1
160
 41
0.8
  7
文字
  0
ENDBLK
  5
7694
  8
0
  0
BLOCK
  8
0
  2
*U26
 70
     1
 10
0.0
 20
0.0
 30
0.0
  3
*U26
  1

  0
INSERT
  5
764F
  8
0
  2
_OPEN30
 10
7403.6349721533606
 20
9747.6882208639436
 30
0.0
 41
60.0
 42
60.0
 43
60.0
 50
210.00000000001711
  0
POLYLINE
  5
7650
  8
0
 66
     1
 10
0.0
 20
0.0
 30
0.0
  0
VERTEX
  5
77A7
  8
0
 10
7455.5964963804208
 20
9777.6882208639636
 30
0.0
  0
VERTEX
  5
77A8
  8
0
 10
7663.4425932886497
 20
9897.6882208640236
 30
0.0
  0
VERTEX
  5
77A9
  8
0
 10
8250.0425932886483
 20
9897.6882208640236
 30
0.0
  0
SEQEND
  5
77AA
  8
0
  0
ENDBLK
  5
7656
  8
0
  0
BLOCK
  8
0
  2
*U27
 70
     1
 10
0.0
 20
0.0
 30
0.0
  3
*U27
  1

  0
INSERT
  5
7658
  8
0
  2
_OPEN30
 10
7397.1527613208054
 20
8975.0000000000291
 30
0.0
 41
60.0
 42
60.0
 43
60.0
 50
120.0000000000001
  0
POLYLINE
  5
7659
  8
0
 66
     1
 10
0.0
 20
0.0
 30
0.0
  0
VERTEX
  5
77AB
  8
0
 10
7427.1527613208054
 20
8923.0384757729607
 30
0.0
  0
VERTEX
  5
77AC
  8
0
 10
7547.1527613208063
 20
8715.1923788646964
 30
0.0
  0
VERTEX
  5
77AD
  8
0
 10
8122.5527613208087
 20
8715.1923788646964
 30
0.0
  0
SEQEND
  5
77AE
  8
0
  0
ENDBLK
  5
765F
  8
0
  0
BLOCK
  8
0
  2
*U28
 70
     1
 10
0.0
 20
0.0
 30
0.0
  3
*U28
  1

  0
INSERT
  5
7661
  8
0
  2
_OPEN30
 10
7016.0000000000073
 20
6171.0475088412204
 30
0.0
 41
60.0
 42
60.0
 43
60.0
 50
300.00000000000028
  0
POLYLINE
  5
7662
  8
0
 66
     1
 10
0.0
 20
0.0
 30
0.0
  0
VERTEX
  5
77AF
  8
0
 10
6986.0000000000073
 20
6223.009033068287
 30
0.0
  0
VERTEX
  5
77B0
  8
0
 10
6885.4957445612672
 20
6397.0875098650649
 30
0.0
  0
VERTEX
  5
77B1
  8
0
 10
6500.4957445612663
 20
6397.0875098650649
 30
0.0
  0
SEQEND
  5
77B2
  8
0
  0
ENDBLK
  5
7668
  8
0
  0
ENDSEC
  0
SECTION
  2
ENTITIES
  0
LINE
  5
6011
  8
0
 10
16380.0
 20
0.0
 30
0.0
 11
0.0
 21
0.0
 31
0.0
  0
LINE
  5
6012
  8
0
 10
0.0
 20
11745.0
 30
0.0
 11
16380.0
 21
11745.0
 31
0.0
  0
LINE
  5
6013
  8
0
 10
0.0
 20
11745.0
 30
0.0
 11
0.0
 21
0.0
 31
0.0
  0
LINE
  5
6014
  8
0
 10
16380.0
 20
11745.0
 30
0.0
 11
16380.0
 21
0.0
 31
0.0
  0
LINE
  5
7405
  8
0
 10
10130.0
 20
400.0
 30
0.0
 11
10130.0
 21
0.0
 31
0.0
  0
TEXT
  5
7406
  8
0
 10
10979.99999999996
 20
247.5
 30
0.0
 40
105.0
  1
オーバードア（バランス式）
 11
10979.99999999996
 21
300.0
 31
0.0
 73
     2
  0
TEXT
  5
7407
  8
0
 10
10229.99999999996
 20
247.5
 30
0.0
 40
105.0
  1
製品名称  :
 11
10229.99999999996
 21
300.0
 31
0.0
 73
     2
  0
LINE
  5
7408
  8
0
 10
10130.0
 20
200.0
 30
0.0
 11
13880.0
 21
200.0
 31
0.0
  0
LINE
  5
7409
  8
0
 10
13880.0
 20
400.0
 30
0.0
 11
13880.0
 21
0.0
 31
0.0
  0
TEXT
  5
740A
  8
0
 10
13998.33333333333
 20
112.5
 30
0.0
 40
175.0
  1
東洋シヤッター株式会社
 72
     1
 11
15130.0
 21
200.0
 31
0.0
 73
     2
  0
LINE
  5
740B
  8
0
 10
10130.0
 20
400.0
 30
0.0
 11
16380.0
 21
400.0
 31
0.0
  0
TEXT
  5
740C
  8
0
 10
12979.99999999996
 20
47.5
 30
0.0
 40
105.0
  1
縮尺:1/30
 11
12979.99999999996
 21
100.0
 31
0.0
 73
     2
  0
LINE
  5
740D
  8
0
 10
5474.9999999999936
 20
1932.5
 30
0.0
 11
8524.9999999999909
 21
1932.5
 31
0.0
  0
LINE
  5
740E
  8
0
 10
8524.9999999999909
 20
1932.5
 30
0.0
 11
8524.9999999999909
 21
1984.0
 31
0.0
  0
LINE
  5
740F
  8
0
 10
8524.9999999999909
 20
1984.0
 30
0.0
 11
5474.9999999999936
 21
1984.0000000000009
 31
0.0
  0
LINE
  5
7410
  8
0
 10
5474.9999999999936
 20
1984.0000000000009
 30
0.0
 11
5474.9999999999936
 21
1932.5
 31
0.0
  0
ARC
  5
7411
  8
0
 10
8577.299999999992
 20
1997.700000000001
 30
0.0
 40
2.299999999999998
 50
90.0
 51
180.0
  0
LINE
  5
7412
  8
0
 10
8614.9999999999909
 20
1997.700000000001
 30
0.0
 11
8614.9999999999909
 21
2000.0
 31
0.0
  0
LINE
  5
7413
  8
0
 10
8577.299999999992
 20
1997.700000000001
 30
0.0
 11
8614.9999999999909
 21
1997.700000000001
 31
0.0
  0
LINE
  5
7414
  8
0
 10
8577.299999999992
 20
1884.0
 30
0.0
 11
8577.299999999992
 21
1997.700000000001
 31
0.0
  0
LINE
  5
7415
  8
0
 10
8574.9999999999927
 20
1884.0
 30
0.0
 11
8577.299999999992
 21
1884.0
 31
0.0
  0
LINE
  5
7416
  8
0
 10
8574.9999999999927
 20
1997.700000000001
 30
0.0
 11
8574.9999999999927
 21
1884.0
 31
0.0
  0
LINE
  5
7417
  8
0
 10
8614.9999999999909
 20
2000.0
 30
0.0
 11
8577.299999999992
 21
2000.0
 31
0.0
  0
ARC
  5
7418
  8
0
 10
8562.4999999999909
 20
1886.499999999942
 30
0.0
 40
5.7499999999704414
 50
180.0
 51
0.0
  0
ARC
  5
7419
  8
0
 10
8562.4999999999909
 20
1921.5
 30
0.0
 40
5.7499999999704414
 50
0.0
 51
180.0
  0
LINE
  5
741A
  8
0
 10
8556.7500000000218
 20
1886.499999999942
 30
0.0
 11
8556.7500000000218
 21
1921.5
 31
0.0
  0
LINE
  5
741B
  8
0
 10
8568.25000000002
 20
1921.5
 30
0.0
 11
8568.25000000002
 21
1886.499999999942
 31
0.0
  0
ARC
  5
741C
  8
0
 10
8568.9999999999909
 20
1889.7190997647269
 30
0.0
 40
4.0
 50
329.9999999999996
 51
0.0
  0
ARC
  5
741D
  8
0
 10
8568.9999999999909
 20
1889.719099764734
 30
0.0
 40
6.0
 50
329.9999999999996
 51
0.0
  0
ARC
  5
741E
  8
0
 10
8569.9999999999909
 20
1925.5
 30
0.0
 40
3.0
 50
0.0
 51
90.0
  0
ARC
  5
741F
  8
0
 10
8569.9999999999909
 20
1925.5
 30
0.0
 40
5.0
 50
0.0
 51
90.0
  0
LINE
  5
7420
  8
0
 10
8551.5529946162005
 20
1887.5
 30
0.0
 11
8554.4397459621468
 21
1882.5
 31
0.0
  0
LINE
  5
7421
  8
0
 10
8553.2850454237632
 20
1888.4999999999959
 30
0.0
 11
8551.5529946162005
 21
1887.5
 31
0.0
  0
LINE
  5
7422
  8
0
 10
8556.1717967697077
 20
1883.499999999998
 30
0.0
 11
8553.2850454237632
 21
1888.4999999999959
 31
0.0
  0
LINE
  5
7423
  8
0
 10
8572.4641016151309
 20
1887.7190997647269
 30
0.0
 11
8570.0282032302384
 21
1883.500000000018
 31
0.0
  0
LINE
  5
7424
  8
0
 10
8574.196152422699
 20
1886.719099764734
 30
0.0
 11
8571.760254037792
 21
1882.5
 31
0.0
  0
ARC
  5
7425
  8
0
 10
8563.0999999999894
 20
1887.5
 30
0.0
 40
8.0
 50
210.0000000000004
 51
329.9999999999996
  0
ARC
  5
7426
  8
0
 10
8563.0999999999894
 20
1887.5
 30
0.0
 40
10.0
 50
210.0000000000004
 51
329.99999999988108
  0
LINE
  5
7427
  8
0
 10
8572.9999999999909
 20
1925.5
 30
0.0
 11
8572.9999999999909
 21
1889.7190997647269
 31
0.0
  0
LINE
  5
7428
  8
0
 10
8549.9999999999909
 20
1928.5
 30
0.0
 11
8569.9999999999909
 21
1928.5
 31
0.0
  0
LINE
  5
7429
  8
0
 10
8549.9999999999909
 20
1930.5
 30
0.0
 11
8549.9999999999909
 21
1928.5
 31
0.0
  0
LINE
  5
742A
  8
0
 10
8569.9999999999909
 20
1930.5
 30
0.0
 11
8549.9999999999909
 21
1930.5
 31
0.0
  0
LINE
  5
742B
  8
0
 10
8574.9999999999927
 20
1889.719099764734
 30
0.0
 11
8574.9999999999927
 21
1925.5
 31
0.0
  0
LINE
  5
742C
  8
0
 10
8515.6999999999935
 20
1882.5
 30
0.0
 11
8517.9999999999909
 21
1882.5
 31
0.0
  0
LINE
  5
742D
  8
0
 10
8451.9999999999909
 20
1882.5
 30
0.0
 11
8454.299999999992
 21
1882.5
 31
0.0
  0
LINE
  5
742E
  8
0
 10
8428.2500000000182
 20
1897.5
 30
0.0
 11
8556.7500000000218
 21
1897.5
 31
0.0
  0
LINE
  5
742F
  8
0
 10
8428.2500000000182
 20
1910.5
 30
0.0
 11
8428.2500000000182
 21
1897.5
 31
0.0
  0
LINE
  5
7430
  8
0
 10
8556.7500000000218
 20
1910.5
 30
0.0
 11
8428.2500000000182
 21
1910.5
 31
0.0
  0
LINE
  5
7431
  8
0
 10
8515.6999999999935
 20
1930.200000000001
 30
0.0
 11
8515.6999999999935
 21
1882.5
 31
0.0
  0
LINE
  5
7432
  8
0
 10
8454.299999999992
 20
1930.200000000001
 30
0.0
 11
8515.6999999999935
 21
1930.200000000001
 31
0.0
  0
LINE
  5
7433
  8
0
 10
8454.299999999992
 20
1882.5
 30
0.0
 11
8454.299999999992
 21
1930.200000000001
 31
0.0
  0
LINE
  5
7434
  8
0
 10
8451.9999999999909
 20
1932.5
 30
0.0
 11
8451.9999999999909
 21
1882.5
 31
0.0
  0
LINE
  5
7435
  8
0
 10
8517.9999999999909
 20
1932.5
 30
0.0
 11
8451.9999999999909
 21
1932.5
 31
0.0
  0
LINE
  5
7436
  8
0
 10
8517.9999999999909
 20
1882.5
 30
0.0
 11
8517.9999999999909
 21
1932.5
 31
0.0
  0
LINE
  5
7437
  8
0
  6
PHANTOM2
 10
8624.9999999999782
 20
1999.9999999999879
 30
0.0
 11
8624.9999999999782
 21
1475.000000000023
 31
0.0
  0
LINE
  5
7438
  8
0
  6
PHANTOM2
 10
8624.9999999999782
 20
1475.000000000023
 30
0.0
 11
8549.9999999999782
 21
1475.000000000023
 31
0.0
  0
ARC
  5
7439
  8
0
 10
5422.6999999999935
 20
1997.700000000001
 30
0.0
 40
2.299999999999998
 50
0.0
 51
90.0
  0
LINE
  5
743A
  8
0
 10
5384.9999999999936
 20
1997.700000000001
 30
0.0
 11
5384.9999999999936
 21
2000.0
 31
0.0
  0
LINE
  5
743B
  8
0
 10
5422.6999999999935
 20
1997.700000000001
 30
0.0
 11
5384.9999999999936
 21
1997.700000000001
 31
0.0
  0
LINE
  5
743C
  8
0
 10
5422.6999999999935
 20
1884.0
 30
0.0
 11
5422.6999999999935
 21
1997.700000000001
 31
0.0
  0
LINE
  5
743D
  8
0
 10
5424.9999999999927
 20
1884.0
 30
0.0
 11
5422.6999999999935
 21
1884.0
 31
0.0
  0
LINE
  5
743E
  8
0
 10
5424.9999999999927
 20
1997.700000000001
 30
0.0
 11
5424.9999999999927
 21
1884.0
 31
0.0
  0
LINE
  5
743F
  8
0
 10
5384.9999999999936
 20
2000.0
 30
0.0
 11
5422.6999999999935
 21
2000.0
 31
0.0
  0
ARC
  5
7440
  8
0
 10
5437.4999999999918
 20
1886.499999999942
 30
0.0
 40
5.7499999999704414
 50
180.0
 51
0.0
  0
ARC
  5
7441
  8
0
 10
5437.4999999999918
 20
1921.5
 30
0.0
 40
5.7499999999704414
 50
0.0
 51
180.0
  0
LINE
  5
7442
  8
0
 10
5443.2499999999618
 20
1886.499999999942
 30
0.0
 11
5443.2499999999618
 21
1921.5
 31
0.0
  0
LINE
  5
7443
  8
0
 10
5431.7499999999636
 20
1921.5
 30
0.0
 11
5431.7499999999636
 21
1886.499999999942
 31
0.0
  0
ARC
  5
7444
  8
0
 10
5430.9999999999927
 20
1889.7190997647269
 30
0.0
 40
4.0
 50
180.0
 51
210.0000000000004
  0
ARC
  5
7445
  8
0
 10
5430.9999999999927
 20
1889.719099764734
 30
0.0
 40
6.0
 50
180.0
 51
210.0000000000004
  0
ARC
  5
7446
  8
0
 10
5429.9999999999918
 20
1925.5
 30
0.0
 40
3.0
 50
90.0
 51
180.0
  0
ARC
  5
7447
  8
0
 10
5429.9999999999918
 20
1925.5
 30
0.0
 40
5.0
 50
90.0
 51
180.0
  0
LINE
  5
7448
  8
0
 10
5448.4470053837858
 20
1887.5
 30
0.0
 11
5445.5602540378386
 21
1882.5
 31
0.0
  0
LINE
  5
7449
  8
0
 10
5446.7149545762222
 20
1888.4999999999959
 30
0.0
 11
5448.4470053837858
 21
1887.5
 31
0.0
  0
LINE
  5
744A
  8
0
 10
5443.828203230275
 20
1883.4999999999959
 30
0.0
 11
5446.7149545762222
 21
1888.4999999999959
 31
0.0
  0
LINE
  5
744B
  8
0
 10
5427.5358983848564
 20
1887.7190997647269
 30
0.0
 11
5429.971796769747
 21
1883.500000000018
 31
0.0
  0
LINE
  5
744C
  8
0
 10
5425.8038475772837
 20
1886.719099764734
 30
0.0
 11
5428.2397459621943
 21
1882.5
 31
0.0
  0
ARC
  5
744D
  8
0
 10
5436.8999999999942
 20
1887.5
 30
0.0
 40
8.0
 50
210.0000000000004
 51
329.9999999999996
  0
ARC
  5
744E
  8
0
 10
5436.8999999999942
 20
1887.5
 30
0.0
 40
10.0
 50
210.00000000011909
 51
329.9999999999996
  0
LINE
  5
744F
  8
0
 10
5426.9999999999918
 20
1925.5
 30
0.0
 11
5426.9999999999918
 21
1889.7190997647269
 31
0.0
  0
LINE
  5
7450
  8
0
 10
5449.9999999999927
 20
1928.5
 30
0.0
 11
5429.9999999999918
 21
1928.5
 31
0.0
  0
LINE
  5
7451
  8
0
 10
5449.9999999999927
 20
1930.5
 30
0.0
 11
5449.9999999999927
 21
1928.5
 31
0.0
  0
LINE
  5
7452
  8
0
 10
5429.9999999999918
 20
1930.5
 30
0.0
 11
5449.9999999999927
 21
1930.5
 31
0.0
  0
LINE
  5
7453
  8
0
 10
5424.9999999999927
 20
1889.719099764734
 30
0.0
 11
5424.9999999999927
 21
1925.5
 31
0.0
  0
LINE
  5
7454
  8
0
 10
5484.299999999992
 20
1882.5
 30
0.0
 11
5481.9999999999927
 21
1882.5
 31
0.0
  0
LINE
  5
7455
  8
0
 10
5547.9999999999918
 20
1882.5
 30
0.0
 11
5545.6999999999935
 21
1882.5
 31
0.0
  0
LINE
  5
7456
  8
0
 10
5571.7499999999654
 20
1897.5
 30
0.0
 11
5443.2499999999618
 21
1897.5
 31
0.0
  0
LINE
  5
7457
  8
0
 10
5571.7499999999654
 20
1910.5
 30
0.0
 11
5571.7499999999654
 21
1897.5
 31
0.0
  0
LINE
  5
7458
  8
0
 10
5443.2499999999618
 20
1910.5
 30
0.0
 11
5571.7499999999654
 21
1910.5
 31
0.0
  0
LINE
  5
7459
  8
0
 10
5484.299999999992
 20
1930.200000000001
 30
0.0
 11
5484.299999999992
 21
1882.5
 31
0.0
  0
LINE
  5
745A
  8
0
 10
5545.6999999999935
 20
1930.200000000001
 30
0.0
 11
5484.299999999992
 21
1930.200000000001
 31
0.0
  0
LINE
  5
745B
  8
0
 10
5545.6999999999935
 20
1882.5
 30
0.0
 11
5545.6999999999935
 21
1930.200000000001
 31
0.0
  0
LINE
  5
745C
  8
0
 10
5547.9999999999918
 20
1932.5
 30
0.0
 11
5547.9999999999918
 21
1882.5
 31
0.0
  0
LINE
  5
745D
  8
0
 10
5481.9999999999927
 20
1932.5
 30
0.0
 11
5547.9999999999918
 21
1932.5
 31
0.0
  0
LINE
  5
745E
  8
0
 10
5481.9999999999927
 20
1882.5
 30
0.0
 11
5481.9999999999927
 21
1932.5
 31
0.0
  0
LINE
  5
745F
  8
0
  6
PHANTOM2
 10
5375.0000000000073
 20
1999.9999999999879
 30
0.0
 11
5375.0000000000082
 21
1475.000000000023
 31
0.0
  0
LINE
  5
7460
  8
0
  6
PHANTOM2
 10
5375.0000000000082
 20
1475.000000000023
 30
0.0
 11
5450.0000000000091
 21
1475.000000000023
 31
0.0
  0
DIMENSION
  5
7461
  8
0
  2
*D4
 10
8500.0
 20
3000.0000000000259
 30
0.0
 11
7000.0
 21
3082.5000000000259
 31
0.0
  1
W
 13
5500.0
 23
2350.0000000000259
 33
0.0
 14
8500.0
 24
2350.0000000000259
 34
0.0
1001
ACAD
1000
DSTYLE
1002
{
1070
    41
1040
1.0
1002
}
  0
LINE
  5
7462
  8
0
 10
7016.0000000000073
 20
7584.9999999999709
 30
0.0
 11
7067.5000000000064
 21
7584.9999999999709
 31
0.0
  0
LINE
  5
7463
  8
0
 10
7067.5000000000064
 20
7584.9999999999709
 30
0.0
 11
7067.5000000000064
 21
5019.9999999999709
 31
0.0
  0
LINE
  5
7464
  8
0
 10
7067.5000000000064
 20
5019.9999999999709
 30
0.0
 11
7016.0000000000073
 21
5019.9999999999709
 31
0.0
  0
LINE
  5
7465
  8
0
 10
7016.0000000000073
 20
5019.9999999999709
 30
0.0
 11
7016.0000000000073
 21
7584.9999999999709
 31
0.0
  0
LINE
  5
7466
  8
0
 10
5250.0
 20
5000.0
 30
0.0
 11
11000.0
 21
5000.0
 31
0.0
  0
LINE
  5
7467
  8
0
 10
7104.0
 20
5000.0
 30
0.0
 11
7138.1137149705783
 21
7600.0000000000027
 31
0.0
  0
LINE
  5
7468
  8
0
  6
HIDDEN
 10
7050.9963323068368
 20
5000.0
 30
0.0
 11
7067.5000000000064
 21
6402.8117537458693
 31
0.0
  0
DIMENSION
  5
7469
  8
0
  2
*D6
 10
5750.0
 20
5000.0
 30
0.0
 11
5667.4999999999991
 21
6250.0000000000027
 31
0.0
  1
H
 13
6650.0
 23
7500.0
 33
0.0
 14
5850.0
 24
5000.0
 34
0.0
 50
90.0
1001
ACAD
1000
DSTYLE
1002
{
1070
    41
1040
1.0
1002
}
  0
DIMENSION
  5
746A
  8
0
  2
*D8
 10
5750.0
 20
10050.0
 30
0.0
 11
5667.4999999999991
 21
8775.0000000000018
 31
0.0
  1
HR=DH+500以上
 13
6650.0
 23
7500.0
 33
0.0
 14
6650.0
 24
10050.0
 34
0.0
 50
90.0
1001
ACAD
1000
DSTYLE
1002
{
1070
    41
1040
1.0
1002
}
  0
DIMENSION
  5
746B
  8
0
  2
*D10
 10
5975.0
 20
9500.0
 30
0.0
 11
5892.4999999999991
 21
8500.0000000000018
 31
0.0
  1
DH-50
 13
6650.0
 23
7500.0
 33
0.0
 14
6650.0
 24
9500.0
 34
0.0
 50
90.0
1001
ACAD
1000
DSTYLE
1002
{
1070
    41
1040
1.0
1002
}
  0
LINE
  5
746C
  8
0
 10
7067.5000000000064
 20
6402.8117537458693
 30
0.0
 11
7085.1617412372543
 21
7604.0597587258017
 31
0.0
  0
DIMENSION
  5
746D
  8
0
  2
*D12
 10
8000.0
 20
7585.0000000000018
 30
0.0
 11
7917.4999999999964
 21
6302.5000000000009
 31
0.0
  1
DH
 13
7250.0
 23
5020.0
 33
0.0
 14
7250.0
 24
7585.0000000000018
 34
0.0
 50
90.0
1001
ACAD
1000
DSTYLE
1002
{
1070
    41
1040
1.0
1002
}
  0
LINE
  5
746E
  8
0
  6
PHANTOM2
 10
5425.0000000000045
 20
1475.000000000023
 30
0.0
 11
5424.9999999999927
 21
1889.719099764734
 31
0.0
  0
LINE
  5
746F
  8
0
  6
PHANTOM2
 10
5450.0000000000064
 20
1475.000000000023
 30
0.0
 11
5450.0000000000064
 21
1889.719099764734
 31
0.0
  0
LINE
  5
7470
  8
0
  6
PHANTOM2
 10
8549.9999999999782
 20
1475.000000000023
 30
0.0
 11
8549.9999999999782
 21
1889.719099764734
 31
0.0
  0
LINE
  5
7471
  8
0
  6
PHANTOM2
 10
8574.9999999999782
 20
1475.000000000023
 30
0.0
 11
8574.9999999999927
 21
1889.719099764734
 31
0.0
  0
DIMENSION
  5
7472
  8
0
  2
*D14
 10
8525.0
 20
1250.000000000025
 30
0.0
 11
7000.0
 21
1332.500000000025
 31
0.0
  1
DW
 13
5475.0
 23
1750.000000000025
 33
0.0
 14
8525.0
 24
1750.000000000025
 34
0.0
1001
ACAD
1000
DSTYLE
1002
{
1070
    41
1040
1.0
1002
}
  0
LINE
  5
7473
  8
0
 10
7092.9992387806633
 20
5000.0
 30
0.0
 11
7127.1236816985738
 21
7600.8425844306566
 31
0.0
  0
DIMENSION
  5
7474
  8
0
  2
*D16
 10
5340.0000000000009
 20
2775.0000000000259
 30
0.0
 11
5420.0
 21
2857.5000000000259
 31
0.0
  1
160以上
 13
5500.0
 23
2350.0000000000259
 33
0.0
 14
5340.0000000000009
 24
2350.0000000000259
 34
0.0
1001
ACAD
1000
DSTYLE
1002
{
1070
    41
1040
1.0
1002
}
  0
DIMENSION
  5
7475
  8
0
  2
*D18
 10
8660.0
 20
2775.0000000000259
 30
0.0
 11
8580.0
 21
2857.5000000000259
 31
0.0
  1
160以上
 13
8500.0
 23
2350.0000000000259
 33
0.0
 14
8660.0
 24
2350.0000000000259
 34
0.0
1001
ACAD
1000
DSTYLE
1002
{
1070
    41
1040
1.0
1002
}
  0
LINE
  5
7476
  8
0
 10
7003.2000000000025
 20
9400.0000000000582
 30
0.0
 11
7460.0
 21
9400.0000000000582
 31
0.0
  0
LINE
  5
7477
  8
0
 10
7460.0
 20
9400.0000000000582
 30
0.0
 11
7460.0
 21
9600.0000000000582
 31
0.0
  0
LINE
  5
7478
  8
0
 10
7460.0
 20
9600.0000000000582
 30
0.0
 11
7003.2000000000025
 21
9600.0000000000582
 31
0.0
  0
LINE
  5
7479
  8
0
 10
7000.0
 20
9596.8000000000557
 30
0.0
 11
7000.0
 21
9403.2000000000608
 31
0.0
  0
LINE
  5
747A
  8
0
 10
7000.0
 20
9403.2000000000608
 30
0.0
 11
7460.0
 21
9403.2000000000608
 31
0.0
  0
LINE
  5
747B
  8
0
 10
7003.2000000000025
 20
9600.0000000000582
 30
0.0
 11
7003.2000000000025
 21
9400.0000000000582
 31
0.0
  0
LINE
  5
747C
  8
0
 10
7460.0
 20
9596.8000000000557
 30
0.0
 11
7000.0
 21
9596.8000000000557
 31
0.0
  0
CIRCLE
  5
747D
  8
0
 10
7159.9999999999654
 20
9500.0000000000582
 30
0.0
 40
140.0
  0
LINE
  5
747E
  8
0
  6
CENTER2
 10
7159.9999999999654
 20
9600.0000000000127
 30
0.0
 11
7159.9999999999654
 21
9400.0000000000127
 31
0.0
  0
LINE
  5
747F
  8
0
  6
CENTER2
 10
7059.9999999999654
 20
9500.0
 30
0.0
 11
7259.9999999999636
 21
9500.0
 31
0.0
  0
LINE
  5
7480
  8
0
 10
7524.5267093139782
 20
10005.856102931821
 30
0.0
 11
7471.8693057058936
 21
10011.89075780964
 31
0.0
  0
LINE
  5
7481
  8
0
 10
7524.5267093139782
 20
10005.856102931821
 30
0.0
 11
7459.9999999999982
 21
9483.6319499834881
 31
0.0
  0
LINE
  5
7482
  8
0
 10
7513.5978142255071
 20
10007.108578472509
 30
0.0
 11
7460.0
 21
9573.3335815545415
 31
0.0
  0
LINE
  5
7483
  8
0
 10
7471.8693057058936
 20
10011.89075780964
 30
0.0
 11
7447.3435533704096
 21
9813.4002354354543
 31
0.0
  0
LINE
  5
7484
  8
0
  6
HIDDEN
 10
7428.9492391187969
 20
9664.5323436548151
 30
0.0
 11
7447.3435533704096
 21
9813.4002354354543
 31
0.0
  0
LINE
  5
7485
  8
0
 10
7375.4466113631752
 20
9835.3827791919903
 30
0.0
 11
7373.8524374613698
 21
9822.4808952376661
 31
0.0
  0
LINE
  5
7486
  8
0
 10
7359.6666148344266
 20
9837.3325765026602
 30
0.0
 11
7375.4466113631752
 21
9835.3827791919903
 31
0.0
  0
LINE
  5
7487
  8
0
 10
7358.0724409326212
 20
9824.4306925483397
 30
0.0
 11
7359.6666148344266
 21
9837.3325765026602
 31
0.0
  0
LINE
  5
7488
  8
0
 10
7357.680028895129
 20
9821.2548441893614
 30
0.0
 11
7340.0705387183752
 21
9678.7386491256839
 31
0.0
  0
LINE
  5
7489
  8
0
 10
7355.8505352471229
 20
9676.7888518150157
 30
0.0
 11
7373.4600254238803
 21
9819.3050468786914
 31
0.0
  0
LINE
  5
748A
  8
0
 10
7338.6579828599488
 20
9537.6469956307064
 30
0.0
 11
7355.4581232097571
 21
9673.6130034570233
 31
0.0
  0
LINE
  5
748B
  8
0
 10
7322.8779863312029
 20
9539.5967929413764
 30
0.0
 11
7339.6781266810067
 21
9675.5628007676987
 31
0.0
  0
LINE
  5
748C
  8
0
 10
7325.8719226846652
 20
9825.1850960011234
 30
0.0
 11
7479.7020775246647
 21
9806.1776379411222
 31
0.0
  0
LINE
  5
748D
  8
0
 10
7462.0925873479073
 20
9663.6614428774465
 30
0.0
 11
7308.2624325079132
 21
9682.6689009374459
 31
0.0
  0
LINE
  5
748E
  8
0
 10
7461.7001753105378
 20
9660.4855945194577
 30
0.0
 11
7307.8700204705419
 21
9679.4930525794607
 31
0.0
  0
LINE
  5
748F
  8
0
 10
7480.0944895621542
 20
9809.3534863001023
 30
0.0
 11
7461.7001753105378
 21
9660.4855945194577
 31
0.0
  0
LINE
  5
7490
  8
0
 10
7326.2643347221574
 20
9828.3609443600999
 30
0.0
 11
7480.0944895621542
 21
9809.3534863001023
 31
0.0
  0
LINE
  5
7491
  8
0
 10
7307.8700204705419
 20
9679.4930525794607
 30
0.0
 11
7326.2643347221574
 21
9828.3609443600999
 31
0.0
  0
LINE
  5
7492
  8
0
 10
7315.4887833800203
 20
9537.2854773522249
 30
0.0
 11
7345.2623617361478
 21
9533.6066145019031
 31
0.0
  0
LINE
  5
7493
  8
0
 10
7343.0550440259549
 20
9515.7424674882277
 30
0.0
 11
7313.2814656698274
 21
9519.4213303385477
 31
0.0
  0
LINE
  5
7494
  8
0
 10
7345.65477377364
 20
9536.7824628608796
 30
0.0
 11
7343.0550440259549
 21
9515.7424674882277
 31
0.0
  0
LINE
  5
7495
  8
0
 10
7315.8811954175098
 20
9540.4613257112032
 30
0.0
 11
7345.65477377364
 21
9536.7824628608796
 31
0.0
  0
LINE
  5
7496
  8
0
 10
7313.2814656698274
 20
9519.4213303385477
 30
0.0
 11
7315.8811954175098
 21
9540.4613257112032
 31
0.0
  0
LINE
  5
7497
  8
0
 10
7428.9492391187969
 20
9664.5323436548115
 30
0.0
 11
7420.9755371043439
 21
9600.0000000000582
 31
0.0
  0
DIMENSION
  5
7498
  8
0
  2
*D20
 10
7550.0
 20
10400.0
 30
0.0
 11
7275.0
 21
10482.5
 31
0.0
 13
7000.0
 23
10250.0
 33
0.0
 14
7550.0
 24
10050.0
 34
0.0
1001
ACAD
1000
DSTYLE
1002
{
1070
    41
1040
1.0
1002
}
  0
DIMENSION
  5
7499
  8
0
  2
*D22
 10
7460.0
 20
8775.0000000000582
 30
0.0
 11
7230.0
 21
8857.5000000000582
 31
0.0
 13
7000.0
 23
8875.0000000000582
 33
0.0
 14
7460.0
 24
9400.0000000000582
 34
0.0
1001
ACAD
1000
DSTYLE
1002
{
1070
    41
1040
1.0
1002
}
  0
DIMENSION
  5
749A
  8
0
  2
*D24
 10
7160.0
 20
9000.0000000000582
 30
0.0
 11
7130.0
 21
9082.5000000000582
 31
0.0
 70
   128
 13
7000.0
 23
9100.0000000000582
 33
0.0
 14
7160.0
 24
9400.0
 34
0.0
1001
ACAD
1000
DSTYLE
1002
{
1070
    41
1040
1.0
1002
}
  0
LINE
  5
749B
  8
0
 10
7181.3601794100096
 20
7950.0
 30
0.0
 11
7138.1137149705783
 21
7600.0000000000027
 31
0.0
  0
LINE
  5
749C
  8
0
 10
7170.2765267817331
 20
7950.0
 30
0.0
 11
7127.1848198821062
 21
7601.2524755406821
 31
0.0
  0
LINE
  5
749D
  8
0
 10
7127.9571258374162
 20
7950.0
 30
0.0
 11
7085.4563113624927
 21
7606.0346548778243
 31
0.0
  0
LINE
  5
749E
  8
0
 10
6599.9999999999973
 20
8000.0
 30
0.0
 11
7500.0
 21
8000.0
 31
0.0
  0
LINE
  5
749F
  8
0
 10
6599.9999999999973
 20
7950.0
 30
0.0
 11
7500.0
 21
7950.0
 31
0.0
  0
TEXT
  5
74A0
  8
0
 10
7715.9425932886488
 20
9927.6882208640254
 30
0.0
 40
105.0
  1
ストッパー
 41
0.8
  7
横文字
 72
     1
 11
7956.742593288649
 21
9927.6882208640254
 31
0.0
  0
INSERT
  5
74A1
  8
0
  2
*U26
 10
0.0
 20
0.0
 30
0.0
  0
LINE
  5
74A2
  8
0
 10
7396.2632717103834
 20
9400.0000000000582
 30
0.0
 11
7223.2774139526518
 21
8000.0
 31
0.0
  0
LINE
  5
74A3
  8
0
 10
7438.5826726547011
 20
9400.0000000000564
 30
0.0
 11
7265.5968148969678
 21
8000.0
 31
0.0
  0
LINE
  5
74A4
  8
0
 10
7449.6663252829721
 20
9400.0000000000564
 30
0.0
 11
7276.6804675252451
 21
8000.0
 31
0.0
  0
TEXT
  5
74A5
  8
0
 10
7599.6527613208063
 20
8745.1923788646982
 30
0.0
 40
105.0
  1
垂直レール
 41
0.8
  7
横文字
 72
     1
 11
7834.8527613208053
 21
8745.1923788646982
 31
0.0
  0
INSERT
  5
74A6
  8
0
  2
*U27
 10
0.0
 20
0.0
 30
0.0
  0
LINE
  5
74A7
  8
0
  6
PHANTOM2
 10
9500.0
 20
2000.0
 30
0.0
 11
8500.0
 21
2000.0
 31
0.0
  0
LINE
  5
74A8
  8
0
  6
PHANTOM2
 10
8500.0
 20
2150.0
 30
0.0
 11
8500.0
 21
2000.0
 31
0.0
  0
LINE
  5
74A9
  8
0
  6
PHANTOM2
 10
5500.0
 20
2150.0
 30
0.0
 11
5500.0
 21
2000.0
 31
0.0
  0
LINE
  5
74AA
  8
0
  6
PHANTOM2
 10
9500.0
 20
2150.0
 30
0.0
 11
8500.0
 21
2150.0
 31
0.0
  0
LINE
  5
74AB
  8
0
  6
PHANTOM2
 10
5500.0
 20
2150.0
 30
0.0
 11
4500.0
 21
2150.0
 31
0.0
  0
LINE
  5
74AC
  8
0
  6
PHANTOM2
 10
5500.0
 20
2000.0
 30
0.0
 11
4500.0
 21
2000.0
 31
0.0
  0
LINE
  5
74AD
  8
0
  6
PHANTOM2
 10
7000.0
 20
10700.0
 30
0.0
 11
7000.0000000000009
 21
8000.0
 31
0.0
  0
LINE
  5
74AE
  8
0
  6
PHANTOM2
 10
6850.0
 20
7500.0
 30
0.0
 11
7000.0
 21
7500.0
 31
0.0
  0
LINE
  5
74AF
  8
0
  6
PHANTOM2
 10
6850.0
 20
10700.0
 30
0.0
 11
6850.0
 21
8000.0
 31
0.0
  0
LINE
  5
74B0
  8
0
  6
PHANTOM2
 10
7000.0000000000009
 20
7950.0
 30
0.0
 11
7000.0
 21
7500.0
 31
0.0
  0
LINE
  5
74B1
  8
0
  6
PHANTOM2
 10
6850.0
 20
7950.0
 30
0.0
 11
6850.0
 21
7500.0
 31
0.0
  0
TEXT
  5
74B2
  8
0
 10
10979.999999999971
 20
47.5
 30
0.0
 40
105.0
  1
バーチカル
 11
10979.999999999971
 21
100.0
 31
0.0
 73
     2
  0
TEXT
  5
74B3
  8
0
 10
10229.999999999971
 20
47.5
 30
0.0
 40
105.0
  1
納まり　  :
 11
10229.999999999971
 21
100.0
 31
0.0
 73
     2
  0
TEXT
  5
74B4
  8
0
 10
6552.9957445612663
 20
6427.0875098650649
 30
0.0
 40
105.0
  1
パネル
 41
0.8
  7
文字
 72
     1
 11
6692.9957445612654
 21
6427.0875098650649
 31
0.0
  0
INSERT
  5
74B5
  8
0
  2
*U28
 10
0.0
 20
0.0
 30
0.0
  0
LINE
  5
74B6
  8
0
  6
PHANTOM2
 10
7070.7000000000062
 20
5029.8000000000102
 30
0.0
 11
7095.5000000000073
 21
5029.8000000000102
 31
0.0
  0
LINE
  5
74B7
  8
0
  6
PHANTOM2
 10
7070.7000000000062
 20
5222.5000000000073
 30
0.0
 11
7067.5000000000064
 21
5222.5000000000073
 31
0.0
  0
LINE
  5
74B8
  8
0
  6
PHANTOM2
 10
7095.5000000000073
 20
5033.0000000000082
 30
0.0
 11
7095.5000000000073
 21
5029.8000000000102
 31
0.0
  0
LINE
  5
74B9
  8
0
  6
PHANTOM2
 10
7070.7000000000062
 20
5033.0000000000082
 30
0.0
 11
7095.5000000000073
 21
5033.0000000000082
 31
0.0
  0
ARC
  5
74BA
  8
0
  6
PHANTOM2
 10
7070.7000000000062
 20
5033.0000000000082
 30
0.0
 40
3.2000000000000002
 50
180.0
 51
270.0
  0
LINE
  5
74BB
  8
0
  6
PHANTOM2
 10
7163.5000000000073
 20
5138.49999999997
 30
0.0
 11
7163.5000000000073
 21
5137.5000000000064
 31
0.0
  0
LINE
  5
74BC
  8
0
  6
PHANTOM2
 10
7163.5000000000073
 20
5055.5000000000064
 30
0.0
 11
7158.595261705641
 21
5055.5000000000064
 31
0.0
  0
LINE
  5
74BD
  8
0
  6
PHANTOM2
 10
7136.5000000000082
 20
5055.5000000000064
 30
0.0
 11
7070.7000000000062
 21
5055.5000000000064
 31
0.0
  0
LINE
  5
74BE
  8
0
  6
PHANTOM2
 10
7163.5000000000073
 20
5137.5000000000064
 30
0.0
 11
7141.0295766755717
 21
5137.5000000000064
 31
0.0
  0
LINE
  5
74BF
  8
0
  6
PHANTOM2
 10
7104.8594262750121
 20
5114.1176127356302
 30
0.0
 11
7138.2322124005677
 21
5136.6442433703851
 31
0.0
  0
ARC
  5
74C0
  8
0
  6
PHANTOM2
 10
7141.0295766755717
 20
5132.5000000000073
 30
0.0
 40
5.0
 50
90.0
 51
124.019349989688
  0
LINE
  5
74C1
  8
0
  6
PHANTOM2
 10
7163.5000000000073
 20
5058.49999999997
 30
0.0
 11
7163.5000000000073
 21
5055.5000000000064
 31
0.0
  0
LINE
  5
74C2
  8
0
  6
PHANTOM2
 10
7163.5000000000073
 20
5138.49999999997
 30
0.0
 11
7166.7000000000053
 21
5138.49999999997
 31
0.0
  0
LINE
  5
74C3
  8
0
  6
PHANTOM2
 10
7163.5000000000073
 20
5058.49999999997
 30
0.0
 11
7166.7000000000071
 21
5058.49999999997
 31
0.0
  0
LINE
  5
74C4
  8
0
  6
PHANTOM2
 10
7166.7000000000053
 20
5138.49999999997
 30
0.0
 11
7166.7000000000053
 21
5101.7290599168118
 31
0.0
  0
LINE
  5
74C5
  8
0
  6
PHANTOM2
 10
7166.7000000000071
 20
5095.3290599168104
 30
0.0
 11
7166.7000000000071
 21
5058.49999999997
 31
0.0
  0
ARC
  5
74C6
  8
0
  6
PHANTOM2
 10
7163.5000000000073
 20
5095.3290599168104
 30
0.0
 40
3.2000000000000002
 50
0.0
 51
90.0
  0
ARC
  5
74C7
  8
0
  6
PHANTOM2
 10
7163.5000000000073
 20
5101.7290599168118
 30
0.0
 40
3.2000000000000002
 50
270.0
 51
0.0
  0
LINE
  5
74C8
  8
0
  6
PHANTOM2
 10
7070.7000000000062
 20
5150.5000000000082
 30
0.0
 11
7104.8594262750103
 21
5114.1176127356366
 31
0.0
  0
LINE
  5
74C9
  8
0
  6
PHANTOM2
 10
7070.7000000000062
 20
5055.5000000000064
 30
0.0
 11
7070.7000000000062
 21
5033.0000000000082
 31
0.0
  0
ARC
  5
74CA
  8
0
  6
PHANTOM2
 10
7169.5000000000082
 20
5032.8000000000102
 30
0.0
 40
12.5
 50
239.9999999999107
 51
59.99999999991072
  0
LINE
  5
74CB
  8
0
  6
PHANTOM2
 10
7163.2500000000082
 20
5021.9746824527028
 30
0.0
 11
7139.0000000000073
 21
5035.9754264805506
 31
0.0
  0
LINE
  5
74CC
  8
0
  6
PHANTOM2
 10
7175.7500000000073
 20
5043.6253175473103
 30
0.0
 11
7161.0000000000073
 21
5052.1412340178586
 31
0.0
  0
ARC
  5
74CD
  8
0
  6
PHANTOM2
 10
7163.5000000000073
 20
5056.4713610367844
 30
0.0
 40
5.0
 50
191.20221111558681
 51
239.9999999999107
  0
LINE
  5
74CE
  8
0
  6
PHANTOM2
 10
7136.5000000000082
 20
5055.5000000000064
 30
0.0
 11
7136.5000000000082
 21
5040.3055534994719
 31
0.0
  0
ARC
  5
74CF
  8
0
  6
PHANTOM2
 10
7141.5000000000073
 20
5040.3055534994719
 30
0.0
 40
5.0
 50
180.0
 51
239.9999999999107
  0
LINE
  5
74D0
  8
0
  6
PHANTOM2
 10
7204.9000000000087
 20
5120.5000000000437
 30
0.0
 11
7204.9000000000087
 21
5151.1110695100861
 31
0.0
  0
LINE
  5
74D1
  8
0
  6
PHANTOM2
 10
7203.7000000000062
 20
5120.5000000000437
 30
0.0
 11
7203.7000000000062
 21
5150.5000000000418
 31
0.0
  0
LINE
  5
74D2
  8
0
  6
PHANTOM2
 10
7204.9000000000087
 20
5120.5000000000437
 30
0.0
 11
7203.7000000000062
 21
5120.5000000000437
 31
0.0
  0
LINE
  5
74D3
  8
0
  6
PHANTOM2
 10
7148.7000000000062
 20
5190.5000000000418
 30
0.0
 11
7203.7000000000062
 21
5150.5000000000418
 31
0.0
  0
LINE
  5
74D4
  8
0
  6
PHANTOM2
 10
7148.7000000000062
 20
5190.5000000000418
 30
0.0
 11
7070.7000000000062
 21
5190.5000000000418
 31
0.0
  0
LINE
  5
74D5
  8
0
  6
PHANTOM2
 10
7071.900000000006
 20
5191.7000000000389
 30
0.0
 11
7071.900000000006
 21
5224.6040862788577
 31
0.0
  0
LINE
  5
74D6
  8
0
  6
PHANTOM2
 10
7149.0902205763159
 20
5191.7000000000389
 30
0.0
 11
7071.900000000006
 21
5191.7000000000389
 31
0.0
  0
LINE
  5
74D7
  8
0
  6
PHANTOM2
 10
7149.0902205763159
 20
5191.7000000000389
 30
0.0
 11
7204.9000000000087
 21
5151.1110695100861
 31
0.0
  0
LINE
  5
74D8
  8
0
  6
PHANTOM2
 10
7068.900000000006
 20
5234.5000000000437
 30
0.0
 11
7070.7000000000062
 21
5224.4969790327668
 31
0.0
  0
LINE
  5
74D9
  8
0
  6
PHANTOM2
 10
7070.0810311808264
 20
5234.7125214105599
 30
0.0
 11
7071.900000000006
 21
5224.6040862788577
 31
0.0
  0
LINE
  5
74DA
  8
0
  6
PHANTOM2
 10
7070.0810311808264
 20
5234.7125214105599
 30
0.0
 11
7068.900000000006
 21
5234.5000000000437
 31
0.0
  0
LINE
  5
74DB
  8
0
  6
PHANTOM2
 10
7070.7000000000062
 20
5190.5000000000373
 30
0.0
 11
7070.7000000000062
 21
5150.5000000000082
 31
0.0
  0
LINE
  5
74DC
  8
0
  6
PHANTOM2
 10
7070.7000000000062
 20
5222.5000000000073
 30
0.0
 11
7070.7000000000062
 21
5224.4969790327668
 31
0.0
  0
LINE
  5
74DD
  8
0
  6
PHANTOM2
 10
7067.5000000000064
 20
5222.5000000000073
 30
0.0
 11
7067.5000000000064
 21
5033.0000000000082
 31
0.0
  0
ENDSEC
  0
EOF
