  0
SECTION
  2
HEADER
  9
$ACADVER
  1
AC1009
  9
$INSBASE
 10
0.0
 20
0.0
 30
0.0
  9
$EXTMIN
 10
-0.4998397926137841
 20
-0.3584016095373954
 30
-0.0015258207003583
  9
$EXTMAX
 10
16380.499916067931
 20
11745.35845630145
 30
0.0000000349246037
  9
$LIMMIN
 10
0.0
 20
0.0
  9
$LIMMAX
 10
420.0
 20
297.0
  9
$ORTHOMODE
 70
     0
  9
$REGENMODE
 70
     1
  9
$FILLMODE
 70
     1
  9
$QTEXTMODE
 70
     0
  9
$MIRRTEXT
 70
     1
  9
$DRAGMODE
 70
     2
  9
$LTSCALE
 40
7.5
  9
$OSMODE
 70
  3071
  9
$ATTMODE
 70
     1
  9
$TEXTSIZE
 40
105.0
  9
$TRACEWID
 40
1.0
  9
$TEXTSTYLE
  7
文字
  9
$CLAYER
  8
0
  9
$CELTYPE
  6
BYLAYER
  9
$CECOLOR
 62
   256
  9
$DIMSCALE
 40
30.0
  9
$DIMASZ
 40
2.0
  9
$DIMEXO
 40
5.0
  9
$DIMDLI
 40
7.5
  9
$DIMRND
 40
0.0
  9
$DIMDLE
 40
0.0
  9
$DIMEXE
 40
1.0
  9
$DIMTP
 40
0.0
  9
$DIMTM
 40
0.0
  9
$DIMTXT
 40
3.5
  9
$DIMCEN
 40
1.0
  9
$DIMTSZ
 40
0.0
  9
$DIMTOL
 70
     0
  9
$DIMLIM
 70
     0
  9
$DIMTIH
 70
     0
  9
$DIMTOH
 70
     0
  9
$DIMSE1
 70
     0
  9
$DIMSE2
 70
     0
  9
$DIMTAD
 70
     1
  9
$DIMZIN
 70
     8
  9
$DIMBLK
  1
ORIGIN
  9
$DIMASO
 70
     1
  9
$DIMSHO
 70
     1
  9
$DIMPOST
  1

  9
$DIMAPOST
  1

  9
$DIMALT
 70
     0
  9
$DIMALTD
 70
     3
  9
$DIMALTF
 40
0.03937007874016
  9
$DIMLFAC
 40
1.0
  9
$DIMTOFL
 70
     1
  9
$DIMTVP
 40
0.0
  9
$DIMTIX
 70
     1
  9
$DIMSOXD
 70
     0
  9
$DIMSAH
 70
     0
  9
$DIMBLK1
  1

  9
$DIMBLK2
  1

  9
$DIMSTYLE
  2
寸法線30
  9
$DIMCLRD
 70
   256
  9
$DIMCLRE
 70
   256
  9
$DIMCLRT
 70
   256
  9
$DIMTFAC
 40
1.0
  9
$DIMGAP
 40
1.0
  9
$LUNITS
 70
     2
  9
$LUPREC
 70
     4
  9
$SKETCHINC
 40
1.0
  9
$FILLETRAD
 40
0.0
  9
$AUNITS
 70
     0
  9
$AUPREC
 70
     0
  9
$MENU
  1
.
  9
$ELEVATION
 40
0.0
  9
$PELEVATION
 40
0.0
  9
$THICKNESS
 40
0.0
  9
$LIMCHECK
 70
     0
  9
$BLIPMODE
 70
     0
  9
$CHAMFERA
 40
10.0
  9
$CHAMFERB
 40
10.0
  9
$SKPOLY
 70
     0
  9
$TDCREATE
 40
2452654.657629028
  9
$TDUPDATE
 40
2456778.7066470371
  9
$TDINDWG
 40
0.7989401968
  9
$TDUSRTIMER
 40
0.7989383912
  9
$USRTIMER
 70
     1
  9
$ANGBASE
 50
0.0
  9
$ANGDIR
 70
     0
  9
$PDMODE
 70
     0
  9
$PDSIZE
 40
0.0
  9
$PLINEWID
 40
0.0
  9
$COORDS
 70
     2
  9
$SPLFRAME
 70
     0
  9
$SPLINETYPE
 70
     6
  9
$SPLINESEGS
 70
     8
  9
$ATTDIA
 70
     0
  9
$ATTREQ
 70
     1
  9
$HANDLING
 70
     1
  9
$HANDSEED
  5
68C3
  9
$SURFTAB1
 70
     6
  9
$SURFTAB2
 70
     6
  9
$SURFTYPE
 70
     6
  9
$SURFU
 70
     6
  9
$SURFV
 70
     6
  9
$UCSNAME
  2

  9
$UCSORG
 10
0.0
 20
0.0
 30
0.0
  9
$UCSXDIR
 10
1.0
 20
0.0
 30
0.0
  9
$UCSYDIR
 10
0.0
 20
1.0
 30
0.0
  9
$PUCSNAME
  2

  9
$PUCSORG
 10
0.0
 20
0.0
 30
0.0
  9
$PUCSXDIR
 10
1.0
 20
0.0
 30
0.0
  9
$PUCSYDIR
 10
0.0
 20
1.0
 30
0.0
  9
$USERI1
 70
     0
  9
$USERI2
 70
     0
  9
$USERI3
 70
     0
  9
$USERI4
 70
     0
  9
$USERI5
 70
     0
  9
$USERR1
 40
0.0
  9
$USERR2
 40
0.0
  9
$USERR3
 40
0.0
  9
$USERR4
 40
0.0
  9
$USERR5
 40
0.0
  9
$WORLDVIEW
 70
     1
  9
$SHADEDGE
 70
     3
  9
$SHADEDIF
 70
    70
  9
$TILEMODE
 70
     1
  9
$MAXACTVP
 70
    64
  9
$PLIMCHECK
 70
     0
  9
$PEXTMIN
 10
1.0000000000000000E+020
 20
1.0000000000000000E+020
 30
1.0000000000000000E+020
  9
$PEXTMAX
 10
-1.0000000000000000E+020
 20
-1.0000000000000000E+020
 30
-1.0000000000000000E+020
  9
$PLIMMIN
 10
0.0
 20
0.0
  9
$PLIMMAX
 10
420.0
 20
297.0
  9
$UNITMODE
 70
     0
  9
$VISRETAIN
 70
     1
  9
$PLINEGEN
 70
     0
  9
$PSLTSCALE
 70
     1
  0
ENDSEC
  0
SECTION
  2
TABLES
  0
TABLE
  2
VPORT
 70
     1
  0
VPORT
  2
*ACTIVE
 70
     0
 10
0.0
 20
0.0
 11
1.0
 21
1.0
 12
8190.0000381376594
 22
5872.5000273459573
 13
0.0
 23
0.0
 14
10.0
 24
10.0
 15
10.0
 25
10.0
 16
0.0
 26
0.0
 36
1.0
 17
0.0
 27
0.0
 37
0.0
 40
11826.443434254021
 41
1.7981651376146781
 42
50.0
 43
0.0
 44
0.0
 50
0.0
 51
0.0
 71
     0
 72
   100
 73
     1
 74
     3
 75
     0
 76
     0
 77
     0
 78
     0
  0
ENDTAB
  0
TABLE
  2
LTYPE
 70
     4
  0
LTYPE
  2
CONTINUOUS
 70
     0
  3
Solid line
 72
    65
 73
     0
 40
0.0
  0
LTYPE
  2
HIDDEN
 70
     0
  3
Hidden __ __ __ __ __ __ __ __ __ __ __ __ __ _
 72
    65
 73
     2
 40
9.5249999999999986
 49
6.3499999999999979
 49
-3.174999999999998
  0
LTYPE
  2
CENTER2
 70
     0
  3
Center (.5x) ___ _ ___ _ ___ _ ___ _ ___ _ ___
 72
    65
 73
     4
 40
28.574999999999999
 49
19.050000000000001
 49
-3.174999999999998
 49
3.174999999999998
 49
-3.174999999999998
  0
LTYPE
  2
PHANTOM2
 70
     0
  3
Phantom (.5x) ___ _ _ ___ _ _ ___ _ _ ___ _ _
 72
    65
 73
     6
 40
31.75
 49
15.875
 49
-3.174999999999998
 49
3.174999999999998
 49
-3.174999999999998
 49
3.174999999999998
 49
-3.174999999999998
  0
ENDTAB
  0
TABLE
  2
LAYER
 70
     2
  0
LAYER
  2
0
 70
     0
 62
     7
  6
CONTINUOUS
  0
LAYER
  2
DEFPOINTS
 70
     0
 62
     7
  6
CONTINUOUS
  0
ENDTAB
  0
TABLE
  2
STYLE
 70
     4
  0
STYLE
  2
STANDARD
 70
     0
 40
0.0
 41
1.0
 50
0.0
 71
     0
 42
105.0
  3
romans.shx
  4
bigfont.shx
  0
STYLE
  2
文字
 70
     0
 40
0.0
 41
0.8
 50
0.0
 71
     0
 42
105.0
  3
romans.shx
  4
extfont.shx
  0
STYLE
  2
横文字
 70
     0
 40
0.0
 41
0.8
 50
0.0
 71
     0
 42
105.0
  3
romans.shx
  4
extfont.shx
  0
ENDTAB
  0
TABLE
  2
VIEW
 70
     0
  0
ENDTAB
  0
TABLE
  2
UCS
 70
     0
  0
ENDTAB
  0
TABLE
  2
APPID
 70
    81
  0
APPID
  2
ACAD
 70
     0
  0
APPID
  2
ACADANNOTATIVE
 70
     0
  0
APPID
  2
ADE
 70
     0
  0
APPID
  2
DCO15
 70
     0
  0
APPID
  2
SETH_MM
 70
     0
  0
APPID
  2
ACAD_PSEXT
 70
     0
  0
APPID
  2
ACAD_EXEMPT_FROM_CAD_STANDARDS
 70
     0
  0
APPID
  2
ACAD_MLEADERVER
 70
     0
  0
APPID
  2
AUTOESSSHUTTERLINE1
 70
     0
  0
APPID
  2
AUTOESSSHUTTERLINE2
 70
     0
  0
APPID
  2
AUTOESSSHUTTERPT
 70
     0
  0
APPID
  2
MAKICIRCLE
 70
     0
  0
APPID
  2
ACAD_DSTYLE_DIMJAG
 70
     0
  0
APPID
  2
ACAD_DSTYLE_DIMTALN
 70
     0
  0
APPID
  2
SETW_MM
 70
     0
  0
APPID
  2
PARADIMLINE
 70
     0
  0
APPID
  2
PARABASEPT
 70
     0
  0
APPID
  2
MIRRORCHK_L
 70
     0
  0
APPID
  2
MIRRORCHK_R
 70
     0
  0
APPID
  2
LINKSPLIT1
 70
     0
  0
APPID
  2
LINKSPLIT2
 70
     0
  0
APPID
  2
LINKSPLIT3
 70
     0
  0
APPID
  2
LINKSPLIT4
 70
     0
  0
APPID
  2
TBANLLINE
 70
     0
  0
APPID
  2
TBANRLINE
 70
     0
  0
APPID
  2
TBANHLINE
 70
     0
  0
APPID
  2
ARCLINEA1
 70
     0
  0
APPID
  2
ARCLINEA2
 70
     0
  0
APPID
  2
ARCLINEB1
 70
     0
  0
APPID
  2
ARCLINEB2
 70
     0
  0
APPID
  2
ODPDW
 70
     0
  0
APPID
  2
ODPDH
 70
     0
  0
APPID
  2
ODWLINE1
 70
     0
  0
APPID
  2
ODWLINE2
 70
     0
  0
APPID
  2
ODSY
 70
     0
  0
APPID
  2
EDWDW
 70
     0
  0
APPID
  2
EDWDH
 70
     0
  0
APPID
  2
LINKSPLIT11
 70
     0
  0
APPID
  2
LINKSPLIT12
 70
     0
  0
APPID
  2
LINKSPLIT13
 70
     0
  0
APPID
  2
LINKSPLIT14
 70
     0
  0
APPID
  2
AUTOESSDOORPTH1
 70
     0
  0
APPID
  2
AUTOESSDOORPTH2
 70
     0
  0
APPID
  2
AUTOESSDOORPTV1
 70
     0
  0
APPID
  2
AUTOESSDOORPTV2
 70
     0
  0
APPID
  2
TBANPT1
 70
     0
  0
APPID
  2
TBANPT2
 70
     0
  0
APPID
  2
SETDH_MM
 70
     0
  0
APPID
  2
SETV1_MM
 70
     0
  0
APPID
  2
SETV2_MM
 70
     0
  0
APPID
  2
KAIKOUDIM
 70
     0
  0
APPID
  2
TBANK
 70
     0
  0
APPID
  2
TBANR
 70
     0
  0
APPID
  2
TBANO
 70
     0
  0
APPID
  2
TBANHATA1
 70
     0
  0
APPID
  2
TBANHATA2
 70
     0
  0
APPID
  2
TBANMEN
 70
     0
  0
APPID
  2
TBANW
 70
     0
  0
APPID
  2
TBANH
 70
     0
  0
APPID
  2
ARCLINEA3
 70
     0
  0
APPID
  2
ARCLINEB3
 70
     0
  0
APPID
  2
WORKNAME_UE
 70
     0
  0
APPID
  2
WORKNAME
 70
     0
  0
APPID
  2
SD1
 70
     0
  0
APPID
  2
SD2
 70
     0
  0
APPID
  2
DELETEOBJ
 70
     0
  0
APPID
  2
TBANTEXT
 70
     0
  0
APPID
  2
MAKITEXT
 70
     0
  0
APPID
  2
N_01
 70
     0
  0
APPID
  2
N_02
 70
     0
  0
APPID
  2
N_03
 70
     0
  0
APPID
  2
N_04
 70
     0
  0
APPID
  2
N_05
 70
     0
  0
APPID
  2
N_06
 70
     0
  0
APPID
  2
N_07
 70
     0
  0
APPID
  2
N_08
 70
     0
  0
APPID
  2
N_09
 70
     0
  0
APPID
  2
N_10
 70
     0
  0
APPID
  2
N_11
 70
     0
  0
APPID
  2
N_12
 70
     0
  0
APPID
  2
N_13
 70
     0
  0
ENDTAB
  0
TABLE
  2
DIMSTYLE
 70
     3
  0
DIMSTYLE
  2
STANDARD
 70
     0
  3

  4

  5

  6

  7

 40
30.0
 41
1.0
 42
5.0
 43
7.5
 44
1.0
 45
0.0
 46
0.0
 47
0.0
 48
0.0
140
3.5
141
2.5
142
0.0
143
25.399999999999999
144
1.0
145
0.0
146
1.0
147
1.0
 71
     0
 72
     0
 73
     0
 74
     0
 75
     0
 76
     0
 77
     1
 78
     8
170
     0
171
     2
172
     1
173
     0
174
     1
175
     0
176
     0
177
     0
178
     0
  0
DIMSTYLE
  2
寸法線30
 70
     0
  3

  4

  5

  6

  7

 40
30.0
 41
2.0
 42
5.0
 43
7.5
 44
1.0
 45
0.0
 46
0.0
 47
0.0
 48
0.0
140
3.5
141
1.0
142
0.0
143
0.03937007874016
144
1.0
145
0.0
146
1.0
147
1.0
 71
     0
 72
     0
 73
     0
 74
     0
 75
     0
 76
     0
 77
     1
 78
     8
170
     0
171
     3
172
     1
173
     0
174
     1
175
     0
176
   256
177
   256
178
   256
  0
ENDTAB
  0
ENDSEC
  0
SECTION
  2
BLOCKS
  0
BLOCK
  8
0
  2
$MODEL_SPACE
 70
     0
 10
0.0
 20
0.0
 30
0.0
  3
$MODEL_SPACE
  1

  0
ENDBLK
  5
67CD
  8
0
  0
BLOCK
 67
     1
  8
0
  2
$PAPER_SPACE
 70
     0
 10
0.0
 20
0.0
 30
0.0
  3
$PAPER_SPACE
  1

  0
ENDBLK
  5
67C9
 67
     1
  8
0
  0
BLOCK
  8
0
  2
_ORIGIN
 70
     0
 10
0.0
 20
0.0
 30
0.0
  3
_ORIGIN
  1

  0
CIRCLE
  5
A7
  8
0
  6
BYBLOCK
 62
     0
 10
0.0
 20
0.0
 30
0.0
 40
0.5
  0
LINE
  5
A8
  8
0
  6
BYBLOCK
 62
     0
 10
0.0
 20
0.0
 30
0.0
 11
-1.0
 21
0.0
 31
0.0
  0
ENDBLK
  5
AA
  8
0
  0
BLOCK
  8
0
  2
_OPEN30
 70
     0
 10
0.0
 20
0.0
 30
0.0
  3
_OPEN30
  1

  0
LINE
  5
AC
  8
0
  6
BYBLOCK
 62
     0
 10
-1.0
 20
0.26794919
 30
0.0
 11
0.0
 21
0.0
 31
0.0
  0
LINE
  5
AD
  8
0
  6
BYBLOCK
 62
     0
 10
0.0
 20
0.0
 30
0.0
 11
-1.0
 21
-0.26794919
 31
0.0
  0
LINE
  5
AE
  8
0
  6
BYBLOCK
 62
     0
 10
0.0
 20
0.0
 30
0.0
 11
-1.0
 21
0.0
 31
0.0
  0
ENDBLK
  5
B0
  8
0
  0
BLOCK
  8
0
  2
*D4
 70
     1
 10
0.0
 20
0.0
 30
0.0
  3
*D4
  1

  0
LINE
  5
6610
  8
0
 10
5500.0
 20
3500.0000000000291
 30
0.0
 11
5500.0
 21
4030.0000000000282
 31
0.0
  0
LINE
  5
6611
  8
0
 10
8500.0
 20
3500.0000000000291
 30
0.0
 11
8500.0
 21
4030.0000000000282
 31
0.0
  0
LINE
  5
6612
  8
0
 10
5530.0
 20
4000.0000000000291
 30
0.0
 11
8470.0
 21
4000.0000000000291
 31
0.0
  0
INSERT
  5
6613
  8
0
  2
_ORIGIN
 10
5500.0
 20
4000.0000000000291
 30
0.0
 41
30.0
 42
30.0
 43
30.0
 50
180.0
  0
INSERT
  5
6614
  8
0
  2
_ORIGIN
 10
8500.0
 20
4000.0000000000291
 30
0.0
 41
30.0
 42
30.0
 43
30.0
  0
INSERT
  5
6615
  8
0
  2
*U5
 10
0.0
 20
0.0
 30
0.0
  0
POINT
  5
6616
  8
DEFPOINTS
 62
     0
 10
5500.0
 20
3350.0000000000291
 30
0.0
  0
POINT
  5
6617
  8
DEFPOINTS
 62
     0
 10
8500.0
 20
3350.0000000000291
 30
0.0
  0
POINT
  5
6618
  8
DEFPOINTS
 62
     0
 10
8500.0
 20
4000.0000000000291
 30
0.0
  0
ENDBLK
  5
656A
  8
0
  0
BLOCK
  8
0
  2
*U5
 70
     1
 10
0.0
 20
0.0
 30
0.0
  3
*U5
  1

  0
TEXT
  5
672E
  8
0
 10
6952.0
 20
4030.0000000000282
 30
0.0
 40
105.0
  1
W
 41
0.8
  7
文字
  0
ENDBLK
  5
6730
  8
0
  0
BLOCK
  8
0
  2
*D6
 70
     1
 10
0.0
 20
0.0
 30
0.0
  3
*D6
  1

  0
LINE
  5
6619
  8
0
 10
6500.0
 20
8800.0
 30
0.0
 11
5720.0000000000009
 21
8800.0
 31
0.0
  0
LINE
  5
661A
  8
0
 10
5700.0
 20
6000.0
 30
0.0
 11
5720.0
 21
6000.0
 31
0.0
  0
LINE
  5
661B
  8
0
 10
5750.0
 20
8770.0
 30
0.0
 11
5750.0
 21
6030.0
 31
0.0
  0
INSERT
  5
661C
  8
0
  2
_ORIGIN
 10
5750.0
 20
8800.0
 30
0.0
 41
30.0
 42
30.0
 43
30.0
 50
90.0
  0
INSERT
  5
661D
  8
0
  2
_ORIGIN
 10
5750.0
 20
6000.0
 30
0.0
 41
30.0
 42
30.0
 43
30.0
 50
270.0
  0
INSERT
  5
661E
  8
0
  2
*U7
 10
0.0
 20
0.0
 30
0.0
  0
POINT
  5
661F
  8
DEFPOINTS
 62
     0
 10
6650.0
 20
8800.0
 30
0.0
  0
POINT
  5
6620
  8
DEFPOINTS
 62
     0
 10
5850.0
 20
6000.0
 30
0.0
  0
POINT
  5
6621
  8
DEFPOINTS
 62
     0
 10
5750.0
 20
6000.0
 30
0.0
  0
ENDBLK
  5
6576
  8
0
  0
BLOCK
  8
0
  2
*U7
 70
     1
 10
0.0
 20
0.0
 30
0.0
  3
*U7
  1

  0
TEXT
  5
6732
  8
0
 10
5719.9999999999973
 20
7356.0000000000027
 30
0.0
 40
105.0
  1
H
 50
90.0
 41
0.8
  7
文字
  0
ENDBLK
  5
6734
  8
0
  0
BLOCK
  8
0
  2
*D8
 70
     1
 10
0.0
 20
0.0
 30
0.0
  3
*D8
  1

  0
LINE
  5
6622
  8
0
 10
6500.0
 20
8800.0
 30
0.0
 11
5720.0
 21
8800.0
 31
0.0
  0
LINE
  5
6623
  8
0
 10
6500.0
 20
9330.0
 30
0.0
 11
5720.0
 21
9330.0
 31
0.0
  0
LINE
  5
6624
  8
0
 10
5750.0
 20
8770.0
 30
0.0
 11
5750.0
 21
8740.0
 31
0.0
  0
LINE
  5
6625
  8
0
 10
5750.0
 20
9360.0
 30
0.0
 11
5750.0
 21
9390.0
 31
0.0
  0
LINE
  5
6626
  8
0
 10
5750.0
 20
8800.0
 30
0.0
 11
5750.0
 21
9330.0
 31
0.0
  0
INSERT
  5
6627
  8
0
  2
_ORIGIN
 10
5750.0
 20
8800.0
 30
0.0
 41
30.0
 42
30.0
 43
30.0
 50
90.0
  0
INSERT
  5
6628
  8
0
  2
_ORIGIN
 10
5750.0
 20
9330.0
 30
0.0
 41
30.0
 42
30.0
 43
30.0
 50
270.0
  0
INSERT
  5
6629
  8
0
  2
*U9
 10
0.0
 20
0.0
 30
0.0
  0
POINT
  5
662A
  8
DEFPOINTS
 62
     0
 10
6650.0
 20
8800.0
 30
0.0
  0
POINT
  5
662B
  8
DEFPOINTS
 62
     0
 10
6650.0
 20
9330.0
 30
0.0
  0
POINT
  5
662C
  8
DEFPOINTS
 62
     0
 10
5750.0
 20
9330.0
 30
0.0
  0
ENDBLK
  5
6582
  8
0
  0
BLOCK
  8
0
  2
*U9
 70
     1
 10
0.0
 20
0.0
 30
0.0
  3
*U9
  1

  0
TEXT
  5
6736
  8
0
 10
5719.9999999999973
 20
8709.4000000000033
 30
0.0
 40
105.0
  1
HR=530以上
 50
90.0
 41
0.8
  7
文字
  0
ENDBLK
  5
6738
  8
0
  0
BLOCK
  8
0
  2
*D10
 70
     1
 10
0.0
 20
0.0
 30
0.0
  3
*D10
  1

  0
LINE
  5
662D
  8
0
 10
6500.0
 20
8800.0
 30
0.0
 11
5945.0
 21
8800.0
 31
0.0
  0
LINE
  5
662E
  8
0
 10
6500.0
 20
9230.0
 30
0.0
 11
5945.0
 21
9230.0
 31
0.0
  0
LINE
  5
662F
  8
0
 10
5975.0
 20
8830.0
 30
0.0
 11
5975.0
 21
9200.0
 31
0.0
  0
INSERT
  5
6630
  8
0
  2
_ORIGIN
 10
5975.0
 20
8800.0
 30
0.0
 41
30.0
 42
30.0
 43
30.0
 50
270.0
  0
INSERT
  5
6631
  8
0
  2
_ORIGIN
 10
5975.0
 20
9230.0
 30
0.0
 41
30.0
 42
30.0
 43
30.0
 50
90.0
  0
INSERT
  5
6632
  8
0
  2
*U11
 10
0.0
 20
0.0
 30
0.0
  0
POINT
  5
6633
  8
DEFPOINTS
 62
     0
 10
6650.0
 20
8800.0
 30
0.0
  0
POINT
  5
6634
  8
DEFPOINTS
 62
     0
 10
6650.0
 20
9230.0
 30
0.0
  0
POINT
  5
6635
  8
DEFPOINTS
 62
     0
 10
5975.0
 20
9230.0
 30
0.0
  0
ENDBLK
  5
6590
  8
0
  0
BLOCK
  8
0
  2
*U11
 70
     1
 10
0.0
 20
0.0
 30
0.0
  3
*U11
  1

  0
TEXT
  5
673A
  8
0
 10
5944.9999999999991
 20
8895.0000000000018
 30
0.0
 40
105.0
  1
430
 50
90.0
 41
0.8
  7
文字
  0
ENDBLK
  5
673C
  8
0
  0
BLOCK
  8
0
  2
*D12
 70
     1
 10
0.0
 20
0.0
 30
0.0
  3
*D12
  1

  0
LINE
  5
6636
  8
0
 10
7400.0
 20
6020.0
 30
0.0
 11
8029.9999999999973
 21
6020.0
 31
0.0
  0
LINE
  5
6637
  8
0
 10
7400.0
 20
8840.0
 30
0.0
 11
8030.0
 21
8840.0
 31
0.0
  0
LINE
  5
6638
  8
0
 10
7999.9999999999973
 20
6050.0
 30
0.0
 11
8000.0
 21
8810.0
 31
0.0
  0
INSERT
  5
6639
  8
0
  2
_ORIGIN
 10
7999.9999999999973
 20
6020.0
 30
0.0
 41
30.0
 42
30.0
 43
30.0
 50
270.0
  0
INSERT
  5
663A
  8
0
  2
_ORIGIN
 10
8000.0
 20
8840.0
 30
0.0
 41
30.0
 42
30.0
 43
30.0
 50
90.0
  0
INSERT
  5
663B
  8
0
  2
*U13
 10
0.0
 20
0.0
 30
0.0
  0
POINT
  5
663C
  8
DEFPOINTS
 62
     0
 10
7250.0
 20
6020.0
 30
0.0
  0
POINT
  5
663D
  8
DEFPOINTS
 62
     0
 10
7250.0
 20
8840.0
 30
0.0
  0
POINT
  5
663E
  8
DEFPOINTS
 62
     0
 10
8000.0
 20
8840.0
 30
0.0
  0
ENDBLK
  5
659C
  8
0
  0
BLOCK
  8
0
  2
*U13
 70
     1
 10
0.0
 20
0.0
 30
0.0
  3
*U13
  1

  0
TEXT
  5
673E
  8
0
 10
7969.9999999999973
 20
7344.0000000000018
 30
0.0
 40
105.0
  1
DH
 50
90.0
 41
0.8
  7
文字
  0
ENDBLK
  5
6740
  8
0
  0
BLOCK
  8
0
  2
*D14
 70
     1
 10
0.0
 20
0.0
 30
0.0
  3
*D14
  1

  0
LINE
  5
663F
  8
0
 10
7000.0
 20
9905.0
 30
0.0
 11
7000.0
 21
9935.0
 31
0.0
  0
LINE
  5
6640
  8
0
 10
7110.0
 20
9680.0
 30
0.0
 11
7110.0
 21
9935.0
 31
0.0
  0
LINE
  5
6641
  8
0
 10
6970.0
 20
9905.0
 30
0.0
 11
6940.0
 21
9905.0
 31
0.0
  0
LINE
  5
6642
  8
0
 10
7140.0
 20
9905.0
 30
0.0
 11
7170.0
 21
9905.0
 31
0.0
  0
LINE
  5
6643
  8
0
 10
7000.0
 20
9905.0
 30
0.0
 11
7110.0
 21
9905.0
 31
0.0
  0
INSERT
  5
6644
  8
0
  2
_ORIGIN
 10
7000.0
 20
9905.0
 30
0.0
 41
30.0
 42
30.0
 43
30.0
  0
INSERT
  5
6645
  8
0
  2
_ORIGIN
 10
7110.0
 20
9905.0
 30
0.0
 41
30.0
 42
30.0
 43
30.0
 50
180.0
  0
INSERT
  5
6646
  8
0
  2
*U15
 10
0.0
 20
0.0
 30
0.0
  0
POINT
  5
6647
  8
DEFPOINTS
 62
     0
 10
7000.0
 20
9755.0
 30
0.0
  0
POINT
  5
6648
  8
DEFPOINTS
 62
     0
 10
7110.0
 20
9530.0
 30
0.0
  0
POINT
  5
6649
  8
DEFPOINTS
 62
     0
 10
7110.0
 20
9905.0
 30
0.0
  0
ENDBLK
  5
65A8
  8
0
  0
BLOCK
  8
0
  2
*U15
 70
     1
 10
0.0
 20
0.0
 30
0.0
  3
*U15
  1

  0
TEXT
  5
6742
  8
0
 10
6929.0
 20
9935.0
 30
0.0
 40
105.0
  1
110
 41
0.8
  7
文字
  0
ENDBLK
  5
6744
  8
0
  0
BLOCK
  8
0
  2
*D16
 70
     1
 10
0.0
 20
0.0
 30
0.0
  3
*D16
  1

  0
LINE
  5
664A
  8
0
 10
7000.0
 20
10130.0
 30
0.0
 11
7000.0
 21
10160.0
 31
0.0
  0
LINE
  5
664B
  8
0
 10
10420.0
 20
9680.0
 30
0.0
 11
10420.0
 21
10160.0
 31
0.0
  0
LINE
  5
664C
  8
0
 10
7030.0
 20
10130.0
 30
0.0
 11
10390.0
 21
10130.0
 31
0.0
  0
INSERT
  5
664D
  8
0
  2
_ORIGIN
 10
7000.0
 20
10130.0
 30
0.0
 41
30.0
 42
30.0
 43
30.0
 50
180.0
  0
INSERT
  5
664E
  8
0
  2
_ORIGIN
 10
10420.0
 20
10130.0
 30
0.0
 41
30.0
 42
30.0
 43
30.0
  0
INSERT
  5
664F
  8
0
  2
*U17
 10
0.0
 20
0.0
 30
0.0
  0
POINT
  5
6650
  8
DEFPOINTS
 62
     0
 10
7000.0
 20
9980.0
 30
0.0
  0
POINT
  5
6651
  8
DEFPOINTS
 62
     0
 10
10420.0
 20
9530.0
 30
0.0
  0
POINT
  5
6652
  8
DEFPOINTS
 62
     0
 10
10420.0
 20
10130.0
 30
0.0
  0
ENDBLK
  5
65B6
  8
0
  0
BLOCK
  8
0
  2
*U17
 70
     1
 10
0.0
 20
0.0
 30
0.0
  3
*U17
  1

  0
TEXT
  5
6746
  8
0
 10
8450.0
 20
10160.0
 30
0.0
 40
105.0
  1
DH+600
 41
0.8
  7
文字
  0
ENDBLK
  5
6748
  8
0
  0
BLOCK
  8
0
  2
*D18
 70
     1
 10
0.0
 20
0.0
 30
0.0
  3
*D18
  1

  0
LINE
  5
6653
  8
0
 10
10570.0
 20
9090.0
 30
0.0
 11
11049.999999999991
 21
9090.0
 31
0.0
  0
LINE
  5
6654
  8
0
 10
11020.0
 20
9330.0
 30
0.0
 11
11049.999999999991
 21
9330.0
 31
0.0
  0
LINE
  5
6655
  8
0
 10
11020.0
 20
9060.0
 30
0.0
 11
11020.0
 21
9030.0
 31
0.0
  0
LINE
  5
6656
  8
0
 10
11020.0
 20
9360.0
 30
0.0
 11
11020.0
 21
9390.0
 31
0.0
  0
LINE
  5
6657
  8
0
 10
11020.0
 20
9090.0
 30
0.0
 11
11020.0
 21
9330.0
 31
0.0
  0
INSERT
  5
6658
  8
0
  2
_ORIGIN
 10
11020.0
 20
9090.0
 30
0.0
 41
30.0
 42
30.0
 43
30.0
 50
90.0
  0
INSERT
  5
6659
  8
0
  2
_ORIGIN
 10
11020.0
 20
9330.0
 30
0.0
 41
30.0
 42
30.0
 43
30.0
 50
270.0
  0
INSERT
  5
665A
  8
0
  2
*U19
 10
0.0
 20
0.0
 30
0.0
  0
POINT
  5
665B
  8
DEFPOINTS
 62
     0
 10
10420.0
 20
9090.0
 30
0.0
  0
POINT
  5
665C
  8
DEFPOINTS
 62
     0
 10
10870.0
 20
9330.0
 30
0.0
  0
POINT
  5
665D
  8
DEFPOINTS
 62
     0
 10
11020.0
 20
9330.0
 30
0.0
  0
ENDBLK
  5
65C2
  8
0
  0
BLOCK
  8
0
  2
*U19
 70
     1
 10
0.0
 20
0.0
 30
0.0
  3
*U19
  1

  0
TEXT
  5
674A
  8
0
 10
10989.999999999991
 20
8994.4000000000033
 30
0.0
 40
105.0
  1
240以上
 50
90.0
 41
0.8
  7
文字
  0
ENDBLK
  5
674C
  8
0
  0
BLOCK
  8
0
  2
*D20
 70
     1
 10
0.0
 20
0.0
 30
0.0
  3
*D20
  1

  0
LINE
  5
665E
  8
0
 10
5475.0
 20
2600.0000000000291
 30
0.0
 11
5475.0
 21
2220.0000000000291
 31
0.0
  0
LINE
  5
665F
  8
0
 10
8525.0
 20
2600.0000000000291
 30
0.0
 11
8525.0
 21
2220.0000000000291
 31
0.0
  0
LINE
  5
6660
  8
0
 10
5505.0
 20
2250.0000000000291
 30
0.0
 11
8495.0
 21
2250.0000000000291
 31
0.0
  0
INSERT
  5
6661
  8
0
  2
_ORIGIN
 10
5475.0
 20
2250.0000000000291
 30
0.0
 41
30.0
 42
30.0
 43
30.0
 50
180.0
  0
INSERT
  5
6662
  8
0
  2
_ORIGIN
 10
8525.0
 20
2250.0000000000291
 30
0.0
 41
30.0
 42
30.0
 43
30.0
  0
INSERT
  5
6663
  8
0
  2
*U21
 10
0.0
 20
0.0
 30
0.0
  0
POINT
  5
6664
  8
DEFPOINTS
 62
     0
 10
5475.0
 20
2750.0000000000291
 30
0.0
  0
POINT
  5
6665
  8
DEFPOINTS
 62
     0
 10
8525.0
 20
2750.0000000000291
 30
0.0
  0
POINT
  5
6666
  8
DEFPOINTS
 62
     0
 10
8525.0
 20
2250.0000000000291
 30
0.0
  0
ENDBLK
  5
65D0
  8
0
  0
BLOCK
  8
0
  2
*U21
 70
     1
 10
0.0
 20
0.0
 30
0.0
  3
*U21
  1

  0
TEXT
  5
674E
  8
0
 10
6906.0
 20
2280.0000000000291
 30
0.0
 40
105.0
  1
DW
 41
0.8
  7
文字
  0
ENDBLK
  5
6750
  8
0
  0
BLOCK
  8
0
  2
*D22
 70
     1
 10
0.0
 20
0.0
 30
0.0
  3
*D22
  1

  0
LINE
  5
6667
  8
0
 10
5500.0
 20
3500.0000000000291
 30
0.0
 11
5500.0
 21
3805.0000000000291
 31
0.0
  0
LINE
  5
6668
  8
0
 10
5350.0
 20
3500.0000000000291
 30
0.0
 11
5350.0
 21
3805.0000000000291
 31
0.0
  0
LINE
  5
6669
  8
0
 10
5530.0
 20
3775.0000000000291
 30
0.0
 11
5560.0
 21
3775.0000000000291
 31
0.0
  0
LINE
  5
666A
  8
0
 10
5320.0
 20
3775.0000000000291
 30
0.0
 11
5290.0
 21
3775.0000000000291
 31
0.0
  0
LINE
  5
666B
  8
0
 10
5500.0
 20
3775.0000000000291
 30
0.0
 11
5350.0
 21
3775.0000000000291
 31
0.0
  0
INSERT
  5
666C
  8
0
  2
_ORIGIN
 10
5500.0
 20
3775.0000000000291
 30
0.0
 41
30.0
 42
30.0
 43
30.0
 50
180.0
  0
INSERT
  5
666D
  8
0
  2
_ORIGIN
 10
5350.0
 20
3775.0000000000291
 30
0.0
 41
30.0
 42
30.0
 43
30.0
  0
INSERT
  5
666E
  8
0
  2
*U23
 10
0.0
 20
0.0
 30
0.0
  0
POINT
  5
666F
  8
DEFPOINTS
 62
     0
 10
5500.0
 20
3350.0000000000291
 30
0.0
  0
POINT
  5
6670
  8
DEFPOINTS
 62
     0
 10
5350.0
 20
3350.0000000000291
 30
0.0
  0
POINT
  5
6671
  8
DEFPOINTS
 62
     0
 10
5350.0
 20
3775.0000000000291
 30
0.0
  0
ENDBLK
  5
65DC
  8
0
  0
BLOCK
  8
0
  2
*U23
 70
     1
 10
0.0
 20
0.0
 30
0.0
  3
*U23
  1

  0
TEXT
  5
6752
  8
0
 10
5203.3999999999996
 20
3805.0000000000291
 30
0.0
 40
105.0
  1
150以上
 41
0.8
  7
文字
  0
ENDBLK
  5
6754
  8
0
  0
BLOCK
  8
0
  2
*D24
 70
     1
 10
0.0
 20
0.0
 30
0.0
  3
*D24
  1

  0
LINE
  5
6672
  8
0
 10
8500.0
 20
3500.0000000000291
 30
0.0
 11
8500.0
 21
3805.0000000000291
 31
0.0
  0
LINE
  5
6673
  8
0
 10
8650.0
 20
3500.0000000000291
 30
0.0
 11
8650.0
 21
3805.0000000000291
 31
0.0
  0
LINE
  5
6674
  8
0
 10
8470.0
 20
3775.0000000000291
 30
0.0
 11
8440.0
 21
3775.0000000000291
 31
0.0
  0
LINE
  5
6675
  8
0
 10
8680.0
 20
3775.0000000000291
 30
0.0
 11
8710.0
 21
3775.0000000000291
 31
0.0
  0
LINE
  5
6676
  8
0
 10
8500.0
 20
3775.0000000000291
 30
0.0
 11
8650.0
 21
3775.0000000000291
 31
0.0
  0
INSERT
  5
6677
  8
0
  2
_ORIGIN
 10
8500.0
 20
3775.0000000000291
 30
0.0
 41
30.0
 42
30.0
 43
30.0
  0
INSERT
  5
6678
  8
0
  2
_ORIGIN
 10
8650.0
 20
3775.0000000000291
 30
0.0
 41
30.0
 42
30.0
 43
30.0
 50
180.0
  0
INSERT
  5
6679
  8
0
  2
*U25
 10
0.0
 20
0.0
 30
0.0
  0
POINT
  5
667A
  8
DEFPOINTS
 62
     0
 10
8500.0
 20
3350.0000000000291
 30
0.0
  0
POINT
  5
667B
  8
DEFPOINTS
 62
     0
 10
8650.0
 20
3350.0000000000291
 30
0.0
  0
POINT
  5
667C
  8
DEFPOINTS
 62
     0
 10
8650.0
 20
3775.0000000000291
 30
0.0
  0
ENDBLK
  5
65EA
  8
0
  0
BLOCK
  8
0
  2
*U25
 70
     1
 10
0.0
 20
0.0
 30
0.0
  3
*U25
  1

  0
TEXT
  5
6756
  8
0
 10
8353.3999999999978
 20
3805.0000000000291
 30
0.0
 40
105.0
  1
150以上
 41
0.8
  7
文字
  0
ENDBLK
  5
6758
  8
0
  0
BLOCK
  8
0
  2
*D26
 70
     1
 10
0.0
 20
0.0
 30
0.0
  3
*D26
  1

  0
LINE
  5
667D
  8
0
 10
6500.0
 20
8800.0
 30
0.0
 11
5945.0
 21
8800.0
 31
0.0
  0
LINE
  5
667E
  8
0
 10
6500.0
 20
8700.0
 30
0.0
 11
5945.0
 21
8700.0
 31
0.0
  0
LINE
  5
667F
  8
0
 10
5975.0
 20
8830.0
 30
0.0
 11
5975.0
 21
8860.0
 31
0.0
  0
LINE
  5
6680
  8
0
 10
5975.0
 20
8670.0
 30
0.0
 11
5975.0
 21
8640.0
 31
0.0
  0
LINE
  5
6681
  8
0
 10
5975.0
 20
8800.0
 30
0.0
 11
5975.0
 21
8700.0
 31
0.0
  0
INSERT
  5
6682
  8
0
  2
_ORIGIN
 10
5975.0
 20
8800.0
 30
0.0
 41
30.0
 42
30.0
 43
30.0
 50
270.0
  0
INSERT
  5
6683
  8
0
  2
_ORIGIN
 10
5975.0
 20
8700.0
 30
0.0
 41
30.0
 42
30.0
 43
30.0
 50
90.0
  0
INSERT
  5
6684
  8
0
  2
*U27
 10
0.0
 20
0.0
 30
0.0
  0
POINT
  5
6685
  8
DEFPOINTS
 62
     0
 10
6650.0
 20
8800.0
 30
0.0
  0
POINT
  5
6686
  8
DEFPOINTS
 62
     0
 10
6650.0
 20
8700.0
 30
0.0
  0
POINT
  5
6687
  8
DEFPOINTS
 62
     0
 10
5975.0
 20
8700.0
 30
0.0
  0
ENDBLK
  5
65F8
  8
0
  0
BLOCK
  8
0
  2
*U27
 70
     1
 10
0.0
 20
0.0
 30
0.0
  3
*U27
  1

  0
TEXT
  5
675A
  8
0
 10
5944.9999999999991
 20
8714.0000000000018
 30
0.0
 40
105.0
  1
Y
 50
90.0
 41
0.8
  7
文字
  0
ENDBLK
  5
675C
  8
0
  0
BLOCK
  8
0
  2
*D28
 70
     1
 10
0.0
 20
0.0
 30
0.0
  3
*D28
  1

  0
LINE
  5
6688
  8
0
 10
6500.0
 20
8700.0
 30
0.0
 11
5945.0
 21
8700.0
 31
0.0
  0
LINE
  5
6689
  8
0
 10
5975.0
 20
5999.9999999999918
 30
0.0
 11
5944.9999999999991
 21
5999.9999999999918
 31
0.0
  0
LINE
  5
668A
  8
0
 10
5975.0
 20
8670.0
 30
0.0
 11
5974.9999999999991
 21
6029.9999999999927
 31
0.0
  0
INSERT
  5
668B
  8
0
  2
_ORIGIN
 10
5975.0
 20
8700.0
 30
0.0
 41
30.0
 42
30.0
 43
30.0
 50
90.0
  0
INSERT
  5
668C
  8
0
  2
_ORIGIN
 10
5974.9999999999991
 20
5999.9999999999918
 30
0.0
 41
30.0
 42
30.0
 43
30.0
 50
270.0
  0
INSERT
  5
668D
  8
0
  2
*U29
 10
0.0
 20
0.0
 30
0.0
  0
POINT
  5
668E
  8
DEFPOINTS
 62
     0
 10
6650.0
 20
8700.0
 30
0.0
  0
POINT
  5
668F
  8
DEFPOINTS
 62
     0
 10
6125.0
 20
5999.9999999999918
 30
0.0
  0
POINT
  5
6690
  8
DEFPOINTS
 62
     0
 10
5974.9999999999991
 20
5999.9999999999918
 30
0.0
  0
ENDBLK
  5
6606
  8
0
  0
BLOCK
  8
0
  2
*U29
 70
     1
 10
0.0
 20
0.0
 30
0.0
  3
*U29
  1

  0
TEXT
  5
675E
  8
0
 10
5944.9999999999973
 20
6915.9999999999964
 30
0.0
 40
105.0
  1
有効開口高=H-Y
 50
90.0
 41
0.8
  7
文字
  0
ENDBLK
  5
6760
  8
0
  0
BLOCK
  8
0
  2
*U30
 70
     1
 10
0.0
 20
0.0
 30
0.0
  3
*U30
  1

  0
INSERT
  5
6713
  8
0
  2
_OPEN30
 10
7135.0
 20
9255.0
 30
0.0
 41
60.0
 42
60.0
 43
60.0
 50
239.9999999999996
  0
POLYLINE
  5
6714
  8
0
 66
     1
 10
0.0
 20
0.0
 30
0.0
  0
VERTEX
  5
687B
  8
0
 10
7165.0
 20
9306.9615242270684
 30
0.0
  0
VERTEX
  5
687C
  8
0
 10
7360.0
 20
9644.7114317029918
 30
0.0
  0
VERTEX
  5
687D
  8
0
 10
7941.0
 20
9644.7114317029918
 30
0.0
  0
SEQEND
  5
687E
  8
0
  0
ENDBLK
  5
671A
  8
0
  0
BLOCK
  8
0
  2
*U31
 70
     1
 10
0.0
 20
0.0
 30
0.0
  3
*U31
  1

  0
INSERT
  5
671C
  8
0
  2
_OPEN30
 10
8500.0
 20
9037.0
 30
0.0
 41
60.0
 42
60.0
 43
60.0
 50
105.0000000000001
  0
POLYLINE
  5
671D
  8
0
 66
     1
 10
0.0
 20
0.0
 30
0.0
  0
VERTEX
  5
687F
  8
0
 10
8515.5291427061493
 20
8979.0444504226525
 30
0.0
  0
VERTEX
  5
6880
  8
0
 10
8590.5866657858824
 20
8698.9259607988297
 30
0.0
  0
VERTEX
  5
6881
  8
0
 10
9165.9866657858856
 20
8698.9259607988297
 30
0.0
  0
SEQEND
  5
6882
  8
0
  0
ENDBLK
  5
6723
  8
0
  0
BLOCK
  8
0
  2
*U32
 70
     1
 10
0.0
 20
0.0
 30
0.0
  3
*U32
  1

  0
INSERT
  5
6725
  8
0
  2
_OPEN30
 10
7016.0000000000073
 20
7171.0475088412213
 30
0.0
 41
60.0
 42
60.0
 43
60.0
 50
300.00000000000028
  0
POLYLINE
  5
6726
  8
0
 66
     1
 10
0.0
 20
0.0
 30
0.0
  0
VERTEX
  5
6883
  8
0
 10
6986.0000000000073
 20
7223.009033068287
 30
0.0
  0
VERTEX
  5
6884
  8
0
 10
6885.4957445612672
 20
7397.0875098650658
 30
0.0
  0
VERTEX
  5
6885
  8
0
 10
6500.4957445612663
 20
7397.0875098650658
 30
0.0
  0
SEQEND
  5
6886
  8
0
  0
ENDBLK
  5
672C
  8
0
  0
ENDSEC
  0
SECTION
  2
ENTITIES
  0
LINE
  5
6011
  8
0
 10
16380.0
 20
0.0
 30
0.0
 11
0.0
 21
0.0
 31
0.0
  0
LINE
  5
6012
  8
0
 10
0.0
 20
11745.0
 30
0.0
 11
16380.0
 21
11745.0
 31
0.0
  0
LINE
  5
6013
  8
0
 10
0.0
 20
11745.0
 30
0.0
 11
0.0
 21
0.0
 31
0.0
  0
LINE
  5
6014
  8
0
 10
16380.0
 20
11745.0
 30
0.0
 11
16380.0
 21
0.0
 31
0.0
  0
LINE
  5
6475
  8
0
 10
10130.0
 20
400.0
 30
0.0
 11
10130.0
 21
0.0
 31
0.0
  0
TEXT
  5
6476
  8
0
 10
10979.99999999996
 20
247.5
 30
0.0
 40
105.0
  1
オーバードア（バランス式）
 11
10979.99999999996
 21
300.0
 31
0.0
 73
     2
  0
TEXT
  5
6477
  8
0
 10
10229.99999999996
 20
247.5
 30
0.0
 40
105.0
  1
製品名称  :
 11
10229.99999999996
 21
300.0
 31
0.0
 73
     2
  0
LINE
  5
6478
  8
0
 10
10130.0
 20
200.0
 30
0.0
 11
13880.0
 21
200.0
 31
0.0
  0
LINE
  5
6479
  8
0
 10
13880.0
 20
400.0
 30
0.0
 11
13880.0
 21
0.0
 31
0.0
  0
TEXT
  5
647A
  8
0
 10
13998.33333333333
 20
112.5
 30
0.0
 40
175.0
  1
東洋シヤッター株式会社
 72
     1
 11
15130.0
 21
200.0
 31
0.0
 73
     2
  0
LINE
  5
647B
  8
0
 10
10130.0
 20
400.0
 30
0.0
 11
16380.0
 21
400.0
 31
0.0
  0
TEXT
  5
647C
  8
0
 10
12979.99999999996
 20
47.5
 30
0.0
 40
105.0
  1
縮尺:1/30
 11
12979.99999999996
 21
100.0
 31
0.0
 73
     2
  0
LINE
  5
647D
  8
0
 10
5474.9999999999936
 20
2932.5
 30
0.0
 11
8524.9999999999909
 21
2932.5
 31
0.0
  0
LINE
  5
647E
  8
0
 10
8524.9999999999909
 20
2932.5
 30
0.0
 11
8524.9999999999909
 21
2984.0
 31
0.0
  0
LINE
  5
647F
  8
0
 10
8524.9999999999909
 20
2984.0
 30
0.0
 11
5474.9999999999936
 21
2984.0
 31
0.0
  0
LINE
  5
6480
  8
0
 10
5474.9999999999936
 20
2984.0
 30
0.0
 11
5474.9999999999936
 21
2932.5
 31
0.0
  0
ARC
  5
6481
  8
0
 10
8577.299999999992
 20
2997.7000000000048
 30
0.0
 40
2.299999999999998
 50
90.0
 51
180.0
  0
LINE
  5
6482
  8
0
 10
8614.9999999999909
 20
2997.7000000000048
 30
0.0
 11
8614.9999999999909
 21
3000.0
 31
0.0
  0
LINE
  5
6483
  8
0
 10
8577.299999999992
 20
2997.7000000000048
 30
0.0
 11
8614.9999999999909
 21
2997.7000000000048
 31
0.0
  0
LINE
  5
6484
  8
0
 10
8577.299999999992
 20
2884.0
 30
0.0
 11
8577.299999999992
 21
2997.7000000000048
 31
0.0
  0
LINE
  5
6485
  8
0
 10
8574.9999999999927
 20
2884.0
 30
0.0
 11
8577.299999999992
 21
2884.0
 31
0.0
  0
LINE
  5
6486
  8
0
 10
8574.9999999999927
 20
2997.7000000000048
 30
0.0
 11
8574.9999999999927
 21
2884.0
 31
0.0
  0
LINE
  5
6487
  8
0
 10
8614.9999999999909
 20
3000.0
 30
0.0
 11
8577.299999999992
 21
3000.0
 31
0.0
  0
ARC
  5
6488
  8
0
 10
8562.4999999999909
 20
2886.4999999999409
 30
0.0
 40
5.7499999999704414
 50
180.0
 51
0.0
  0
ARC
  5
6489
  8
0
 10
8562.4999999999909
 20
2921.5
 30
0.0
 40
5.7499999999704414
 50
0.0
 51
180.0
  0
LINE
  5
648A
  8
0
 10
8556.7500000000218
 20
2886.4999999999409
 30
0.0
 11
8556.7500000000218
 21
2921.5
 31
0.0
  0
LINE
  5
648B
  8
0
 10
8568.25000000002
 20
2921.5
 30
0.0
 11
8568.25000000002
 21
2886.4999999999409
 31
0.0
  0
ARC
  5
648C
  8
0
 10
8568.9999999999909
 20
2889.7190997647272
 30
0.0
 40
4.0
 50
329.99999999999898
 51
0.0
  0
ARC
  5
648D
  8
0
 10
8568.9999999999909
 20
2889.719099764734
 30
0.0
 40
6.0
 50
329.99999999999898
 51
0.0
  0
ARC
  5
648E
  8
0
 10
8569.9999999999909
 20
2925.5
 30
0.0
 40
3.0
 50
0.0
 51
90.0
  0
ARC
  5
648F
  8
0
 10
8569.9999999999909
 20
2925.5
 30
0.0
 40
5.0
 50
0.0
 51
90.0
  0
LINE
  5
6490
  8
0
 10
8551.5529946162005
 20
2887.5
 30
0.0
 11
8554.4397459621468
 21
2882.5
 31
0.0
  0
LINE
  5
6491
  8
0
 10
8553.2850454237632
 20
2888.5
 30
0.0
 11
8551.5529946162005
 21
2887.5
 31
0.0
  0
LINE
  5
6492
  8
0
 10
8556.1717967697077
 20
2883.5
 30
0.0
 11
8553.2850454237632
 21
2888.5
 31
0.0
  0
LINE
  5
6493
  8
0
 10
8572.4641016151309
 20
2887.7190997647272
 30
0.0
 11
8570.0282032302384
 21
2883.5000000000209
 31
0.0
  0
LINE
  5
6494
  8
0
 10
8574.196152422699
 20
2886.719099764734
 30
0.0
 11
8571.760254037792
 21
2882.5
 31
0.0
  0
ARC
  5
6495
  8
0
 10
8563.0999999999894
 20
2887.5
 30
0.0
 40
8.0
 50
210.00000000000091
 51
329.99999999999898
  0
ARC
  5
6496
  8
0
 10
8563.0999999999894
 20
2887.5
 30
0.0
 40
10.0
 50
210.00000000000091
 51
329.99999999999812
  0
LINE
  5
6497
  8
0
 10
8572.9999999999909
 20
2925.5
 30
0.0
 11
8572.9999999999909
 21
2889.7190997647272
 31
0.0
  0
LINE
  5
6498
  8
0
 10
8549.9999999999909
 20
2928.5
 30
0.0
 11
8569.9999999999909
 21
2928.5
 31
0.0
  0
LINE
  5
6499
  8
0
 10
8549.9999999999909
 20
2930.5
 30
0.0
 11
8549.9999999999909
 21
2928.5
 31
0.0
  0
LINE
  5
649A
  8
0
 10
8569.9999999999909
 20
2930.5
 30
0.0
 11
8549.9999999999909
 21
2930.5
 31
0.0
  0
LINE
  5
649B
  8
0
 10
8574.9999999999927
 20
2889.719099764734
 30
0.0
 11
8574.9999999999927
 21
2925.5
 31
0.0
  0
LINE
  5
649C
  8
0
 10
8515.6999999999935
 20
2882.5
 30
0.0
 11
8517.9999999999909
 21
2882.5
 31
0.0
  0
LINE
  5
649D
  8
0
 10
8451.9999999999909
 20
2882.5
 30
0.0
 11
8454.299999999992
 21
2882.5
 31
0.0
  0
LINE
  5
649E
  8
0
 10
8428.2500000000182
 20
2897.5
 30
0.0
 11
8556.7500000000218
 21
2897.5
 31
0.0
  0
LINE
  5
649F
  8
0
 10
8428.2500000000182
 20
2910.5
 30
0.0
 11
8428.2500000000182
 21
2897.5
 31
0.0
  0
LINE
  5
64A0
  8
0
 10
8556.7500000000218
 20
2910.5
 30
0.0
 11
8428.2500000000182
 21
2910.5
 31
0.0
  0
LINE
  5
64A1
  8
0
 10
8515.6999999999935
 20
2930.2000000000039
 30
0.0
 11
8515.6999999999935
 21
2882.5
 31
0.0
  0
LINE
  5
64A2
  8
0
 10
8454.299999999992
 20
2930.2000000000039
 30
0.0
 11
8515.6999999999935
 21
2930.2000000000039
 31
0.0
  0
LINE
  5
64A3
  8
0
 10
8454.299999999992
 20
2882.5
 30
0.0
 11
8454.299999999992
 21
2930.2000000000039
 31
0.0
  0
LINE
  5
64A4
  8
0
 10
8451.9999999999909
 20
2932.5
 30
0.0
 11
8451.9999999999909
 21
2882.5
 31
0.0
  0
LINE
  5
64A5
  8
0
 10
8517.9999999999909
 20
2932.5
 30
0.0
 11
8451.9999999999909
 21
2932.5
 31
0.0
  0
LINE
  5
64A6
  8
0
 10
8517.9999999999909
 20
2882.5
 30
0.0
 11
8517.9999999999909
 21
2932.5
 31
0.0
  0
LINE
  5
64A7
  8
0
  6
PHANTOM2
 10
8624.9999999999782
 20
2999.9999999999932
 30
0.0
 11
8624.9999999999782
 21
1500.0000000000291
 31
0.0
  0
LINE
  5
64A8
  8
0
  6
PHANTOM2
 10
8624.9999999999782
 20
1250.0000000000291
 30
0.0
 11
8549.9999999999782
 21
1250.0000000000291
 31
0.0
  0
LINE
  5
64A9
  8
0
  6
PHANTOM2
 10
8549.9999999999782
 20
1250.0000000000291
 30
0.0
 11
8549.9999999999782
 21
1450.0000000000291
 31
0.0
  0
LINE
  5
64AA
  8
0
  6
PHANTOM2
 10
8574.9999999999782
 20
1250.0000000000291
 30
0.0
 11
8574.9999999999782
 21
1450.0000000000291
 31
0.0
  0
ARC
  5
64AB
  8
0
 10
5422.6999999999935
 20
2997.7000000000048
 30
0.0
 40
2.299999999999998
 50
0.0
 51
90.0
  0
LINE
  5
64AC
  8
0
 10
5384.9999999999936
 20
2997.7000000000048
 30
0.0
 11
5384.9999999999936
 21
3000.0
 31
0.0
  0
LINE
  5
64AD
  8
0
 10
5422.6999999999935
 20
2997.7000000000048
 30
0.0
 11
5384.9999999999936
 21
2997.7000000000048
 31
0.0
  0
LINE
  5
64AE
  8
0
 10
5422.6999999999935
 20
2884.0
 30
0.0
 11
5422.6999999999935
 21
2997.7000000000048
 31
0.0
  0
LINE
  5
64AF
  8
0
 10
5424.9999999999927
 20
2884.0
 30
0.0
 11
5422.6999999999935
 21
2884.0
 31
0.0
  0
LINE
  5
64B0
  8
0
 10
5424.9999999999927
 20
2997.7000000000048
 30
0.0
 11
5424.9999999999927
 21
2884.0
 31
0.0
  0
LINE
  5
64B1
  8
0
 10
5384.9999999999936
 20
3000.0
 30
0.0
 11
5422.6999999999935
 21
3000.0
 31
0.0
  0
ARC
  5
64B2
  8
0
 10
5437.4999999999918
 20
2886.4999999999409
 30
0.0
 40
5.7499999999704414
 50
180.0
 51
0.0
  0
ARC
  5
64B3
  8
0
 10
5437.4999999999918
 20
2921.5
 30
0.0
 40
5.7499999999704414
 50
0.0
 51
180.0
  0
LINE
  5
64B4
  8
0
 10
5443.2499999999618
 20
2886.4999999999409
 30
0.0
 11
5443.2499999999618
 21
2921.5
 31
0.0
  0
LINE
  5
64B5
  8
0
 10
5431.7499999999636
 20
2921.5
 30
0.0
 11
5431.7499999999636
 21
2886.4999999999409
 31
0.0
  0
ARC
  5
64B6
  8
0
 10
5430.9999999999927
 20
2889.7190997647272
 30
0.0
 40
4.0
 50
180.0
 51
210.00000000000091
  0
ARC
  5
64B7
  8
0
 10
5430.9999999999927
 20
2889.719099764734
 30
0.0
 40
6.0
 50
180.0
 51
210.00000000000091
  0
ARC
  5
64B8
  8
0
 10
5429.9999999999918
 20
2925.5
 30
0.0
 40
3.0
 50
90.0
 51
180.0
  0
ARC
  5
64B9
  8
0
 10
5429.9999999999918
 20
2925.5
 30
0.0
 40
5.0
 50
90.0
 51
180.0
  0
LINE
  5
64BA
  8
0
 10
5448.4470053837858
 20
2887.5
 30
0.0
 11
5445.5602540378386
 21
2882.5
 31
0.0
  0
LINE
  5
64BB
  8
0
 10
5446.7149545762222
 20
2888.5
 30
0.0
 11
5448.4470053837858
 21
2887.5
 31
0.0
  0
LINE
  5
64BC
  8
0
 10
5443.828203230275
 20
2883.5
 30
0.0
 11
5446.7149545762222
 21
2888.5
 31
0.0
  0
LINE
  5
64BD
  8
0
 10
5427.5358983848564
 20
2887.7190997647272
 30
0.0
 11
5429.971796769747
 21
2883.5000000000209
 31
0.0
  0
LINE
  5
64BE
  8
0
 10
5425.8038475772837
 20
2886.719099764734
 30
0.0
 11
5428.2397459621943
 21
2882.5
 31
0.0
  0
ARC
  5
64BF
  8
0
 10
5436.8999999999942
 20
2887.5
 30
0.0
 40
8.0
 50
210.00000000000091
 51
329.99999999999898
  0
ARC
  5
64C0
  8
0
 10
5436.8999999999942
 20
2887.5
 30
0.0
 40
10.0
 50
210.0000000000019
 51
329.99999999999898
  0
LINE
  5
64C1
  8
0
 10
5426.9999999999918
 20
2925.5
 30
0.0
 11
5426.9999999999918
 21
2889.7190997647272
 31
0.0
  0
LINE
  5
64C2
  8
0
 10
5449.9999999999927
 20
2928.5
 30
0.0
 11
5429.9999999999918
 21
2928.5
 31
0.0
  0
LINE
  5
64C3
  8
0
 10
5449.9999999999927
 20
2930.5
 30
0.0
 11
5449.9999999999927
 21
2928.5
 31
0.0
  0
LINE
  5
64C4
  8
0
 10
5429.9999999999918
 20
2930.5
 30
0.0
 11
5449.9999999999927
 21
2930.5
 31
0.0
  0
LINE
  5
64C5
  8
0
 10
5424.9999999999927
 20
2889.719099764734
 30
0.0
 11
5424.9999999999927
 21
2925.5
 31
0.0
  0
LINE
  5
64C6
  8
0
 10
5484.299999999992
 20
2882.5
 30
0.0
 11
5481.9999999999927
 21
2882.5
 31
0.0
  0
LINE
  5
64C7
  8
0
 10
5547.9999999999918
 20
2882.5
 30
0.0
 11
5545.6999999999935
 21
2882.5
 31
0.0
  0
LINE
  5
64C8
  8
0
 10
5571.7499999999654
 20
2897.5
 30
0.0
 11
5443.2499999999618
 21
2897.5
 31
0.0
  0
LINE
  5
64C9
  8
0
 10
5571.7499999999654
 20
2910.5
 30
0.0
 11
5571.7499999999654
 21
2897.5
 31
0.0
  0
LINE
  5
64CA
  8
0
 10
5443.2499999999618
 20
2910.5
 30
0.0
 11
5571.7499999999654
 21
2910.5
 31
0.0
  0
LINE
  5
64CB
  8
0
 10
5484.299999999992
 20
2930.2000000000039
 30
0.0
 11
5484.299999999992
 21
2882.5
 31
0.0
  0
LINE
  5
64CC
  8
0
 10
5545.6999999999935
 20
2930.2000000000039
 30
0.0
 11
5484.299999999992
 21
2930.2000000000039
 31
0.0
  0
LINE
  5
64CD
  8
0
 10
5545.6999999999935
 20
2882.5
 30
0.0
 11
5545.6999999999935
 21
2930.2000000000039
 31
0.0
  0
LINE
  5
64CE
  8
0
 10
5547.9999999999918
 20
2932.5
 30
0.0
 11
5547.9999999999918
 21
2882.5
 31
0.0
  0
LINE
  5
64CF
  8
0
 10
5481.9999999999927
 20
2932.5
 30
0.0
 11
5547.9999999999918
 21
2932.5
 31
0.0
  0
LINE
  5
64D0
  8
0
 10
5481.9999999999927
 20
2882.5
 30
0.0
 11
5481.9999999999927
 21
2932.5
 31
0.0
  0
LINE
  5
64D1
  8
0
  6
PHANTOM2
 10
5375.0000000000073
 20
2999.9999999999932
 30
0.0
 11
5375.0000000000082
 21
1500.0000000000291
 31
0.0
  0
LINE
  5
64D2
  8
0
  6
PHANTOM2
 10
5375.0000000000073
 20
1250.0000000000291
 30
0.0
 11
5450.0000000000064
 21
1250.0000000000291
 31
0.0
  0
LINE
  5
64D3
  8
0
  6
PHANTOM2
 10
5450.0000000000064
 20
1250.0000000000291
 30
0.0
 11
5450.0000000000064
 21
1450.0000000000291
 31
0.0
  0
LINE
  5
64D4
  8
0
  6
PHANTOM2
 10
5425.0000000000064
 20
1250.0000000000291
 30
0.0
 11
5425.0000000000045
 21
1450.0000000000291
 31
0.0
  0
DIMENSION
  5
64D5
  8
0
  2
*D4
 10
8500.0
 20
4000.0000000000291
 30
0.0
 11
7000.0
 21
4082.5000000000291
 31
0.0
  1
W
 13
5500.0
 23
3350.0000000000291
 33
0.0
 14
8500.0
 24
3350.0000000000291
 34
0.0
1001
ACAD
1000
DSTYLE
1002
{
1070
    41
1040
1.0
1002
}
  0
LINE
  5
64D6
  8
0
 10
7016.0000000000073
 20
8839.9999999999709
 30
0.0
 11
7067.5000000000064
 21
8839.9999999999709
 31
0.0
  0
LINE
  5
64D7
  8
0
 10
7067.5000000000064
 20
8839.9999999999709
 30
0.0
 11
7067.5000000000064
 21
6019.9999999999691
 31
0.0
  0
LINE
  5
64D8
  8
0
 10
7067.5000000000064
 20
6019.9999999999691
 30
0.0
 11
7016.0000000000073
 21
6019.9999999999691
 31
0.0
  0
LINE
  5
64D9
  8
0
 10
7016.0000000000073
 20
6019.9999999999691
 30
0.0
 11
7016.0000000000073
 21
8839.9999999999709
 31
0.0
  0
LINE
  5
64DA
  8
0
 10
5250.0
 20
6000.0
 30
0.0
 11
11745.0
 21
6000.0
 31
0.0
  0
LINE
  5
64DB
  8
0
 10
7104.0
 20
6000.0
 30
0.0
 11
7135.0788889064397
 21
8641.7055567207281
 31
0.0
  0
LINE
  5
64DC
  8
0
  6
HIDDEN
 10
7050.9963323068368
 20
6000.0
 30
0.0
 11
7067.5000000000064
 21
7402.8117537458647
 31
0.0
  0
LINE
  5
64DD
  8
0
 10
10420.0
 20
9037.0
 30
0.0
 11
10420.0
 21
9090.0
 31
0.0
  0
LINE
  5
64DE
  8
0
 10
7000.0
 20
9090.0
 30
0.0
 11
7000.0
 21
9040.0
 31
0.0
  0
DIMENSION
  5
64DF
  8
0
  2
*D6
 10
5750.0
 20
6000.0
 30
0.0
 11
5667.4999999999991
 21
7400.0000000000027
 31
0.0
  1
H
 13
6650.0
 23
8800.0
 33
0.0
 14
5850.0
 24
6000.0
 34
0.0
 50
90.0
1001
ACAD
1000
DSTYLE
1002
{
1070
    41
1040
1.0
1002
}
  0
LINE
  5
64E0
  8
0
 10
7535.0394454128482
 20
9048.0
 30
0.0
 11
10420.0
 21
9048.0
 31
0.0
  0
LINE
  5
64E1
  8
0
 10
7535.0394454128482
 20
9037.0
 30
0.0
 11
10420.0
 21
9037.0
 31
0.0
  0
DIMENSION
  5
64E2
  8
0
  2
*D8
 10
5750.0
 20
9330.0
 30
0.0
 11
5667.4999999999991
 21
9065.0000000000036
 31
0.0
  1
HR=530以上
 13
6650.0
 23
8800.0
 33
0.0
 14
6650.0
 24
9330.0
 34
0.0
 50
90.0
1001
ACAD
1000
DSTYLE
1002
{
1070
    41
1040
1.0
1002
}
  0
DIMENSION
  5
64E3
  8
0
  2
*D10
 10
5975.0
 20
9230.0
 30
0.0
 11
5892.4999999999991
 21
9015.0
 31
0.0
 13
6650.0
 23
8800.0
 33
0.0
 14
6650.0
 24
9230.0
 34
0.0
 50
90.0
1001
ACAD
1000
DSTYLE
1002
{
1070
    41
1040
1.0
1002
}
  0
LINE
  5
64E4
  8
0
 10
7136.0
 20
9090.0
 30
0.0
 11
7136.0
 21
8851.3994675897538
 31
0.0
  0
LINE
  5
64E5
  8
0
  6
HIDDEN
 10
7136.0
 20
9040.0
 30
0.0
 11
7000.0
 21
9040.0
 31
0.0
  0
LINE
  5
64E6
  8
0
 10
7067.5000000000064
 20
7402.8117537458647
 30
0.0
 11
7082.0825563458166
 21
8642.3290429862245
 31
0.0
  0
DIMENSION
  5
64E7
  8
0
  2
*D12
 10
8000.0
 20
8840.0
 30
0.0
 11
7917.5
 21
7430.0000000000027
 31
0.0
  1
DH
 13
7250.0
 23
6020.0
 33
0.0
 14
7250.0
 24
8840.0
 34
0.0
 50
90.0
1001
ACAD
1000
DSTYLE
1002
{
1070
    41
1040
1.0
1002
}
  0
DIMENSION
  5
64E8
  8
0
  2
*D14
 10
7110.0
 20
9905.0
 30
0.0
 11
7055.0
 21
9987.5
 31
0.0
 13
7000.0
 23
9755.0
 33
0.0
 14
7110.0
 24
9530.0
 34
0.0
1001
ACAD
1000
DSTYLE
1002
{
1070
    41
1040
1.0
1002
}
  0
DIMENSION
  5
64E9
  8
0
  2
*D16
 10
10420.0
 20
10130.0
 30
0.0
 11
8710.0
 21
10212.5
 31
0.0
  1
DH+600
 13
7000.0
 23
9980.0
 33
0.0
 14
10420.0
 24
9530.0
 34
0.0
1001
ACAD
1000
DSTYLE
1002
{
1070
    41
1040
1.0
1002
}
  0
LINE
  5
64EA
  8
0
 10
8200.0
 20
9090.0
 30
0.0
 11
8200.0
 21
9330.0
 31
0.0
  0
LINE
  5
64EB
  8
0
 10
8200.0
 20
9330.0
 30
0.0
 11
8240.0
 21
9330.0
 31
0.0
  0
LINE
  5
64EC
  8
0
 10
8240.0
 20
9330.0
 30
0.0
 11
8240.0
 21
9090.0
 31
0.0
  0
LINE
  5
64ED
  8
0
 10
9400.0
 20
9090.0
 30
0.0
 11
9400.0
 21
9330.0
 31
0.0
  0
LINE
  5
64EE
  8
0
 10
9400.0
 20
9330.0
 30
0.0
 11
9440.0
 21
9330.0
 31
0.0
  0
LINE
  5
64EF
  8
0
 10
9440.0
 20
9330.0
 30
0.0
 11
9440.0
 21
9090.0
 31
0.0
  0
TEXT
  5
64F0
  8
0
 10
7412.5
 20
9674.7114317029937
 30
0.0
 40
105.0
  1
巻取ドラム
 41
0.8
  7
横文字
 72
     1
 11
7650.5
 21
9674.7114317029937
 31
0.0
  0
INSERT
  5
64F1
  8
0
  2
*U30
 10
0.0
 20
0.0
 30
0.0
  0
DIMENSION
  5
64F2
  8
0
  2
*D18
 10
11020.0
 20
9330.0
 30
0.0
 11
10937.5
 21
9210.0
 31
0.0
  1
240以上
 13
10420.0
 23
9090.0
 33
0.0
 14
10870.0
 24
9330.0
 34
0.0
 50
90.0
1001
ACAD
1000
DSTYLE
1002
{
1070
    41
1040
1.0
1002
}
  0
LINE
  5
64F3
  8
0
 10
5500.0
 20
1500.0000000000291
 30
0.0
 11
5325.0
 21
1500.0000000000291
 31
0.0
  0
LINE
  5
64F4
  8
0
 10
5500.0
 20
1450.0000000000291
 30
0.0
 11
5325.0
 21
1450.0000000000291
 31
0.0
  0
LINE
  5
64F5
  8
0
  6
PHANTOM2
 10
5375.0000000000082
 20
1450.0000000000291
 30
0.0
 11
5375.0000000000073
 21
1250.0000000000291
 31
0.0
  0
LINE
  5
64F6
  8
0
  6
PHANTOM2
 10
5425.0000000000045
 20
1500.0000000000291
 30
0.0
 11
5424.9999999999927
 21
2889.719099764734
 31
0.0
  0
LINE
  5
64F7
  8
0
  6
PHANTOM2
 10
5450.0000000000064
 20
1500.0000000000291
 30
0.0
 11
5450.0000000000064
 21
2889.719099764734
 31
0.0
  0
LINE
  5
64F8
  8
0
 10
8674.9999999999727
 20
1500.0000000000291
 30
0.0
 11
8499.9999999999709
 21
1500.0000000000291
 31
0.0
  0
LINE
  5
64F9
  8
0
 10
8674.9999999999727
 20
1450.0000000000291
 30
0.0
 11
8499.9999999999709
 21
1450.0000000000291
 31
0.0
  0
LINE
  5
64FA
  8
0
  6
PHANTOM2
 10
8624.9999999999782
 20
1450.0000000000291
 30
0.0
 11
8624.9999999999782
 21
1250.0000000000291
 31
0.0
  0
LINE
  5
64FB
  8
0
  6
PHANTOM2
 10
8549.9999999999818
 20
1500.0000000000291
 30
0.0
 11
8549.9999999999782
 21
2889.719099764734
 31
0.0
  0
LINE
  5
64FC
  8
0
  6
PHANTOM2
 10
8574.9999999999782
 20
1500.0000000000291
 30
0.0
 11
8574.9999999999927
 21
2889.719099764734
 31
0.0
  0
DIMENSION
  5
64FD
  8
0
  2
*D20
 10
8525.0
 20
2250.0000000000291
 30
0.0
 11
7000.0
 21
2332.5000000000291
 31
0.0
  1
DW
 13
5475.0
 23
2750.0000000000291
 33
0.0
 14
8525.0
 24
2750.0000000000291
 34
0.0
1001
ACAD
1000
DSTYLE
1002
{
1070
    41
1040
1.0
1002
}
  0
LINE
  5
64FE
  8
0
 10
7092.9992387806633
 20
6000.0
 30
0.0
 11
7124.0678853672171
 21
8641.8349595305463
 31
0.0
  0
ARC
  5
64FF
  8
0
 10
7535.0512101187269
 20
8637.0
 30
0.0
 40
400.0
 50
90.0
 51
179.3259631019319
  0
ARC
  5
6500
  8
0
 10
7535.0394454128482
 20
8637.0
 30
0.0
 40
411.0
 50
90.0
 51
179.3259631019319
  0
ARC
  5
6501
  8
0
 10
7535.0512101187369
 20
8637.0
 30
0.0
 40
453.0
 50
90.0
 51
179.3259631019319
  0
LINE
  5
6502
  8
0
 10
7136.0
 20
9040.0
 30
0.0
 11
7328.1696014629661
 21
9040.0
 31
0.0
  0
TEXT
  5
6503
  8
0
 10
8643.0866657858842
 20
8728.9259607988297
 30
0.0
 40
105.0
  1
水平レール
 41
0.8
  7
横文字
 72
     1
 11
8878.2866657858867
 21
8728.9259607988297
 31
0.0
  0
INSERT
  5
6504
  8
0
  2
*U31
 10
0.0
 20
0.0
 30
0.0
  0
LINE
  5
6505
  8
0
 10
10419.999999999991
 20
9089.9999999999945
 30
0.0
 11
7535.0394454128482
 21
9090.0
 31
0.0
  0
DIMENSION
  5
6506
  8
0
  2
*D22
 10
5350.0
 20
3775.0000000000291
 30
0.0
 11
5425.0
 21
3857.50000000003
 31
0.0
  1
150以上
 13
5500.0
 23
3350.0000000000291
 33
0.0
 14
5350.0
 24
3350.0000000000291
 34
0.0
1001
ACAD
1000
DSTYLE
1002
{
1070
    41
1040
1.0
1002
}
  0
DIMENSION
  5
6507
  8
0
  2
*D24
 10
8650.0
 20
3775.0000000000291
 30
0.0
 11
8575.0
 21
3857.50000000003
 31
0.0
  1
150以上
 13
8500.0
 23
3350.0000000000291
 33
0.0
 14
8650.0
 24
3350.0000000000291
 34
0.0
1001
ACAD
1000
DSTYLE
1002
{
1070
    41
1040
1.0
1002
}
  0
LINE
  5
6508
  8
0
 10
7000.0
 20
9315.0000000000127
 30
0.0
 11
7000.0
 21
9145.0000000000127
 31
0.0
  0
LINE
  5
6509
  8
0
 10
7000.0
 20
9145.0000000000127
 30
0.0
 11
7190.0
 21
9145.0000000000127
 31
0.0
  0
LINE
  5
650A
  8
0
 10
7210.0
 20
9165.0000000000127
 30
0.0
 11
7210.0
 21
9212.5
 31
0.0
  0
LINE
  5
650B
  8
0
 10
7190.0
 20
9315.0000000000127
 30
0.0
 11
7000.0
 21
9315.0000000000127
 31
0.0
  0
LINE
  5
650C
  8
0
 10
7190.0
 20
9315.0000000000127
 30
0.0
 11
7210.0
 21
9295.0000000000146
 31
0.0
  0
LINE
  5
650D
  8
0
 10
7210.0
 20
9165.0000000000127
 30
0.0
 11
7190.0
 21
9145.0000000000127
 31
0.0
  0
LINE
  5
650E
  8
0
 10
7003.2000000000025
 20
9315.0000000000127
 30
0.0
 11
7003.2000000000025
 21
9145.0000000000127
 31
0.0
  0
LINE
  5
650F
  8
0
 10
7187.0373286141239
 20
9247.5
 30
0.0
 11
7210.0
 21
9247.5
 31
0.0
  0
LINE
  5
6510
  8
0
 10
7210.0
 20
9212.5
 30
0.0
 11
7187.0373286141166
 21
9212.5
 31
0.0
  0
LINE
  5
6511
  8
0
 10
7210.0
 20
9247.5
 30
0.0
 11
7210.0
 21
9295.0000000000146
 31
0.0
  0
CIRCLE
  5
6512
  8
0
 10
7110.0
 20
9230.0000000000164
 30
0.0
 40
79.0
  0
LINE
  5
6513
  8
0
  6
CENTER2
 10
7110.0
 20
9330.0000000000164
 30
0.0
 11
7110.0
 21
9130.0000000000127
 31
0.0
  0
LINE
  5
6514
  8
0
  6
CENTER2
 10
7009.0
 20
9230.0
 30
0.0
 11
7210.0
 21
9230.0
 31
0.0
  0
LINE
  5
6515
  8
0
 10
7529.0512101187369
 20
9090.0
 30
0.0
 11
7000.0
 21
9090.0
 31
0.0
  0
LINE
  5
6516
  8
0
  6
PHANTOM2
 10
6850.0
 20
10430.0
 30
0.0
 11
6850.0
 21
8800.0
 31
0.0
  0
LINE
  5
6517
  8
0
  6
PHANTOM2
 10
6850.0
 20
8800.0
 30
0.0
 11
7000.0
 21
8800.0
 31
0.0
  0
LINE
  5
6518
  8
0
  6
PHANTOM2
 10
7000.0
 20
8800.0
 30
0.0
 11
7000.0
 21
9330.0
 31
0.0
  0
LINE
  5
6519
  8
0
  6
PHANTOM2
 10
7000.0
 20
9330.0
 30
0.0
 11
11745.0
 21
9330.0
 31
0.0
  0
LINE
  5
651A
  8
0
  6
PHANTOM2
 10
11745.0
 20
9480.0
 30
0.0
 11
7000.0
 21
9480.0
 31
0.0
  0
LINE
  5
651B
  8
0
  6
PHANTOM2
 10
7000.0
 20
9480.0
 30
0.0
 11
7000.0
 21
10430.0
 31
0.0
  0
LINE
  5
651C
  8
0
  6
PHANTOM2
 10
4500.0
 20
3000.0
 30
0.0
 11
5500.0
 21
3000.0
 31
0.0
  0
LINE
  5
651D
  8
0
  6
PHANTOM2
 10
8500.0
 20
3150.0
 30
0.0
 11
8500.0
 21
3000.0
 31
0.0
  0
LINE
  5
651E
  8
0
  6
PHANTOM2
 10
5500.0
 20
3150.0
 30
0.0
 11
5500.0
 21
3000.0
 31
0.0
  0
LINE
  5
651F
  8
0
  6
PHANTOM2
 10
4500.0
 20
3150.0
 30
0.0
 11
5500.0
 21
3150.0
 31
0.0
  0
LINE
  5
6520
  8
0
  6
PHANTOM2
 10
8500.0
 20
3150.0
 30
0.0
 11
9500.0
 21
3150.0
 31
0.0
  0
LINE
  5
6521
  8
0
  6
PHANTOM2
 10
8500.0
 20
3000.0
 30
0.0
 11
9500.0
 21
3000.0
 31
0.0
  0
TEXT
  5
6522
  8
0
 10
6552.9957445612663
 20
7427.0875098650658
 30
0.0
 40
105.0
  1
パネル
 41
0.8
  7
文字
 72
     1
 11
6692.9957445612654
 21
7427.0875098650658
 31
0.0
  0
INSERT
  5
6523
  8
0
  2
*U32
 10
0.0
 20
0.0
 30
0.0
  0
TEXT
  5
6524
  8
0
 10
10979.999999999971
 20
47.5
 30
0.0
 40
105.0
  1
スタンダード
 11
10979.999999999971
 21
100.0
 31
0.0
 73
     2
  0
TEXT
  5
6525
  8
0
 10
10229.999999999971
 20
47.5
 30
0.0
 40
105.0
  1
納まり　  :
 11
10229.999999999971
 21
100.0
 31
0.0
 73
     2
  0
DIMENSION
  5
6526
  8
0
  2
*D26
 10
5975.0
 20
8700.0
 30
0.0
 11
5892.4999999999991
 21
8750.0000000000018
 31
0.0
  1
Y
 13
6650.0
 23
8800.0
 33
0.0
 14
6650.0
 24
8700.0
 34
0.0
 50
90.0
1001
ACAD
1000
DSTYLE
1002
{
1070
    41
1040
1.0
1002
}
  0
DIMENSION
  5
6527
  8
0
  2
*D28
 10
5974.9999999999991
 20
5999.9999999999918
 30
0.0
 11
5892.4999999999982
 21
7349.9999999999973
 31
0.0
  1
有効開口高=H-Y
 13
6650.0
 23
8700.0
 33
0.0
 14
6125.0
 24
5999.9999999999918
 34
0.0
 50
90.0
1001
ACAD
1000
DSTYLE
1002
{
1070
    41
1040
1.0
1002
}
  0
TEXT
  5
6528
  8
0
 10
13410.0
 20
10647.5
 30
0.0
 40
105.0
  1
パネル
 41
0.8
  7
文字
 72
     1
 11
13550.0
 21
10700.0
 31
0.0
 73
     2
  0
TEXT
  5
6529
  8
0
 10
13064.0
 20
10447.5
 30
0.0
 40
105.0
  1
Y
 41
0.8
  7
文字
 72
     1
 11
13100.0
 21
10500.0
 31
0.0
 73
     2
  0
LINE
  5
652A
  8
0
 10
15300.0
 20
10800.0
 30
0.0
 11
13800.0
 21
10800.0
 31
0.0
  0
LINE
  5
652B
  8
0
 10
12900.0
 20
11000.0
 30
0.0
 11
12900.0
 21
10400.0
 31
0.0
  0
LINE
  5
652C
  8
0
 10
15300.0
 20
10600.0
 30
0.0
 11
12900.0
 21
10600.0
 31
0.0
  0
LINE
  5
652D
  8
0
 10
12900.0
 20
10400.0
 30
0.0
 11
15300.0
 21
10400.0
 31
0.0
  0
LINE
  5
652E
  8
0
 10
13300.0
 20
11000.0
 30
0.0
 11
13300.0
 21
10400.0
 31
0.0
  0
LINE
  5
652F
  8
0
 10
13800.0
 20
11000.0
 30
0.0
 11
13800.0
 21
10400.0
 31
0.0
  0
TEXT
  5
6530
  8
0
 10
13510.0
 20
10447.5
 30
0.0
 40
105.0
  1
0
 41
0.8
  7
文字
 72
     1
 11
13550.0
 21
10500.0
 31
0.0
 73
     2
  0
TEXT
  5
6531
  8
0
 10
13359.6
 20
10847.5
 30
0.0
 40
105.0
  1
スチール
 41
0.8
  7
文字
 72
     1
 11
13550.0
 21
10900.0
 31
0.0
 73
     2
  0
TEXT
  5
6532
  8
0
 10
13960.4
 20
10647.5
 30
0.0
 40
105.0
  1
標準
 41
0.8
  7
文字
 72
     1
 11
14050.0
 21
10700.0
 31
0.0
 73
     2
  0
LINE
  5
6533
  8
0
 10
14300.0
 20
10800.0
 30
0.0
 11
14300.0
 21
10400.0
 31
0.0
  0
TEXT
  5
6534
  8
0
 10
14371.200000000001
 20
10647.5
 30
0.0
 40
105.0
  1
ワイド1
 41
0.8
  7
文字
 72
     1
 11
14550.0
 21
10700.0
 31
0.0
 73
     2
  0
LINE
  5
6535
  8
0
 10
14800.0
 20
10800.0
 30
0.0
 11
14800.0
 21
10400.0
 31
0.0
  0
TEXT
  5
6536
  8
0
 10
14859.200000000001
 20
10647.5
 30
0.0
 40
105.0
  1
ワイド2
 41
0.8
  7
文字
 72
     1
 11
15050.0
 21
10700.0
 31
0.0
 73
     2
  0
LINE
  5
6537
  8
0
 10
15300.0
 20
11000.0
 30
0.0
 11
15300.0
 21
10400.0
 31
0.0
  0
TEXT
  5
6538
  8
0
 10
13937.200000000001
 20
10847.5
 30
0.0
 40
105.0
  1
アルミパネル・FRPパネル
 41
0.8
  7
文字
 72
     1
 11
14550.0
 21
10900.0
 31
0.0
 73
     2
  0
LINE
  5
6539
  8
0
 10
15300.0
 20
11000.0
 30
0.0
 11
12900.0
 21
11000.0
 31
0.0
  0
TEXT
  5
653A
  8
0
 10
14010.0
 20
10447.5
 30
0.0
 40
105.0
  1
0
 41
0.8
  7
文字
 72
     1
 11
14050.0
 21
10500.0
 31
0.0
 73
     2
  0
TEXT
  5
653B
  8
0
 10
14470.0
 20
10447.5
 30
0.0
 40
105.0
  1
70
 41
0.8
  7
文字
 72
     1
 11
14550.0
 21
10500.0
 31
0.0
 73
     2
  0
TEXT
  5
653C
  8
0
 10
14924.0
 20
10447.5
 30
0.0
 40
105.0
  1
100
 41
0.8
  7
文字
 72
     1
 11
15050.0
 21
10500.0
 31
0.0
 73
     2
  0
LINE
  5
653D
  8
0
 10
12900.0
 20
11000.0
 30
0.0
 11
13300.0
 21
10600.0
 31
0.0
  0
TEXT
  5
653E
  8
0
 10
12900.0
 20
11047.5
 30
0.0
 40
105.0
  1
有効開口高=H-Y
 41
0.8
  7
文字
 11
12900.0
 21
11100.0
 31
0.0
 73
     2
  0
TEXT
  5
653F
  8
0
 10
14931.200000000001
 20
11047.5
 30
0.0
 40
105.0
  1
（mm）
 41
0.8
  7
文字
 72
     2
 11
15300.0
 21
11100.0
 31
0.0
 73
     2
  0
LINE
  5
6540
  8
0
  6
PHANTOM2
 10
7070.7000000000062
 20
6029.8000000000102
 30
0.0
 11
7095.5000000000073
 21
6029.8000000000102
 31
0.0
  0
LINE
  5
6541
  8
0
  6
PHANTOM2
 10
7070.7000000000062
 20
6222.5000000000073
 30
0.0
 11
7067.5000000000064
 21
6222.5000000000073
 31
0.0
  0
LINE
  5
6542
  8
0
  6
PHANTOM2
 10
7095.5000000000073
 20
6033.0000000000082
 30
0.0
 11
7095.5000000000073
 21
6029.8000000000102
 31
0.0
  0
LINE
  5
6543
  8
0
  6
PHANTOM2
 10
7070.7000000000062
 20
6033.0000000000082
 30
0.0
 11
7095.5000000000073
 21
6033.0000000000082
 31
0.0
  0
ARC
  5
6544
  8
0
  6
PHANTOM2
 10
7070.7000000000062
 20
6033.0000000000082
 30
0.0
 40
3.2000000000000002
 50
180.0
 51
270.0
  0
LINE
  5
6545
  8
0
  6
PHANTOM2
 10
7163.5000000000073
 20
6138.4999999999691
 30
0.0
 11
7163.5000000000073
 21
6137.5000000000073
 31
0.0
  0
LINE
  5
6546
  8
0
  6
PHANTOM2
 10
7163.5000000000073
 20
6055.5000000000073
 30
0.0
 11
7158.595261705641
 21
6055.5000000000073
 31
0.0
  0
LINE
  5
6547
  8
0
  6
PHANTOM2
 10
7136.5000000000082
 20
6055.5000000000073
 30
0.0
 11
7070.7000000000062
 21
6055.5000000000073
 31
0.0
  0
LINE
  5
6548
  8
0
  6
PHANTOM2
 10
7163.5000000000073
 20
6137.5000000000073
 30
0.0
 11
7141.0295766755717
 21
6137.5000000000073
 31
0.0
  0
LINE
  5
6549
  8
0
  6
PHANTOM2
 10
7104.8594262750121
 20
6114.1176127356302
 30
0.0
 11
7138.2322124005677
 21
6136.6442433703842
 31
0.0
  0
ARC
  5
654A
  8
0
  6
PHANTOM2
 10
7141.0295766755717
 20
6132.5000000000073
 30
0.0
 40
5.0
 50
90.0
 51
124.0193499896821
  0
LINE
  5
654B
  8
0
  6
PHANTOM2
 10
7163.5000000000073
 20
6058.49999999997
 30
0.0
 11
7163.5000000000073
 21
6055.5000000000073
 31
0.0
  0
LINE
  5
654C
  8
0
  6
PHANTOM2
 10
7163.5000000000073
 20
6138.4999999999691
 30
0.0
 11
7166.7000000000053
 21
6138.4999999999691
 31
0.0
  0
LINE
  5
654D
  8
0
  6
PHANTOM2
 10
7163.5000000000073
 20
6058.49999999997
 30
0.0
 11
7166.7000000000071
 21
6058.49999999997
 31
0.0
  0
LINE
  5
654E
  8
0
  6
PHANTOM2
 10
7166.7000000000053
 20
6138.4999999999691
 30
0.0
 11
7166.7000000000053
 21
6101.7290599168118
 31
0.0
  0
LINE
  5
654F
  8
0
  6
PHANTOM2
 10
7166.7000000000071
 20
6095.3290599168104
 30
0.0
 11
7166.7000000000071
 21
6058.49999999997
 31
0.0
  0
ARC
  5
6550
  8
0
  6
PHANTOM2
 10
7163.5000000000073
 20
6095.3290599168104
 30
0.0
 40
3.2000000000000002
 50
0.0
 51
90.0
  0
ARC
  5
6551
  8
0
  6
PHANTOM2
 10
7163.5000000000073
 20
6101.7290599168118
 30
0.0
 40
3.2000000000000002
 50
270.0
 51
0.0
  0
LINE
  5
6552
  8
0
  6
PHANTOM2
 10
7070.7000000000062
 20
6150.5000000000082
 30
0.0
 11
7104.8594262750103
 21
6114.1176127356366
 31
0.0
  0
LINE
  5
6553
  8
0
  6
PHANTOM2
 10
7070.7000000000062
 20
6055.5000000000073
 30
0.0
 11
7070.7000000000062
 21
6033.0000000000082
 31
0.0
  0
ARC
  5
6554
  8
0
  6
PHANTOM2
 10
7169.5000000000082
 20
6032.8000000000102
 30
0.0
 40
12.5
 50
239.99999999990621
 51
59.99999999990618
  0
LINE
  5
6555
  8
0
  6
PHANTOM2
 10
7163.2500000000082
 20
6021.9746824527028
 30
0.0
 11
7139.0000000000073
 21
6035.9754264805506
 31
0.0
  0
LINE
  5
6556
  8
0
  6
PHANTOM2
 10
7175.7500000000073
 20
6043.6253175473094
 30
0.0
 11
7161.0000000000073
 21
6052.1412340178576
 31
0.0
  0
ARC
  5
6557
  8
0
  6
PHANTOM2
 10
7163.5000000000073
 20
6056.4713610367844
 30
0.0
 40
5.0
 50
191.20221111558681
 51
239.99999999990621
  0
LINE
  5
6558
  8
0
  6
PHANTOM2
 10
7136.5000000000082
 20
6055.5000000000073
 30
0.0
 11
7136.5000000000082
 21
6040.3055534994719
 31
0.0
  0
ARC
  5
6559
  8
0
  6
PHANTOM2
 10
7141.5000000000073
 20
6040.3055534994719
 30
0.0
 40
5.0
 50
180.0
 51
239.99999999990621
  0
LINE
  5
655A
  8
0
  6
PHANTOM2
 10
7204.9000000000087
 20
6120.5000000000437
 30
0.0
 11
7204.9000000000087
 21
6151.1110695100851
 31
0.0
  0
LINE
  5
655B
  8
0
  6
PHANTOM2
 10
7203.7000000000062
 20
6120.5000000000437
 30
0.0
 11
7203.7000000000062
 21
6150.5000000000418
 31
0.0
  0
LINE
  5
655C
  8
0
  6
PHANTOM2
 10
7204.9000000000087
 20
6120.5000000000437
 30
0.0
 11
7203.7000000000062
 21
6120.5000000000437
 31
0.0
  0
LINE
  5
655D
  8
0
  6
PHANTOM2
 10
7148.7000000000062
 20
6190.5000000000418
 30
0.0
 11
7203.7000000000062
 21
6150.5000000000418
 31
0.0
  0
LINE
  5
655E
  8
0
  6
PHANTOM2
 10
7148.7000000000062
 20
6190.5000000000418
 30
0.0
 11
7070.7000000000062
 21
6190.5000000000418
 31
0.0
  0
LINE
  5
655F
  8
0
  6
PHANTOM2
 10
7071.900000000006
 20
6191.7000000000389
 30
0.0
 11
7071.900000000006
 21
6224.6040862788577
 31
0.0
  0
LINE
  5
6560
  8
0
  6
PHANTOM2
 10
7149.0902205763159
 20
6191.7000000000389
 30
0.0
 11
7071.900000000006
 21
6191.7000000000389
 31
0.0
  0
LINE
  5
6561
  8
0
  6
PHANTOM2
 10
7149.0902205763159
 20
6191.7000000000389
 30
0.0
 11
7204.9000000000087
 21
6151.1110695100851
 31
0.0
  0
LINE
  5
6562
  8
0
  6
PHANTOM2
 10
7068.900000000006
 20
6234.5000000000437
 30
0.0
 11
7070.7000000000062
 21
6224.4969790327668
 31
0.0
  0
LINE
  5
6563
  8
0
  6
PHANTOM2
 10
7070.0810311808264
 20
6234.7125214105608
 30
0.0
 11
7071.900000000006
 21
6224.6040862788577
 31
0.0
  0
LINE
  5
6564
  8
0
  6
PHANTOM2
 10
7070.0810311808264
 20
6234.7125214105608
 30
0.0
 11
7068.900000000006
 21
6234.5000000000437
 31
0.0
  0
LINE
  5
6565
  8
0
  6
PHANTOM2
 10
7070.7000000000062
 20
6190.5000000000364
 30
0.0
 11
7070.7000000000062
 21
6150.5000000000082
 31
0.0
  0
LINE
  5
6566
  8
0
  6
PHANTOM2
 10
7070.7000000000062
 20
6222.5000000000073
 30
0.0
 11
7070.7000000000062
 21
6224.4969790327668
 31
0.0
  0
LINE
  5
6567
  8
0
  6
PHANTOM2
 10
7067.5000000000064
 20
6222.5000000000073
 30
0.0
 11
7067.5000000000064
 21
6033.0000000000082
 31
0.0
  0
ENDSEC
  0
EOF
