  0
SECTION
  2
HEADER
  9
$ACADVER
  1
AC1009
  9
$INSBASE
 10
0.0
 20
0.0
 30
0.0
  9
$EXTMIN
 10
-0.4998397926137841
 20
-0.3584016095373954
 30
-0.0015258207003583
  9
$EXTMAX
 10
16380.499916067931
 20
11745.35845630145
 30
0.0000000349246037
  9
$LIMMIN
 10
0.0
 20
0.0
  9
$LIMMAX
 10
420.0
 20
297.0
  9
$ORTHOMODE
 70
     0
  9
$REGENMODE
 70
     1
  9
$FILLMODE
 70
     1
  9
$QTEXTMODE
 70
     0
  9
$MIRRTEXT
 70
     1
  9
$DRAGMODE
 70
     2
  9
$LTSCALE
 40
7.5
  9
$OSMODE
 70
  3071
  9
$ATTMODE
 70
     1
  9
$TEXTSIZE
 40
105.0
  9
$TRACEWID
 40
1.0
  9
$TEXTSTYLE
  7
文字
  9
$CLAYER
  8
0
  9
$CELTYPE
  6
BYLAYER
  9
$CECOLOR
 62
   256
  9
$DIMSCALE
 40
30.0
  9
$DIMASZ
 40
2.0
  9
$DIMEXO
 40
5.0
  9
$DIMDLI
 40
7.5
  9
$DIMRND
 40
0.0
  9
$DIMDLE
 40
0.0
  9
$DIMEXE
 40
1.0
  9
$DIMTP
 40
0.0
  9
$DIMTM
 40
0.0
  9
$DIMTXT
 40
3.5
  9
$DIMCEN
 40
1.0
  9
$DIMTSZ
 40
0.0
  9
$DIMTOL
 70
     0
  9
$DIMLIM
 70
     0
  9
$DIMTIH
 70
     0
  9
$DIMTOH
 70
     0
  9
$DIMSE1
 70
     0
  9
$DIMSE2
 70
     0
  9
$DIMTAD
 70
     1
  9
$DIMZIN
 70
     8
  9
$DIMBLK
  1
ORIGIN
  9
$DIMASO
 70
     1
  9
$DIMSHO
 70
     1
  9
$DIMPOST
  1

  9
$DIMAPOST
  1

  9
$DIMALT
 70
     0
  9
$DIMALTD
 70
     3
  9
$DIMALTF
 40
0.03937007874016
  9
$DIMLFAC
 40
1.0
  9
$DIMTOFL
 70
     1
  9
$DIMTVP
 40
0.0
  9
$DIMTIX
 70
     1
  9
$DIMSOXD
 70
     0
  9
$DIMSAH
 70
     0
  9
$DIMBLK1
  1

  9
$DIMBLK2
  1

  9
$DIMSTYLE
  2
寸法線30
  9
$DIMCLRD
 70
   256
  9
$DIMCLRE
 70
   256
  9
$DIMCLRT
 70
   256
  9
$DIMTFAC
 40
1.0
  9
$DIMGAP
 40
1.0
  9
$LUNITS
 70
     2
  9
$LUPREC
 70
     4
  9
$SKETCHINC
 40
1.0
  9
$FILLETRAD
 40
0.0
  9
$AUNITS
 70
     0
  9
$AUPREC
 70
     0
  9
$MENU
  1
.
  9
$ELEVATION
 40
0.0
  9
$PELEVATION
 40
0.0
  9
$THICKNESS
 40
0.0
  9
$LIMCHECK
 70
     0
  9
$BLIPMODE
 70
     0
  9
$CHAMFERA
 40
10.0
  9
$CHAMFERB
 40
10.0
  9
$SKPOLY
 70
     0
  9
$TDCREATE
 40
2452654.657629028
  9
$TDUPDATE
 40
2456778.7067402308
  9
$TDINDWG
 40
0.7993405324
  9
$TDUSRTIMER
 40
0.7993387153
  9
$USRTIMER
 70
     1
  9
$ANGBASE
 50
0.0
  9
$ANGDIR
 70
     0
  9
$PDMODE
 70
     0
  9
$PDSIZE
 40
0.0
  9
$PLINEWID
 40
0.0
  9
$COORDS
 70
     2
  9
$SPLFRAME
 70
     0
  9
$SPLINETYPE
 70
     6
  9
$SPLINESEGS
 70
     8
  9
$ATTDIA
 70
     0
  9
$ATTREQ
 70
     1
  9
$HANDLING
 70
     1
  9
$HANDSEED
  5
6D42
  9
$SURFTAB1
 70
     6
  9
$SURFTAB2
 70
     6
  9
$SURFTYPE
 70
     6
  9
$SURFU
 70
     6
  9
$SURFV
 70
     6
  9
$UCSNAME
  2

  9
$UCSORG
 10
0.0
 20
0.0
 30
0.0
  9
$UCSXDIR
 10
1.0
 20
0.0
 30
0.0
  9
$UCSYDIR
 10
0.0
 20
1.0
 30
0.0
  9
$PUCSNAME
  2

  9
$PUCSORG
 10
0.0
 20
0.0
 30
0.0
  9
$PUCSXDIR
 10
1.0
 20
0.0
 30
0.0
  9
$PUCSYDIR
 10
0.0
 20
1.0
 30
0.0
  9
$USERI1
 70
     0
  9
$USERI2
 70
     0
  9
$USERI3
 70
     0
  9
$USERI4
 70
     0
  9
$USERI5
 70
     0
  9
$USERR1
 40
0.0
  9
$USERR2
 40
0.0
  9
$USERR3
 40
0.0
  9
$USERR4
 40
0.0
  9
$USERR5
 40
0.0
  9
$WORLDVIEW
 70
     1
  9
$SHADEDGE
 70
     3
  9
$SHADEDIF
 70
    70
  9
$TILEMODE
 70
     1
  9
$MAXACTVP
 70
    64
  9
$PLIMCHECK
 70
     0
  9
$PEXTMIN
 10
1.0000000000000000E+020
 20
1.0000000000000000E+020
 30
1.0000000000000000E+020
  9
$PEXTMAX
 10
-1.0000000000000000E+020
 20
-1.0000000000000000E+020
 30
-1.0000000000000000E+020
  9
$PLIMMIN
 10
0.0
 20
0.0
  9
$PLIMMAX
 10
420.0
 20
297.0
  9
$UNITMODE
 70
     0
  9
$VISRETAIN
 70
     1
  9
$PLINEGEN
 70
     0
  9
$PSLTSCALE
 70
     1
  0
ENDSEC
  0
SECTION
  2
TABLES
  0
TABLE
  2
VPORT
 70
     1
  0
VPORT
  2
*ACTIVE
 70
     0
 10
0.0
 20
0.0
 11
1.0
 21
1.0
 12
8190.0000381376594
 22
5872.5000273459573
 13
0.0
 23
0.0
 14
10.0
 24
10.0
 15
10.0
 25
10.0
 16
0.0
 26
0.0
 36
1.0
 17
0.0
 27
0.0
 37
0.0
 40
11826.443434254021
 41
1.7981651376146781
 42
50.0
 43
0.0
 44
0.0
 50
0.0
 51
0.0
 71
     0
 72
   100
 73
     1
 74
     3
 75
     0
 76
     0
 77
     0
 78
     0
  0
ENDTAB
  0
TABLE
  2
LTYPE
 70
     5
  0
LTYPE
  2
CONTINUOUS
 70
     0
  3
Solid line
 72
    65
 73
     0
 40
0.0
  0
LTYPE
  2
HIDDEN
 70
     0
  3
Hidden __ __ __ __ __ __ __ __ __ __ __ __ __ _
 72
    65
 73
     2
 40
9.5249999999999986
 49
6.3499999999999979
 49
-3.174999999999998
  0
LTYPE
  2
CENTER2
 70
     0
  3
Center (.5x) ___ _ ___ _ ___ _ ___ _ ___ _ ___
 72
    65
 73
     4
 40
28.574999999999999
 49
19.050000000000001
 49
-3.174999999999998
 49
3.174999999999998
 49
-3.174999999999998
  0
LTYPE
  2
PHANTOM2
 70
     0
  3
Phantom (.5x) ___ _ _ ___ _ _ ___ _ _ ___ _ _
 72
    65
 73
     6
 40
31.75
 49
15.875
 49
-3.174999999999998
 49
3.174999999999998
 49
-3.174999999999998
 49
3.174999999999998
 49
-3.174999999999998
  0
LTYPE
  2
HIDDEN2
 70
     0
  3
Hidden (.5x) _ _ _ _ _ _ _ _ _ _ _ _ _ _ _ _ _
 72
    65
 73
     2
 40
4.7624999999999993
 49
3.174999999999998
 49
-1.587499999999999
  0
ENDTAB
  0
TABLE
  2
LAYER
 70
     2
  0
LAYER
  2
0
 70
     0
 62
     7
  6
CONTINUOUS
  0
LAYER
  2
DEFPOINTS
 70
     0
 62
     7
  6
CONTINUOUS
  0
ENDTAB
  0
TABLE
  2
STYLE
 70
     4
  0
STYLE
  2
STANDARD
 70
     0
 40
0.0
 41
1.0
 50
0.0
 71
     0
 42
105.0
  3
romans.shx
  4
bigfont.shx
  0
STYLE
  2
文字
 70
     0
 40
0.0
 41
0.8
 50
0.0
 71
     0
 42
105.0
  3
romans.shx
  4
extfont.shx
  0
STYLE
  2
横文字
 70
     0
 40
0.0
 41
0.8
 50
0.0
 71
     0
 42
105.0
  3
romans.shx
  4
extfont.shx
  0
ENDTAB
  0
TABLE
  2
VIEW
 70
     0
  0
ENDTAB
  0
TABLE
  2
UCS
 70
     0
  0
ENDTAB
  0
TABLE
  2
APPID
 70
    81
  0
APPID
  2
ACAD
 70
     0
  0
APPID
  2
ACADANNOTATIVE
 70
     0
  0
APPID
  2
ADE
 70
     0
  0
APPID
  2
DCO15
 70
     0
  0
APPID
  2
SETH_MM
 70
     0
  0
APPID
  2
ACAD_PSEXT
 70
     0
  0
APPID
  2
ACAD_EXEMPT_FROM_CAD_STANDARDS
 70
     0
  0
APPID
  2
ACAD_MLEADERVER
 70
     0
  0
APPID
  2
AUTOESSSHUTTERLINE1
 70
     0
  0
APPID
  2
AUTOESSSHUTTERLINE2
 70
     0
  0
APPID
  2
AUTOESSSHUTTERPT
 70
     0
  0
APPID
  2
MAKICIRCLE
 70
     0
  0
APPID
  2
ACAD_DSTYLE_DIMJAG
 70
     0
  0
APPID
  2
ACAD_DSTYLE_DIMTALN
 70
     0
  0
APPID
  2
SETW_MM
 70
     0
  0
APPID
  2
PARADIMLINE
 70
     0
  0
APPID
  2
PARABASEPT
 70
     0
  0
APPID
  2
MIRRORCHK_L
 70
     0
  0
APPID
  2
MIRRORCHK_R
 70
     0
  0
APPID
  2
LINKSPLIT1
 70
     0
  0
APPID
  2
LINKSPLIT2
 70
     0
  0
APPID
  2
LINKSPLIT3
 70
     0
  0
APPID
  2
LINKSPLIT4
 70
     0
  0
APPID
  2
TBANLLINE
 70
     0
  0
APPID
  2
TBANRLINE
 70
     0
  0
APPID
  2
TBANHLINE
 70
     0
  0
APPID
  2
ARCLINEA1
 70
     0
  0
APPID
  2
ARCLINEA2
 70
     0
  0
APPID
  2
ARCLINEB1
 70
     0
  0
APPID
  2
ARCLINEB2
 70
     0
  0
APPID
  2
ODPDW
 70
     0
  0
APPID
  2
ODPDH
 70
     0
  0
APPID
  2
ODWLINE1
 70
     0
  0
APPID
  2
ODWLINE2
 70
     0
  0
APPID
  2
ODSY
 70
     0
  0
APPID
  2
EDWDW
 70
     0
  0
APPID
  2
EDWDH
 70
     0
  0
APPID
  2
LINKSPLIT11
 70
     0
  0
APPID
  2
LINKSPLIT12
 70
     0
  0
APPID
  2
LINKSPLIT13
 70
     0
  0
APPID
  2
LINKSPLIT14
 70
     0
  0
APPID
  2
AUTOESSDOORPTH1
 70
     0
  0
APPID
  2
AUTOESSDOORPTH2
 70
     0
  0
APPID
  2
AUTOESSDOORPTV1
 70
     0
  0
APPID
  2
AUTOESSDOORPTV2
 70
     0
  0
APPID
  2
TBANPT1
 70
     0
  0
APPID
  2
TBANPT2
 70
     0
  0
APPID
  2
SETDH_MM
 70
     0
  0
APPID
  2
SETV1_MM
 70
     0
  0
APPID
  2
SETV2_MM
 70
     0
  0
APPID
  2
KAIKOUDIM
 70
     0
  0
APPID
  2
TBANK
 70
     0
  0
APPID
  2
TBANR
 70
     0
  0
APPID
  2
TBANO
 70
     0
  0
APPID
  2
TBANHATA1
 70
     0
  0
APPID
  2
TBANHATA2
 70
     0
  0
APPID
  2
TBANMEN
 70
     0
  0
APPID
  2
TBANW
 70
     0
  0
APPID
  2
TBANH
 70
     0
  0
APPID
  2
ARCLINEA3
 70
     0
  0
APPID
  2
ARCLINEB3
 70
     0
  0
APPID
  2
WORKNAME_UE
 70
     0
  0
APPID
  2
WORKNAME
 70
     0
  0
APPID
  2
SD1
 70
     0
  0
APPID
  2
SD2
 70
     0
  0
APPID
  2
DELETEOBJ
 70
     0
  0
APPID
  2
TBANTEXT
 70
     0
  0
APPID
  2
MAKITEXT
 70
     0
  0
APPID
  2
N_01
 70
     0
  0
APPID
  2
N_02
 70
     0
  0
APPID
  2
N_03
 70
     0
  0
APPID
  2
N_04
 70
     0
  0
APPID
  2
N_05
 70
     0
  0
APPID
  2
N_06
 70
     0
  0
APPID
  2
N_07
 70
     0
  0
APPID
  2
N_08
 70
     0
  0
APPID
  2
N_09
 70
     0
  0
APPID
  2
N_10
 70
     0
  0
APPID
  2
N_11
 70
     0
  0
APPID
  2
N_12
 70
     0
  0
APPID
  2
N_13
 70
     0
  0
ENDTAB
  0
TABLE
  2
DIMSTYLE
 70
     3
  0
DIMSTYLE
  2
STANDARD
 70
     0
  3

  4

  5

  6

  7

 40
30.0
 41
1.0
 42
5.0
 43
7.5
 44
1.0
 45
0.0
 46
0.0
 47
0.0
 48
0.0
140
3.5
141
2.5
142
0.0
143
25.399999999999999
144
1.0
145
0.0
146
1.0
147
1.0
 71
     0
 72
     0
 73
     0
 74
     0
 75
     0
 76
     0
 77
     1
 78
     8
170
     0
171
     2
172
     1
173
     0
174
     1
175
     0
176
     0
177
     0
178
     0
  0
DIMSTYLE
  2
寸法線30
 70
     0
  3

  4

  5

  6

  7

 40
30.0
 41
2.0
 42
5.0
 43
7.5
 44
1.0
 45
0.0
 46
0.0
 47
0.0
 48
0.0
140
3.5
141
1.0
142
0.0
143
0.03937007874016
144
1.0
145
0.0
146
1.0
147
1.0
 71
     0
 72
     0
 73
     0
 74
     0
 75
     0
 76
     0
 77
     1
 78
     8
170
     0
171
     3
172
     1
173
     0
174
     1
175
     0
176
   256
177
   256
178
   256
  0
ENDTAB
  0
ENDSEC
  0
SECTION
  2
BLOCKS
  0
BLOCK
  8
0
  2
$MODEL_SPACE
 70
     0
 10
0.0
 20
0.0
 30
0.0
  3
$MODEL_SPACE
  1

  0
ENDBLK
  5
6C3F
  8
0
  0
BLOCK
 67
     1
  8
0
  2
$PAPER_SPACE
 70
     0
 10
0.0
 20
0.0
 30
0.0
  3
$PAPER_SPACE
  1

  0
ENDBLK
  5
6C3B
 67
     1
  8
0
  0
BLOCK
  8
0
  2
_ORIGIN
 70
     0
 10
0.0
 20
0.0
 30
0.0
  3
_ORIGIN
  1

  0
CIRCLE
  5
A7
  8
0
  6
BYBLOCK
 62
     0
 10
0.0
 20
0.0
 30
0.0
 40
0.5
  0
LINE
  5
A8
  8
0
  6
BYBLOCK
 62
     0
 10
0.0
 20
0.0
 30
0.0
 11
-1.0
 21
0.0
 31
0.0
  0
ENDBLK
  5
AA
  8
0
  0
BLOCK
  8
0
  2
_OPEN30
 70
     0
 10
0.0
 20
0.0
 30
0.0
  3
_OPEN30
  1

  0
LINE
  5
AC
  8
0
  6
BYBLOCK
 62
     0
 10
-1.0
 20
0.26794919
 30
0.0
 11
0.0
 21
0.0
 31
0.0
  0
LINE
  5
AD
  8
0
  6
BYBLOCK
 62
     0
 10
0.0
 20
0.0
 30
0.0
 11
-1.0
 21
-0.26794919
 31
0.0
  0
LINE
  5
AE
  8
0
  6
BYBLOCK
 62
     0
 10
0.0
 20
0.0
 30
0.0
 11
-1.0
 21
0.0
 31
0.0
  0
ENDBLK
  5
B0
  8
0
  0
BLOCK
  8
0
  2
*D4
 70
     1
 10
0.0
 20
0.0
 30
0.0
  3
*D4
  1

  0
LINE
  5
6A70
  8
0
 10
5500.0
 20
3500.0000000000209
 30
0.0
 11
5500.0
 21
4030.0000000000209
 31
0.0
  0
LINE
  5
6A71
  8
0
 10
8500.0
 20
3500.0000000000209
 30
0.0
 11
8500.0
 21
4030.0000000000209
 31
0.0
  0
LINE
  5
6A72
  8
0
 10
5530.0
 20
4000.0000000000209
 30
0.0
 11
8470.0
 21
4000.0000000000209
 31
0.0
  0
INSERT
  5
6A73
  8
0
  2
_ORIGIN
 10
5500.0
 20
4000.0000000000209
 30
0.0
 41
30.0
 42
30.0
 43
30.0
 50
180.0
  0
INSERT
  5
6A74
  8
0
  2
_ORIGIN
 10
8500.0
 20
4000.0000000000209
 30
0.0
 41
30.0
 42
30.0
 43
30.0
  0
INSERT
  5
6A75
  8
0
  2
*U5
 10
0.0
 20
0.0
 30
0.0
  0
POINT
  5
6A76
  8
DEFPOINTS
 62
     0
 10
5500.0
 20
3350.0000000000209
 30
0.0
  0
POINT
  5
6A77
  8
DEFPOINTS
 62
     0
 10
8500.0
 20
3350.0000000000209
 30
0.0
  0
POINT
  5
6A78
  8
DEFPOINTS
 62
     0
 10
8500.0
 20
4000.0000000000209
 30
0.0
  0
ENDBLK
  5
69CA
  8
0
  0
BLOCK
  8
0
  2
*U5
 70
     1
 10
0.0
 20
0.0
 30
0.0
  3
*U5
  1

  0
TEXT
  5
6BA0
  8
0
 10
6952.0
 20
4030.0000000000209
 30
0.0
 40
105.0
  1
W
 41
0.8
  7
文字
  0
ENDBLK
  5
6BA2
  8
0
  0
BLOCK
  8
0
  2
*D6
 70
     1
 10
0.0
 20
0.0
 30
0.0
  3
*D6
  1

  0
LINE
  5
6A79
  8
0
 10
6500.0
 20
8800.0
 30
0.0
 11
5720.0000000000009
 21
8800.0
 31
0.0
  0
LINE
  5
6A7A
  8
0
 10
5700.0
 20
6000.0
 30
0.0
 11
5720.0
 21
6000.0
 31
0.0
  0
LINE
  5
6A7B
  8
0
 10
5750.0
 20
8770.0
 30
0.0
 11
5750.0
 21
6030.0
 31
0.0
  0
INSERT
  5
6A7C
  8
0
  2
_ORIGIN
 10
5750.0
 20
8800.0
 30
0.0
 41
30.0
 42
30.0
 43
30.0
 50
90.0
  0
INSERT
  5
6A7D
  8
0
  2
_ORIGIN
 10
5750.0
 20
6000.0
 30
0.0
 41
30.0
 42
30.0
 43
30.0
 50
270.0
  0
INSERT
  5
6A7E
  8
0
  2
*U7
 10
0.0
 20
0.0
 30
0.0
  0
POINT
  5
6A7F
  8
DEFPOINTS
 62
     0
 10
6650.0
 20
8800.0
 30
0.0
  0
POINT
  5
6A80
  8
DEFPOINTS
 62
     0
 10
5850.0
 20
6000.0
 30
0.0
  0
POINT
  5
6A81
  8
DEFPOINTS
 62
     0
 10
5750.0
 20
6000.0
 30
0.0
  0
ENDBLK
  5
69D6
  8
0
  0
BLOCK
  8
0
  2
*U7
 70
     1
 10
0.0
 20
0.0
 30
0.0
  3
*U7
  1

  0
TEXT
  5
6BA4
  8
0
 10
5719.9999999999973
 20
7356.0000000000027
 30
0.0
 40
105.0
  1
H
 50
90.0
 41
0.8
  7
文字
  0
ENDBLK
  5
6BA6
  8
0
  0
BLOCK
  8
0
  2
*D8
 70
     1
 10
0.0
 20
0.0
 30
0.0
  3
*D8
  1

  0
LINE
  5
6A82
  8
0
 10
6500.0
 20
8800.0
 30
0.0
 11
5720.0
 21
8800.0
 31
0.0
  0
LINE
  5
6A83
  8
0
 10
6500.0
 20
9100.0
 30
0.0
 11
5720.0
 21
9100.0
 31
0.0
  0
LINE
  5
6A84
  8
0
 10
5750.0
 20
8770.0
 30
0.0
 11
5750.0
 21
8740.0
 31
0.0
  0
LINE
  5
6A85
  8
0
 10
5750.0
 20
9130.0
 30
0.0
 11
5750.0
 21
9160.0
 31
0.0
  0
LINE
  5
6A86
  8
0
 10
5750.0
 20
8800.0
 30
0.0
 11
5750.0
 21
9100.0
 31
0.0
  0
INSERT
  5
6A87
  8
0
  2
_ORIGIN
 10
5750.0
 20
8800.0
 30
0.0
 41
30.0
 42
30.0
 43
30.0
 50
90.0
  0
INSERT
  5
6A88
  8
0
  2
_ORIGIN
 10
5750.0
 20
9100.0
 30
0.0
 41
30.0
 42
30.0
 43
30.0
 50
270.0
  0
INSERT
  5
6A89
  8
0
  2
*U9
 10
0.0
 20
0.0
 30
0.0
  0
POINT
  5
6A8A
  8
DEFPOINTS
 62
     0
 10
6650.0
 20
8800.0
 30
0.0
  0
POINT
  5
6A8B
  8
DEFPOINTS
 62
     0
 10
6650.0
 20
9100.0
 30
0.0
  0
POINT
  5
6A8C
  8
DEFPOINTS
 62
     0
 10
5750.0
 20
9100.0
 30
0.0
  0
ENDBLK
  5
69E2
  8
0
  0
BLOCK
  8
0
  2
*U9
 70
     1
 10
0.0
 20
0.0
 30
0.0
  3
*U9
  1

  0
TEXT
  5
6BA8
  8
0
 10
5719.9999999999973
 20
8594.4000000000033
 30
0.0
 40
105.0
  1
HR=300以上
 50
90.0
 41
0.8
  7
文字
  0
ENDBLK
  5
6BAA
  8
0
  0
BLOCK
  8
0
  2
*D10
 70
     1
 10
0.0
 20
0.0
 30
0.0
  3
*D10
  1

  0
LINE
  5
6A8D
  8
0
 10
7400.0
 20
6020.0
 30
0.0
 11
8029.9999999999973
 21
6020.0
 31
0.0
  0
LINE
  5
6A8E
  8
0
 10
7400.0
 20
8840.0
 30
0.0
 11
8030.0
 21
8840.0
 31
0.0
  0
LINE
  5
6A8F
  8
0
 10
7999.9999999999973
 20
6050.0
 30
0.0
 11
8000.0
 21
8810.0
 31
0.0
  0
INSERT
  5
6A90
  8
0
  2
_ORIGIN
 10
7999.9999999999973
 20
6020.0
 30
0.0
 41
30.0
 42
30.0
 43
30.0
 50
270.0
  0
INSERT
  5
6A91
  8
0
  2
_ORIGIN
 10
8000.0
 20
8840.0
 30
0.0
 41
30.0
 42
30.0
 43
30.0
 50
90.0
  0
INSERT
  5
6A92
  8
0
  2
*U11
 10
0.0
 20
0.0
 30
0.0
  0
POINT
  5
6A93
  8
DEFPOINTS
 62
     0
 10
7250.0
 20
6020.0
 30
0.0
  0
POINT
  5
6A94
  8
DEFPOINTS
 62
     0
 10
7250.0
 20
8840.0
 30
0.0
  0
POINT
  5
6A95
  8
DEFPOINTS
 62
     0
 10
8000.0
 20
8840.0
 30
0.0
  0
ENDBLK
  5
69F0
  8
0
  0
BLOCK
  8
0
  2
*U11
 70
     1
 10
0.0
 20
0.0
 30
0.0
  3
*U11
  1

  0
TEXT
  5
6BAC
  8
0
 10
7969.9999999999973
 20
7344.0000000000018
 30
0.0
 40
105.0
  1
DH
 50
90.0
 41
0.8
  7
文字
  0
ENDBLK
  5
6BAE
  8
0
  0
BLOCK
  8
0
  2
*D12
 70
     1
 10
0.0
 20
0.0
 30
0.0
  3
*D12
  1

  0
LINE
  5
6A96
  8
0
 10
7000.0
 20
9900.0
 30
0.0
 11
7000.0
 21
9930.0
 31
0.0
  0
LINE
  5
6A97
  8
0
 10
10520.0
 20
9450.0
 30
0.0
 11
10520.0
 21
9930.0
 31
0.0
  0
LINE
  5
6A98
  8
0
 10
7030.0
 20
9900.0
 30
0.0
 11
10490.0
 21
9900.0
 31
0.0
  0
INSERT
  5
6A99
  8
0
  2
_ORIGIN
 10
7000.0
 20
9900.0
 30
0.0
 41
30.0
 42
30.0
 43
30.0
 50
180.0
  0
INSERT
  5
6A9A
  8
0
  2
_ORIGIN
 10
10520.0
 20
9900.0
 30
0.0
 41
30.0
 42
30.0
 43
30.0
  0
INSERT
  5
6A9B
  8
0
  2
*U13
 10
0.0
 20
0.0
 30
0.0
  0
POINT
  5
6A9C
  8
DEFPOINTS
 62
     0
 10
7000.0
 20
9750.0
 30
0.0
  0
POINT
  5
6A9D
  8
DEFPOINTS
 62
     0
 10
10520.0
 20
9300.0
 30
0.0
  0
POINT
  5
6A9E
  8
DEFPOINTS
 62
     0
 10
10520.0
 20
9900.0
 30
0.0
  0
ENDBLK
  5
69FC
  8
0
  0
BLOCK
  8
0
  2
*U13
 70
     1
 10
0.0
 20
0.0
 30
0.0
  3
*U13
  1

  0
TEXT
  5
6BB0
  8
0
 10
8500.0
 20
9930.0
 30
0.0
 40
105.0
  1
DH+700
 41
0.8
  7
文字
  0
ENDBLK
  5
6BB2
  8
0
  0
BLOCK
  8
0
  2
*D14
 70
     1
 10
0.0
 20
0.0
 30
0.0
  3
*D14
  1

  0
LINE
  5
6A9F
  8
0
 10
11169.999999999991
 20
8990.0
 30
0.0
 11
11350.0
 21
8990.0
 31
0.0
  0
LINE
  5
6AA0
  8
0
 10
11320.0
 20
9100.0
 30
0.0
 11
11350.0
 21
9100.0
 31
0.0
  0
LINE
  5
6AA1
  8
0
 10
11320.0
 20
8960.0
 30
0.0
 11
11320.0
 21
8930.0
 31
0.0
  0
LINE
  5
6AA2
  8
0
 10
11320.0
 20
9130.0
 30
0.0
 11
11320.0
 21
9160.0
 31
0.0
  0
LINE
  5
6AA3
  8
0
 10
11320.0
 20
8990.0
 30
0.0
 11
11320.0
 21
9100.0
 31
0.0
  0
INSERT
  5
6AA4
  8
0
  2
_ORIGIN
 10
11320.0
 20
8990.0
 30
0.0
 41
30.0
 42
30.0
 43
30.0
 50
90.0
  0
INSERT
  5
6AA5
  8
0
  2
_ORIGIN
 10
11320.0
 20
9100.0
 30
0.0
 41
30.0
 42
30.0
 43
30.0
 50
270.0
  0
INSERT
  5
6AA6
  8
0
  2
*U15
 10
0.0
 20
0.0
 30
0.0
  0
POINT
  5
6AA7
  8
DEFPOINTS
 62
     0
 10
11020.0
 20
8990.0
 30
0.0
  0
POINT
  5
6AA8
  8
DEFPOINTS
 62
     0
 10
11169.999999999991
 20
9100.0
 30
0.0
  0
POINT
  5
6AA9
  8
DEFPOINTS
 62
     0
 10
11320.0
 20
9100.0
 30
0.0
  0
ENDBLK
  5
6A08
  8
0
  0
BLOCK
  8
0
  2
*U15
 70
     1
 10
0.0
 20
0.0
 30
0.0
  3
*U15
  1

  0
TEXT
  5
6BB4
  8
0
 10
11290.0
 20
8919.0000000000018
 30
0.0
 40
105.0
  1
110
 50
90.0
 41
0.8
  7
文字
  0
ENDBLK
  5
6BB6
  8
0
  0
BLOCK
  8
0
  2
*D16
 70
     1
 10
0.0
 20
0.0
 30
0.0
  3
*D16
  1

  0
LINE
  5
6AAA
  8
0
 10
5475.0
 20
2600.0000000000209
 30
0.0
 11
5475.0
 21
2220.0000000000209
 31
0.0
  0
LINE
  5
6AAB
  8
0
 10
8525.0
 20
2600.0000000000209
 30
0.0
 11
8525.0
 21
2220.0000000000209
 31
0.0
  0
LINE
  5
6AAC
  8
0
 10
5505.0
 20
2250.0000000000209
 30
0.0
 11
8495.0
 21
2250.0000000000209
 31
0.0
  0
INSERT
  5
6AAD
  8
0
  2
_ORIGIN
 10
5475.0
 20
2250.0000000000209
 30
0.0
 41
30.0
 42
30.0
 43
30.0
 50
180.0
  0
INSERT
  5
6AAE
  8
0
  2
_ORIGIN
 10
8525.0
 20
2250.0000000000209
 30
0.0
 41
30.0
 42
30.0
 43
30.0
  0
INSERT
  5
6AAF
  8
0
  2
*U17
 10
0.0
 20
0.0
 30
0.0
  0
POINT
  5
6AB0
  8
DEFPOINTS
 62
     0
 10
5475.0
 20
2750.0000000000209
 30
0.0
  0
POINT
  5
6AB1
  8
DEFPOINTS
 62
     0
 10
8525.0
 20
2750.0000000000209
 30
0.0
  0
POINT
  5
6AB2
  8
DEFPOINTS
 62
     0
 10
8525.0
 20
2250.0000000000209
 30
0.0
  0
ENDBLK
  5
6A16
  8
0
  0
BLOCK
  8
0
  2
*U17
 70
     1
 10
0.0
 20
0.0
 30
0.0
  3
*U17
  1

  0
TEXT
  5
6BB8
  8
0
 10
6906.0
 20
2280.0000000000218
 30
0.0
 40
105.0
  1
DW
 41
0.8
  7
文字
  0
ENDBLK
  5
6BBA
  8
0
  0
BLOCK
  8
0
  2
*D18
 70
     1
 10
0.0
 20
0.0
 30
0.0
  3
*D18
  1

  0
LINE
  5
6AB3
  8
0
 10
10520.0
 20
9450.0
 30
0.0
 11
10520.0
 21
9930.0
 31
0.0
  0
LINE
  5
6AB4
  8
0
 10
10670.0
 20
9450.0
 30
0.0
 11
10670.0
 21
9930.0
 31
0.0
  0
LINE
  5
6AB5
  8
0
 10
10490.0
 20
9900.0
 30
0.0
 11
10460.0
 21
9900.0
 31
0.0
  0
LINE
  5
6AB6
  8
0
 10
10700.0
 20
9900.0
 30
0.0
 11
10730.0
 21
9900.0
 31
0.0
  0
LINE
  5
6AB7
  8
0
 10
10520.0
 20
9900.0
 30
0.0
 11
10670.0
 21
9900.0
 31
0.0
  0
INSERT
  5
6AB8
  8
0
  2
_ORIGIN
 10
10520.0
 20
9900.0
 30
0.0
 41
30.0
 42
30.0
 43
30.0
  0
INSERT
  5
6AB9
  8
0
  2
_ORIGIN
 10
10670.0
 20
9900.0
 30
0.0
 41
30.0
 42
30.0
 43
30.0
 50
180.0
  0
INSERT
  5
6ABA
  8
0
  2
*U19
 10
0.0
 20
0.0
 30
0.0
  0
POINT
  5
6ABB
  8
DEFPOINTS
 62
     0
 10
10520.0
 20
9300.0
 30
0.0
  0
POINT
  5
6ABC
  8
DEFPOINTS
 62
     0
 10
10670.0
 20
9300.0
 30
0.0
  0
POINT
  5
6ABD
  8
DEFPOINTS
 62
     0
 10
10670.0
 20
9900.0
 30
0.0
  0
ENDBLK
  5
6A22
  8
0
  0
BLOCK
  8
0
  2
*U19
 70
     1
 10
0.0
 20
0.0
 30
0.0
  3
*U19
  1

  0
TEXT
  5
6BBC
  8
0
 10
10469.0
 20
9930.0
 30
0.0
 40
105.0
  1
150
 41
0.8
  7
文字
  0
ENDBLK
  5
6BBE
  8
0
  0
BLOCK
  8
0
  2
*D20
 70
     1
 10
0.0
 20
0.0
 30
0.0
  3
*D20
  1

  0
LINE
  5
6ABE
  8
0
 10
7000.0
 20
10125.0
 30
0.0
 11
7000.0
 21
10155.0
 31
0.0
  0
LINE
  5
6ABF
  8
0
 10
11020.0
 20
9450.0
 30
0.0
 11
11020.0
 21
10155.0
 31
0.0
  0
LINE
  5
6AC0
  8
0
 10
7030.0
 20
10125.0
 30
0.0
 11
10990.0
 21
10125.0
 31
0.0
  0
INSERT
  5
6AC1
  8
0
  2
_ORIGIN
 10
7000.0
 20
10125.0
 30
0.0
 41
30.0
 42
30.0
 43
30.0
 50
180.0
  0
INSERT
  5
6AC2
  8
0
  2
_ORIGIN
 10
11020.0
 20
10125.0
 30
0.0
 41
30.0
 42
30.0
 43
30.0
  0
INSERT
  5
6AC3
  8
0
  2
*U21
 10
0.0
 20
0.0
 30
0.0
  0
POINT
  5
6AC4
  8
DEFPOINTS
 62
     0
 10
7000.0
 20
9975.0
 30
0.0
  0
POINT
  5
6AC5
  8
DEFPOINTS
 62
     0
 10
11020.0
 20
9300.0
 30
0.0
  0
POINT
  5
6AC6
  8
DEFPOINTS
 62
     0
 10
11020.0
 20
10125.0
 30
0.0
  0
ENDBLK
  5
6A30
  8
0
  0
BLOCK
  8
0
  2
*U21
 70
     1
 10
0.0
 20
0.0
 30
0.0
  3
*U21
  1

  0
TEXT
  5
6BC0
  8
0
 10
8422.4000000000033
 20
10155.0
 30
0.0
 40
105.0
  1
奥行寸法D=DH+1200
 41
0.8
  7
文字
  0
ENDBLK
  5
6BC2
  8
0
  0
BLOCK
  8
0
  2
*D22
 70
     1
 10
0.0
 20
0.0
 30
0.0
  3
*D22
  1

  0
LINE
  5
6AC7
  8
0
 10
5500.0
 20
3500.0000000000209
 30
0.0
 11
5500.0
 21
3805.0000000000218
 31
0.0
  0
LINE
  5
6AC8
  8
0
 10
5290.0000000000009
 20
3500.0000000000209
 30
0.0
 11
5290.0000000000009
 21
3805.0000000000218
 31
0.0
  0
LINE
  5
6AC9
  8
0
 10
5530.0
 20
3775.0000000000218
 30
0.0
 11
5560.0
 21
3775.0000000000218
 31
0.0
  0
LINE
  5
6ACA
  8
0
 10
5260.0000000000009
 20
3775.0000000000218
 30
0.0
 11
5230.0000000000009
 21
3775.0000000000218
 31
0.0
  0
LINE
  5
6ACB
  8
0
 10
5500.0
 20
3775.0000000000218
 30
0.0
 11
5290.0000000000009
 21
3775.0000000000218
 31
0.0
  0
INSERT
  5
6ACC
  8
0
  2
_ORIGIN
 10
5500.0
 20
3775.0000000000218
 30
0.0
 41
30.0
 42
30.0
 43
30.0
 50
180.0
  0
INSERT
  5
6ACD
  8
0
  2
_ORIGIN
 10
5290.0000000000009
 20
3775.0000000000218
 30
0.0
 41
30.0
 42
30.0
 43
30.0
  0
INSERT
  5
6ACE
  8
0
  2
*U23
 10
0.0
 20
0.0
 30
0.0
  0
POINT
  5
6ACF
  8
DEFPOINTS
 62
     0
 10
5500.0
 20
3350.0000000000209
 30
0.0
  0
POINT
  5
6AD0
  8
DEFPOINTS
 62
     0
 10
5290.0000000000009
 20
3350.0000000000209
 30
0.0
  0
POINT
  5
6AD1
  8
DEFPOINTS
 62
     0
 10
5290.0000000000009
 20
3775.0000000000218
 30
0.0
  0
ENDBLK
  5
6A3C
  8
0
  0
BLOCK
  8
0
  2
*U23
 70
     1
 10
0.0
 20
0.0
 30
0.0
  3
*U23
  1

  0
TEXT
  5
6BC4
  8
0
 10
5179.3999999999996
 20
3805.0000000000218
 30
0.0
 40
105.0
  1
210以上
 41
0.8
  7
文字
  0
ENDBLK
  5
6BC6
  8
0
  0
BLOCK
  8
0
  2
*D24
 70
     1
 10
0.0
 20
0.0
 30
0.0
  3
*D24
  1

  0
LINE
  5
6AD2
  8
0
 10
8500.0
 20
3500.0000000000209
 30
0.0
 11
8500.0
 21
3805.0000000000218
 31
0.0
  0
LINE
  5
6AD3
  8
0
 10
8710.0
 20
3500.0000000000209
 30
0.0
 11
8710.0
 21
3805.0000000000218
 31
0.0
  0
LINE
  5
6AD4
  8
0
 10
8470.0
 20
3775.0000000000218
 30
0.0
 11
8440.0
 21
3775.0000000000218
 31
0.0
  0
LINE
  5
6AD5
  8
0
 10
8740.0
 20
3775.0000000000218
 30
0.0
 11
8770.0
 21
3775.0000000000218
 31
0.0
  0
LINE
  5
6AD6
  8
0
 10
8500.0
 20
3775.0000000000218
 30
0.0
 11
8710.0
 21
3775.0000000000218
 31
0.0
  0
INSERT
  5
6AD7
  8
0
  2
_ORIGIN
 10
8500.0
 20
3775.0000000000218
 30
0.0
 41
30.0
 42
30.0
 43
30.0
  0
INSERT
  5
6AD8
  8
0
  2
_ORIGIN
 10
8710.0
 20
3775.0000000000218
 30
0.0
 41
30.0
 42
30.0
 43
30.0
 50
180.0
  0
INSERT
  5
6AD9
  8
0
  2
*U25
 10
0.0
 20
0.0
 30
0.0
  0
POINT
  5
6ADA
  8
DEFPOINTS
 62
     0
 10
8500.0
 20
3350.0000000000209
 30
0.0
  0
POINT
  5
6ADB
  8
DEFPOINTS
 62
     0
 10
8710.0
 20
3350.0000000000209
 30
0.0
  0
POINT
  5
6ADC
  8
DEFPOINTS
 62
     0
 10
8710.0
 20
3775.0000000000218
 30
0.0
  0
ENDBLK
  5
6A4A
  8
0
  0
BLOCK
  8
0
  2
*U25
 70
     1
 10
0.0
 20
0.0
 30
0.0
  3
*U25
  1

  0
TEXT
  5
6BC8
  8
0
 10
8389.3999999999978
 20
3805.0000000000218
 30
0.0
 40
105.0
  1
210以上
 41
0.8
  7
文字
  0
ENDBLK
  5
6BCA
  8
0
  0
BLOCK
  8
0
  2
*D26
 70
     1
 10
0.0
 20
0.0
 30
0.0
  3
*D26
  1

  0
LINE
  5
6ADD
  8
0
 10
6500.0
 20
8800.0
 30
0.0
 11
5945.0
 21
8800.0
 31
0.0
  0
LINE
  5
6ADE
  8
0
 10
6500.0
 20
8700.0
 30
0.0
 11
5945.0
 21
8700.0
 31
0.0
  0
LINE
  5
6ADF
  8
0
 10
5975.0
 20
8830.0
 30
0.0
 11
5975.0
 21
8860.0
 31
0.0
  0
LINE
  5
6AE0
  8
0
 10
5975.0
 20
8670.0
 30
0.0
 11
5975.0
 21
8640.0
 31
0.0
  0
LINE
  5
6AE1
  8
0
 10
5975.0
 20
8800.0
 30
0.0
 11
5975.0
 21
8700.0
 31
0.0
  0
INSERT
  5
6AE2
  8
0
  2
_ORIGIN
 10
5975.0
 20
8800.0
 30
0.0
 41
30.0
 42
30.0
 43
30.0
 50
270.0
  0
INSERT
  5
6AE3
  8
0
  2
_ORIGIN
 10
5975.0
 20
8700.0
 30
0.0
 41
30.0
 42
30.0
 43
30.0
 50
90.0
  0
INSERT
  5
6AE4
  8
0
  2
*U27
 10
0.0
 20
0.0
 30
0.0
  0
POINT
  5
6AE5
  8
DEFPOINTS
 62
     0
 10
6650.0
 20
8800.0
 30
0.0
  0
POINT
  5
6AE6
  8
DEFPOINTS
 62
     0
 10
6650.0
 20
8700.0
 30
0.0
  0
POINT
  5
6AE7
  8
DEFPOINTS
 62
     0
 10
5975.0
 20
8700.0
 30
0.0
  0
ENDBLK
  5
6A58
  8
0
  0
BLOCK
  8
0
  2
*U27
 70
     1
 10
0.0
 20
0.0
 30
0.0
  3
*U27
  1

  0
TEXT
  5
6BCC
  8
0
 10
5944.9999999999991
 20
8714.0000000000018
 30
0.0
 40
105.0
  1
Y
 50
90.0
 41
0.8
  7
文字
  0
ENDBLK
  5
6BCE
  8
0
  0
BLOCK
  8
0
  2
*D28
 70
     1
 10
0.0
 20
0.0
 30
0.0
  3
*D28
  1

  0
LINE
  5
6AE8
  8
0
 10
6500.0
 20
8700.0
 30
0.0
 11
5945.0
 21
8700.0
 31
0.0
  0
LINE
  5
6AE9
  8
0
 10
5975.0
 20
5999.9999999999918
 30
0.0
 11
5944.9999999999991
 21
5999.9999999999918
 31
0.0
  0
LINE
  5
6AEA
  8
0
 10
5975.0
 20
8670.0
 30
0.0
 11
5974.9999999999991
 21
6029.9999999999927
 31
0.0
  0
INSERT
  5
6AEB
  8
0
  2
_ORIGIN
 10
5975.0
 20
8700.0
 30
0.0
 41
30.0
 42
30.0
 43
30.0
 50
90.0
  0
INSERT
  5
6AEC
  8
0
  2
_ORIGIN
 10
5974.9999999999991
 20
5999.9999999999918
 30
0.0
 41
30.0
 42
30.0
 43
30.0
 50
270.0
  0
INSERT
  5
6AED
  8
0
  2
*U29
 10
0.0
 20
0.0
 30
0.0
  0
POINT
  5
6AEE
  8
DEFPOINTS
 62
     0
 10
6650.0
 20
8700.0
 30
0.0
  0
POINT
  5
6AEF
  8
DEFPOINTS
 62
     0
 10
6125.0
 20
5999.9999999999918
 30
0.0
  0
POINT
  5
6AF0
  8
DEFPOINTS
 62
     0
 10
5974.9999999999991
 20
5999.9999999999918
 30
0.0
  0
ENDBLK
  5
6A66
  8
0
  0
BLOCK
  8
0
  2
*U29
 70
     1
 10
0.0
 20
0.0
 30
0.0
  3
*U29
  1

  0
TEXT
  5
6BD0
  8
0
 10
5944.9999999999973
 20
6915.9999999999964
 30
0.0
 40
105.0
  1
有効開口高=H-Y
 50
90.0
 41
0.8
  7
文字
  0
ENDBLK
  5
6BD2
  8
0
  0
BLOCK
  8
0
  2
*U30
 70
     1
 10
0.0
 20
0.0
 30
0.0
  3
*U30
  1

  0
INSERT
  5
6B73
  8
0
  2
_OPEN30
 10
8200.0
 20
8844.0000000000127
 30
0.0
 41
60.0
 42
60.0
 43
60.0
 50
104.9999999999998
  0
POLYLINE
  5
6B74
  8
0
 66
     1
 10
0.0
 20
0.0
 30
0.0
  0
VERTEX
  5
6CF2
  8
0
 10
8215.5291427061493
 20
8786.0444504226707
 30
0.0
  0
VERTEX
  5
6CF3
  8
0
 10
8290.5866657858824
 20
8505.9259607988351
 30
0.0
  0
VERTEX
  5
6CF4
  8
0
 10
8865.9866657858856
 20
8505.9259607988351
 30
0.0
  0
SEQEND
  5
6CF5
  8
0
  0
ENDBLK
  5
6B7A
  8
0
  0
BLOCK
  8
0
  2
*U31
 70
     1
 10
0.0
 20
0.0
 30
0.0
  3
*U31
  1

  0
INSERT
  5
6B7C
  8
0
  2
_OPEN30
 10
7409.9999999999864
 20
9030.0000000000346
 30
0.0
 41
60.0
 42
60.0
 43
60.0
 50
255.0000000000002
  0
POLYLINE
  5
6B7D
  8
0
 66
     1
 10
0.0
 20
0.0
 30
0.0
  0
VERTEX
  5
6CF6
  8
0
 10
7425.5291427061338
 20
9087.9555495773802
 30
0.0
  0
VERTEX
  5
6CF7
  8
0
 10
7487.6457135307392
 20
9319.7777478867574
 30
0.0
  0
VERTEX
  5
6CF8
  8
0
 10
8186.2457135307386
 20
9319.7777478867574
 30
0.0
  0
SEQEND
  5
6CF9
  8
0
  0
ENDBLK
  5
6B83
  8
0
  0
BLOCK
  8
0
  2
*U32
 70
     1
 10
0.0
 20
0.0
 30
0.0
  3
*U32
  1

  0
INSERT
  5
6B85
  8
0
  2
_OPEN30
 10
10620.000000000009
 20
8954.9999999999782
 30
0.0
 41
60.0
 42
60.0
 43
60.0
 50
105.0
  0
POLYLINE
  5
6B86
  8
0
 66
     1
 10
0.0
 20
0.0
 30
0.0
  0
VERTEX
  5
6CFA
  8
0
 10
10635.529142706169
 20
8897.0444504226343
 30
0.0
  0
VERTEX
  5
6CFB
  8
0
 10
10723.52761804102
 20
8568.6296694843477
 30
0.0
  0
VERTEX
  5
6CFC
  8
0
 10
11304.52761804102
 20
8568.6296694843477
 30
0.0
  0
SEQEND
  5
6CFD
  8
0
  0
ENDBLK
  5
6B8C
  8
0
  0
BLOCK
  8
0
  2
*U33
 70
     1
 10
0.0
 20
0.0
 30
0.0
  3
*U33
  1

  0
INSERT
  5
6B8E
  8
0
  2
_OPEN30
 10
10830.000000000009
 20
9039.9999999999764
 30
0.0
 41
60.0
 42
60.0
 43
60.0
 50
228.1850282262989
  0
POLYLINE
  5
6B8F
  8
0
 66
     1
 10
0.0
 20
0.0
 30
0.0
  0
VERTEX
  5
6CFE
  8
0
 10
10870.003634723949
 20
9084.7181082881543
 30
0.0
  0
VERTEX
  5
6CFF
  8
0
 10
11254.26406871194
 20
9514.2640687118928
 30
0.0
  0
VERTEX
  5
6D00
  8
0
 10
12379.26406871194
 20
9514.2640687118928
 30
0.0
  0
SEQEND
  5
6D01
  8
0
  0
ENDBLK
  5
6B95
  8
0
  0
BLOCK
  8
0
  2
*U34
 70
     1
 10
0.0
 20
0.0
 30
0.0
  3
*U34
  1

  0
INSERT
  5
6B97
  8
0
  2
_OPEN30
 10
7016.0
 20
7171.0475088412213
 30
0.0
 41
60.0
 42
60.0
 43
60.0
 50
300.00000000000028
  0
POLYLINE
  5
6B98
  8
0
 66
     1
 10
0.0
 20
0.0
 30
0.0
  0
VERTEX
  5
6D02
  8
0
 10
6986.0
 20
7223.009033068287
 30
0.0
  0
VERTEX
  5
6D03
  8
0
 10
6885.4957445612599
 20
7397.0875098650658
 30
0.0
  0
VERTEX
  5
6D04
  8
0
 10
6500.4957445612572
 20
7397.0875098650658
 30
0.0
  0
SEQEND
  5
6D05
  8
0
  0
ENDBLK
  5
6B9E
  8
0
  0
ENDSEC
  0
SECTION
  2
ENTITIES
  0
LINE
  5
6011
  8
0
 10
16380.0
 20
0.0
 30
0.0
 11
0.0
 21
0.0
 31
0.0
  0
LINE
  5
6012
  8
0
 10
0.0
 20
11745.0
 30
0.0
 11
16380.0
 21
11745.0
 31
0.0
  0
LINE
  5
6013
  8
0
 10
0.0
 20
11745.0
 30
0.0
 11
0.0
 21
0.0
 31
0.0
  0
LINE
  5
6014
  8
0
 10
16380.0
 20
11745.0
 30
0.0
 11
16380.0
 21
0.0
 31
0.0
  0
LINE
  5
68A0
  8
0
 10
10130.0
 20
400.0
 30
0.0
 11
10130.0
 21
0.0
 31
0.0
  0
TEXT
  5
68A1
  8
0
 10
10979.99999999996
 20
247.5
 30
0.0
 40
105.0
  1
オーバードア（バランス式）
 11
10979.99999999996
 21
300.0
 31
0.0
 73
     2
  0
TEXT
  5
68A2
  8
0
 10
10229.99999999996
 20
247.5
 30
0.0
 40
105.0
  1
製品名称  :
 11
10229.99999999996
 21
300.0
 31
0.0
 73
     2
  0
LINE
  5
68A3
  8
0
 10
10130.0
 20
200.0
 30
0.0
 11
13880.0
 21
200.0
 31
0.0
  0
LINE
  5
68A4
  8
0
 10
13880.0
 20
400.0
 30
0.0
 11
13880.0
 21
0.0
 31
0.0
  0
TEXT
  5
68A5
  8
0
 10
13998.33333333333
 20
112.5
 30
0.0
 40
175.0
  1
東洋シヤッター株式会社
 72
     1
 11
15130.0
 21
200.0
 31
0.0
 73
     2
  0
LINE
  5
68A6
  8
0
 10
10130.0
 20
400.0
 30
0.0
 11
16380.0
 21
400.0
 31
0.0
  0
TEXT
  5
68A7
  8
0
 10
12979.99999999996
 20
47.5
 30
0.0
 40
105.0
  1
縮尺:1/30
 11
12979.99999999996
 21
100.0
 31
0.0
 73
     2
  0
LINE
  5
68A8
  8
0
 10
5474.9999999999936
 20
2932.5
 30
0.0
 11
8524.9999999999909
 21
2932.5
 31
0.0
  0
LINE
  5
68A9
  8
0
 10
8524.9999999999909
 20
2932.5
 30
0.0
 11
8524.9999999999909
 21
2984.0
 31
0.0
  0
LINE
  5
68AA
  8
0
 10
8524.9999999999909
 20
2984.0
 30
0.0
 11
5474.9999999999936
 21
2984.0
 31
0.0
  0
LINE
  5
68AB
  8
0
 10
5474.9999999999936
 20
2984.0
 30
0.0
 11
5474.9999999999936
 21
2932.5
 31
0.0
  0
ARC
  5
68AC
  8
0
 10
8577.299999999992
 20
2997.6999999999971
 30
0.0
 40
2.299999999999998
 50
90.0
 51
180.0
  0
LINE
  5
68AD
  8
0
 10
8614.9999999999909
 20
2997.6999999999971
 30
0.0
 11
8614.9999999999909
 21
3000.0
 31
0.0
  0
LINE
  5
68AE
  8
0
 10
8577.299999999992
 20
2997.6999999999971
 30
0.0
 11
8614.9999999999909
 21
2997.6999999999971
 31
0.0
  0
LINE
  5
68AF
  8
0
 10
8577.299999999992
 20
2884.0
 30
0.0
 11
8577.299999999992
 21
2997.6999999999971
 31
0.0
  0
LINE
  5
68B0
  8
0
 10
8574.9999999999927
 20
2884.0
 30
0.0
 11
8577.299999999992
 21
2884.0
 31
0.0
  0
LINE
  5
68B1
  8
0
 10
8574.9999999999927
 20
2997.6999999999971
 30
0.0
 11
8574.9999999999927
 21
2884.0
 31
0.0
  0
LINE
  5
68B2
  8
0
 10
8614.9999999999909
 20
3000.0
 30
0.0
 11
8577.299999999992
 21
3000.0
 31
0.0
  0
ARC
  5
68B3
  8
0
 10
8562.4999999999909
 20
2886.4999999999409
 30
0.0
 40
5.7499999999704414
 50
180.0
 51
0.0
  0
ARC
  5
68B4
  8
0
 10
8562.4999999999909
 20
2921.5
 30
0.0
 40
5.7499999999704414
 50
0.0
 51
180.0
  0
LINE
  5
68B5
  8
0
 10
8556.7500000000218
 20
2886.4999999999409
 30
0.0
 11
8556.7500000000218
 21
2921.5
 31
0.0
  0
LINE
  5
68B6
  8
0
 10
8568.25000000002
 20
2921.5
 30
0.0
 11
8568.25000000002
 21
2886.4999999999409
 31
0.0
  0
ARC
  5
68B7
  8
0
 10
8568.9999999999909
 20
2889.7190997647272
 30
0.0
 40
4.0
 50
329.99999999999898
 51
0.0
  0
ARC
  5
68B8
  8
0
 10
8568.9999999999909
 20
2889.719099764734
 30
0.0
 40
6.0
 50
329.99999999999898
 51
0.0
  0
ARC
  5
68B9
  8
0
 10
8569.9999999999909
 20
2925.5
 30
0.0
 40
3.0
 50
0.0
 51
90.0
  0
ARC
  5
68BA
  8
0
 10
8569.9999999999909
 20
2925.5
 30
0.0
 40
5.0
 50
0.0
 51
90.0
  0
LINE
  5
68BB
  8
0
 10
8551.5529946162005
 20
2887.4999999999932
 30
0.0
 11
8554.4397459621468
 21
2882.5
 31
0.0
  0
LINE
  5
68BC
  8
0
 10
8553.2850454237632
 20
2888.4999999999932
 30
0.0
 11
8551.5529946162005
 21
2887.4999999999932
 31
0.0
  0
LINE
  5
68BD
  8
0
 10
8556.1717967697077
 20
2883.4999999999918
 30
0.0
 11
8553.2850454237632
 21
2888.4999999999932
 31
0.0
  0
LINE
  5
68BE
  8
0
 10
8572.4641016151309
 20
2887.7190997647272
 30
0.0
 11
8570.0282032302384
 21
2883.5000000000159
 31
0.0
  0
LINE
  5
68BF
  8
0
 10
8574.196152422699
 20
2886.719099764734
 30
0.0
 11
8571.760254037792
 21
2882.5
 31
0.0
  0
ARC
  5
68C0
  8
0
 10
8563.0999999999894
 20
2887.5
 30
0.0
 40
8.0
 50
210.00000000000091
 51
329.99999999999898
  0
ARC
  5
68C1
  8
0
 10
8563.0999999999894
 20
2887.5
 30
0.0
 40
10.0
 50
210.00000000000091
 51
329.99999999999812
  0
LINE
  5
68C2
  8
0
 10
8572.9999999999909
 20
2925.5
 30
0.0
 11
8572.9999999999909
 21
2889.7190997647272
 31
0.0
  0
LINE
  5
68C3
  8
0
 10
8549.9999999999909
 20
2928.5
 30
0.0
 11
8569.9999999999909
 21
2928.5
 31
0.0
  0
LINE
  5
68C4
  8
0
 10
8549.9999999999909
 20
2930.5
 30
0.0
 11
8549.9999999999909
 21
2928.5
 31
0.0
  0
LINE
  5
68C5
  8
0
 10
8569.9999999999909
 20
2930.5
 30
0.0
 11
8549.9999999999909
 21
2930.5
 31
0.0
  0
LINE
  5
68C6
  8
0
 10
8574.9999999999927
 20
2889.719099764734
 30
0.0
 11
8574.9999999999927
 21
2925.5
 31
0.0
  0
LINE
  5
68C7
  8
0
 10
8515.6999999999935
 20
2882.5
 30
0.0
 11
8517.9999999999909
 21
2882.5
 31
0.0
  0
LINE
  5
68C8
  8
0
 10
8451.9999999999909
 20
2882.5
 30
0.0
 11
8454.299999999992
 21
2882.5
 31
0.0
  0
LINE
  5
68C9
  8
0
 10
8428.2500000000182
 20
2897.5
 30
0.0
 11
8556.7500000000218
 21
2897.5
 31
0.0
  0
LINE
  5
68CA
  8
0
 10
8428.2500000000182
 20
2910.5
 30
0.0
 11
8428.2500000000182
 21
2897.5
 31
0.0
  0
LINE
  5
68CB
  8
0
 10
8556.7500000000218
 20
2910.5
 30
0.0
 11
8428.2500000000182
 21
2910.5
 31
0.0
  0
LINE
  5
68CC
  8
0
 10
8515.6999999999935
 20
2930.1999999999971
 30
0.0
 11
8515.6999999999935
 21
2882.5
 31
0.0
  0
LINE
  5
68CD
  8
0
 10
8454.299999999992
 20
2930.1999999999971
 30
0.0
 11
8515.6999999999935
 21
2930.1999999999971
 31
0.0
  0
LINE
  5
68CE
  8
0
 10
8454.299999999992
 20
2882.5
 30
0.0
 11
8454.299999999992
 21
2930.1999999999971
 31
0.0
  0
LINE
  5
68CF
  8
0
 10
8451.9999999999909
 20
2932.5
 30
0.0
 11
8451.9999999999909
 21
2882.5
 31
0.0
  0
LINE
  5
68D0
  8
0
 10
8517.9999999999909
 20
2932.5
 30
0.0
 11
8451.9999999999909
 21
2932.5
 31
0.0
  0
LINE
  5
68D1
  8
0
 10
8517.9999999999909
 20
2882.5
 30
0.0
 11
8517.9999999999909
 21
2932.5
 31
0.0
  0
LINE
  5
68D2
  8
0
  6
PHANTOM2
 10
8624.9999999999782
 20
2999.9999999999859
 30
0.0
 11
8624.9999999999782
 21
1500.0000000000221
 31
0.0
  0
LINE
  5
68D3
  8
0
  6
PHANTOM2
 10
8624.9999999999782
 20
1250.0000000000221
 30
0.0
 11
8549.9999999999782
 21
1250.0000000000221
 31
0.0
  0
LINE
  5
68D4
  8
0
  6
PHANTOM2
 10
8549.9999999999782
 20
1250.0000000000221
 30
0.0
 11
8549.9999999999782
 21
1450.0000000000221
 31
0.0
  0
LINE
  5
68D5
  8
0
  6
PHANTOM2
 10
8574.9999999999782
 20
1250.0000000000221
 30
0.0
 11
8574.9999999999782
 21
1450.0000000000221
 31
0.0
  0
ARC
  5
68D6
  8
0
 10
5422.6999999999935
 20
2997.6999999999971
 30
0.0
 40
2.299999999999998
 50
0.0
 51
90.0
  0
LINE
  5
68D7
  8
0
 10
5384.9999999999936
 20
2997.6999999999971
 30
0.0
 11
5384.9999999999936
 21
3000.0
 31
0.0
  0
LINE
  5
68D8
  8
0
 10
5422.6999999999935
 20
2997.6999999999971
 30
0.0
 11
5384.9999999999936
 21
2997.6999999999971
 31
0.0
  0
LINE
  5
68D9
  8
0
 10
5422.6999999999935
 20
2884.0
 30
0.0
 11
5422.6999999999935
 21
2997.6999999999971
 31
0.0
  0
LINE
  5
68DA
  8
0
 10
5424.9999999999927
 20
2884.0
 30
0.0
 11
5422.6999999999935
 21
2884.0
 31
0.0
  0
LINE
  5
68DB
  8
0
 10
5424.9999999999927
 20
2997.6999999999971
 30
0.0
 11
5424.9999999999927
 21
2884.0
 31
0.0
  0
LINE
  5
68DC
  8
0
 10
5384.9999999999936
 20
3000.0
 30
0.0
 11
5422.6999999999935
 21
3000.0
 31
0.0
  0
ARC
  5
68DD
  8
0
 10
5437.4999999999918
 20
2886.4999999999409
 30
0.0
 40
5.7499999999704414
 50
180.0
 51
0.0
  0
ARC
  5
68DE
  8
0
 10
5437.4999999999918
 20
2921.5
 30
0.0
 40
5.7499999999704414
 50
0.0
 51
180.0
  0
LINE
  5
68DF
  8
0
 10
5443.2499999999618
 20
2886.4999999999409
 30
0.0
 11
5443.2499999999618
 21
2921.5
 31
0.0
  0
LINE
  5
68E0
  8
0
 10
5431.7499999999636
 20
2921.5
 30
0.0
 11
5431.7499999999636
 21
2886.4999999999409
 31
0.0
  0
ARC
  5
68E1
  8
0
 10
5430.9999999999927
 20
2889.7190997647272
 30
0.0
 40
4.0
 50
180.0
 51
210.00000000000091
  0
ARC
  5
68E2
  8
0
 10
5430.9999999999927
 20
2889.719099764734
 30
0.0
 40
6.0
 50
180.0
 51
210.00000000000091
  0
ARC
  5
68E3
  8
0
 10
5429.9999999999918
 20
2925.5
 30
0.0
 40
3.0
 50
90.0
 51
180.0
  0
ARC
  5
68E4
  8
0
 10
5429.9999999999918
 20
2925.5
 30
0.0
 40
5.0
 50
90.0
 51
180.0
  0
LINE
  5
68E5
  8
0
 10
5448.4470053837858
 20
2887.5
 30
0.0
 11
5445.5602540378386
 21
2882.5
 31
0.0
  0
LINE
  5
68E6
  8
0
 10
5446.7149545762222
 20
2888.4999999999932
 30
0.0
 11
5448.4470053837858
 21
2887.5
 31
0.0
  0
LINE
  5
68E7
  8
0
 10
5443.828203230275
 20
2883.4999999999918
 30
0.0
 11
5446.7149545762222
 21
2888.4999999999932
 31
0.0
  0
LINE
  5
68E8
  8
0
 10
5427.5358983848564
 20
2887.7190997647272
 30
0.0
 11
5429.971796769747
 21
2883.5000000000159
 31
0.0
  0
LINE
  5
68E9
  8
0
 10
5425.8038475772837
 20
2886.719099764734
 30
0.0
 11
5428.2397459621943
 21
2882.5
 31
0.0
  0
ARC
  5
68EA
  8
0
 10
5436.8999999999942
 20
2887.5
 30
0.0
 40
8.0
 50
210.00000000000091
 51
329.99999999999898
  0
ARC
  5
68EB
  8
0
 10
5436.8999999999942
 20
2887.5
 30
0.0
 40
10.0
 50
210.0000000000019
 51
329.99999999999898
  0
LINE
  5
68EC
  8
0
 10
5426.9999999999918
 20
2925.5
 30
0.0
 11
5426.9999999999918
 21
2889.7190997647272
 31
0.0
  0
LINE
  5
68ED
  8
0
 10
5449.9999999999927
 20
2928.5
 30
0.0
 11
5429.9999999999918
 21
2928.5
 31
0.0
  0
LINE
  5
68EE
  8
0
 10
5449.9999999999927
 20
2930.5
 30
0.0
 11
5449.9999999999927
 21
2928.5
 31
0.0
  0
LINE
  5
68EF
  8
0
 10
5429.9999999999918
 20
2930.5
 30
0.0
 11
5449.9999999999927
 21
2930.5
 31
0.0
  0
LINE
  5
68F0
  8
0
 10
5424.9999999999927
 20
2889.719099764734
 30
0.0
 11
5424.9999999999927
 21
2925.5
 31
0.0
  0
LINE
  5
68F1
  8
0
 10
5484.299999999992
 20
2882.5
 30
0.0
 11
5481.9999999999927
 21
2882.5
 31
0.0
  0
LINE
  5
68F2
  8
0
 10
5547.9999999999918
 20
2882.5
 30
0.0
 11
5545.6999999999935
 21
2882.5
 31
0.0
  0
LINE
  5
68F3
  8
0
 10
5571.7499999999654
 20
2897.5
 30
0.0
 11
5443.2499999999618
 21
2897.5
 31
0.0
  0
LINE
  5
68F4
  8
0
 10
5571.7499999999654
 20
2910.5
 30
0.0
 11
5571.7499999999654
 21
2897.5
 31
0.0
  0
LINE
  5
68F5
  8
0
 10
5443.2499999999618
 20
2910.5
 30
0.0
 11
5571.7499999999654
 21
2910.5
 31
0.0
  0
LINE
  5
68F6
  8
0
 10
5484.299999999992
 20
2930.1999999999971
 30
0.0
 11
5484.299999999992
 21
2882.5
 31
0.0
  0
LINE
  5
68F7
  8
0
 10
5545.6999999999935
 20
2930.1999999999971
 30
0.0
 11
5484.299999999992
 21
2930.1999999999971
 31
0.0
  0
LINE
  5
68F8
  8
0
 10
5545.6999999999935
 20
2882.5
 30
0.0
 11
5545.6999999999935
 21
2930.1999999999971
 31
0.0
  0
LINE
  5
68F9
  8
0
 10
5547.9999999999918
 20
2932.5
 30
0.0
 11
5547.9999999999918
 21
2882.5
 31
0.0
  0
LINE
  5
68FA
  8
0
 10
5481.9999999999927
 20
2932.5
 30
0.0
 11
5547.9999999999918
 21
2932.5
 31
0.0
  0
LINE
  5
68FB
  8
0
 10
5481.9999999999927
 20
2882.5
 30
0.0
 11
5481.9999999999927
 21
2932.5
 31
0.0
  0
LINE
  5
68FC
  8
0
  6
PHANTOM2
 10
5375.0000000000073
 20
2999.9999999999859
 30
0.0
 11
5375.0000000000082
 21
1500.0000000000221
 31
0.0
  0
LINE
  5
68FD
  8
0
  6
PHANTOM2
 10
5375.0000000000073
 20
1250.0000000000221
 30
0.0
 11
5450.0000000000064
 21
1250.0000000000221
 31
0.0
  0
LINE
  5
68FE
  8
0
  6
PHANTOM2
 10
5450.0000000000064
 20
1250.0000000000221
 30
0.0
 11
5450.0000000000064
 21
1450.0000000000221
 31
0.0
  0
LINE
  5
68FF
  8
0
  6
PHANTOM2
 10
5425.0000000000064
 20
1250.0000000000221
 30
0.0
 11
5425.0000000000045
 21
1450.0000000000221
 31
0.0
  0
DIMENSION
  5
6900
  8
0
  2
*D4
 10
8500.0
 20
4000.0000000000209
 30
0.0
 11
7000.0
 21
4082.50000000002
 31
0.0
  1
W
 13
5500.0
 23
3350.0000000000209
 33
0.0
 14
8500.0
 24
3350.0000000000209
 34
0.0
1001
ACAD
1000
DSTYLE
1002
{
1070
    41
1040
1.0
1002
}
  0
LINE
  5
6901
  8
0
 10
5250.0
 20
6000.0
 30
0.0
 11
11745.0
 21
6000.0
 31
0.0
  0
DIMENSION
  5
6902
  8
0
  2
*D6
 10
5750.0
 20
6000.0
 30
0.0
 11
5667.4999999999991
 21
7400.0000000000027
 31
0.0
  1
H
 13
6650.0
 23
8800.0
 33
0.0
 14
5850.0
 24
6000.0
 34
0.0
 50
90.0
1001
ACAD
1000
DSTYLE
1002
{
1070
    41
1040
1.0
1002
}
  0
DIMENSION
  5
6903
  8
0
  2
*D8
 10
5750.0
 20
9100.0
 30
0.0
 11
5667.4999999999991
 21
8950.0000000000018
 31
0.0
  1
HR=300以上
 13
6650.0
 23
8800.0
 33
0.0
 14
6650.0
 24
9100.0
 34
0.0
 50
90.0
1001
ACAD
1000
DSTYLE
1002
{
1070
    41
1040
1.0
1002
}
  0
DIMENSION
  5
6904
  8
0
  2
*D10
 10
8000.0
 20
8840.0
 30
0.0
 11
7917.5
 21
7430.0000000000027
 31
0.0
  1
DH
 13
7250.0
 23
6020.0
 33
0.0
 14
7250.0
 24
8840.0
 34
0.0
 50
90.0
1001
ACAD
1000
DSTYLE
1002
{
1070
    41
1040
1.0
1002
}
  0
DIMENSION
  5
6905
  8
0
  2
*D12
 10
10520.0
 20
9900.0
 30
0.0
 11
8760.0
 21
9982.5000000000018
 31
0.0
  1
DH+700
 13
7000.0
 23
9750.0
 33
0.0
 14
10520.0
 24
9300.0
 34
0.0
1001
ACAD
1000
DSTYLE
1002
{
1070
    41
1040
1.0
1002
}
  0
LINE
  5
6906
  8
0
 10
7950.0
 20
8950.0
 30
0.0
 11
7950.0
 21
9100.0
 31
0.0
  0
LINE
  5
6907
  8
0
 10
7950.0
 20
9100.0
 30
0.0
 11
8050.0
 21
9100.0
 31
0.0
  0
LINE
  5
6908
  8
0
 10
8050.0
 20
9100.0
 30
0.0
 11
8050.0
 21
8950.0
 31
0.0
  0
DIMENSION
  5
6909
  8
0
  2
*D14
 10
11320.0
 20
9100.0
 30
0.0
 11
11237.499999999991
 21
9045.0
 31
0.0
 13
11020.0
 23
8990.0
 33
0.0
 14
11169.999999999991
 24
9100.0
 34
0.0
 50
90.0
1001
ACAD
1000
DSTYLE
1002
{
1070
    41
1040
1.0
1002
}
  0
LINE
  5
690A
  8
0
 10
5500.0
 20
1500.0000000000221
 30
0.0
 11
5325.0
 21
1500.0000000000221
 31
0.0
  0
LINE
  5
690B
  8
0
 10
5500.0
 20
1450.0000000000221
 30
0.0
 11
5325.0
 21
1450.0000000000221
 31
0.0
  0
LINE
  5
690C
  8
0
  6
PHANTOM2
 10
5375.0000000000082
 20
1450.0000000000221
 30
0.0
 11
5375.0000000000073
 21
1250.0000000000221
 31
0.0
  0
LINE
  5
690D
  8
0
  6
PHANTOM2
 10
5425.0000000000045
 20
1500.0000000000221
 30
0.0
 11
5424.9999999999927
 21
2889.719099764734
 31
0.0
  0
LINE
  5
690E
  8
0
  6
PHANTOM2
 10
5450.0000000000064
 20
1500.0000000000221
 30
0.0
 11
5450.0000000000064
 21
2889.719099764734
 31
0.0
  0
LINE
  5
690F
  8
0
 10
8674.9999999999727
 20
1500.0000000000221
 30
0.0
 11
8499.9999999999709
 21
1500.0000000000221
 31
0.0
  0
LINE
  5
6910
  8
0
 10
8674.9999999999727
 20
1450.0000000000221
 30
0.0
 11
8499.9999999999709
 21
1450.0000000000221
 31
0.0
  0
LINE
  5
6911
  8
0
  6
PHANTOM2
 10
8624.9999999999782
 20
1450.0000000000221
 30
0.0
 11
8624.9999999999782
 21
1250.0000000000221
 31
0.0
  0
LINE
  5
6912
  8
0
  6
PHANTOM2
 10
8549.9999999999818
 20
1500.0000000000221
 30
0.0
 11
8549.9999999999782
 21
2889.719099764734
 31
0.0
  0
LINE
  5
6913
  8
0
  6
PHANTOM2
 10
8574.9999999999782
 20
1500.0000000000221
 30
0.0
 11
8574.9999999999927
 21
2889.719099764734
 31
0.0
  0
DIMENSION
  5
6914
  8
0
  2
*D16
 10
8525.0
 20
2250.0000000000209
 30
0.0
 11
7000.0
 21
2332.5000000000209
 31
0.0
  1
DW
 13
5475.0
 23
2750.0000000000209
 33
0.0
 14
8525.0
 24
2750.0000000000209
 34
0.0
1001
ACAD
1000
DSTYLE
1002
{
1070
    41
1040
1.0
1002
}
  0
TEXT
  5
6915
  8
0
 10
8343.0866657858824
 20
8535.9259607988333
 30
0.0
 40
105.0
  1
水平レール
 41
0.8
  7
横文字
 72
     1
 11
8578.2866657858831
 21
8535.9259607988333
 31
0.0
  0
INSERT
  5
6916
  8
0
  2
*U30
 10
0.0
 20
0.0
 30
0.0
  0
LINE
  5
6917
  8
0
 10
7016.0
 20
8839.9999999999709
 30
0.0
 11
7067.4999999999991
 21
8839.9999999999709
 31
0.0
  0
LINE
  5
6918
  8
0
 10
7067.4999999999991
 20
8839.9999999999709
 30
0.0
 11
7067.4999999999991
 21
6019.9999999999691
 31
0.0
  0
LINE
  5
6919
  8
0
 10
7067.4999999999991
 20
6019.9999999999691
 30
0.0
 11
7016.0
 21
6019.9999999999691
 31
0.0
  0
LINE
  5
691A
  8
0
 10
7016.0
 20
6019.9999999999691
 30
0.0
 11
7016.0
 21
8839.9999999999709
 31
0.0
  0
LINE
  5
691B
  8
0
 10
7103.9999999999927
 20
6000.0
 30
0.0
 11
7132.8083006708639
 21
8448.7055567207335
 31
0.0
  0
LINE
  5
691C
  8
0
  6
HIDDEN
 10
7050.9963323068287
 20
6000.0
 30
0.0
 11
7067.4999999999991
 21
7402.8117537458647
 31
0.0
  0
LINE
  5
691D
  8
0
 10
7067.4999999999991
 20
7402.8117537458647
 30
0.0
 11
7079.8119681102316
 21
8449.32904298623
 31
0.0
  0
LINE
  5
691E
  8
0
 10
7092.9992387806551
 20
6000.0
 30
0.0
 11
7121.8090618375209
 21
8448.8349595305554
 31
0.0
  0
LINE
  5
691F
  8
0
 10
10520.0
 20
8844.0000000000055
 30
0.0
 11
10520.0
 21
8950.0
 31
0.0
  0
LINE
  5
6920
  8
0
 10
7325.1619968365703
 20
8908.0
 30
0.0
 11
10520.0
 21
8908.0
 31
0.0
  0
LINE
  5
6921
  8
0
 10
7325.1619968365703
 20
8897.0
 30
0.0
 11
10520.0
 21
8897.0
 31
0.0
  0
LINE
  5
6922
  8
0
 10
7532.7806218831547
 20
8855.0000000000055
 30
0.0
 11
10520.0
 21
8855.0000000000055
 31
0.0
  0
LINE
  5
6923
  8
0
 10
7532.7806218831547
 20
8844.0000000000127
 30
0.0
 11
10520.0
 21
8844.0000000000055
 31
0.0
  0
ARC
  5
6924
  8
0
 10
7532.7806218831502
 20
8444.0000000000127
 30
0.0
 40
400.0
 50
90.0
 51
179.3259631019319
  0
ARC
  5
6925
  8
0
 10
7532.7806218831547
 20
8444.0000000000055
 30
0.0
 40
453.0
 50
90.0
 51
179.3259631019319
  0
ARC
  5
6926
  8
0
 10
7325.1619968365703
 20
8497.0
 30
0.0
 40
400.0
 50
90.0
 51
134.9660822255662
  0
ARC
  5
6927
  8
0
 10
7325.1619968365703
 20
8497.0
 30
0.0
 40
453.0
 50
90.0
 51
134.97005159927789
  0
LINE
  5
6928
  8
0
 10
7005.0100990677956
 20
8817.4867584706953
 30
0.0
 11
7042.4968575384919
 21
8780.0
 31
0.0
  0
ARC
  5
6929
  8
0
 10
7532.7806218831502
 20
8444.0000000000127
 30
0.0
 40
411.0
 50
90.0
 51
179.3259631019319
  0
ARC
  5
692A
  8
0
 10
7325.1619968365703
 20
8497.0
 30
0.0
 40
411.0
 50
90.0
 51
134.96699117849471
  0
DIMENSION
  5
692B
  8
0
  2
*D18
 10
10670.0
 20
9900.0
 30
0.0
 11
10595.0
 21
9982.5000000000018
 31
0.0
 13
10520.0
 23
9300.0
 33
0.0
 14
10670.0
 24
9300.0
 34
0.0
1001
ACAD
1000
DSTYLE
1002
{
1070
    41
1040
1.0
1002
}
  0
DIMENSION
  5
692C
  8
0
  2
*D20
 10
11020.0
 20
10125.0
 30
0.0
 11
9010.0
 21
10207.5
 31
0.0
  1
奥行寸法D=DH+1200
 13
7000.0
 23
9975.0
 33
0.0
 14
11020.0
 24
9300.0
 34
0.0
1001
ACAD
1000
DSTYLE
1002
{
1070
    41
1040
1.0
1002
}
  0
LINE
  5
692D
  8
0
 10
10520.0
 20
8950.0
 30
0.0
 11
7325.1619968365703
 21
8950.0
 31
0.0
  0
LINE
  5
692E
  8
0
 10
9150.0
 20
8950.0
 30
0.0
 11
9150.0
 21
9100.0
 31
0.0
  0
LINE
  5
692F
  8
0
 10
9150.0
 20
9100.0
 30
0.0
 11
9250.0
 21
9100.0
 31
0.0
  0
LINE
  5
6930
  8
0
 10
9250.0
 20
9100.0
 30
0.0
 11
9250.0
 21
8950.0
 31
0.0
  0
TEXT
  5
6931
  8
0
 10
7540.1457135307382
 20
9349.7777478867574
 30
0.0
 40
105.0
  1
ワイヤシーブ
 41
0.8
  7
横文字
 72
     1
 11
7836.9457135307384
 21
9349.7777478867574
 31
0.0
  0
INSERT
  5
6932
  8
0
  2
*U31
 10
0.0
 20
0.0
 30
0.0
  0
LINE
  5
6933
  8
0
 10
7269.9999999999864
 20
9080.0000000000346
 30
0.0
 11
7459.9999999999864
 21
9080.0000000000346
 31
0.0
  0
LINE
  5
6934
  8
0
 10
7459.9999999999864
 20
9080.0000000000346
 30
0.0
 11
7459.9999999999864
 21
8950.0
 31
0.0
  0
LINE
  5
6935
  8
0
 10
7269.9999999999809
 20
8950.0
 30
0.0
 11
7269.9999999999864
 21
9080.0000000000346
 31
0.0
  0
CIRCLE
  5
6936
  8
0
  6
HIDDEN2
 10
7365.0
 20
9015.0
 30
0.0
 40
59.0
  0
CIRCLE
  5
6937
  8
0
  6
HIDDEN2
 10
7365.0
 20
9015.0
 30
0.0
 40
50.0
  0
LINE
  5
6938
  8
0
  6
CENTER2
 10
7365.0
 20
9090.0
 30
0.0
 11
7365.0
 21
8940.0
 31
0.0
  0
LINE
  5
6939
  8
0
  6
CENTER2
 10
7290.0
 20
9015.0
 30
0.0
 11
7440.0
 21
9015.0
 31
0.0
  0
LINE
  5
693A
  8
0
  6
CENTER2
 10
5250.0
 20
1100.0000000000221
 30
0.0
 11
8750.0
 21
1100.0000000000221
 31
0.0
  0
LINE
  5
693B
  8
0
  6
PHANTOM2
 10
8575.0
 20
1021.000000000029
 30
0.0
 11
8575.0
 21
1179.0000000000291
 31
0.0
  0
LINE
  5
693C
  8
0
  6
PHANTOM2
 10
8575.0
 20
1021.000000000029
 30
0.0
 11
8590.0000000000055
 21
1035.0000000000221
 31
0.0
  0
LINE
  5
693D
  8
0
  6
PHANTOM2
 10
8590.0000000000055
 20
1035.0000000000221
 30
0.0
 11
8670.0000000000073
 21
1035.0000000000221
 31
0.0
  0
LINE
  5
693E
  8
0
  6
PHANTOM2
 10
8670.0000000000073
 20
1035.0000000000221
 30
0.0
 11
8670.0000000000073
 21
1165.0000000000221
 31
0.0
  0
LINE
  5
693F
  8
0
  6
PHANTOM2
 10
8670.0000000000073
 20
1165.0000000000221
 30
0.0
 11
8590.0000000000055
 21
1165.0000000000221
 31
0.0
  0
LINE
  5
6940
  8
0
  6
PHANTOM2
 10
8590.0000000000055
 20
1165.0000000000221
 30
0.0
 11
8575.0000000000055
 21
1179.0000000000291
 31
0.0
  0
LINE
  5
6941
  8
0
  6
PHANTOM2
 10
5425.0
 20
1021.000000000029
 30
0.0
 11
5425.0
 21
1179.0000000000291
 31
0.0
  0
LINE
  5
6942
  8
0
  6
PHANTOM2
 10
5425.0
 20
1021.000000000029
 30
0.0
 11
5409.9999999999927
 21
1035.0000000000221
 31
0.0
  0
LINE
  5
6943
  8
0
  6
PHANTOM2
 10
5409.9999999999927
 20
1035.0000000000221
 30
0.0
 11
5329.9999999999918
 21
1035.0000000000221
 31
0.0
  0
LINE
  5
6944
  8
0
  6
PHANTOM2
 10
5329.9999999999918
 20
1035.0000000000221
 30
0.0
 11
5329.9999999999918
 21
1165.0000000000221
 31
0.0
  0
LINE
  5
6945
  8
0
  6
PHANTOM2
 10
5329.9999999999918
 20
1165.0000000000221
 30
0.0
 11
5409.9999999999927
 21
1165.0000000000221
 31
0.0
  0
LINE
  5
6946
  8
0
  6
PHANTOM2
 10
5409.9999999999927
 20
1165.0000000000221
 30
0.0
 11
5424.9999999999927
 21
1179.0000000000291
 31
0.0
  0
LINE
  5
6947
  8
0
  6
PHANTOM2
 10
5302.0
 20
1112.4000000000451
 30
0.0
 11
5329.9999999999918
 21
1112.4000000000451
 31
0.0
  0
LINE
  5
6948
  8
0
  6
PHANTOM2
 10
8700.0
 20
1110.4000000000451
 30
0.0
 11
8700.0
 21
1089.600000000049
 31
0.0
  0
LINE
  5
6949
  8
0
  6
PHANTOM2
 10
8698.0
 20
1087.600000000049
 30
0.0
 11
8670.0000000000073
 21
1087.600000000049
 31
0.0
  0
LINE
  5
694A
  8
0
  6
PHANTOM2
 10
5300.0
 20
1089.600000000049
 30
0.0
 11
5300.0
 21
1110.4000000000451
 31
0.0
  0
LINE
  5
694B
  8
0
  6
PHANTOM2
 10
8698.0
 20
1112.4000000000451
 30
0.0
 11
8700.0
 21
1110.4000000000451
 31
0.0
  0
LINE
  5
694C
  8
0
  6
PHANTOM2
 10
8700.0
 20
1089.600000000049
 30
0.0
 11
8698.0
 21
1087.600000000049
 31
0.0
  0
LINE
  5
694D
  8
0
  6
PHANTOM2
 10
5302.0
 20
1112.4000000000451
 30
0.0
 11
5300.0
 21
1110.4000000000451
 31
0.0
  0
LINE
  5
694E
  8
0
  6
PHANTOM2
 10
5302.0
 20
1087.600000000049
 30
0.0
 11
5300.0
 21
1089.600000000049
 31
0.0
  0
LINE
  5
694F
  8
0
  6
PHANTOM2
 10
5425.0
 20
1112.4000000000451
 30
0.0
 11
6012.3999999999987
 21
1112.4000000000451
 31
0.0
  0
LINE
  5
6950
  8
0
  6
PHANTOM2
 10
5329.9999999999918
 20
1087.600000000049
 30
0.0
 11
5302.0
 21
1087.600000000049
 31
0.0
  0
LINE
  5
6951
  8
0
  6
PHANTOM2
 10
8670.0000000000073
 20
1112.4000000000451
 30
0.0
 11
8698.0
 21
1112.4000000000451
 31
0.0
  0
LINE
  5
6952
  8
0
  6
PHANTOM2
 10
8575.0
 20
1087.600000000049
 30
0.0
 11
7987.6000000000004
 21
1087.600000000049
 31
0.0
  0
LINE
  5
6953
  8
0
 10
8100.0
 20
1200.0000000000509
 30
0.0
 11
7900.0
 21
1000.000000000051
 31
0.0
  0
LINE
  5
6954
  8
0
 10
6100.0
 20
1200.0000000000509
 30
0.0
 11
5900.0
 21
1000.000000000051
 31
0.0
  0
LINE
  5
6955
  8
0
  6
PHANTOM2
 10
8012.3999999999969
 20
1112.4000000000451
 30
0.0
 11
8575.0
 21
1112.4000000000451
 31
0.0
  0
LINE
  5
6956
  8
0
  6
PHANTOM2
 10
5987.6000000000004
 20
1087.600000000049
 30
0.0
 11
5425.0
 21
1087.600000000049
 31
0.0
  0
TEXT
  5
6957
  8
0
 10
10776.02761804102
 20
8598.6296694843477
 30
0.0
 40
105.0
  1
巻取ドラム
 41
0.8
  7
横文字
 72
     1
 11
11014.02761804102
 21
8598.6296694843477
 31
0.0
  0
INSERT
  5
6958
  8
0
  2
*U32
 10
0.0
 20
0.0
 30
0.0
  0
DIMENSION
  5
6959
  8
0
  2
*D22
 10
5290.0000000000009
 20
3775.0000000000218
 30
0.0
 11
5395.0
 21
3857.5000000000218
 31
0.0
  1
210以上
 13
5500.0
 23
3350.0000000000209
 33
0.0
 14
5290.0000000000009
 24
3350.0000000000209
 34
0.0
1001
ACAD
1000
DSTYLE
1002
{
1070
    41
1040
1.0
1002
}
  0
DIMENSION
  5
695A
  8
0
  2
*D24
 10
8710.0
 20
3775.0000000000218
 30
0.0
 11
8605.0
 21
3857.5000000000218
 31
0.0
  1
210以上
 13
8500.0
 23
3350.0000000000209
 33
0.0
 14
8710.0
 24
3350.0000000000209
 34
0.0
1001
ACAD
1000
DSTYLE
1002
{
1070
    41
1040
1.0
1002
}
  0
LINE
  5
695B
  8
0
 10
10780.000000000009
 20
9074.9999999999782
 30
0.0
 11
10780.000000000009
 21
8904.9999999999782
 31
0.0
  0
LINE
  5
695C
  8
0
 10
10780.000000000009
 20
8904.9999999999782
 30
0.0
 11
10590.000000000009
 21
8904.9999999999782
 31
0.0
  0
LINE
  5
695D
  8
0
 10
10570.000000000009
 20
8924.9999999999782
 30
0.0
 11
10570.000000000009
 21
8972.5000000000018
 31
0.0
  0
LINE
  5
695E
  8
0
 10
10590.000000000009
 20
9074.9999999999782
 30
0.0
 11
10780.000000000009
 21
9074.9999999999782
 31
0.0
  0
LINE
  5
695F
  8
0
 10
10590.000000000009
 20
9074.9999999999782
 30
0.0
 11
10570.000000000009
 21
9054.9999999999782
 31
0.0
  0
LINE
  5
6960
  8
0
 10
10570.000000000009
 20
8924.9999999999782
 30
0.0
 11
10590.000000000009
 21
8904.9999999999782
 31
0.0
  0
LINE
  5
6961
  8
0
 10
10776.80000000001
 20
9074.9999999999782
 30
0.0
 11
10776.80000000001
 21
8904.9999999999782
 31
0.0
  0
CIRCLE
  5
6962
  8
0
 10
10670.0
 20
8990.0
 30
0.0
 40
79.0
  0
LINE
  5
6963
  8
0
 10
10570.000000000009
 20
9007.5
 30
0.0
 11
10592.96267138588
 21
9007.5
 31
0.0
  0
LINE
  5
6964
  8
0
 10
10592.96267138588
 20
8972.5000000000018
 30
0.0
 11
10570.000000000009
 21
8972.5000000000018
 31
0.0
  0
LINE
  5
6965
  8
0
 10
10570.000000000009
 20
9007.5
 30
0.0
 11
10570.000000000009
 21
9054.9999999999782
 31
0.0
  0
LINE
  5
6966
  8
0
  6
CENTER2
 10
10570.0
 20
8990.0
 30
0.0
 11
10770.0
 21
8990.0
 31
0.0
  0
LINE
  5
6967
  8
0
  6
CENTER2
 10
10670.0
 20
9090.0
 30
0.0
 11
10670.0
 21
8890.0
 31
0.0
  0
LINE
  5
6968
  8
0
 10
7325.1619968365703
 20
8950.0
 30
0.0
 11
7000.0
 21
8950.0
 31
0.0
  0
LINE
  5
6969
  8
0
 10
7116.0
 20
8621.4906003784272
 30
0.0
 11
7116.0
 21
8837.9563888231787
 31
0.0
  0
LINE
  5
696A
  8
0
 10
7331.850285696697
 20
8850.0
 30
0.0
 11
7137.0370383648133
 21
8850.0
 31
0.0
  0
LINE
  5
696B
  8
0
 10
7116.0
 20
8898.8211779875965
 30
0.0
 11
7116.0
 21
8950.0
 31
0.0
  0
LINE
  5
696C
  8
0
  6
PHANTOM2
 10
6850.0
 20
10425.0
 30
0.0
 11
6850.0
 21
8800.0
 31
0.0
  0
LINE
  5
696D
  8
0
  6
PHANTOM2
 10
6850.0
 20
8800.0
 30
0.0
 11
7000.0
 21
8800.0
 31
0.0
  0
LINE
  5
696E
  8
0
  6
PHANTOM2
 10
7000.0
 20
8800.0
 30
0.0
 11
7000.0
 21
9100.0
 31
0.0
  0
LINE
  5
696F
  8
0
  6
PHANTOM2
 10
7000.0
 20
9100.0
 30
0.0
 11
11745.0
 21
9100.0
 31
0.0
  0
LINE
  5
6970
  8
0
  6
PHANTOM2
 10
11745.0
 20
9250.0
 30
0.0
 11
7000.0
 21
9250.0
 31
0.0
  0
LINE
  5
6971
  8
0
  6
PHANTOM2
 10
7000.0
 20
9250.0
 30
0.0
 11
7000.0
 21
10425.0
 31
0.0
  0
LINE
  5
6972
  8
0
  6
PHANTOM2
 10
5500.0
 20
3150.0
 30
0.0
 11
5500.0
 21
3000.0
 31
0.0
  0
LINE
  5
6973
  8
0
  6
PHANTOM2
 10
8500.0
 20
3150.0
 30
0.0
 11
8500.0
 21
3000.0
 31
0.0
  0
LINE
  5
6974
  8
0
  6
PHANTOM2
 10
4500.0
 20
3000.0
 30
0.0
 11
5500.0
 21
3000.0
 31
0.0
  0
LINE
  5
6975
  8
0
  6
PHANTOM2
 10
4500.0
 20
3150.0
 30
0.0
 11
5500.0
 21
3150.0
 31
0.0
  0
LINE
  5
6976
  8
0
  6
PHANTOM2
 10
8500.0
 20
3150.0
 30
0.0
 11
9500.0
 21
3150.0
 31
0.0
  0
LINE
  5
6977
  8
0
  6
PHANTOM2
 10
8500.0
 20
3000.0
 30
0.0
 11
9500.0
 21
3000.0
 31
0.0
  0
ARC
  5
6978
  8
0
 10
10875.400000000011
 20
8944.5999999999785
 30
0.0
 40
4.5999999999999979
 50
270.0
 51
0.0
  0
ARC
  5
6979
  8
0
 10
10875.400000000011
 20
8944.5999999999785
 30
0.0
 40
2.299999999999998
 50
270.0
 51
0.0
  0
ARC
  5
697A
  8
0
 10
10784.600000000009
 20
8944.5999999999785
 30
0.0
 40
4.5999999999999979
 50
180.0
 51
270.0
  0
ARC
  5
697B
  8
0
 10
10784.600000000009
 20
8944.5999999999785
 30
0.0
 40
2.299999999999998
 50
180.0
 51
270.0
  0
LINE
  5
697C
  8
0
 10
10875.400000000011
 20
8939.9999999999782
 30
0.0
 11
10784.600000000009
 21
8939.9999999999782
 31
0.0
  0
LINE
  5
697D
  8
0
 10
10880.000000000009
 20
9035.3999999999796
 30
0.0
 11
10880.000000000009
 21
8944.5999999999785
 31
0.0
  0
LINE
  5
697E
  8
0
 10
10877.70000000001
 20
8944.5999999999785
 30
0.0
 11
10877.70000000001
 21
9035.3999999999796
 31
0.0
  0
LINE
  5
697F
  8
0
 10
10784.600000000009
 20
8942.2999999999738
 30
0.0
 11
10875.400000000011
 21
8942.2999999999738
 31
0.0
  0
LINE
  5
6980
  8
0
 10
10782.30000000001
 20
9035.3999999999796
 30
0.0
 11
10782.30000000001
 21
8944.5999999999785
 31
0.0
  0
LINE
  5
6981
  8
0
 10
10780.000000000009
 20
8944.5999999999785
 30
0.0
 11
10780.000000000009
 21
9035.3999999999796
 31
0.0
  0
ARC
  5
6982
  8
0
 10
10875.400000000011
 20
9035.3999999999796
 30
0.0
 40
4.5999999999999979
 50
0.0
 51
90.0
  0
ARC
  5
6983
  8
0
 10
10875.400000000011
 20
9035.3999999999796
 30
0.0
 40
2.299999999999998
 50
0.0
 51
90.0
  0
ARC
  5
6984
  8
0
 10
10784.600000000009
 20
9035.3999999999796
 30
0.0
 40
4.5999999999999979
 50
90.0
 51
180.0
  0
ARC
  5
6985
  8
0
 10
10784.600000000009
 20
9035.3999999999796
 30
0.0
 40
2.299999999999998
 50
90.0
 51
180.0
  0
LINE
  5
6986
  8
0
 10
10875.400000000011
 20
9039.9999999999764
 30
0.0
 11
10784.600000000009
 21
9039.9999999999764
 31
0.0
  0
LINE
  5
6987
  8
0
 10
10784.600000000009
 20
9037.6999999999753
 30
0.0
 11
10875.400000000011
 21
9037.6999999999753
 31
0.0
  0
TEXT
  5
6988
  8
0
 10
11306.76406871194
 20
9544.2640687118928
 30
0.0
 40
105.0
  1
□-100x100x2.3
 41
0.8
  7
横文字
 72
     1
 11
11816.76406871194
 21
9544.2640687118928
 31
0.0
  0
TEXT
  5
6989
  8
0
 10
11475.16406871194
 20
9364.2640687118928
 30
0.0
 40
105.0
  1
（当社工事外）
 41
0.8
  7
横文字
 72
     1
 11
11816.76406871194
 21
9364.2640687118928
 31
0.0
  0
INSERT
  5
698A
  8
0
  2
*U33
 10
0.0
 20
0.0
 30
0.0
  0
LINE
  5
698B
  8
0
  6
PHANTOM2
 10
7067.4999999999991
 20
6019.9999999999691
 30
0.0
 11
7306.0
 21
9015.0
 31
0.0
  0
TEXT
  5
698C
  8
0
 10
10979.999999999971
 20
47.5
 30
0.0
 40
105.0
  1
ローヘッド
 11
10979.999999999971
 21
100.0
 31
0.0
 73
     2
  0
TEXT
  5
698D
  8
0
 10
10229.999999999971
 20
47.5
 30
0.0
 40
105.0
  1
納まり　  :
 11
10229.999999999971
 21
100.0
 31
0.0
 73
     2
  0
TEXT
  5
698E
  8
0
 10
6552.9957445612581
 20
7427.0875098650658
 30
0.0
 40
105.0
  1
パネル
 41
0.8
  7
文字
 72
     1
 11
6692.9957445612581
 21
7427.0875098650658
 31
0.0
  0
INSERT
  5
698F
  8
0
  2
*U34
 10
0.0
 20
0.0
 30
0.0
  0
DIMENSION
  5
6990
  8
0
  2
*D26
 10
5975.0
 20
8700.0
 30
0.0
 11
5892.4999999999991
 21
8750.0000000000018
 31
0.0
  1
Y
 13
6650.0
 23
8800.0
 33
0.0
 14
6650.0
 24
8700.0
 34
0.0
 50
90.0
1001
ACAD
1000
DSTYLE
1002
{
1070
    41
1040
1.0
1002
}
  0
DIMENSION
  5
6991
  8
0
  2
*D28
 10
5974.9999999999991
 20
5999.9999999999918
 30
0.0
 11
5892.4999999999982
 21
7349.9999999999973
 31
0.0
  1
有効開口高=H-Y
 13
6650.0
 23
8700.0
 33
0.0
 14
6125.0
 24
5999.9999999999918
 34
0.0
 50
90.0
1001
ACAD
1000
DSTYLE
1002
{
1070
    41
1040
1.0
1002
}
  0
TEXT
  5
6992
  8
0
 10
13460.4
 20
10647.5
 30
0.0
 40
105.0
  1
標準
 41
0.8
  7
文字
 72
     1
 11
13550.0
 21
10700.0
 31
0.0
 73
     2
  0
TEXT
  5
6993
  8
0
 10
13064.0
 20
10447.5
 30
0.0
 40
105.0
  1
Y
 41
0.8
  7
文字
 72
     1
 11
13100.0
 21
10500.0
 31
0.0
 73
     2
  0
LINE
  5
6994
  8
0
 10
15800.0
 20
10800.0
 30
0.0
 11
13300.0
 21
10800.0
 31
0.0
  0
LINE
  5
6995
  8
0
 10
12900.0
 20
11000.0
 30
0.0
 11
12900.0
 21
10400.0
 31
0.0
  0
LINE
  5
6996
  8
0
 10
15800.0
 20
10600.0
 30
0.0
 11
12900.0
 21
10600.0
 31
0.0
  0
LINE
  5
6997
  8
0
 10
12900.0
 20
10400.0
 30
0.0
 11
15800.0
 21
10400.0
 31
0.0
  0
LINE
  5
6998
  8
0
 10
13300.0
 20
11000.0
 30
0.0
 11
13300.0
 21
10400.0
 31
0.0
  0
LINE
  5
6999
  8
0
 10
14300.0
 20
11000.0
 30
0.0
 11
14300.0
 21
10400.0
 31
0.0
  0
TEXT
  5
699A
  8
0
 10
13510.0
 20
10447.5
 30
0.0
 40
105.0
  1
0
 41
0.8
  7
文字
 72
     1
 11
13550.0
 21
10500.0
 31
0.0
 73
     2
  0
TEXT
  5
699B
  8
0
 10
13458.4
 20
10847.5
 30
0.0
 40
105.0
  1
スチールパネル
 41
0.8
  7
文字
 72
     1
 11
13800.0
 21
10900.0
 31
0.0
 73
     2
  0
TEXT
  5
699C
  8
0
 10
14460.4
 20
10647.5
 30
0.0
 40
105.0
  1
標準
 41
0.8
  7
文字
 72
     1
 11
14550.0
 21
10700.0
 31
0.0
 73
     2
  0
LINE
  5
699D
  8
0
 10
14800.0
 20
10800.0
 30
0.0
 11
14800.0
 21
10400.0
 31
0.0
  0
TEXT
  5
699E
  8
0
 10
14871.200000000001
 20
10647.5
 30
0.0
 40
105.0
  1
ワイド1
 41
0.8
  7
文字
 72
     1
 11
15050.0
 21
10700.0
 31
0.0
 73
     2
  0
LINE
  5
699F
  8
0
 10
15300.0
 20
10800.0
 30
0.0
 11
15300.0
 21
10400.0
 31
0.0
  0
TEXT
  5
69A0
  8
0
 10
15359.200000000001
 20
10647.5
 30
0.0
 40
105.0
  1
ワイド2
 41
0.8
  7
文字
 72
     1
 11
15550.0
 21
10700.0
 31
0.0
 73
     2
  0
LINE
  5
69A1
  8
0
 10
15800.0
 20
11000.0
 30
0.0
 11
15800.0
 21
10400.0
 31
0.0
  0
TEXT
  5
69A2
  8
0
 10
14437.200000000001
 20
10847.5
 30
0.0
 40
105.0
  1
アルミパネル・FRPパネル
 41
0.8
  7
文字
 72
     1
 11
15050.0
 21
10900.0
 31
0.0
 73
     2
  0
LINE
  5
69A3
  8
0
 10
15800.0
 20
11000.0
 30
0.0
 11
12900.0
 21
11000.0
 31
0.0
  0
TEXT
  5
69A4
  8
0
 10
14510.0
 20
10447.5
 30
0.0
 40
105.0
  1
0
 41
0.8
  7
文字
 72
     1
 11
14550.0
 21
10500.0
 31
0.0
 73
     2
  0
TEXT
  5
69A5
  8
0
 10
14970.0
 20
10447.5
 30
0.0
 40
105.0
  1
80
 41
0.8
  7
文字
 72
     1
 11
15050.0
 21
10500.0
 31
0.0
 73
     2
  0
TEXT
  5
69A6
  8
0
 10
15424.0
 20
10447.5
 30
0.0
 40
105.0
  1
110
 41
0.8
  7
文字
 72
     1
 11
15550.0
 21
10500.0
 31
0.0
 73
     2
  0
LINE
  5
69A7
  8
0
 10
12900.0
 20
11000.0
 30
0.0
 11
13300.0
 21
10600.0
 31
0.0
  0
TEXT
  5
69A8
  8
0
 10
12900.0
 20
11047.5
 30
0.0
 40
105.0
  1
有効開口高=H-Y
 41
0.8
  7
文字
 11
12900.0
 21
11100.0
 31
0.0
 73
     2
  0
LINE
  5
69A9
  8
0
 10
13800.0
 20
10800.0
 30
0.0
 11
13800.0
 21
10400.0
 31
0.0
  0
TEXT
  5
69AA
  8
0
 10
13910.0
 20
10647.5
 30
0.0
 40
105.0
  1
補強付
 41
0.8
  7
文字
 72
     1
 11
14050.0
 21
10700.0
 31
0.0
 73
     2
  0
TEXT
  5
69AB
  8
0
 10
13970.0
 20
10447.5
 30
0.0
 40
105.0
  1
55
 41
0.8
  7
文字
 72
     1
 11
14050.0
 21
10500.0
 31
0.0
 73
     2
  0
TEXT
  5
69AC
  8
0
 10
15431.200000000001
 20
11047.5
 30
0.0
 40
105.0
  1
（mm）
 41
0.8
  7
文字
 72
     2
 11
15800.0
 21
11100.0
 31
0.0
 73
     2
  0
LINE
  5
69AD
  8
0
  6
PHANTOM2
 10
7070.6999999999989
 20
6222.5000000000073
 30
0.0
 11
7067.4999999999991
 21
6222.5000000000073
 31
0.0
  0
LINE
  5
69AE
  8
0
  6
PHANTOM2
 10
7067.4999999999991
 20
6222.5000000000073
 30
0.0
 11
7067.4999999999991
 21
6026.7999999999802
 31
0.0
  0
LINE
  5
69AF
  8
0
  6
PHANTOM2
 10
7070.6999999999989
 20
6224.4969790327668
 30
0.0
 11
7070.6999999999989
 21
6222.5000000000073
 31
0.0
  0
LINE
  5
69B0
  8
0
  6
PHANTOM2
 10
7070.7000000000016
 20
6190.5000000000418
 30
0.0
 11
7070.7000000000016
 21
6150.5
 31
0.0
  0
LINE
  5
69B1
  8
0
  6
PHANTOM2
 10
7163.5
 20
6138.4999999999691
 30
0.0
 11
7163.5
 21
6137.5000000000073
 31
0.0
  0
LINE
  5
69B2
  8
0
  6
PHANTOM2
 10
7163.5
 20
6137.5000000000073
 30
0.0
 11
7141.0295766755671
 21
6137.5000000000073
 31
0.0
  0
LINE
  5
69B3
  8
0
  6
PHANTOM2
 10
7104.8594262750066
 20
6114.1176127356302
 30
0.0
 11
7138.2322124005614
 21
6136.6442433703842
 31
0.0
  0
ARC
  5
69B4
  8
0
  6
PHANTOM2
 10
7141.0295766755671
 20
6132.5000000000073
 30
0.0
 40
5.0
 50
90.0
 51
124.0193499895759
  0
LINE
  5
69B5
  8
0
  6
PHANTOM2
 10
7163.5
 20
6138.4999999999691
 30
0.0
 11
7166.6999999999998
 21
6138.4999999999691
 31
0.0
  0
LINE
  5
69B6
  8
0
  6
PHANTOM2
 10
7166.6999999999998
 20
6138.4999999999691
 30
0.0
 11
7166.6999999999998
 21
6134.49999999997
 31
0.0
  0
LINE
  5
69B7
  8
0
  6
PHANTOM2
 10
7070.6999999999989
 20
6150.5000000000082
 30
0.0
 11
7104.8594262750039
 21
6114.1176127356366
 31
0.0
  0
LINE
  5
69B8
  8
0
  6
PHANTOM2
 10
7204.9000000000024
 20
6120.5000000000437
 30
0.0
 11
7204.9000000000024
 21
6151.1110695100851
 31
0.0
  0
LINE
  5
69B9
  8
0
  6
PHANTOM2
 10
7203.7000000000016
 20
6120.5000000000437
 30
0.0
 11
7203.7000000000016
 21
6150.5000000000418
 31
0.0
  0
LINE
  5
69BA
  8
0
  6
PHANTOM2
 10
7204.9000000000024
 20
6120.5000000000437
 30
0.0
 11
7203.7000000000016
 21
6120.5000000000437
 31
0.0
  0
LINE
  5
69BB
  8
0
  6
PHANTOM2
 10
7148.6999999999989
 20
6190.5000000000418
 30
0.0
 11
7203.7000000000016
 21
6150.5000000000418
 31
0.0
  0
LINE
  5
69BC
  8
0
  6
PHANTOM2
 10
7148.6999999999989
 20
6190.5000000000418
 30
0.0
 11
7070.6999999999989
 21
6190.5000000000418
 31
0.0
  0
LINE
  5
69BD
  8
0
  6
PHANTOM2
 10
7071.9000000000024
 20
6191.7000000000389
 30
0.0
 11
7071.9000000000024
 21
6224.6040862788577
 31
0.0
  0
LINE
  5
69BE
  8
0
  6
PHANTOM2
 10
7149.0902205763123
 20
6191.7000000000389
 30
0.0
 11
7071.9000000000024
 21
6191.7000000000389
 31
0.0
  0
LINE
  5
69BF
  8
0
  6
PHANTOM2
 10
7149.0902205763123
 20
6191.7000000000389
 30
0.0
 11
7204.9000000000024
 21
6151.1110695100851
 31
0.0
  0
LINE
  5
69C0
  8
0
  6
PHANTOM2
 10
7068.9000000000024
 20
6234.5000000000437
 30
0.0
 11
7070.6999999999989
 21
6224.4969790327668
 31
0.0
  0
LINE
  5
69C1
  8
0
  6
PHANTOM2
 10
7070.0810311808191
 20
6234.712521410569
 30
0.0
 11
7071.9000000000024
 21
6224.6040862788577
 31
0.0
  0
LINE
  5
69C2
  8
0
  6
PHANTOM2
 10
7070.0810311808191
 20
6234.712521410569
 30
0.0
 11
7068.9000000000024
 21
6234.5000000000437
 31
0.0
  0
LINE
  5
69C3
  8
0
  6
PHANTOM2
 10
7119.5000000008822
 20
6026.7999999999729
 30
0.0
 11
7119.5000000008822
 21
6054.4999999999654
 31
0.0
  0
LINE
  5
69C4
  8
0
  6
PHANTOM2
 10
7067.4999999999991
 20
6026.7999999999729
 30
0.0
 11
7119.5000000008822
 21
6026.7999999999729
 31
0.0
  0
LINE
  5
69C5
  8
0
  6
PHANTOM2
 10
7175.6999999999998
 20
6054.4999999999682
 30
0.0
 11
7175.6999999999998
 21
6134.49999999997
 31
0.0
  0
LINE
  5
69C6
  8
0
  6
PHANTOM2
 10
7175.6999999999998
 20
6134.49999999997
 30
0.0
 11
7166.6999999999998
 21
6134.49999999997
 31
0.0
  0
LINE
  5
69C7
  8
0
  6
PHANTOM2
 10
7175.6999999999998
 20
6054.4999999999682
 30
0.0
 11
7119.5000000008822
 21
6054.4999999999682
 31
0.0
  0
ENDSEC
  0
EOF
