  0
SECTION
  2
HEADER
  9
$ACADVER
  1
AC1009
  9
$INSBASE
 10
0.0
 20
0.0
 30
0.0
  9
$EXTMIN
 10
0.0
 20
0.0
 30
0.0
  9
$EXTMAX
 10
16380.0
 20
11745.0
 30
0.0
  9
$LIMMIN
 10
0.0
 20
0.0
  9
$LIMMAX
 10
420.0
 20
297.0
  9
$ORTHOMODE
 70
     1
  9
$REGENMODE
 70
     1
  9
$FILLMODE
 70
     1
  9
$QTEXTMODE
 70
     0
  9
$MIRRTEXT
 70
     0
  9
$DRAGMODE
 70
     2
  9
$LTSCALE
 40
7.5
  9
$OSMODE
 70
  3071
  9
$ATTMODE
 70
     1
  9
$TEXTSIZE
 40
105.0
  9
$TRACEWID
 40
1.0
  9
$TEXTSTYLE
  7
横文字
  9
$CLAYER
  8
0
  9
$CELTYPE
  6
BYLAYER
  9
$CECOLOR
 62
   256
  9
$DIMSCALE
 40
30.0
  9
$DIMASZ
 40
1.0
  9
$DIMEXO
 40
5.0
  9
$DIMDLI
 40
7.5
  9
$DIMRND
 40
0.0
  9
$DIMDLE
 40
0.0
  9
$DIMEXE
 40
1.0
  9
$DIMTP
 40
0.0
  9
$DIMTM
 40
0.0
  9
$DIMTXT
 40
3.5
  9
$DIMCEN
 40
1.0
  9
$DIMTSZ
 40
0.0
  9
$DIMTOL
 70
     0
  9
$DIMLIM
 70
     0
  9
$DIMTIH
 70
     0
  9
$DIMTOH
 70
     0
  9
$DIMSE1
 70
     0
  9
$DIMSE2
 70
     0
  9
$DIMTAD
 70
     1
  9
$DIMZIN
 70
     8
  9
$DIMBLK
  1
ORIGIN
  9
$DIMASO
 70
     1
  9
$DIMSHO
 70
     1
  9
$DIMPOST
  1

  9
$DIMAPOST
  1

  9
$DIMALT
 70
     0
  9
$DIMALTD
 70
     3
  9
$DIMALTF
 40
0.03937007874016
  9
$DIMLFAC
 40
1.0
  9
$DIMTOFL
 70
     1
  9
$DIMTVP
 40
0.0
  9
$DIMTIX
 70
     1
  9
$DIMSOXD
 70
     0
  9
$DIMSAH
 70
     0
  9
$DIMBLK1
  1

  9
$DIMBLK2
  1

  9
$DIMSTYLE
  2
TOYO_DIM_030
  9
$DIMCLRD
 70
     2
  9
$DIMCLRE
 70
     2
  9
$DIMCLRT
 70
     4
  9
$DIMTFAC
 40
1.0
  9
$DIMGAP
 40
1.0
  9
$LUNITS
 70
     2
  9
$LUPREC
 70
     4
  9
$SKETCHINC
 40
1.0
  9
$FILLETRAD
 40
0.0
  9
$AUNITS
 70
     0
  9
$AUPREC
 70
     0
  9
$MENU
  1
.
  9
$ELEVATION
 40
0.0
  9
$PELEVATION
 40
0.0
  9
$THICKNESS
 40
0.0
  9
$LIMCHECK
 70
     0
  9
$BLIPMODE
 70
     0
  9
$CHAMFERA
 40
0.0
  9
$CHAMFERB
 40
0.0
  9
$SKPOLY
 70
     0
  9
$TDCREATE
 40
2456769.6746121412
  9
$TDUPDATE
 40
2456776.6614428698
  9
$TDINDWG
 40
0.0250741667
  9
$TDUSRTIMER
 40
0.0250741667
  9
$USRTIMER
 70
     1
  9
$ANGBASE
 50
0.0
  9
$ANGDIR
 70
     0
  9
$PDMODE
 70
     0
  9
$PDSIZE
 40
0.0
  9
$PLINEWID
 40
0.0
  9
$COORDS
 70
     1
  9
$SPLFRAME
 70
     0
  9
$SPLINETYPE
 70
     6
  9
$SPLINESEGS
 70
     8
  9
$ATTDIA
 70
     0
  9
$ATTREQ
 70
     1
  9
$HANDLING
 70
     1
  9
$HANDSEED
  5
5743
  9
$SURFTAB1
 70
     6
  9
$SURFTAB2
 70
     6
  9
$SURFTYPE
 70
     6
  9
$SURFU
 70
     6
  9
$SURFV
 70
     6
  9
$UCSNAME
  2

  9
$UCSORG
 10
0.0
 20
0.0
 30
0.0
  9
$UCSXDIR
 10
1.0
 20
0.0
 30
0.0
  9
$UCSYDIR
 10
0.0
 20
1.0
 30
0.0
  9
$PUCSNAME
  2

  9
$PUCSORG
 10
0.0
 20
0.0
 30
0.0
  9
$PUCSXDIR
 10
1.0
 20
0.0
 30
0.0
  9
$PUCSYDIR
 10
0.0
 20
1.0
 30
0.0
  9
$USERI1
 70
     0
  9
$USERI2
 70
     0
  9
$USERI3
 70
     0
  9
$USERI4
 70
     0
  9
$USERI5
 70
     0
  9
$USERR1
 40
0.0
  9
$USERR2
 40
0.0
  9
$USERR3
 40
0.0
  9
$USERR4
 40
0.0
  9
$USERR5
 40
0.0
  9
$WORLDVIEW
 70
     1
  9
$SHADEDGE
 70
     3
  9
$SHADEDIF
 70
    70
  9
$TILEMODE
 70
     1
  9
$MAXACTVP
 70
    64
  9
$PLIMCHECK
 70
     0
  9
$PEXTMIN
 10
1.0000000000000000E+020
 20
1.0000000000000000E+020
 30
1.0000000000000000E+020
  9
$PEXTMAX
 10
-1.0000000000000000E+020
 20
-1.0000000000000000E+020
 30
-1.0000000000000000E+020
  9
$PLIMMIN
 10
0.0
 20
0.0
  9
$PLIMMAX
 10
420.0
 20
297.0
  9
$UNITMODE
 70
     0
  9
$VISRETAIN
 70
     1
  9
$PLINEGEN
 70
     0
  9
$PSLTSCALE
 70
     1
  0
ENDSEC
  0
SECTION
  2
TABLES
  0
TABLE
  2
VPORT
 70
     1
  0
VPORT
  2
*ACTIVE
 70
     0
 10
0.0
 20
0.0
 11
1.0
 21
1.0
 12
11298.384514514641
 22
5872.5003144998054
 13
0.0
 23
0.0
 14
10.0
 24
10.0
 15
10.0
 25
10.0
 16
0.0
 26
0.0
 36
1.0
 17
0.0
 27
0.0
 37
0.0
 40
11847.841627708891
 41
3.2307692307692299
 42
50.0
 43
0.0
 44
0.0
 50
0.0
 51
0.0
 71
     0
 72
  1000
 73
     1
 74
     3
 75
     0
 76
     0
 77
     0
 78
     0
  0
ENDTAB
  0
TABLE
  2
LTYPE
 70
     4
  0
LTYPE
  2
CONTINUOUS
 70
     0
  3
Solid line
 72
    65
 73
     0
 40
0.0
  0
LTYPE
  2
CENTER2
 70
     0
  3
Center (.5x) ___ _ ___ _ ___ _ ___ _ ___ _ ___
 72
    65
 73
     4
 40
28.574999999999999
 49
19.050000000000001
 49
-3.1749999999999989
 49
3.1749999999999989
 49
-3.1749999999999989
  0
LTYPE
  2
PHANTOM2
 70
     0
  3
Phantom (.5x) ___ _ _ ___ _ _ ___ _ _ ___ _ _
 72
    65
 73
     6
 40
31.75
 49
15.875
 49
-3.1749999999999989
 49
3.1749999999999989
 49
-3.1749999999999989
 49
3.1749999999999989
 49
-3.1749999999999989
  0
LTYPE
  2
HIDDEN
 70
     0
  3
Hidden __ __ __ __ __ __ __ __ __ __ __ __ __ _
 72
    65
 73
     2
 40
9.5249999999999986
 49
6.3499999999999988
 49
-3.1749999999999989
  0
ENDTAB
  0
TABLE
  2
LAYER
 70
     2
  0
LAYER
  2
0
 70
     0
 62
     7
  6
CONTINUOUS
  0
LAYER
  2
DEFPOINTS
 70
     0
 62
     7
  6
CONTINUOUS
  0
ENDTAB
  0
TABLE
  2
STYLE
 70
     2
  0
STYLE
  2
STANDARD
 70
     0
 40
0.0
 41
1.0
 50
0.0
 71
     0
 42
2.5
  3
romans.shx
  4
bigfont.shx
  0
STYLE
  2
横文字
 70
     0
 40
0.0
 41
0.8
 50
0.0
 71
     0
 42
105.0
  3
romans.shx
  4
extfont.shx
  0
ENDTAB
  0
TABLE
  2
VIEW
 70
     0
  0
ENDTAB
  0
TABLE
  2
UCS
 70
     0
  0
ENDTAB
  0
TABLE
  2
APPID
 70
    11
  0
APPID
  2
ACAD
 70
     0
  0
APPID
  2
ACADANNOTATIVE
 70
     0
  0
APPID
  2
ACAD_PSEXT
 70
     0
  0
APPID
  2
ACAD_DSTYLE_DIMJAG
 70
     0
  0
APPID
  2
ACAD_DSTYLE_DIMTALN
 70
     0
  0
APPID
  2
ACADANNOPO
 70
     0
  0
APPID
  2
ADE
 70
     0
  0
APPID
  2
DCO15
 70
     0
  0
APPID
  2
ACAD_MLEADERVER
 70
     0
  0
APPID
  2
ACAD_EXEMPT_FROM_CAD_STANDARDS
 70
     0
  0
APPID
  2
N_10
 70
     0
  0
ENDTAB
  0
TABLE
  2
DIMSTYLE
 70
     3
  0
DIMSTYLE
  2
STANDARD
 70
     0
  3

  4

  5
ORIGIN
  6

  7

 40
30.0
 41
1.0
 42
5.0
 43
7.5
 44
1.0
 45
0.0
 46
0.0
 47
0.0
 48
0.0
140
3.5
141
2.5
142
0.0
143
25.399999999999999
144
1.0
145
0.0
146
1.0
147
1.0
 71
     0
 72
     0
 73
     0
 74
     0
 75
     0
 76
     0
 77
     1
 78
     8
170
     0
171
     2
172
     1
173
     0
174
     1
175
     0
176
     0
177
     0
178
     0
  0
DIMSTYLE
  2
寸法線30
 70
     0
  3

  4

  5
ORIGIN
  6

  7

 40
30.0
 41
1.0
 42
5.0
 43
7.5
 44
1.0
 45
0.0
 46
0.0
 47
0.0
 48
0.0
140
3.5
141
1.0
142
0.0
143
0.03937007874016
144
1.0
145
0.0
146
1.0
147
1.0
 71
     0
 72
     0
 73
     0
 74
     0
 75
     0
 76
     0
 77
     1
 78
     8
170
     0
171
     3
172
     1
173
     0
174
     1
175
     0
176
   256
177
   256
178
   256
  0
DIMSTYLE
  2
TOYO_DIM_030
 70
     0
  3

  4

  5
ORIGIN
  6

  7

 40
30.0
 41
1.0
 42
5.0
 43
7.5
 44
1.0
 45
0.0
 46
0.0
 47
0.0
 48
0.0
140
3.5
141
1.0
142
0.0
143
0.03937007874016
144
1.0
145
0.0
146
1.0
147
1.0
 71
     0
 72
     0
 73
     0
 74
     0
 75
     0
 76
     0
 77
     1
 78
     8
170
     0
171
     3
172
     1
173
     0
174
     1
175
     0
176
     2
177
     2
178
     4
  0
ENDTAB
  0
ENDSEC
  0
SECTION
  2
BLOCKS
  0
BLOCK
  8
0
  2
$MODEL_SPACE
 70
     0
 10
0.0
 20
0.0
 30
0.0
  3
$MODEL_SPACE
  1

  0
ENDBLK
  5
6E
  8
0
  0
BLOCK
 67
     1
  8
0
  2
$PAPER_SPACE
 70
     0
 10
0.0
 20
0.0
 30
0.0
  3
$PAPER_SPACE
  1

  0
ENDBLK
  5
6A
 67
     1
  8
0
  0
BLOCK
  8
0
  2
_ORIGIN
 70
     0
 10
0.0
 20
0.0
 30
0.0
  3
_ORIGIN
  1

  0
CIRCLE
  5
7A
  8
0
  6
BYBLOCK
 62
     0
 10
0.0
 20
0.0
 30
0.0
 40
0.5
  0
LINE
  5
7B
  8
0
  6
BYBLOCK
 62
     0
 10
0.0
 20
0.0
 30
0.0
 11
-1.0
 21
0.0
 31
0.0
  0
ENDBLK
  5
7C
  8
0
  0
BLOCK
  8
0
  2
_OPEN30
 70
     0
 10
0.0
 20
0.0
 30
0.0
  3
_OPEN30
  1

  0
LINE
  5
7F
  8
0
  6
BYBLOCK
 62
     0
 10
-1.0
 20
0.26794919
 30
0.0
 11
0.0
 21
0.0
 31
0.0
  0
LINE
  5
80
  8
0
  6
BYBLOCK
 62
     0
 10
0.0
 20
0.0
 30
0.0
 11
-1.0
 21
-0.26794919
 31
0.0
  0
LINE
  5
81
  8
0
  6
BYBLOCK
 62
     0
 10
0.0
 20
0.0
 30
0.0
 11
-1.0
 21
0.0
 31
0.0
  0
ENDBLK
  5
82
  8
0
  0
BLOCK
  8
0
  2
*D3
 70
     1
 10
0.0
 20
0.0
 30
0.0
  3
*D3
  1

  0
LINE
  5
51E5
  8
0
 10
3347.0
 20
7751.5
 30
0.0
 11
3347.0
 21
7471.5
 31
0.0
  0
LINE
  5
51E6
  8
0
 10
4447.0
 20
7751.5
 30
0.0
 11
4447.0
 21
7471.5
 31
0.0
  0
LINE
  5
51E7
  8
0
 10
3377.0
 20
7501.5
 30
0.0
 11
4417.0
 21
7501.5
 31
0.0
  0
INSERT
  5
51E8
  8
0
  2
_ORIGIN
 10
3347.0
 20
7501.5
 30
0.0
 41
30.0
 42
30.0
 43
30.0
 50
180.0
  0
INSERT
  5
51E9
  8
0
  2
_ORIGIN
 10
4447.0
 20
7501.5
 30
0.0
 41
30.0
 42
30.0
 43
30.0
  0
INSERT
  5
51EA
  8
0
  2
*U26
 10
0.0
 20
0.0
 30
0.0
  0
POINT
  5
51EB
  8
DEFPOINTS
 62
     0
 10
3347.0
 20
7901.5
 30
0.0
  0
POINT
  5
51EC
  8
DEFPOINTS
 62
     0
 10
4447.0
 20
7901.5
 30
0.0
  0
POINT
  5
51ED
  8
DEFPOINTS
 62
     0
 10
4447.0
 20
7501.5
 30
0.0
  0
ENDBLK
  5
4A1B
  8
0
  0
BLOCK
  8
0
  2
*D4
 70
     1
 10
0.0
 20
0.0
 30
0.0
  3
*D4
  1

  0
LINE
  5
51EE
  8
0
 10
4450.0
 20
7751.5
 30
0.0
 11
4450.0
 21
7471.5
 31
0.0
  0
LINE
  5
51EF
  8
0
 10
5550.0
 20
7751.5
 30
0.0
 11
5550.0
 21
7471.5
 31
0.0
  0
LINE
  5
51F0
  8
0
 10
4480.0
 20
7501.5
 30
0.0
 11
5520.0
 21
7501.5
 31
0.0
  0
INSERT
  5
51F1
  8
0
  2
_ORIGIN
 10
4450.0
 20
7501.5
 30
0.0
 41
30.0
 42
30.0
 43
30.0
 50
180.0
  0
INSERT
  5
51F2
  8
0
  2
_ORIGIN
 10
5550.0
 20
7501.5
 30
0.0
 41
30.0
 42
30.0
 43
30.0
  0
INSERT
  5
51F3
  8
0
  2
*U27
 10
0.0
 20
0.0
 30
0.0
  0
POINT
  5
51F4
  8
DEFPOINTS
 62
     0
 10
4450.0
 20
7901.5
 30
0.0
  0
POINT
  5
51F5
  8
DEFPOINTS
 62
     0
 10
5550.0
 20
7901.5
 30
0.0
  0
POINT
  5
51F6
  8
DEFPOINTS
 62
     0
 10
5550.0
 20
7501.5
 30
0.0
  0
ENDBLK
  5
4A27
  8
0
  0
BLOCK
  8
0
  2
*D5
 70
     1
 10
0.0
 20
0.0
 30
0.0
  3
*D5
  1

  0
LINE
  5
51F7
  8
0
 10
5553.0
 20
7751.5
 30
0.0
 11
5553.0
 21
7471.5
 31
0.0
  0
LINE
  5
51F8
  8
0
 10
6653.0
 20
7751.5
 30
0.0
 11
6653.0
 21
7471.5
 31
0.0
  0
LINE
  5
51F9
  8
0
 10
5583.0
 20
7501.5
 30
0.0
 11
6623.0
 21
7501.5
 31
0.0
  0
INSERT
  5
51FA
  8
0
  2
_ORIGIN
 10
5553.0
 20
7501.5
 30
0.0
 41
30.0
 42
30.0
 43
30.0
 50
180.0
  0
INSERT
  5
51FB
  8
0
  2
_ORIGIN
 10
6653.0
 20
7501.5
 30
0.0
 41
30.0
 42
30.0
 43
30.0
  0
INSERT
  5
51FC
  8
0
  2
*U28
 10
0.0
 20
0.0
 30
0.0
  0
POINT
  5
51FD
  8
DEFPOINTS
 62
     0
 10
5553.0
 20
7901.5
 30
0.0
  0
POINT
  5
51FE
  8
DEFPOINTS
 62
     0
 10
6653.0
 20
7901.5
 30
0.0
  0
POINT
  5
51FF
  8
DEFPOINTS
 62
     0
 10
6653.0
 20
7501.5
 30
0.0
  0
ENDBLK
  5
4A33
  8
0
  0
BLOCK
  8
0
  2
*D6
 70
     1
 10
0.0
 20
0.0
 30
0.0
  3
*D6
  1

  0
LINE
  5
5200
  8
0
 10
3297.0
 20
8905.0
 30
0.0
 11
3297.0
 21
9185.0
 31
0.0
  0
LINE
  5
5201
  8
0
 10
3347.0
 20
8905.0
 30
0.0
 11
3347.0
 21
9185.0
 31
0.0
  0
LINE
  5
5202
  8
0
 10
3267.0
 20
9155.0
 30
0.0
 11
3237.0
 21
9155.0
 31
0.0
  0
LINE
  5
5203
  8
0
 10
3377.0
 20
9155.0
 30
0.0
 11
3407.0
 21
9155.0
 31
0.0
  0
INSERT
  5
5204
  8
0
  2
*U29
 10
0.0
 20
0.0
 30
0.0
  0
LINE
  5
5205
  8
0
 10
3297.0
 20
9155.0
 30
0.0
 11
3347.0
 21
9155.0
 31
0.0
  0
INSERT
  5
5206
  8
0
  2
_ORIGIN
 10
3297.0
 20
9155.0
 30
0.0
 41
30.0
 42
30.0
 43
30.0
  0
INSERT
  5
5207
  8
0
  2
_ORIGIN
 10
3347.0
 20
9155.0
 30
0.0
 41
30.0
 42
30.0
 43
30.0
 50
180.0
  0
POINT
  5
5208
  8
DEFPOINTS
 62
     0
 10
3297.0
 20
8755.0
 30
0.0
  0
POINT
  5
5209
  8
DEFPOINTS
 62
     0
 10
3347.0
 20
8755.0
 30
0.0
  0
POINT
  5
520A
  8
DEFPOINTS
 62
     0
 10
3347.0
 20
9155.0
 30
0.0
  0
ENDBLK
  5
4A3F
  8
0
  0
BLOCK
  8
0
  2
*D7
 70
     1
 10
0.0
 20
0.0
 30
0.0
  3
*D7
  1

  0
LINE
  5
520B
  8
0
 10
3347.0
 20
9305.0
 30
0.0
 11
3347.0
 21
9585.0
 31
0.0
  0
LINE
  5
520C
  8
0
 10
3496.9999999998831
 20
9305.0
 30
0.0
 11
3496.9999999998831
 21
9585.0
 31
0.0
  0
LINE
  5
520D
  8
0
 10
3377.0
 20
9555.0
 30
0.0
 11
3466.999999999884
 21
9555.0
 31
0.0
  0
INSERT
  5
520E
  8
0
  2
*U30
 10
0.0
 20
0.0
 30
0.0
  0
INSERT
  5
520F
  8
0
  2
_ORIGIN
 10
3347.0
 20
9555.0
 30
0.0
 41
30.0
 42
30.0
 43
30.0
 50
180.0
  0
INSERT
  5
5210
  8
0
  2
_ORIGIN
 10
3496.9999999998831
 20
9555.0
 30
0.0
 41
30.0
 42
30.0
 43
30.0
  0
POINT
  5
5211
  8
DEFPOINTS
 62
     0
 10
3347.0
 20
9155.0
 30
0.0
  0
POINT
  5
5212
  8
DEFPOINTS
 62
     0
 10
3496.9999999998831
 20
9155.0
 30
0.0
  0
POINT
  5
5213
  8
DEFPOINTS
 62
     0
 10
3496.9999999998831
 20
9555.0
 30
0.0
  0
ENDBLK
  5
4A4D
  8
0
  0
BLOCK
  8
0
  2
*D8
 70
     1
 10
0.0
 20
0.0
 30
0.0
  3
*D8
  1

  0
LINE
  5
5214
  8
0
 10
4999.9999999998827
 20
9305.0
 30
0.0
 11
4999.9999999998827
 21
9585.0
 31
0.0
  0
LINE
  5
5215
  8
0
 10
5751.4999999998827
 20
9305.0
 30
0.0
 11
5751.4999999998827
 21
9585.0
 31
0.0
  0
LINE
  5
5216
  8
0
 10
5029.9999999998827
 20
9555.0
 30
0.0
 11
5721.4999999998836
 21
9555.0
 31
0.0
  0
INSERT
  5
5217
  8
0
  2
_ORIGIN
 10
4999.9999999998827
 20
9555.0
 30
0.0
 41
30.0
 42
30.0
 43
30.0
 50
180.0
  0
INSERT
  5
5218
  8
0
  2
_ORIGIN
 10
5751.4999999998827
 20
9555.0
 30
0.0
 41
30.0
 42
30.0
 43
30.0
  0
INSERT
  5
5219
  8
0
  2
*U31
 10
0.0
 20
0.0
 30
0.0
  0
POINT
  5
521A
  8
DEFPOINTS
 62
     0
 10
4999.9999999998827
 20
9155.0
 30
0.0
  0
POINT
  5
521B
  8
DEFPOINTS
 62
     0
 10
5751.4999999998827
 20
9155.0
 30
0.0
  0
POINT
  5
521C
  8
DEFPOINTS
 62
     0
 10
5751.4999999998827
 20
9555.0
 30
0.0
  0
ENDBLK
  5
4A71
  8
0
  0
BLOCK
  8
0
  2
*D9
 70
     1
 10
0.0
 20
0.0
 30
0.0
  3
*D9
  1

  0
LINE
  5
521D
  8
0
 10
6503.0
 20
9305.0
 30
0.0
 11
6503.0
 21
9585.0
 31
0.0
  0
LINE
  5
521E
  8
0
 10
6653.0
 20
9305.0
 30
0.0
 11
6653.0
 21
9585.0
 31
0.0
  0
LINE
  5
521F
  8
0
 10
6533.0
 20
9555.0
 30
0.0
 11
6623.0
 21
9555.0
 31
0.0
  0
INSERT
  5
5220
  8
0
  2
*U32
 10
0.0
 20
0.0
 30
0.0
  0
INSERT
  5
5221
  8
0
  2
_ORIGIN
 10
6503.0
 20
9555.0
 30
0.0
 41
30.0
 42
30.0
 43
30.0
 50
180.0
  0
INSERT
  5
5222
  8
0
  2
_ORIGIN
 10
6653.0
 20
9555.0
 30
0.0
 41
30.0
 42
30.0
 43
30.0
  0
POINT
  5
5223
  8
DEFPOINTS
 62
     0
 10
6503.0
 20
9155.0
 30
0.0
  0
POINT
  5
5224
  8
DEFPOINTS
 62
     0
 10
6653.0
 20
9155.0
 30
0.0
  0
POINT
  5
5225
  8
DEFPOINTS
 62
     0
 10
6653.0
 20
9555.0
 30
0.0
  0
ENDBLK
  5
4A89
  8
0
  0
BLOCK
  8
0
  2
*D10
 70
     1
 10
0.0
 20
0.0
 30
0.0
  3
*D10
  1

  0
LINE
  5
5226
  8
0
 10
6653.0
 20
8905.0
 30
0.0
 11
6653.0
 21
9185.0
 31
0.0
  0
LINE
  5
5227
  8
0
 10
6703.0
 20
8905.0
 30
0.0
 11
6703.0
 21
9185.0
 31
0.0
  0
LINE
  5
5228
  8
0
 10
6623.0
 20
9155.0
 30
0.0
 11
6593.0
 21
9155.0
 31
0.0
  0
LINE
  5
5229
  8
0
 10
6733.0
 20
9155.0
 30
0.0
 11
6763.0
 21
9155.0
 31
0.0
  0
INSERT
  5
522A
  8
0
  2
*U33
 10
0.0
 20
0.0
 30
0.0
  0
LINE
  5
522B
  8
0
 10
6653.0
 20
9155.0
 30
0.0
 11
6703.0
 21
9155.0
 31
0.0
  0
INSERT
  5
522C
  8
0
  2
_ORIGIN
 10
6653.0
 20
9155.0
 30
0.0
 41
30.0
 42
30.0
 43
30.0
  0
INSERT
  5
522D
  8
0
  2
_ORIGIN
 10
6703.0
 20
9155.0
 30
0.0
 41
30.0
 42
30.0
 43
30.0
 50
180.0
  0
POINT
  5
522E
  8
DEFPOINTS
 62
     0
 10
6653.0
 20
8755.0
 30
0.0
  0
POINT
  5
522F
  8
DEFPOINTS
 62
     0
 10
6703.0
 20
8755.0
 30
0.0
  0
POINT
  5
5230
  8
DEFPOINTS
 62
     0
 10
6703.0
 20
9155.0
 30
0.0
  0
ENDBLK
  5
4A95
  8
0
  0
BLOCK
  8
0
  2
*D11
 70
     1
 10
0.0
 20
0.0
 30
0.0
  3
*D11
  1

  0
LINE
  5
5231
  8
0
 10
3300.0
 20
7276.5
 30
0.0
 11
3300.0
 21
7246.5000000000009
 31
0.0
  0
LINE
  5
5232
  8
0
 10
6700.0
 20
7276.5
 30
0.0
 11
6700.0
 21
7246.5000000000009
 31
0.0
  0
LINE
  5
5233
  8
0
 10
3330.0
 20
7276.5
 30
0.0
 11
6670.0
 21
7276.5
 31
0.0
  0
INSERT
  5
5234
  8
0
  2
_ORIGIN
 10
3300.0
 20
7276.5
 30
0.0
 41
30.0
 42
30.0
 43
30.0
 50
180.0
  0
INSERT
  5
5235
  8
0
  2
_ORIGIN
 10
6700.0
 20
7276.5
 30
0.0
 41
30.0
 42
30.0
 43
30.0
  0
INSERT
  5
5236
  8
0
  2
*U34
 10
0.0
 20
0.0
 30
0.0
  0
POINT
  5
5237
  8
DEFPOINTS
 62
     0
 10
3300.0
 20
7426.5
 30
0.0
  0
POINT
  5
5238
  8
DEFPOINTS
 62
     0
 10
6700.0
 20
7426.5
 30
0.0
  0
POINT
  5
5239
  8
DEFPOINTS
 62
     0
 10
6700.0
 20
7276.5
 30
0.0
  0
ENDBLK
  5
4AA3
  8
0
  0
BLOCK
  8
0
  2
*D12
 70
     1
 10
0.0
 20
0.0
 30
0.0
  3
*D12
  1

  0
LINE
  5
523A
  8
0
 10
12767.5
 20
8508.0000000000564
 30
0.0
 11
12797.5
 21
8508.0000000000564
 31
0.0
  0
LINE
  5
523B
  8
0
 10
12517.5
 20
8000.0
 30
0.0
 11
12797.5
 21
8000.0
 31
0.0
  0
LINE
  5
523C
  8
0
 10
12767.5
 20
8538.0000000000582
 30
0.0
 11
12767.5
 21
8568.00000000006
 31
0.0
  0
LINE
  5
523D
  8
0
 10
12767.5
 20
7970.0
 30
0.0
 11
12767.5
 21
7940.0
 31
0.0
  0
LINE
  5
523E
  8
0
 10
12767.5
 20
8508.0000000000564
 30
0.0
 11
12767.5
 21
8000.0
 31
0.0
  0
INSERT
  5
523F
  8
0
  2
_ORIGIN
 10
12767.5
 20
8508.0000000000564
 30
0.0
 41
30.0
 42
30.0
 43
30.0
 50
270.0
  0
INSERT
  5
5240
  8
0
  2
_ORIGIN
 10
12767.5
 20
8000.0
 30
0.0
 41
30.0
 42
30.0
 43
30.0
 50
90.0
  0
INSERT
  5
5241
  8
0
  2
*U35
 10
0.0
 20
0.0
 30
0.0
  0
POINT
  5
5242
  8
DEFPOINTS
 62
     0
 10
12617.5
 20
8508.0000000000564
 30
0.0
  0
POINT
  5
5243
  8
DEFPOINTS
 62
     0
 10
12367.5
 20
8000.0
 30
0.0
  0
POINT
  5
5244
  8
DEFPOINTS
 62
     0
 10
12767.5
 20
8000.0
 30
0.0
  0
ENDBLK
  5
4AC7
  8
0
  0
BLOCK
  8
0
  2
*D13
 70
     1
 10
0.0
 20
0.0
 30
0.0
  3
*D13
  1

  0
LINE
  5
5245
  8
0
 10
12517.5
 20
8000.0
 30
0.0
 11
12797.5
 21
8000.0
 31
0.0
  0
LINE
  5
5246
  8
0
 10
12767.5
 20
6000.0
 30
0.0
 11
12797.5
 21
6000.0
 31
0.0
  0
LINE
  5
5247
  8
0
 10
12767.5
 20
7970.0
 30
0.0
 11
12767.5
 21
6030.0
 31
0.0
  0
INSERT
  5
5248
  8
0
  2
_ORIGIN
 10
12767.5
 20
8000.0
 30
0.0
 41
30.0
 42
30.0
 43
30.0
 50
90.0
  0
INSERT
  5
5249
  8
0
  2
_ORIGIN
 10
12767.5
 20
6000.0
 30
0.0
 41
30.0
 42
30.0
 43
30.0
 50
270.0
  0
INSERT
  5
524A
  8
0
  2
*U36
 10
0.0
 20
0.0
 30
0.0
  0
POINT
  5
524B
  8
DEFPOINTS
 62
     0
 10
12367.5
 20
8000.0
 30
0.0
  0
POINT
  5
524C
  8
DEFPOINTS
 62
     0
 10
12617.5
 20
6000.0
 30
0.0
  0
POINT
  5
524D
  8
DEFPOINTS
 62
     0
 10
12767.5
 20
6000.0
 30
0.0
  0
ENDBLK
  5
4AD5
  8
0
  0
BLOCK
  8
0
  2
*D14
 70
     1
 10
0.0
 20
0.0
 30
0.0
  3
*D14
  1

  0
LINE
  5
524E
  8
0
 10
11576.499999999931
 20
8590.0000000001164
 30
0.0
 11
11496.499999999931
 21
8590.0000000001164
 31
0.0
  0
LINE
  5
524F
  8
0
 10
11576.499999999931
 20
8505.0000000000564
 30
0.0
 11
11496.499999999931
 21
8505.0000000000564
 31
0.0
  0
LINE
  5
5250
  8
0
 10
11526.499999999931
 20
8620.0000000001164
 30
0.0
 11
11526.499999999931
 21
8650.0000000001164
 31
0.0
  0
LINE
  5
5251
  8
0
 10
11526.499999999931
 20
8475.0000000000582
 30
0.0
 11
11526.499999999931
 21
8445.0000000000582
 31
0.0
  0
INSERT
  5
5252
  8
0
  2
*U37
 10
0.0
 20
0.0
 30
0.0
  0
LINE
  5
5253
  8
0
 10
11526.499999999931
 20
8590.0000000001164
 30
0.0
 11
11526.499999999931
 21
8505.0000000000564
 31
0.0
  0
INSERT
  5
5254
  8
0
  2
_ORIGIN
 10
11526.499999999931
 20
8590.0000000001164
 30
0.0
 41
30.0
 42
30.0
 43
30.0
 50
270.0
  0
INSERT
  5
5255
  8
0
  2
_ORIGIN
 10
11526.499999999931
 20
8505.0000000000564
 30
0.0
 41
30.0
 42
30.0
 43
30.0
 50
90.0
  0
POINT
  5
5256
  8
DEFPOINTS
 62
     0
 10
11726.499999999931
 20
8590.0000000001164
 30
0.0
  0
POINT
  5
5257
  8
DEFPOINTS
 62
     0
 10
11726.499999999931
 20
8505.0000000000564
 30
0.0
  0
POINT
  5
5258
  8
DEFPOINTS
 62
     0
 10
11526.499999999931
 20
8505.0000000000564
 30
0.0
  0
ENDBLK
  5
4AE1
  8
0
  0
BLOCK
  8
0
  2
*D15
 70
     1
 10
0.0
 20
0.0
 30
0.0
  3
*D15
  1

  0
LINE
  5
5259
  8
0
 10
11576.499999999931
 20
8678.0
 30
0.0
 11
11346.499999999931
 21
8678.0
 31
0.0
  0
LINE
  5
525A
  8
0
 10
11576.499999999931
 20
8505.0000000000564
 30
0.0
 11
11346.499999999931
 21
8505.0000000000564
 31
0.0
  0
LINE
  5
525B
  8
0
 10
11376.499999999931
 20
8648.0
 30
0.0
 11
11376.499999999931
 21
8535.0000000000582
 31
0.0
  0
INSERT
  5
525C
  8
0
  2
*U38
 10
0.0
 20
0.0
 30
0.0
  0
INSERT
  5
525D
  8
0
  2
_ORIGIN
 10
11376.499999999931
 20
8678.0
 30
0.0
 41
30.0
 42
30.0
 43
30.0
 50
90.0
  0
INSERT
  5
525E
  8
0
  2
_ORIGIN
 10
11376.499999999931
 20
8505.0000000000564
 30
0.0
 41
30.0
 42
30.0
 43
30.0
 50
270.0
  0
POINT
  5
525F
  8
DEFPOINTS
 62
     0
 10
11726.499999999931
 20
8678.0
 30
0.0
  0
POINT
  5
5260
  8
DEFPOINTS
 62
     0
 10
11726.499999999931
 20
8505.0000000000564
 30
0.0
  0
POINT
  5
5261
  8
DEFPOINTS
 62
     0
 10
11376.499999999931
 20
8505.0000000000564
 30
0.0
  0
ENDBLK
  5
4AEF
  8
0
  0
BLOCK
  8
0
  2
*D16
 70
     1
 10
0.0
 20
0.0
 30
0.0
  3
*D16
  1

  0
LINE
  5
5262
  8
0
 10
3447.0
 20
3000.0000000000182
 30
0.0
 11
3727.0
 21
3000.0000000000182
 31
0.0
  0
LINE
  5
5263
  8
0
 10
3447.0
 20
2940.0000000000191
 30
0.0
 11
3727.0
 21
2940.0000000000191
 31
0.0
  0
LINE
  5
5264
  8
0
 10
3697.0000000000009
 20
3030.0000000000182
 30
0.0
 11
3697.0000000000009
 21
3060.0000000000182
 31
0.0
  0
LINE
  5
5265
  8
0
 10
3697.0000000000009
 20
2910.0000000000182
 30
0.0
 11
3697.0000000000009
 21
2880.0000000000182
 31
0.0
  0
INSERT
  5
5266
  8
0
  2
*U39
 10
0.0
 20
0.0
 30
0.0
  0
LINE
  5
5267
  8
0
 10
3697.0000000000009
 20
3000.0000000000182
 30
0.0
 11
3697.0000000000009
 21
2940.0000000000191
 31
0.0
  0
INSERT
  5
5268
  8
0
  2
_ORIGIN
 10
3697.0000000000009
 20
3000.0000000000182
 30
0.0
 41
30.0
 42
30.0
 43
30.0
 50
270.0
  0
INSERT
  5
5269
  8
0
  2
_ORIGIN
 10
3697.0000000000009
 20
2940.0000000000191
 30
0.0
 41
30.0
 42
30.0
 43
30.0
 50
90.0
  0
POINT
  5
526A
  8
DEFPOINTS
 62
     0
 10
3297.0
 20
3000.0000000000182
 30
0.0
  0
POINT
  5
526B
  8
DEFPOINTS
 62
     0
 10
3297.0
 20
2940.0000000000191
 30
0.0
  0
POINT
  5
526C
  8
DEFPOINTS
 62
     0
 10
3697.0000000000009
 20
2940.0000000000191
 30
0.0
  0
ENDBLK
  5
4B13
  8
0
  0
BLOCK
  8
0
  2
*D17
 70
     1
 10
0.0
 20
0.0
 30
0.0
  3
*D17
  1

  0
LINE
  5
526D
  8
0
 10
4447.0
 20
7751.5
 30
0.0
 11
4447.0
 21
7471.5
 31
0.0
  0
LINE
  5
526E
  8
0
 10
4450.0
 20
7751.5
 30
0.0
 11
4450.0
 21
7471.5
 31
0.0
  0
LINE
  5
526F
  8
0
 10
4417.0
 20
7501.5
 30
0.0
 11
4387.0
 21
7501.5
 31
0.0
  0
LINE
  5
5270
  8
0
 10
4480.0
 20
7501.5
 30
0.0
 11
4510.0
 21
7501.5
 31
0.0
  0
INSERT
  5
5271
  8
0
  2
*U40
 10
0.0
 20
0.0
 30
0.0
  0
LINE
  5
5272
  8
0
 10
4447.0
 20
7501.5
 30
0.0
 11
4450.0
 21
7501.5
 31
0.0
  0
INSERT
  5
5273
  8
0
  2
_ORIGIN
 10
4447.0
 20
7501.5
 30
0.0
 41
30.0
 42
30.0
 43
30.0
  0
INSERT
  5
5274
  8
0
  2
_ORIGIN
 10
4450.0
 20
7501.5
 30
0.0
 41
30.0
 42
30.0
 43
30.0
 50
180.0
  0
POINT
  5
5275
  8
DEFPOINTS
 62
     0
 10
4447.0
 20
7901.5
 30
0.0
  0
POINT
  5
5276
  8
DEFPOINTS
 62
     0
 10
4450.0
 20
7901.5
 30
0.0
  0
POINT
  5
5277
  8
DEFPOINTS
 62
     0
 10
4450.0
 20
7501.5
 30
0.0
  0
ENDBLK
  5
4B21
  8
0
  0
BLOCK
  8
0
  2
*D18
 70
     1
 10
0.0
 20
0.0
 30
0.0
  3
*D18
  1

  0
LINE
  5
5278
  8
0
 10
5550.0
 20
7751.5
 30
0.0
 11
5550.0
 21
7471.5
 31
0.0
  0
LINE
  5
5279
  8
0
 10
5553.0
 20
7751.5
 30
0.0
 11
5553.0
 21
7471.5
 31
0.0
  0
LINE
  5
527A
  8
0
 10
5520.0
 20
7501.5
 30
0.0
 11
5490.0
 21
7501.5
 31
0.0
  0
LINE
  5
527B
  8
0
 10
5583.0
 20
7501.5
 30
0.0
 11
5613.0
 21
7501.5
 31
0.0
  0
INSERT
  5
527C
  8
0
  2
*U41
 10
0.0
 20
0.0
 30
0.0
  0
LINE
  5
527D
  8
0
 10
5550.0
 20
7501.5
 30
0.0
 11
5553.0
 21
7501.5
 31
0.0
  0
INSERT
  5
527E
  8
0
  2
_ORIGIN
 10
5550.0
 20
7501.5
 30
0.0
 41
30.0
 42
30.0
 43
30.0
  0
INSERT
  5
527F
  8
0
  2
_ORIGIN
 10
5553.0
 20
7501.5
 30
0.0
 41
30.0
 42
30.0
 43
30.0
 50
180.0
  0
POINT
  5
5280
  8
DEFPOINTS
 62
     0
 10
5550.0
 20
7901.5
 30
0.0
  0
POINT
  5
5281
  8
DEFPOINTS
 62
     0
 10
5553.0
 20
7901.5
 30
0.0
  0
POINT
  5
5282
  8
DEFPOINTS
 62
     0
 10
5553.0
 20
7501.5
 30
0.0
  0
ENDBLK
  5
4B2F
  8
0
  0
BLOCK
  8
0
  2
*D19
 70
     1
 10
0.0
 20
0.0
 30
0.0
  3
*D19
  1

  0
LINE
  5
5283
  8
0
 10
11576.49999999996
 20
8505.0000000000564
 30
0.0
 11
11196.499999999931
 21
8505.0000000000564
 31
0.0
  0
LINE
  5
5284
  8
0
 10
11226.499999999931
 20
8905.0
 30
0.0
 11
11196.499999999931
 21
8905.0
 31
0.0
  0
LINE
  5
5285
  8
0
 10
11226.499999999931
 20
8475.0000000000582
 30
0.0
 11
11226.499999999931
 21
8445.0000000000582
 31
0.0
  0
LINE
  5
5286
  8
0
 10
11226.499999999931
 20
8935.0
 30
0.0
 11
11226.499999999931
 21
8965.0
 31
0.0
  0
LINE
  5
5287
  8
0
 10
11226.499999999931
 20
8505.0000000000564
 30
0.0
 11
11226.499999999931
 21
8905.0
 31
0.0
  0
INSERT
  5
5288
  8
0
  2
_ORIGIN
 10
11226.499999999931
 20
8505.0000000000564
 30
0.0
 41
30.0
 42
30.0
 43
30.0
 50
90.0
  0
INSERT
  5
5289
  8
0
  2
_ORIGIN
 10
11226.499999999931
 20
8905.0
 30
0.0
 41
30.0
 42
30.0
 43
30.0
 50
270.0
  0
INSERT
  5
528A
  8
0
  2
*U42
 10
0.0
 20
0.0
 30
0.0
  0
POINT
  5
528B
  8
DEFPOINTS
 62
     0
 10
11726.49999999996
 20
8505.0000000000564
 30
0.0
  0
POINT
  5
528C
  8
DEFPOINTS
 62
     0
 10
11376.499999999931
 20
8905.0
 30
0.0
  0
POINT
  5
528D
  8
DEFPOINTS
 62
     0
 10
11226.499999999931
 20
8905.0
 30
0.0
  0
ENDBLK
  5
4B3D
  8
0
  0
BLOCK
  8
0
  2
*D20
 70
     1
 10
0.0
 20
0.0
 30
0.0
  3
*D20
  1

  0
LINE
  5
52E7
  8
0
 10
11819.49999999996
 20
9304.9973202112815
 30
0.0
 11
11819.49999999996
 21
9585.0
 31
0.0
  0
LINE
  5
52E8
  8
0
 10
12180.49999999996
 20
9305.0
 30
0.0
 11
12180.49999999996
 21
9585.0
 31
0.0
  0
LINE
  5
52E9
  8
0
 10
11849.49999999996
 20
9555.0
 30
0.0
 11
12150.49999999996
 21
9555.0
 31
0.0
  0
INSERT
  5
52EA
  8
0
  2
_ORIGIN
 10
11819.49999999996
 20
9555.0
 30
0.0
 41
30.0
 42
30.0
 43
30.0
 50
180.0
  0
INSERT
  5
52EB
  8
0
  2
_ORIGIN
 10
12180.49999999996
 20
9555.0
 30
0.0
 41
30.0
 42
30.0
 43
30.0
  0
INSERT
  5
52EC
  8
0
  2
*U43
 10
0.0
 20
0.0
 30
0.0
  0
POINT
  5
52ED
  8
DEFPOINTS
 62
     0
 10
11819.49999999996
 20
9154.9973202112815
 30
0.0
  0
POINT
  5
52EE
  8
DEFPOINTS
 62
     0
 10
12180.49999999996
 20
9155.0
 30
0.0
  0
POINT
  5
52EF
  8
DEFPOINTS
 62
     0
 10
12180.49999999996
 20
9555.0
 30
0.0
  0
ENDBLK
  5
4B49
  8
0
  0
BLOCK
  8
0
  2
*U21
 70
     1
 10
0.0
 20
0.0
 30
0.0
  3
*U21
  1

  0
INSERT
  5
53C3
  8
0
  2
_OPEN30
 10
5004.4999999998863
 20
9105.8830895350893
 30
0.0
 41
60.0
 42
60.0
 43
60.0
 50
239.99999999999969
  0
POLYLINE
  5
53C4
  8
0
 66
     1
 10
0.0
 20
0.0
 30
0.0
  0
VERTEX
  5
53C5
  8
0
 10
5034.4999999998854
 20
9157.8446137621577
 30
0.0
  0
VERTEX
  5
53C6
  8
0
 10
5080.1219551961949
 20
9236.864158102795
 30
0.0
  0
VERTEX
  5
53C7
  8
0
 10
5655.5219551961918
 20
9236.864158102795
 30
0.0
  0
SEQEND
  5
53C8
  8
0
  0
ENDBLK
  5
53CA
  8
0
  0
BLOCK
  8
0
  2
*U22
 70
     1
 10
0.0
 20
0.0
 30
0.0
  3
*U22
  1

  0
INSERT
  5
53CC
  8
0
  2
_OPEN30
 10
6094.75
 20
2804.499999999904
 30
0.0
 41
60.0
 42
60.0
 43
60.0
 50
300.00000000000023
  0
POLYLINE
  5
53CD
  8
0
 66
     1
 10
0.0
 20
0.0
 30
0.0
  0
VERTEX
  5
53CE
  8
0
 10
6064.75
 20
2856.4615242269701
 30
0.0
  0
VERTEX
  5
53CF
  8
0
 10
5745.9267448058599
 20
3408.6796008577148
 30
0.0
  0
VERTEX
  5
53D0
  8
0
 10
5047.3267448058614
 20
3408.6796008577148
 30
0.0
  0
SEQEND
  5
53D1
  8
0
  0
ENDBLK
  5
53D3
  8
0
  0
BLOCK
  8
0
  2
*U23
 70
     1
 10
0.0
 20
0.0
 30
0.0
  3
*U23
  1

  0
INSERT
  5
53D5
  8
0
  2
_OPEN30
 10
7148.0
 20
7365.0
 30
0.0
 41
60.0
 42
60.0
 43
60.0
 50
239.99999999999989
  0
POLYLINE
  5
53D6
  8
0
 66
     1
 10
0.0
 20
0.0
 30
0.0
  0
VERTEX
  5
53D7
  8
0
 10
7178.0
 20
7416.9615242270656
 30
0.0
  0
VERTEX
  5
53D8
  8
0
 10
7263.4700538379257
 20
7565.0
 30
0.0
  0
VERTEX
  5
53D9
  8
0
 10
7950.8700538379271
 20
7565.0
 30
0.0
  0
SEQEND
  5
53DA
  8
0
  0
ENDBLK
  5
53DC
  8
0
  0
BLOCK
  8
0
  2
*U24
 70
     1
 10
0.0
 20
0.0
 30
0.0
  3
*U24
  1

  0
INSERT
  5
53DE
  8
0
  2
_OPEN30
 10
7126.0000000000509
 20
7689.2566110481712
 30
0.0
 41
60.0
 42
60.0
 43
60.0
 50
240.0000000000002
  0
POLYLINE
  5
53DF
  8
0
 66
     1
 10
0.0
 20
0.0
 30
0.0
  0
VERTEX
  5
53E0
  8
0
 10
7156.0000000000518
 20
7741.2181352752377
 30
0.0
  0
VERTEX
  5
53E1
  8
0
 10
7301.0000000000509
 20
7992.365502372726
 30
0.0
  0
VERTEX
  5
53E2
  8
0
 10
8476.4000000000506
 20
7992.365502372726
 30
0.0
  0
SEQEND
  5
53E3
  8
0
  0
ENDBLK
  5
53E5
  8
0
  0
BLOCK
  8
0
  2
*U25
 70
     1
 10
0.0
 20
0.0
 30
0.0
  3
*U25
  1

  0
INSERT
  5
53E7
  8
0
  2
_OPEN30
 10
6094.75
 20
2654.499999999904
 30
0.0
 41
60.0
 42
60.0
 43
60.0
 50
122.48885300817
  0
POLYLINE
  5
53E8
  8
0
 66
     1
 10
0.0
 20
0.0
 30
0.0
  0
VERTEX
  5
53E9
  8
0
 10
6126.9781308959282
 20
2603.8902422554229
 30
0.0
  0
VERTEX
  5
53EA
  8
0
 10
6601.5134816624777
 20
1858.699054437511
 30
0.0
  0
VERTEX
  5
53EB
  8
0
 10
7984.9134816624774
 20
1858.699054437511
 30
0.0
  0
SEQEND
  5
53EC
  8
0
  0
ENDBLK
  5
53EE
  8
0
  0
BLOCK
  8
0
  2
*U26
 70
     1
 10
0.0
 20
0.0
 30
0.0
  3
*U26
  1

  0
TEXT
  5
53F0
  8
0
 10
3562.5999999999999
 20
7531.5
 30
0.0
 40
105.0
  1
本体枠長さ：L
 41
0.8
  7
横文字
  0
ENDBLK
  5
53F2
  8
0
  0
BLOCK
  8
0
  2
*U27
 70
     1
 10
0.0
 20
0.0
 30
0.0
  3
*U27
  1

  0
TEXT
  5
53F4
  8
0
 10
4665.6000000000004
 20
7531.5
 30
0.0
 40
105.0
  1
本体枠長さ：L
 41
0.8
  7
横文字
  0
ENDBLK
  5
53F6
  8
0
  0
BLOCK
  8
0
  2
*U28
 70
     1
 10
0.0
 20
0.0
 30
0.0
  3
*U28
  1

  0
TEXT
  5
53F8
  8
0
 10
5768.6000000000013
 20
7531.5
 30
0.0
 40
105.0
  1
本体枠長さ：L
 41
0.8
  7
横文字
  0
ENDBLK
  5
53FA
  8
0
  0
BLOCK
  8
0
  2
*U29
 70
     1
 10
0.0
 20
0.0
 30
0.0
  3
*U29
  1

  0
TEXT
  5
53FC
  8
0
 10
1809.4000000000001
 20
9102.5
 30
0.0
 40
105.0
  1
50以下（壁面と本体間の隙間）
 41
0.8
  7
横文字
  0
ENDBLK
  5
53FE
  8
0
  0
BLOCK
  8
0
  2
*U30
 70
     1
 10
0.0
 20
0.0
 30
0.0
  3
*U30
  1

  0
TEXT
  5
5400
  8
0
 10
3103.1999999999421
 20
9585.0
 30
0.0
 40
105.0
  1
150以内
 41
0.8
  7
横文字
  0
ENDBLK
  5
5402
  8
0
  0
BLOCK
  8
0
  2
*U31
 70
     1
 10
0.0
 20
0.0
 30
0.0
  3
*U31
  1

  0
TEXT
  5
5404
  8
0
 10
5162.9499999998843
 20
9585.0
 30
0.0
 40
105.0
  1
900以内
 41
0.8
  7
横文字
  0
ENDBLK
  5
5406
  8
0
  0
BLOCK
  8
0
  2
*U32
 70
     1
 10
0.0
 20
0.0
 30
0.0
  3
*U32
  1

  0
TEXT
  5
5408
  8
0
 10
6459.1999999999998
 20
9585.0
 30
0.0
 40
105.0
  1
150以内
 41
0.8
  7
横文字
  0
ENDBLK
  5
540A
  8
0
  0
BLOCK
  8
0
  2
*U33
 70
     1
 10
0.0
 20
0.0
 30
0.0
  3
*U33
  1

  0
TEXT
  5
540C
  8
0
 10
6781.0000000000018
 20
9102.5
 30
0.0
 40
105.0
  1
50以下（壁面と本体間の隙間）
 41
0.8
  7
横文字
  0
ENDBLK
  5
540E
  8
0
  0
BLOCK
  8
0
  2
*U34
 70
     1
 10
0.0
 20
0.0
 30
0.0
  3
*U34
  1

  0
TEXT
  5
5410
  8
0
 10
4952.0
 20
7306.4999999999991
 30
0.0
 40
105.0
  1
W
 41
0.8
  7
横文字
  0
ENDBLK
  5
5412
  8
0
  0
BLOCK
  8
0
  2
*U35
 70
     1
 10
0.0
 20
0.0
 30
0.0
  3
*U35
  1

  0
TEXT
  5
5414
  8
0
 10
12737.5
 20
8010.8000000000329
 30
0.0
 40
105.0
  1
H =508
 50
90.0
 41
0.8
  7
横文字
  0
ENDBLK
  5
5416
  8
0
  0
BLOCK
  8
0
  2
*U36
 70
     1
 10
0.0
 20
0.0
 30
0.0
  3
*U36
  1

  0
TEXT
  5
5418
  8
0
 10
12737.5
 20
6546.0000000000009
 30
0.0
 40
105.0
  1
開口高さ1800以上
 50
90.0
 41
0.8
  7
横文字
  0
ENDBLK
  5
541A
  8
0
  0
BLOCK
  8
0
  2
*U37
 70
     1
 10
0.0
 20
0.0
 30
0.0
  3
*U37
  1

  0
TEXT
  5
541C
  8
0
 10
11511.499999999931
 20
8507.5000000000891
 30
0.0
 40
105.0
  1
85
 50
90.0
 41
0.8
  7
横文字
  0
ENDBLK
  5
541E
  8
0
  0
BLOCK
  8
0
  2
*U38
 70
     1
 10
0.0
 20
0.0
 30
0.0
  3
*U38
  1

  0
TEXT
  5
5420
  8
0
 10
11361.499999999931
 20
8431.9000000000324
 30
0.0
 40
105.0
  1
（180）
 50
90.0
 41
0.8
  7
横文字
  0
ENDBLK
  5
5422
  8
0
  0
BLOCK
  8
0
  2
*U39
 70
     1
 10
0.0
 20
0.0
 30
0.0
  3
*U39
  1

  0
TEXT
  5
5424
  8
0
 10
3749.5
 20
3074.00000000002
 30
0.0
 40
105.0
  1
60以上
 50
90.0
 41
0.8
  7
横文字
  0
ENDBLK
  5
5426
  8
0
  0
BLOCK
  8
0
  2
*U40
 70
     1
 10
0.0
 20
0.0
 30
0.0
  3
*U40
  1

  0
TEXT
  5
5428
  8
0
 10
4358.5
 20
7366.5000000000009
 30
0.0
 40
105.0
  1
3
 41
0.8
  7
横文字
  0
ENDBLK
  5
542A
  8
0
  0
BLOCK
  8
0
  2
*U41
 70
     1
 10
0.0
 20
0.0
 30
0.0
  3
*U41
  1

  0
TEXT
  5
542C
  8
0
 10
5561.5
 20
7366.5000000000009
 30
0.0
 40
105.0
  1
3
 41
0.8
  7
横文字
  0
ENDBLK
  5
542E
  8
0
  0
BLOCK
  8
0
  2
*U42
 70
     1
 10
0.0
 20
0.0
 30
0.0
  3
*U42
  1

  0
TEXT
  5
5430
  8
0
 10
11196.499999999931
 20
8489.4000000000306
 30
0.0
 40
105.0
  1
230以上
 50
90.0
 41
0.8
  7
横文字
  0
ENDBLK
  5
5432
  8
0
  0
BLOCK
  8
0
  2
*U43
 70
     1
 10
0.0
 20
0.0
 30
0.0
  3
*U43
  1

  0
TEXT
  5
5434
  8
0
 10
11891.99999999996
 20
9585.0
 30
0.0
 40
105.0
  1
361
 41
0.8
  7
横文字
  0
ENDBLK
  5
5436
  8
0
  0
ENDSEC
  0
SECTION
  2
ENTITIES
  0
LINE
  5
9F
  8
0
 10
16380.0
 20
0.0
 30
0.0
 11
0.0
 21
0.0
 31
0.0
  0
LINE
  5
A0
  8
0
 10
0.0
 20
11745.0
 30
0.0
 11
16380.0
 21
11745.0
 31
0.0
  0
LINE
  5
A1
  8
0
 10
0.0
 20
11745.0
 30
0.0
 11
0.0
 21
0.0
 31
0.0
  0
LINE
  5
A2
  8
0
 10
16380.0
 20
11745.0
 30
0.0
 11
16380.0
 21
0.0
 31
0.0
  0
LINE
  5
A3
  8
0
 10
10130.0
 20
400.0
 30
0.0
 11
10130.0
 21
0.0000000000000918
 31
0.0
  0
TEXT
  5
A4
  8
0
 10
10979.99999999996
 20
247.50000000000011
 30
0.0
 40
105.0
  1
可動式防煙たれ壁「ケムパネル」
 11
10979.99999999996
 21
300.00000000000011
 31
0.0
 73
     2
  0
TEXT
  5
A5
  8
0
 10
10229.99999999996
 20
247.50000000000011
 30
0.0
 40
105.0
  1
製品名称  :
 11
10229.99999999996
 21
300.00000000000011
 31
0.0
 73
     2
  0
TEXT
  5
A7
  8
0
 10
10229.99999999996
 20
47.500000000000071
 30
0.0
 40
105.0
  1
納まり　　:
 11
10229.99999999996
 21
100.0
 31
0.0
 73
     2
  0
LINE
  5
A8
  8
0
 10
10130.0
 20
200.0
 30
0.0
 11
13880.0
 21
199.99999999999989
 31
0.0
  0
LINE
  5
A9
  8
0
 10
13880.0
 20
400.0
 30
0.0
 11
13880.0
 21
0.0
 31
0.0
  0
TEXT
  5
AA
  8
0
 10
13998.33333333333
 20
112.4999999999996
 30
0.0
 40
175.0
  1
東洋シヤッター株式会社
 72
     1
 11
15130.0
 21
199.9999999999996
 31
0.0
 73
     2
  0
LINE
  5
AB
  8
0
 10
10130.0
 20
400.0
 30
0.0
 11
16380.0
 21
399.99999999999989
 31
0.0
  0
TEXT
  5
AC
  8
0
 10
12979.99999999996
 20
47.500000000000057
 30
0.0
 40
105.0
  1
縮尺:1/30
 11
12979.99999999996
 21
100.0
 31
0.0
 73
     2
  0
LINE
  5
45D8
  8
0
 10
12210.49999999996
 20
8544.5000000000582
 30
0.0
 11
12250.39999999996
 21
8544.5000000000582
 31
0.0
  0
LINE
  5
45D9
  8
0
 10
12250.39999999996
 20
8544.5000000000582
 30
0.0
 11
12250.39999999996
 21
8507.9000000000615
 31
0.0
  0
LINE
  5
45DA
  8
0
 10
12252.39999999996
 20
8505.9000000000597
 30
0.0
 11
12253.99999999996
 21
8505.9000000000597
 31
0.0
  0
LINE
  5
45DB
  8
0
 10
12253.99999999996
 20
8505.9000000000597
 30
0.0
 11
12253.99999999996
 21
8505.0000000000564
 31
0.0
  0
LINE
  5
45DC
  8
0
 10
12253.99999999996
 20
8505.0000000000564
 30
0.0
 11
12240.49999999996
 21
8505.0000000000564
 31
0.0
  0
LINE
  5
45DD
  8
0
 10
12240.49999999996
 20
8505.0000000000564
 30
0.0
 11
12240.49999999996
 21
8508.0000000000564
 31
0.0
  0
LINE
  5
45DE
  8
0
 10
12240.49999999996
 20
8508.0000000000564
 30
0.0
 11
12245.39999999996
 21
8508.0000000000564
 31
0.0
  0
LINE
  5
45DF
  8
0
 10
12245.39999999996
 20
8508.0000000000564
 30
0.0
 11
12245.39999999996
 21
8506.5000000000564
 31
0.0
  0
LINE
  5
45E0
  8
0
 10
12245.39999999996
 20
8506.5000000000564
 30
0.0
 11
12247.39999999996
 21
8506.5000000000564
 31
0.0
  0
LINE
  5
45E1
  8
0
 10
12247.39999999996
 20
8506.5000000000564
 30
0.0
 11
12247.39999999996
 21
8541.5000000000582
 31
0.0
  0
LINE
  5
45E2
  8
0
 10
12247.39999999996
 20
8541.5000000000582
 30
0.0
 11
12245.39999999996
 21
8541.5000000000582
 31
0.0
  0
LINE
  5
45E3
  8
0
 10
12245.39999999996
 20
8541.5000000000582
 30
0.0
 11
12245.39999999996
 21
8539.5000000000582
 31
0.0
  0
LINE
  5
45E4
  8
0
 10
12245.39999999996
 20
8539.5000000000582
 30
0.0
 11
12243.39999999996
 21
8539.5000000000582
 31
0.0
  0
LINE
  5
45E5
  8
0
 10
12243.39999999996
 20
8539.5000000000582
 30
0.0
 11
12243.39999999996
 21
8541.5000000000582
 31
0.0
  0
LINE
  5
45E6
  8
0
 10
12210.49999999996
 20
8544.5000000000582
 30
0.0
 11
12210.49999999996
 21
8541.5000000000582
 31
0.0
  0
LINE
  5
45E7
  8
0
 10
12210.49999999996
 20
8541.5000000000582
 30
0.0
 11
12243.39999999996
 21
8541.5000000000582
 31
0.0
  0
ARC
  5
45E8
  8
0
 10
12252.39999999996
 20
8507.9000000000615
 30
0.0
 40
2.0
 50
180.0
 51
270.0
  0
LINE
  5
45E9
  8
0
 10
12228.49999999996
 20
8559.5000000000582
 30
0.0
 11
12228.49999999996
 21
8556.5000000000582
 31
0.0
  0
LINE
  5
45EA
  8
0
 10
12228.49999999996
 20
8556.5000000000582
 30
0.0
 11
12255.49999999996
 21
8556.5000000000582
 31
0.0
  0
LINE
  5
45EB
  8
0
 10
12255.49999999996
 20
8556.5000000000582
 30
0.0
 11
12255.49999999996
 21
8512.0000000000582
 31
0.0
  0
LINE
  5
45EC
  8
0
 10
12255.49999999996
 20
8512.0000000000582
 30
0.0
 11
12256.99999999996
 21
8512.0000000000582
 31
0.0
  0
LINE
  5
45ED
  8
0
 10
12256.99999999996
 20
8512.0000000000582
 30
0.0
 11
12256.99999999996
 21
8505.0000000000564
 31
0.0
  0
LINE
  5
45EE
  8
0
 10
12256.99999999996
 20
8505.0000000000564
 30
0.0
 11
12270.49999999996
 21
8505.0000000000564
 31
0.0
  0
LINE
  5
45EF
  8
0
 10
12270.49999999996
 20
8508.0000000000564
 30
0.0
 11
12260.49999999996
 21
8508.0000000000564
 31
0.0
  0
LINE
  5
45F0
  8
0
 10
12260.49999999996
 20
8508.0000000000564
 30
0.0
 11
12260.49999999996
 21
8506.5000000000564
 31
0.0
  0
LINE
  5
45F1
  8
0
 10
12260.49999999996
 20
8506.5000000000564
 30
0.0
 11
12258.49999999996
 21
8506.5000000000564
 31
0.0
  0
LINE
  5
45F2
  8
0
 10
12258.49999999996
 20
8506.5000000000564
 30
0.0
 11
12258.49999999996
 21
8556.5000000000582
 31
0.0
  0
LINE
  5
45F3
  8
0
 10
12258.49999999996
 20
8556.5000000000582
 30
0.0
 11
12260.49999999996
 21
8556.5000000000582
 31
0.0
  0
LINE
  5
45F4
  8
0
 10
12260.49999999996
 20
8556.5000000000582
 30
0.0
 11
12260.49999999996
 21
8554.5000000000582
 31
0.0
  0
LINE
  5
45F5
  8
0
 10
12260.49999999996
 20
8554.5000000000582
 30
0.0
 11
12262.49999999996
 21
8554.5000000000582
 31
0.0
  0
LINE
  5
45F6
  8
0
 10
12262.49999999996
 20
8554.5000000000582
 30
0.0
 11
12262.49999999996
 21
8559.5000000000582
 31
0.0
  0
LINE
  5
45F7
  8
0
 10
12270.49999999996
 20
8508.0000000000564
 30
0.0
 11
12270.49999999996
 21
8505.0000000000564
 31
0.0
  0
LINE
  5
45F8
  8
0
 10
12228.49999999996
 20
8559.5000000000582
 30
0.0
 11
12262.49999999996
 21
8559.5000000000582
 31
0.0
  0
LINE
  5
45F9
  8
0
 10
12262.49999999996
 20
8559.5000000000582
 30
0.0
 11
12248.09999999996
 21
8559.5000000000582
 31
0.0
  0
LINE
  5
45FA
  8
0
 10
12247.49999999996
 20
8560.1000000000568
 30
0.0
 11
12247.49999999996
 21
8589.4000000000597
 31
0.0
  0
LINE
  5
45FB
  8
0
 10
12247.49999999996
 20
8589.4000000000597
 30
0.0
 11
11752.49999999996
 21
8589.4000000000597
 31
0.0
  0
LINE
  5
45FC
  8
0
 10
11752.49999999996
 20
8589.4000000000597
 30
0.0
 11
11752.49999999996
 21
8560.1000000000568
 31
0.0
  0
LINE
  5
45FD
  8
0
 10
11751.89999999996
 20
8559.5000000000582
 30
0.0
 11
11737.49999999996
 21
8559.5000000000582
 31
0.0
  0
LINE
  5
45FE
  8
0
 10
11737.49999999996
 20
8559.5000000000582
 30
0.0
 11
11737.49999999996
 21
8560.1000000000568
 31
0.0
  0
LINE
  5
45FF
  8
0
 10
11737.49999999996
 20
8560.1000000000568
 30
0.0
 11
11751.89999999996
 21
8560.1000000000568
 31
0.0
  0
LINE
  5
4600
  8
0
 10
11751.89999999996
 20
8560.1000000000568
 30
0.0
 11
11751.89999999996
 21
8589.4000000000597
 31
0.0
  0
LINE
  5
4601
  8
0
 10
11752.49999999996
 20
8590.0000000000582
 30
0.0
 11
12247.49999999996
 21
8590.0000000000582
 31
0.0
  0
LINE
  5
4602
  8
0
 10
12248.09999999996
 20
8589.4000000000597
 30
0.0
 11
12248.09999999996
 21
8560.1000000000568
 31
0.0
  0
LINE
  5
4603
  8
0
 10
12248.09999999996
 20
8560.1000000000568
 30
0.0
 11
12262.49999999996
 21
8560.1000000000568
 31
0.0
  0
LINE
  5
4604
  8
0
 10
12262.49999999996
 20
8560.1000000000568
 30
0.0
 11
12262.49999999996
 21
8559.5000000000582
 31
0.0
  0
ARC
  5
4605
  8
0
 10
12248.09999999996
 20
8560.1000000000568
 30
0.0
 40
0.5999999999999999
 50
180.0
 51
270.0
  0
ARC
  5
4606
  8
0
 10
11751.89999999996
 20
8560.1000000000568
 30
0.0
 40
0.5999999999999999
 50
270.0
 51
0.0
  0
ARC
  5
4607
  8
0
 10
11752.49999999996
 20
8589.4000000000597
 30
0.0
 40
0.5999999999999999
 50
90.0
 51
180.0
  0
ARC
  5
4608
  8
0
 10
12247.49999999996
 20
8589.4000000000597
 30
0.0
 40
0.5999999999999999
 50
0.0
 51
90.0
  0
LINE
  5
4609
  8
0
 10
12233.74999999996
 20
8556.5000000000582
 30
0.0
 11
12233.74999999996
 21
8554.9000000000597
 31
0.0
  0
LINE
  5
460A
  8
0
 10
12233.74999999996
 20
8554.9000000000597
 30
0.0
 11
12246.24999999996
 21
8554.9000000000597
 31
0.0
  0
LINE
  5
460B
  8
0
 10
12246.24999999996
 20
8554.9000000000597
 30
0.0
 11
12246.24999999996
 21
8556.5000000000582
 31
0.0
  0
LINE
  5
460C
  8
0
 10
12245.79999999995
 20
8554.9000000000597
 30
0.0
 11
12245.79999999995
 21
8550.4000000000597
 31
0.0
  0
LINE
  5
460D
  8
0
 10
12242.899999999951
 20
8554.9000000000597
 30
0.0
 11
12242.899999999951
 21
8550.4000000000597
 31
0.0
  0
LINE
  5
460E
  8
0
 10
12237.099999999949
 20
8554.9000000000597
 30
0.0
 11
12237.099999999949
 21
8550.4000000000597
 31
0.0
  0
LINE
  5
460F
  8
0
 10
12234.19999999995
 20
8554.9000000000597
 30
0.0
 11
12234.19999999995
 21
8550.4000000000597
 31
0.0
  0
LINE
  5
4610
  8
0
 10
12244.349999999949
 20
8549.9000000000597
 30
0.0
 11
12235.649999999951
 21
8549.9000000000597
 31
0.0
  0
ARC
  5
4611
  8
0
 10
12239.999999999951
 20
8558.5600000000595
 30
0.0
 40
8.6599999999999966
 50
250.4351859363023
 51
289.56481406369772
  0
ARC
  5
4612
  8
0
 10
12244.349999999949
 20
8552.2525000000605
 30
0.0
 40
2.3525000000000631
 50
231.94878792483851
 51
308.05121207516152
  0
ARC
  5
4613
  8
0
 10
12235.649999999951
 20
8552.2525000000569
 30
0.0
 40
2.35249999999973
 50
231.94878792483851
 51
308.05121207516152
  0
LINE
  5
4614
  8
0
 10
12233.749999999951
 20
8584.5000000000582
 30
0.0
 11
12233.749999999951
 21
8586.1000000000568
 31
0.0
  0
LINE
  5
4615
  8
0
 10
12233.749999999951
 20
8586.1000000000568
 30
0.0
 11
12246.249999999951
 21
8586.1000000000568
 31
0.0
  0
LINE
  5
4616
  8
0
 10
12246.249999999951
 20
8586.1000000000568
 30
0.0
 11
12246.249999999951
 21
8584.5000000000582
 31
0.0
  0
LINE
  5
4617
  8
0
 10
12245.799999999939
 20
8586.1000000000568
 30
0.0
 11
12245.799999999939
 21
8588.9000000000597
 31
0.0
  0
LINE
  5
4618
  8
0
 10
12242.89999999994
 20
8586.1000000000568
 30
0.0
 11
12242.89999999994
 21
8588.9000000000597
 31
0.0
  0
LINE
  5
4619
  8
0
 10
12237.09999999994
 20
8586.1000000000568
 30
0.0
 11
12237.09999999994
 21
8588.9000000000597
 31
0.0
  0
LINE
  5
461A
  8
0
 10
12234.199999999941
 20
8586.1000000000568
 30
0.0
 11
12234.199999999941
 21
8588.9000000000597
 31
0.0
  0
LINE
  5
461B
  8
0
 10
12244.349999999949
 20
8589.4000000000597
 30
0.0
 11
12235.64999999994
 21
8589.4000000000597
 31
0.0
  0
ARC
  5
461C
  8
0
 10
12239.99999999994
 20
8580.7400000000562
 30
0.0
 40
8.6599999999999966
 50
70.435185936302332
 51
109.5648140636976
  0
ARC
  5
461D
  8
0
 10
12244.349999999949
 20
8587.0475000000588
 30
0.0
 40
2.3525000000000631
 50
51.948787924838442
 51
128.05121207516149
  0
ARC
  5
461E
  8
0
 10
12235.64999999994
 20
8587.0475000000588
 30
0.0
 40
2.35249999999973
 50
51.948787924838442
 51
128.05121207516149
  0
LINE
  5
461F
  8
0
 10
12246.249999999951
 20
8584.5000000000582
 30
0.0
 11
12233.749999999951
 21
8584.5000000000582
 31
0.0
  0
LINE
  5
4620
  8
0
 10
12246.249999999951
 20
8556.5000000000582
 30
0.0
 11
12233.74999999996
 21
8556.5000000000582
 31
0.0
  0
LINE
  5
4621
  8
0
 10
12247.49999999996
 20
8584.5000000000582
 30
0.0
 11
12113.84999999996
 21
8584.5000000000582
 31
0.0
  0
LINE
  5
4622
  8
0
 10
12247.49999999996
 20
8584.5000000000582
 30
0.0
 11
12247.49999999996
 21
8559.5000000000582
 31
0.0
  0
LINE
  5
4623
  8
0
 10
11752.49999999996
 20
8584.5000000000582
 30
0.0
 11
11752.49999999996
 21
8559.5000000000582
 31
0.0
  0
LINE
  5
4624
  8
0
  6
PHANTOM2
 10
12245.39999999996
 20
8508.0000000000564
 30
0.0
 11
12245.39999999996
 21
8520.0000000000582
 31
0.0
  0
LINE
  5
4625
  8
0
  6
PHANTOM2
 10
12245.39999999996
 20
8520.0000000000582
 30
0.0
 11
12229.499999999951
 21
8520.0000000000582
 31
0.0
  0
LINE
  5
4626
  8
0
  6
PHANTOM2
 10
12245.39999999996
 20
8508.0000000000564
 30
0.0
 11
11754.59999999996
 21
8508.0000000000564
 31
0.0
  0
LINE
  5
4627
  8
0
  6
PHANTOM2
 10
12260.49999999996
 20
8508.0000000000564
 30
0.0
 11
12260.49999999996
 21
8520.0000000000582
 31
0.0
  0
LINE
  5
4628
  8
0
  6
PHANTOM2
 10
11739.49999999996
 20
8520.0000000000582
 30
0.0
 11
11026.499999999931
 21
8520.0000000000582
 31
0.0
  0
LINE
  5
4629
  8
0
  6
PHANTOM2
 10
11739.49999999996
 20
8508.0000000000546
 30
0.0
 11
11026.499999999931
 21
8508.0000000003547
 31
0.0
  0
LINE
  5
462A
  8
0
 10
12210.49999999996
 20
8544.5000000000582
 30
0.0
 11
12210.49999999996
 21
8548.5000000000582
 31
0.0
  0
LINE
  5
462B
  8
0
 10
12210.49999999996
 20
8548.5000000000582
 30
0.0
 11
12230.49999999996
 21
8548.5000000000582
 31
0.0
  0
LINE
  5
462C
  8
0
 10
12230.49999999996
 20
8548.5000000000582
 30
0.0
 11
12230.49999999996
 21
8544.5000000000582
 31
0.0
  0
LINE
  5
462D
  8
0
 10
12225.49999999996
 20
8548.5000000000582
 30
0.0
 11
12225.49999999996
 21
8544.5000000000582
 31
0.0
  0
LINE
  5
462E
  8
0
 10
12215.49999999996
 20
8548.5000000000582
 30
0.0
 11
12215.49999999996
 21
8544.5000000000582
 31
0.0
  0
LINE
  5
462F
  8
0
 10
12229.499999999951
 20
8541.5000000000582
 30
0.0
 11
12229.499999999951
 21
8508.0000000000564
 31
0.0
  0
LINE
  5
4630
  8
0
 10
12211.499999999951
 20
8541.5000000000582
 30
0.0
 11
12211.499999999951
 21
8508.0000000000564
 31
0.0
  0
LINE
  5
4631
  8
0
 10
12207.999999999951
 20
8508.0000000000564
 30
0.0
 11
12232.999999999951
 21
8508.0000000000564
 31
0.0
  0
LINE
  5
4632
  8
0
 10
12232.999999999951
 20
8508.0000000000564
 30
0.0
 11
12232.999999999951
 21
8506.0000000000582
 31
0.0
  0
LINE
  5
4633
  8
0
 10
12232.999999999951
 20
8506.0000000000582
 30
0.0
 11
12207.999999999951
 21
8506.0000000000582
 31
0.0
  0
LINE
  5
4634
  8
0
 10
12207.999999999951
 20
8506.0000000000582
 30
0.0
 11
12207.999999999951
 21
8508.0000000000564
 31
0.0
  0
LINE
  5
4635
  8
0
 10
12231.999999999951
 20
8505.0000000000564
 30
0.0
 11
12208.999999999951
 21
8505.0000000000564
 31
0.0
  0
ARC
  5
4636
  8
0
 10
12231.999999999951
 20
8506.0000000000582
 30
0.0
 40
1.0
 50
270.0
 51
0.0
  0
ARC
  5
4637
  8
0
 10
12208.999999999951
 20
8506.0000000000582
 30
0.0
 40
1.0
 50
180.0
 51
270.0
  0
LINE
  5
4638
  8
0
 10
12224.499999999951
 20
8570.0000000000655
 30
0.0
 11
12224.499999999951
 21
8548.5000000000582
 31
0.0
  0
LINE
  5
4639
  8
0
 10
12216.499999999951
 20
8570.0000000000655
 30
0.0
 11
12216.499999999951
 21
8548.5000000000582
 31
0.0
  0
LINE
  5
463A
  8
0
 10
12179.799999999959
 20
8568.5000000000655
 30
0.0
 11
12203.499999999951
 21
8568.5000000000655
 31
0.0
  0
LINE
  5
463B
  8
0
 10
12179.799999999959
 20
8570.0000000000655
 30
0.0
 11
12203.499999999951
 21
8570.0000000000655
 31
0.0
  0
ARC
  5
463C
  8
0
 10
12230.999999999951
 20
8569.2500000000655
 30
0.0
 40
0.75
 50
270.0
 51
90.0
  0
LINE
  5
463D
  8
0
 10
12227.999999999951
 20
8570.0000000000655
 30
0.0
 11
12227.999999999951
 21
8575.8000000000648
 31
0.0
  0
LINE
  5
463E
  8
0
 10
12224.29999999995
 20
8570.0000000000655
 30
0.0
 11
12224.29999999995
 21
8575.8000000000648
 31
0.0
  0
LINE
  5
463F
  8
0
 10
12216.699999999961
 20
8570.0000000000655
 30
0.0
 11
12216.699999999961
 21
8575.8000000000648
 31
0.0
  0
LINE
  5
4640
  8
0
 10
12212.999999999951
 20
8570.0000000000655
 30
0.0
 11
12212.999999999951
 21
8575.8000000000648
 31
0.0
  0
ARC
  5
4641
  8
0
 10
12226.149999999951
 20
8573.7053571429242
 30
0.0
 40
2.7946428571426911
 50
48.548882268835833
 51
131.45111773116409
  0
ARC
  5
4642
  8
0
 10
12220.499999999951
 20
8565.8357142857785
 30
0.0
 40
10.664285714285089
 50
69.12504929770283
 51
110.8749507022971
  0
ARC
  5
4643
  8
0
 10
12214.849999999949
 20
8573.7053571429242
 30
0.0
 40
2.7946428571426529
 50
48.548882268835833
 51
131.45111773116409
  0
LINE
  5
4644
  8
0
 10
12214.849999999949
 20
8576.5000000000655
 30
0.0
 11
12226.149999999951
 21
8576.5000000000655
 31
0.0
  0
LINE
  5
4645
  8
0
 10
12224.499999999951
 20
8576.5000000000655
 30
0.0
 11
12224.499999999951
 21
8579.5000000000655
 31
0.0
  0
LINE
  5
4646
  8
0
 10
12224.499999999951
 20
8579.5000000000655
 30
0.0
 11
12223.999999999951
 21
8580.0000000000655
 31
0.0
  0
LINE
  5
4647
  8
0
 10
12216.499999999951
 20
8576.5000000000655
 30
0.0
 11
12216.499999999951
 21
8579.5000000000655
 31
0.0
  0
LINE
  5
4648
  8
0
 10
12216.499999999951
 20
8579.5000000000655
 30
0.0
 11
12216.99999999996
 21
8580.0000000000655
 31
0.0
  0
LINE
  5
4649
  8
0
 10
12216.99999999996
 20
8580.0000000000655
 30
0.0
 11
12223.999999999951
 21
8580.0000000000655
 31
0.0
  0
LINE
  5
464A
  8
0
 10
12224.499999999951
 20
8505.0000000000564
 30
0.0
 11
12224.499999999951
 21
8503.0000000000582
 31
0.0
  0
LINE
  5
464B
  8
0
 10
12224.499999999951
 20
8503.0000000000582
 30
0.0
 11
12216.499999999951
 21
8503.0000000000582
 31
0.0
  0
LINE
  5
464C
  8
0
 10
12216.499999999951
 20
8503.0000000000582
 30
0.0
 11
12216.499999999951
 21
8505.0000000000564
 31
0.0
  0
LINE
  5
464D
  8
0
 10
12230.49999999996
 20
8546.8000000000575
 30
0.0
 11
12239.99999999996
 21
8546.8000000000575
 31
0.0
  0
LINE
  5
464E
  8
0
 10
12239.99999999996
 20
8544.5000000000582
 30
0.0
 11
12239.99999999996
 21
8548.5000000000582
 31
0.0
  0
LINE
  5
464F
  8
0
 10
12237.299999999959
 20
8541.5000000000582
 30
0.0
 11
12237.299999999959
 21
8540.5000000000582
 31
0.0
  0
LINE
  5
4650
  8
0
 10
12232.299999999959
 20
8541.5000000000582
 30
0.0
 11
12232.299999999959
 21
8540.5000000000582
 31
0.0
  0
LINE
  5
4651
  8
0
 10
12237.299999999959
 20
8540.5000000000582
 30
0.0
 11
12236.799999999959
 21
8540.0000000000582
 31
0.0
  0
LINE
  5
4652
  8
0
 10
12232.299999999959
 20
8540.5000000000582
 30
0.0
 11
12232.79999999997
 21
8540.0000000000582
 31
0.0
  0
LINE
  5
4653
  8
0
 10
12232.79999999997
 20
8540.0000000000582
 30
0.0
 11
12236.799999999959
 21
8540.0000000000582
 31
0.0
  0
ARC
  5
4654
  8
0
 10
12234.800193450959
 20
8541.6403283520576
 30
0.0
 40
8.1285714289999991
 50
66.047735111965451
 51
113.95226488803451
  0
ARC
  5
4655
  8
0
 10
12232.549999998961
 20
8546.8000000000575
 30
0.0
 40
2.5
 50
114.8297022081131
 51
145.08479370514371
  0
ARC
  5
4656
  8
0
 10
12237.05038690396
 20
8546.8000000000575
 30
0.0
 40
2.5
 50
0.0
 51
65.170297791886867
  0
LINE
  5
4657
  8
0
  6
PHANTOM2
 10
12195.49999999996
 20
8591.2000000000589
 30
0.0
 11
12184.699999999961
 21
8591.2000000000589
 31
0.0
  0
LINE
  5
4658
  8
0
  6
PHANTOM2
 10
12184.699999999961
 20
8591.2000000000589
 30
0.0
 11
12184.699999999961
 21
8626.8000000000575
 31
0.0
  0
LINE
  5
4659
  8
0
  6
PHANTOM2
 10
12184.699999999961
 20
8626.8000000000575
 30
0.0
 11
12195.49999999996
 21
8626.8000000000575
 31
0.0
  0
LINE
  5
465A
  8
0
  6
PHANTOM2
 10
12195.49999999996
 20
8626.8000000000575
 30
0.0
 11
12195.49999999996
 21
8628.0000000000582
 31
0.0
  0
LINE
  5
465B
  8
0
  6
PHANTOM2
 10
12195.49999999996
 20
8628.0000000000582
 30
0.0
 11
12184.699999999961
 21
8628.0000000000582
 31
0.0
  0
LINE
  5
465C
  8
0
  6
PHANTOM2
 10
12183.49999999996
 20
8626.8000000000575
 30
0.0
 11
12183.49999999996
 21
8591.2000000000589
 31
0.0
  0
LINE
  5
465D
  8
0
  6
PHANTOM2
 10
12184.699999999961
 20
8590.0000000000582
 30
0.0
 11
12195.49999999996
 21
8590.0000000000582
 31
0.0
  0
LINE
  5
465E
  8
0
  6
PHANTOM2
 10
12195.49999999996
 20
8590.0000000000582
 30
0.0
 11
12195.49999999996
 21
8591.2000000000589
 31
0.0
  0
ARC
  5
465F
  8
0
  6
PHANTOM2
 10
12184.699999999961
 20
8626.8000000000575
 30
0.0
 40
1.1999999999999991
 50
90.0
 51
180.0
  0
ARC
  5
4660
  8
0
  6
PHANTOM2
 10
12184.699999999961
 20
8591.2000000000589
 30
0.0
 40
1.1999999999999991
 50
180.0
 51
270.0
  0
LINE
  5
4661
  8
0
 10
12195.49999999996
 20
8619.0000000000582
 30
0.0
 11
12195.49999999996
 21
8628.0000000000582
 31
0.0
  0
LINE
  5
4662
  8
0
 10
12195.49999999996
 20
8628.0000000000582
 30
0.0
 11
12183.49999999996
 21
8628.0000000000582
 31
0.0
  0
LINE
  5
4663
  8
0
 10
12183.49999999996
 20
8628.0000000000582
 30
0.0
 11
12183.49999999996
 21
8590.0000000000582
 31
0.0
  0
LINE
  5
4664
  8
0
 10
12177.49999999996
 20
8540.0000000000582
 30
0.0
 11
12177.49999999996
 21
8544.5000000000582
 31
0.0
  0
LINE
  5
4665
  8
0
 10
12183.49999999996
 20
8634.0000000000582
 30
0.0
 11
12195.49999999996
 21
8634.0000000000582
 31
0.0
  0
LINE
  5
4666
  8
0
 10
12201.49999999996
 20
8628.0000000000582
 30
0.0
 11
12201.49999999996
 21
8619.0000000000582
 31
0.0
  0
LINE
  5
4667
  8
0
 10
12201.49999999996
 20
8619.0000000000582
 30
0.0
 11
12195.49999999996
 21
8619.0000000000582
 31
0.0
  0
ARC
  5
4668
  8
0
 10
12183.49999999996
 20
8628.0000000000582
 30
0.0
 40
6.0
 50
90.0
 51
180.0
  0
ARC
  5
4669
  8
0
 10
12195.49999999996
 20
8628.0000000000582
 30
0.0
 40
6.0
 50
0.0
 51
90.0
  0
LINE
  5
466A
  8
0
 10
12210.49999999996
 20
8544.5000000000582
 30
0.0
 11
12139.949999999961
 21
8544.5000000000582
 31
0.0
  0
LINE
  5
466B
  8
0
 10
12210.49999999996
 20
8546.8000000000575
 30
0.0
 11
12139.49999999996
 21
8546.8000000000575
 31
0.0
  0
LINE
  5
466C
  8
0
 10
12183.49999999996
 20
8540.0000000000582
 30
0.0
 11
12182.99999999996
 21
8539.5000000000582
 31
0.0
  0
LINE
  5
466D
  8
0
 10
12177.49999999996
 20
8540.0000000000582
 30
0.0
 11
12177.99999999996
 21
8539.5000000000582
 31
0.0
  0
LINE
  5
466E
  8
0
 10
12177.99999999996
 20
8539.5000000000582
 30
0.0
 11
12182.99999999996
 21
8539.5000000000582
 31
0.0
  0
LINE
  5
466F
  8
0
 10
12183.49999999996
 20
8544.5000000000582
 30
0.0
 11
12183.49999999996
 21
8540.0000000000582
 31
0.0
  0
LINE
  5
4670
  8
0
 10
12177.49999999996
 20
8590.0000000000582
 30
0.0
 11
12177.49999999996
 21
8628.0000000000582
 31
0.0
  0
LINE
  5
4671
  8
0
 10
12170.49999999996
 20
8589.4000000000597
 30
0.0
 11
12170.49999999996
 21
8584.5000000000582
 31
0.0
  0
LINE
  5
4672
  8
0
 10
12195.49999999996
 20
8589.4000000000597
 30
0.0
 11
12195.49999999996
 21
8584.5000000000582
 31
0.0
  0
ARC
  5
4673
  8
0
 10
12169.99999999996
 20
8569.5000000000673
 30
0.0
 40
10.0
 50
2.8659839825571241
 51
354.26082952280387
  0
ARC
  5
4674
  8
0
 10
12169.99999999996
 20
8569.5000000000673
 30
0.0
 40
12.5
 50
270.0
 51
355.42243076976803
  0
LINE
  5
4675
  8
0
 10
12169.99999999996
 20
8557.0000000000655
 30
0.0
 11
12147.82489368323
 21
8557.0000000000655
 31
0.0
  0
LINE
  5
4676
  8
0
 10
12151.199999999961
 20
8534.5000000000582
 30
0.0
 11
12151.199999999961
 21
8542.2000000000589
 31
0.0
  0
LINE
  5
4677
  8
0
 10
12151.199999999961
 20
8542.2000000000589
 30
0.0
 11
12113.49999999996
 21
8542.2000000000589
 31
0.0
  0
LINE
  5
4678
  8
0
 10
12113.49999999996
 20
8542.2000000000589
 30
0.0
 11
12113.49999999996
 21
8544.5000000000582
 31
0.0
  0
LINE
  5
4679
  8
0
 10
12113.49999999996
 20
8544.5000000000582
 30
0.0
 11
12151.199999999961
 21
8544.5000000000582
 31
0.0
  0
LINE
  5
467A
  8
0
 10
12153.49999999996
 20
8542.2000000000589
 30
0.0
 11
12153.49999999996
 21
8534.5000000000582
 31
0.0
  0
LINE
  5
467B
  8
0
 10
12153.49999999996
 20
8534.5000000000582
 30
0.0
 11
12151.199999999961
 21
8534.5000000000582
 31
0.0
  0
ARC
  5
467C
  8
0
 10
12151.199999999961
 20
8542.2000000000589
 30
0.0
 40
2.2999999999999989
 50
0.0
 51
90.0
  0
LINE
  5
467D
  8
0
 10
12139.49999999996
 20
8544.5000000000582
 30
0.0
 11
12139.49999999996
 21
8557.5000000000582
 31
0.0
  0
LINE
  5
467E
  8
0
 10
12114.49999999996
 20
8557.5000000000582
 30
0.0
 11
12114.49999999996
 21
8544.5000000000582
 31
0.0
  0
LINE
  5
467F
  8
0
 10
12114.49999999996
 20
8555.2000000000589
 30
0.0
 11
12147.384076231459
 21
8555.2000000000589
 31
0.0
  0
LINE
  5
4680
  8
0
 10
12147.384076231459
 20
8555.2000000000589
 30
0.0
 11
12149.49999999996
 21
8567.2000000000608
 31
0.0
  0
LINE
  5
4681
  8
0
 10
12139.49999999996
 20
8557.5000000000582
 30
0.0
 11
12131.49999999996
 21
8557.5000000000582
 31
0.0
  0
LINE
  5
4682
  8
0
 10
12131.49999999996
 20
8557.5000000000582
 30
0.0
 11
12131.49999999996
 21
8557.2000000000571
 31
0.0
  0
LINE
  5
4683
  8
0
 10
12114.49999999996
 20
8557.5000000000582
 30
0.0
 11
12122.49999999996
 21
8557.5000000000582
 31
0.0
  0
LINE
  5
4684
  8
0
 10
12122.49999999996
 20
8557.5000000000582
 30
0.0
 11
12122.49999999996
 21
8557.2000000000571
 31
0.0
  0
LINE
  5
4685
  8
0
 10
12131.49999999996
 20
8557.2000000000571
 30
0.0
 11
12122.49999999996
 21
8557.2000000000571
 31
0.0
  0
LINE
  5
4686
  8
0
 10
12134.49999999996
 20
8555.2000000000589
 30
0.0
 11
12134.49999999996
 21
8557.5000000000582
 31
0.0
  0
LINE
  5
4687
  8
0
 10
12119.49999999996
 20
8557.5000000000582
 30
0.0
 11
12119.49999999996
 21
8555.2000000000589
 31
0.0
  0
ARC
  5
4688
  8
0
 10
12127.000000001961
 20
8555.1833333330578
 30
0.0
 40
4.4166666669999994
 50
68.760689447938006
 51
111.23931055206189
  0
ARC
  5
4689
  8
0
 10
12125.999997590619
 20
8557.6029428777983
 30
0.0
 40
1.79999999435951
 50
109.4711392632603
 51
180.09367474988471
  0
LINE
  5
468A
  8
0
 10
12124.20000000196
 20
8557.2000000000571
 30
0.0
 11
12124.20000000196
 21
8557.6000000000568
 31
0.0
  0
ARC
  5
468B
  8
0
 10
12128.00000240848
 20
8557.6029428747424
 30
0.0
 40
1.7999999991805189
 50
359.9063253476657
 51
70.528860594372588
  0
LINE
  5
468C
  8
0
 10
12129.80000000196
 20
8557.6000000000568
 30
0.0
 11
12129.80000000196
 21
8557.2000000000571
 31
0.0
  0
LINE
  5
468D
  8
0
 10
12128.499999999951
 20
8542.2000000000589
 30
0.0
 11
12128.499999999951
 21
8540.5000000000582
 31
0.0
  0
LINE
  5
468E
  8
0
 10
12125.49999999996
 20
8542.2000000000589
 30
0.0
 11
12125.49999999996
 21
8540.5000000000582
 31
0.0
  0
LINE
  5
468F
  8
0
 10
12128.499999999951
 20
8540.5000000000582
 30
0.0
 11
12128.249999999951
 21
8540.2500000000582
 31
0.0
  0
LINE
  5
4690
  8
0
 10
12125.49999999996
 20
8540.5000000000582
 30
0.0
 11
12125.749999999951
 21
8540.2500000000582
 31
0.0
  0
LINE
  5
4691
  8
0
 10
12125.749999999951
 20
8540.2500000000582
 30
0.0
 11
12128.249999999951
 21
8540.2500000000582
 31
0.0
  0
LINE
  5
4692
  8
0
 10
12149.49999999996
 20
8567.2000000000608
 30
0.0
 11
12147.744471223739
 21
8570.0094333173729
 31
0.0
  0
LINE
  5
4693
  8
0
 10
12147.744471223739
 20
8570.0094333173729
 30
0.0
 11
12117.38803024194
 21
8570.0094333173729
 31
0.0
  0
LINE
  5
4694
  8
0
 10
12117.38803024194
 20
8570.0094333173729
 30
0.0
 11
12114.49999999996
 21
8557.5000000000582
 31
0.0
  0
LINE
  5
4695
  8
0
 10
12117.38803024194
 20
8570.0094333173729
 30
0.0
 11
12149.49999999996
 21
8567.2000000000608
 31
0.0
  0
LINE
  5
4696
  8
0
 10
12117.38803024194
 20
8570.0094333173729
 30
0.0
 11
12114.49999999996
 21
8568.2047917317759
 31
0.0
  0
LINE
  5
4697
  8
0
 10
12114.49999999996
 20
8568.2047917317759
 30
0.0
 11
12114.49999999996
 21
8557.5000000000582
 31
0.0
  0
ARC
  5
4698
  8
0
 10
12179.799999999959
 20
8569.2500000000655
 30
0.0
 40
0.75
 50
90.0
 51
270.0
  0
ARC
  5
4699
  8
0
 10
12169.99999999996
 20
8569.5000000000673
 30
0.0
 40
12.49999999999997
 50
2.2924427760059531
 51
188.1598598698331
  0
LINE
  5
469A
  8
0
 10
12154.65692338541
 20
8564.3000000000648
 30
0.0
 11
12149.11208064241
 21
8564.3000000000648
 31
0.0
  0
ARC
  5
469B
  8
0
 10
12154.65692338541
 20
8567.3000000000648
 30
0.0
 40
3.0
 50
270.0
 51
8.1598598698330846
  0
LINE
  5
469C
  8
0
 10
12114.49999999996
 20
8546.8000000000575
 30
0.0
 11
12107.44504829108
 21
8546.8000000000575
 31
0.0
  0
LINE
  5
469D
  8
0
 10
12106.64999999996
 20
8571.5000000000582
 30
0.0
 11
12104.34999999996
 21
8571.5000000000582
 31
0.0
  0
LINE
  5
469E
  8
0
 10
12104.34999999996
 20
8571.5000000000582
 30
0.0
 11
12104.34999999996
 21
8561.5694444445035
 31
0.0
  0
LINE
  5
469F
  8
0
 10
12106.64999999996
 20
8544.5000000000582
 30
0.0
 11
12114.49999999996
 21
8544.5000000000582
 31
0.0
  0
LINE
  5
46A0
  8
0
 10
12114.49999999996
 20
8544.5000000000582
 30
0.0
 11
12114.49999999996
 21
8546.8000000000575
 31
0.0
  0
ARC
  5
46A1
  8
0
 10
12106.64999999996
 20
8546.8000000000575
 30
0.0
 40
2.2999999999999989
 50
233.22592791328921
 51
270.0
  0
LINE
  5
46A2
  8
0
 10
12148.06280049057
 20
8569.50000000006
 30
0.0
 11
12157.49999999996
 21
8569.50000000006
 31
0.0
  0
LINE
  5
46A3
  8
0
 10
12166.764296679299
 20
8569.50000000006
 30
0.0
 11
12179.328473148311
 21
8565.8972803717134
 31
0.0
  0
LINE
  5
46A4
  8
0
 10
12100.34999999996
 20
8556.5000000000582
 30
0.0
 11
12114.49999999996
 21
8556.5000000000582
 31
0.0
  0
ARC
  5
46A5
  8
0
 10
12097.34999999996
 20
8556.5000000000582
 30
0.0
 40
14.0
 50
282.37362511621728
 51
0.0
  0
LINE
  5
46A6
  8
0
 10
12114.49999999996
 20
8566.5000000000582
 30
0.0
 11
12107.89999999996
 21
8566.5000000000582
 31
0.0
  0
LINE
  5
46A7
  8
0
 10
12102.49999999996
 20
8556.5000000000582
 30
0.0
 11
12102.49999999996
 21
8559.0000000000582
 31
0.0
  0
LINE
  5
46A8
  8
0
 10
12102.49999999996
 20
8559.0000000000582
 30
0.0
 11
12107.89999999996
 21
8566.5000000000582
 31
0.0
  0
LINE
  5
46A9
  8
0
 10
12116.572766513989
 20
8569.50000000006
 30
0.0
 11
12106.64999999996
 21
8569.50000000006
 31
0.0
  0
ARC
  5
46AA
  8
0
 10
12100.34999999996
 20
8564.5000000000564
 30
0.0
 40
10.0
 50
59.999999999988468
 51
90.0
  0
LINE
  5
46AB
  8
0
 10
12100.34999999996
 20
8564.5000000000564
 30
0.0
 11
12105.34999999996
 21
8573.1602540379026
 31
0.0
  0
LINE
  5
46AC
  8
0
 10
12100.34999999996
 20
8584.5000000000582
 30
0.0
 11
12100.34999999996
 21
8537.5000000000582
 31
0.0
  0
LINE
  5
46AD
  8
0
 10
12106.64999999996
 20
8564.7638888889487
 30
0.0
 11
12106.64999999996
 21
8571.5000000000582
 31
0.0
  0
LINE
  5
46AE
  8
0
 10
12104.34999999996
 20
8569.50000000006
 30
0.0
 11
12103.23675134591
 21
8569.50000000006
 31
0.0
  0
LINE
  5
46AF
  8
0
 10
12100.34999999996
 20
8537.5000000000582
 30
0.0
 11
12005.64999999996
 21
8537.5000000000582
 31
0.0
  0
LINE
  5
46B0
  8
0
 10
12005.64999999996
 20
8537.5000000000582
 30
0.0
 11
12005.64999999996
 21
8584.5000000000582
 31
0.0
  0
LINE
  5
46B1
  8
0
 10
12100.34999999996
 20
8579.5000000000582
 30
0.0
 11
12005.64999999996
 21
8579.5000000000582
 31
0.0
  0
LINE
  5
46B2
  8
0
 10
12111.549999999959
 20
8576.8000000000593
 30
0.0
 11
12111.549999999959
 21
8584.5000000000582
 31
0.0
  0
LINE
  5
46B3
  8
0
 10
12111.549999999959
 20
8584.5000000000582
 30
0.0
 11
11985.549999999959
 21
8584.5000000000582
 31
0.0
  0
LINE
  5
46B4
  8
0
 10
11985.549999999959
 20
8584.5000000000582
 30
0.0
 11
11985.549999999959
 21
8576.8000000000593
 31
0.0
  0
LINE
  5
46B5
  8
0
 10
11985.549999999959
 20
8576.8000000000593
 30
0.0
 11
11983.24999999996
 21
8576.8000000000593
 31
0.0
  0
LINE
  5
46B6
  8
0
 10
11983.24999999996
 20
8576.8000000000593
 30
0.0
 11
11983.24999999996
 21
8584.5000000000582
 31
0.0
  0
LINE
  5
46B7
  8
0
 10
11985.549999999959
 20
8586.8000000000575
 30
0.0
 11
12111.549999999959
 21
8586.8000000000575
 31
0.0
  0
LINE
  5
46B8
  8
0
 10
12113.84999999996
 20
8584.5000000000582
 30
0.0
 11
12113.84999999996
 21
8576.8000000000593
 31
0.0
  0
LINE
  5
46B9
  8
0
 10
12113.84999999996
 20
8576.8000000000593
 30
0.0
 11
12111.549999999959
 21
8576.8000000000593
 31
0.0
  0
ARC
  5
46BA
  8
0
 10
11985.549999999959
 20
8584.5000000000582
 30
0.0
 40
2.2999999999999989
 50
90.0
 51
180.0
  0
ARC
  5
46BB
  8
0
 10
12111.549999999959
 20
8584.5000000000582
 30
0.0
 40
2.2999999999999989
 50
0.0
 51
90.0
  0
LINE
  5
46BC
  8
0
 10
11983.24999999996
 20
8584.5000000000582
 30
0.0
 11
11752.49999999996
 21
8584.5000000000582
 31
0.0
  0
LINE
  5
46BD
  8
0
 10
12090.85035424198
 20
8589.1000000000568
 30
0.0
 11
12086.85035424198
 21
8589.1000000000568
 31
0.0
  0
LINE
  5
46BE
  8
0
 10
12086.35035424198
 20
8588.6000000000568
 30
0.0
 11
12086.35035424198
 21
8586.8000000000575
 31
0.0
  0
LINE
  5
46BF
  8
0
 10
12084.10035424198
 20
8579.5000000000582
 30
0.0
 11
12093.60035424198
 21
8579.5000000000582
 31
0.0
  0
LINE
  5
46C0
  8
0
 10
12090.85035424198
 20
8589.1000000000568
 30
0.0
 11
12091.35035424198
 21
8588.6000000000568
 31
0.0
  0
LINE
  5
46C1
  8
0
 10
12086.85035424198
 20
8589.1000000000568
 30
0.0
 11
12086.35035424198
 21
8588.6000000000568
 31
0.0
  0
ARC
  5
46C2
  8
0
 10
12088.850160788979
 20
8584.6596716480562
 30
0.0
 40
8.1285714289999991
 50
246.04773511196541
 51
293.95226488803451
  0
ARC
  5
46C3
  8
0
 10
12086.599125602799
 20
8579.4990358590221
 30
0.0
 40
2.4987715468207199
 50
179.9778926514596
 51
245.17853087701289
  0
ARC
  5
46C4
  8
0
 10
12091.10035424198
 20
8579.5000000000582
 30
0.0
 40
2.5
 50
294.82970220811308
 51
0.0
  0
LINE
  5
46C5
  8
0
 10
12005.64999999996
 20
8577.9000000000597
 30
0.0
 11
11995.24999999996
 21
8577.9000000000597
 31
0.0
  0
LINE
  5
46C6
  8
0
 10
11995.24999999996
 20
8577.9000000000597
 30
0.0
 11
11995.24999999996
 21
8572.1921565390585
 31
0.0
  0
LINE
  5
46C7
  8
0
 10
11995.24999999996
 20
8562.5000000000582
 30
0.0
 11
11993.64999999996
 21
8562.5000000000582
 31
0.0
  0
LINE
  5
46C8
  8
0
 10
11993.64999999996
 20
8562.5000000000582
 30
0.0
 11
11993.64999999996
 21
8577.9000000000597
 31
0.0
  0
LINE
  5
46C9
  8
0
 10
11995.24999999996
 20
8579.5000000000582
 30
0.0
 11
12005.64999999996
 21
8579.5000000000582
 31
0.0
  0
LINE
  5
46CA
  8
0
 10
12005.64999999996
 20
8579.5000000000582
 30
0.0
 11
12005.64999999996
 21
8577.9000000000597
 31
0.0
  0
ARC
  5
46CB
  8
0
 10
11995.24999999996
 20
8577.9000000000597
 30
0.0
 40
1.6000000000000001
 50
90.0
 51
180.0
  0
ARC
  5
46CC
  8
0
 10
12004.350000000961
 20
8567.1349790740569
 30
0.0
 40
0.2999999999999999
 50
0.0
 51
90.0
  0
ARC
  5
46CD
  8
0
 10
12005.350000000961
 20
8567.8349790740576
 30
0.0
 40
0.2999999999999999
 50
0.0
 51
90.0
  0
ARC
  5
46CE
  8
0
 10
11995.16349135296
 20
8567.9349790740598
 30
0.0
 40
0.5
 50
180.0
 51
270.0
  0
LINE
  5
46CF
  8
0
 10
11994.663491351959
 20
8567.9349790740598
 30
0.0
 11
11994.663491351959
 21
8568.6349790740569
 31
0.0
  0
ARC
  5
46D0
  8
0
 10
11995.16349135296
 20
8568.6349790740569
 30
0.0
 40
0.5
 50
180.0
 51
270.0
  0
ARC
  5
46D1
  8
0
 10
11995.16349135296
 20
8571.6921565390585
 30
0.0
 40
0.5
 50
90.0
 51
180.0
  0
ARC
  5
46D2
  8
0
 10
12005.14999999996
 20
8571.6921565390585
 30
0.0
 40
0.5
 50
0.0
 51
90.0
  0
POLYLINE
  5
46D3
  8
0
 10
11996.359389109961
 20
8570.2268837750598
 30
0.0
 66
     1
 70
     8
  0
VERTEX
  8
0
  5
5437
 10
11996.4
 20
8570.23
 30
0.000000
  70
    32
  0
VERTEX
  8
0
  5
5438
 10
11996.4
 20
8570.28
 30
0.000000
  70
    32
  0
VERTEX
  8
0
  5
5439
 10
11996.4
 20
8570.32
 30
0.000000
  70
    32
  0
VERTEX
  8
0
  5
543A
 10
11996.4
 20
8570.37
 30
0.000000
  70
    32
  0
VERTEX
  8
0
  5
543B
 10
11996.4
 20
8570.42
 30
0.000000
  70
    32
  0
VERTEX
  8
0
  5
543C
 10
11996.4
 20
8570.47
 30
0.000000
  70
    32
  0
VERTEX
  8
0
  5
543D
 10
11996.5
 20
8570.52
 30
0.000000
  70
    32
  0
VERTEX
  8
0
  5
543E
 10
11996.5
 20
8570.56
 30
0.000000
  70
    32
  0
VERTEX
  8
0
  5
543F
 10
11996.6
 20
8570.61
 30
0.000000
  70
    32
  0
VERTEX
  8
0
  5
5440
 10
11996.6
 20
8570.65
 30
0.000000
  70
    32
  0
VERTEX
  8
0
  5
5441
 10
11996.7
 20
8570.70
 30
0.000000
  70
    32
  0
VERTEX
  8
0
  5
5442
 10
11996.8
 20
8570.74
 30
0.000000
  70
    32
  0
VERTEX
  8
0
  5
5443
 10
11996.9
 20
8570.78
 30
0.000000
  70
    32
  0
VERTEX
  8
0
  5
5444
 10
11996.9
 20
8570.82
 30
0.000000
  70
    32
  0
VERTEX
  8
0
  5
5445
 10
11997.0
 20
8570.86
 30
0.000000
  70
    32
  0
VERTEX
  8
0
  5
5446
 10
11997.1
 20
8570.90
 30
0.000000
  70
    32
  0
VERTEX
  8
0
  5
5447
 10
11997.2
 20
8570.93
 30
0.000000
  70
    32
  0
VERTEX
  8
0
  5
5448
 10
11997.3
 20
8570.97
 30
0.000000
  70
    32
  0
VERTEX
  8
0
  5
5449
 10
11997.5
 20
8571.00
 30
0.000000
  70
    32
  0
VERTEX
  8
0
  5
544A
 10
11997.6
 20
8571.03
 30
0.000000
  70
    32
  0
VERTEX
  8
0
  5
544B
 10
11997.7
 20
8571.06
 30
0.000000
  70
    32
  0
VERTEX
  8
0
  5
544C
 10
11997.8
 20
8571.08
 30
0.000000
  70
    32
  0
VERTEX
  8
0
  5
544D
 10
11997.9
 20
8571.11
 30
0.000000
  70
    32
  0
VERTEX
  8
0
  5
544E
 10
11998.1
 20
8571.13
 30
0.000000
  70
    32
  0
VERTEX
  8
0
  5
544F
 10
11998.2
 20
8571.15
 30
0.000000
  70
    32
  0
VERTEX
  8
0
  5
5450
 10
11998.3
 20
8571.17
 30
0.000000
  70
    32
  0
VERTEX
  8
0
  5
5451
 10
11998.5
 20
8571.18
 30
0.000000
  70
    32
  0
VERTEX
  8
0
  5
5452
 10
11998.6
 20
8571.20
 30
0.000000
  70
    32
  0
VERTEX
  8
0
  5
5453
 10
11998.8
 20
8571.21
 30
0.000000
  70
    32
  0
VERTEX
  8
0
  5
5454
 10
11998.9
 20
8571.22
 30
0.000000
  70
    32
  0
VERTEX
  8
0
  5
5455
 10
11999.1
 20
8571.22
 30
0.000000
  70
    32
  0
VERTEX
  8
0
  5
5456
 10
11999.2
 20
8571.23
 30
0.000000
  70
    32
  0
VERTEX
  8
0
  5
5457
 10
11999.4
 20
8571.23
 30
0.000000
  70
    32
  0
VERTEX
  8
0
  5
5458
 10
11999.5
 20
8571.23
 30
0.000000
  70
    32
  0
VERTEX
  8
0
  5
5459
 10
11999.7
 20
8571.22
 30
0.000000
  70
    32
  0
VERTEX
  8
0
  5
545A
 10
11999.8
 20
8571.22
 30
0.000000
  70
    32
  0
VERTEX
  8
0
  5
545B
 10
11999.9
 20
8571.21
 30
0.000000
  70
    32
  0
VERTEX
  8
0
  5
545C
 10
12000.1
 20
8571.20
 30
0.000000
  70
    32
  0
VERTEX
  8
0
  5
545D
 10
12000.2
 20
8571.18
 30
0.000000
  70
    32
  0
VERTEX
  8
0
  5
545E
 10
12000.4
 20
8571.17
 30
0.000000
  70
    32
  0
VERTEX
  8
0
  5
545F
 10
12000.5
 20
8571.15
 30
0.000000
  70
    32
  0
VERTEX
  8
0
  5
5460
 10
12000.6
 20
8571.13
 30
0.000000
  70
    32
  0
VERTEX
  8
0
  5
5461
 10
12000.8
 20
8571.11
 30
0.000000
  70
    32
  0
VERTEX
  8
0
  5
5462
 10
12000.9
 20
8571.08
 30
0.000000
  70
    32
  0
VERTEX
  8
0
  5
5463
 10
12001.0
 20
8571.06
 30
0.000000
  70
    32
  0
VERTEX
  8
0
  5
5464
 10
12001.1
 20
8571.03
 30
0.000000
  70
    32
  0
VERTEX
  8
0
  5
5465
 10
12001.3
 20
8571.00
 30
0.000000
  70
    32
  0
VERTEX
  8
0
  5
5466
 10
12001.4
 20
8570.97
 30
0.000000
  70
    32
  0
VERTEX
  8
0
  5
5467
 10
12001.5
 20
8570.93
 30
0.000000
  70
    32
  0
VERTEX
  8
0
  5
5468
 10
12001.6
 20
8570.90
 30
0.000000
  70
    32
  0
VERTEX
  8
0
  5
5469
 10
12001.7
 20
8570.86
 30
0.000000
  70
    32
  0
VERTEX
  8
0
  5
546A
 10
12001.8
 20
8570.82
 30
0.000000
  70
    32
  0
VERTEX
  8
0
  5
546B
 10
12001.9
 20
8570.78
 30
0.000000
  70
    32
  0
VERTEX
  8
0
  5
546C
 10
12001.9
 20
8570.74
 30
0.000000
  70
    32
  0
VERTEX
  8
0
  5
546D
 10
12002.0
 20
8570.70
 30
0.000000
  70
    32
  0
VERTEX
  8
0
  5
546E
 10
12002.1
 20
8570.65
 30
0.000000
  70
    32
  0
VERTEX
  8
0
  5
546F
 10
12002.1
 20
8570.61
 30
0.000000
  70
    32
  0
VERTEX
  8
0
  5
5470
 10
12002.2
 20
8570.56
 30
0.000000
  70
    32
  0
VERTEX
  8
0
  5
5471
 10
12002.2
 20
8570.52
 30
0.000000
  70
    32
  0
VERTEX
  8
0
  5
5472
 10
12002.3
 20
8570.47
 30
0.000000
  70
    32
  0
VERTEX
  8
0
  5
5473
 10
12002.3
 20
8570.42
 30
0.000000
  70
    32
  0
VERTEX
  8
0
  5
5474
 10
12002.3
 20
8570.37
 30
0.000000
  70
    32
  0
VERTEX
  8
0
  5
5475
 10
12002.3
 20
8570.32
 30
0.000000
  70
    32
  0
VERTEX
  8
0
  5
5476
 10
12002.4
 20
8570.28
 30
0.000000
  70
    32
  0
VERTEX
  8
0
  5
5477
 10
12002.4
 20
8570.23
 30
0.000000
  70
    32
  0
VERTEX
  8
0
  5
5478
 10
12002.4
 20
8570.18
 30
0.000000
  70
    32
  0
VERTEX
  8
0
  5
5479
 10
12002.3
 20
8570.13
 30
0.000000
  70
    32
  0
VERTEX
  8
0
  5
547A
 10
12002.3
 20
8570.08
 30
0.000000
  70
    32
  0
VERTEX
  8
0
  5
547B
 10
12002.3
 20
8570.03
 30
0.000000
  70
    32
  0
VERTEX
  8
0
  5
547C
 10
12002.3
 20
8569.98
 30
0.000000
  70
    32
  0
VERTEX
  8
0
  5
547D
 10
12002.2
 20
8569.94
 30
0.000000
  70
    32
  0
VERTEX
  8
0
  5
547E
 10
12002.2
 20
8569.89
 30
0.000000
  70
    32
  0
VERTEX
  8
0
  5
547F
 10
12002.1
 20
8569.84
 30
0.000000
  70
    32
  0
VERTEX
  8
0
  5
5480
 10
12002.1
 20
8569.80
 30
0.000000
  70
    32
  0
VERTEX
  8
0
  5
5481
 10
12002.0
 20
8569.76
 30
0.000000
  70
    32
  0
VERTEX
  8
0
  5
5482
 10
12001.9
 20
8569.71
 30
0.000000
  70
    32
  0
VERTEX
  8
0
  5
5483
 10
12001.9
 20
8569.67
 30
0.000000
  70
    32
  0
VERTEX
  8
0
  5
5484
 10
12001.8
 20
8569.63
 30
0.000000
  70
    32
  0
VERTEX
  8
0
  5
5485
 10
12001.7
 20
8569.59
 30
0.000000
  70
    32
  0
VERTEX
  8
0
  5
5486
 10
12001.6
 20
8569.56
 30
0.000000
  70
    32
  0
VERTEX
  8
0
  5
5487
 10
12001.5
 20
8569.52
 30
0.000000
  70
    32
  0
VERTEX
  8
0
  5
5488
 10
12001.4
 20
8569.49
 30
0.000000
  70
    32
  0
VERTEX
  8
0
  5
5489
 10
12001.3
 20
8569.45
 30
0.000000
  70
    32
  0
VERTEX
  8
0
  5
548A
 10
12001.1
 20
8569.42
 30
0.000000
  70
    32
  0
VERTEX
  8
0
  5
548B
 10
12001.0
 20
8569.40
 30
0.000000
  70
    32
  0
VERTEX
  8
0
  5
548C
 10
12000.9
 20
8569.37
 30
0.000000
  70
    32
  0
VERTEX
  8
0
  5
548D
 10
12000.8
 20
8569.34
 30
0.000000
  70
    32
  0
VERTEX
  8
0
  5
548E
 10
12000.6
 20
8569.32
 30
0.000000
  70
    32
  0
VERTEX
  8
0
  5
548F
 10
12000.5
 20
8569.30
 30
0.000000
  70
    32
  0
VERTEX
  8
0
  5
5490
 10
12000.4
 20
8569.29
 30
0.000000
  70
    32
  0
VERTEX
  8
0
  5
5491
 10
12000.2
 20
8569.27
 30
0.000000
  70
    32
  0
VERTEX
  8
0
  5
5492
 10
12000.1
 20
8569.26
 30
0.000000
  70
    32
  0
VERTEX
  8
0
  5
5493
 10
11999.9
 20
8569.25
 30
0.000000
  70
    32
  0
VERTEX
  8
0
  5
5494
 10
11999.8
 20
8569.24
 30
0.000000
  70
    32
  0
VERTEX
  8
0
  5
5495
 10
11999.7
 20
8569.23
 30
0.000000
  70
    32
  0
VERTEX
  8
0
  5
5496
 10
11999.5
 20
8569.23
 30
0.000000
  70
    32
  0
VERTEX
  8
0
  5
5497
 10
11999.4
 20
8569.23
 30
0.000000
  70
    32
  0
VERTEX
  8
0
  5
5498
 10
11999.2
 20
8569.23
 30
0.000000
  70
    32
  0
VERTEX
  8
0
  5
5499
 10
11999.1
 20
8569.23
 30
0.000000
  70
    32
  0
VERTEX
  8
0
  5
549A
 10
11998.9
 20
8569.24
 30
0.000000
  70
    32
  0
VERTEX
  8
0
  5
549B
 10
11998.8
 20
8569.25
 30
0.000000
  70
    32
  0
VERTEX
  8
0
  5
549C
 10
11998.6
 20
8569.26
 30
0.000000
  70
    32
  0
VERTEX
  8
0
  5
549D
 10
11998.5
 20
8569.27
 30
0.000000
  70
    32
  0
VERTEX
  8
0
  5
549E
 10
11998.3
 20
8569.29
 30
0.000000
  70
    32
  0
VERTEX
  8
0
  5
549F
 10
11998.2
 20
8569.30
 30
0.000000
  70
    32
  0
VERTEX
  8
0
  5
54A0
 10
11998.1
 20
8569.32
 30
0.000000
  70
    32
  0
VERTEX
  8
0
  5
54A1
 10
11997.9
 20
8569.34
 30
0.000000
  70
    32
  0
VERTEX
  8
0
  5
54A2
 10
11997.8
 20
8569.37
 30
0.000000
  70
    32
  0
VERTEX
  8
0
  5
54A3
 10
11997.7
 20
8569.40
 30
0.000000
  70
    32
  0
VERTEX
  8
0
  5
54A4
 10
11997.6
 20
8569.42
 30
0.000000
  70
    32
  0
VERTEX
  8
0
  5
54A5
 10
11997.5
 20
8569.45
 30
0.000000
  70
    32
  0
VERTEX
  8
0
  5
54A6
 10
11997.3
 20
8569.49
 30
0.000000
  70
    32
  0
VERTEX
  8
0
  5
54A7
 10
11997.2
 20
8569.52
 30
0.000000
  70
    32
  0
VERTEX
  8
0
  5
54A8
 10
11997.1
 20
8569.56
 30
0.000000
  70
    32
  0
VERTEX
  8
0
  5
54A9
 10
11997.0
 20
8569.59
 30
0.000000
  70
    32
  0
VERTEX
  8
0
  5
54AA
 10
11996.9
 20
8569.63
 30
0.000000
  70
    32
  0
VERTEX
  8
0
  5
54AB
 10
11996.9
 20
8569.67
 30
0.000000
  70
    32
  0
VERTEX
  8
0
  5
54AC
 10
11996.8
 20
8569.71
 30
0.000000
  70
    32
  0
VERTEX
  8
0
  5
54AD
 10
11996.7
 20
8569.76
 30
0.000000
  70
    32
  0
VERTEX
  8
0
  5
54AE
 10
11996.6
 20
8569.80
 30
0.000000
  70
    32
  0
VERTEX
  8
0
  5
54AF
 10
11996.6
 20
8569.84
 30
0.000000
  70
    32
  0
VERTEX
  8
0
  5
54B0
 10
11996.5
 20
8569.89
 30
0.000000
  70
    32
  0
VERTEX
  8
0
  5
54B1
 10
11996.5
 20
8569.94
 30
0.000000
  70
    32
  0
VERTEX
  8
0
  5
54B2
 10
11996.4
 20
8569.98
 30
0.000000
  70
    32
  0
VERTEX
  8
0
  5
54B3
 10
11996.4
 20
8570.03
 30
0.000000
  70
    32
  0
VERTEX
  8
0
  5
54B4
 10
11996.4
 20
8570.08
 30
0.000000
  70
    32
  0
VERTEX
  8
0
  5
54B5
 10
11996.4
 20
8570.13
 30
0.000000
  70
    32
  0
VERTEX
  8
0
  5
54B6
 10
11996.4
 20
8570.18
 30
0.000000
  70
    32
  0
VERTEX
  8
0
  5
54B7
 10
11996.4
 20
8570.23
 30
0.000000
  70
    32
  0
SEQEND
  8
0
  5
54B8
  0
POLYLINE
  5
46D4
  8
0
 10
11996.40855592741
 20
8570.0465308424828
 30
0.0
 66
     1
 70
     8
  0
VERTEX
  8
0
  5
54B9
 10
11996.4
 20
8570.05
 30
0.000000
  70
    32
  0
VERTEX
  8
0
  5
54BA
 10
11996.4
 20
8570.07
 30
0.000000
  70
    32
  0
VERTEX
  8
0
  5
54BB
 10
11996.4
 20
8570.09
 30
0.000000
  70
    32
  0
VERTEX
  8
0
  5
54BC
 10
11996.5
 20
8570.11
 30
0.000000
  70
    32
  0
VERTEX
  8
0
  5
54BD
 10
11996.5
 20
8570.13
 30
0.000000
  70
    32
  0
VERTEX
  8
0
  5
54BE
 10
11996.5
 20
8570.15
 30
0.000000
  70
    32
  0
VERTEX
  8
0
  5
54BF
 10
11996.5
 20
8570.17
 30
0.000000
  70
    32
  0
VERTEX
  8
0
  5
54C0
 10
11996.5
 20
8570.19
 30
0.000000
  70
    32
  0
VERTEX
  8
0
  5
54C1
 10
11996.5
 20
8570.21
 30
0.000000
  70
    32
  0
VERTEX
  8
0
  5
54C2
 10
11996.6
 20
8570.23
 30
0.000000
  70
    32
  0
VERTEX
  8
0
  5
54C3
 10
11996.6
 20
8570.25
 30
0.000000
  70
    32
  0
VERTEX
  8
0
  5
54C4
 10
11996.6
 20
8570.27
 30
0.000000
  70
    32
  0
VERTEX
  8
0
  5
54C5
 10
11996.6
 20
8570.29
 30
0.000000
  70
    32
  0
VERTEX
  8
0
  5
54C6
 10
11996.7
 20
8570.31
 30
0.000000
  70
    32
  0
VERTEX
  8
0
  5
54C7
 10
11996.7
 20
8570.33
 30
0.000000
  70
    32
  0
VERTEX
  8
0
  5
54C8
 10
11996.7
 20
8570.35
 30
0.000000
  70
    32
  0
VERTEX
  8
0
  5
54C9
 10
11996.8
 20
8570.37
 30
0.000000
  70
    32
  0
VERTEX
  8
0
  5
54CA
 10
11996.8
 20
8570.39
 30
0.000000
  70
    32
  0
VERTEX
  8
0
  5
54CB
 10
11996.8
 20
8570.41
 30
0.000000
  70
    32
  0
VERTEX
  8
0
  5
54CC
 10
11996.9
 20
8570.43
 30
0.000000
  70
    32
  0
VERTEX
  8
0
  5
54CD
 10
11996.9
 20
8570.44
 30
0.000000
  70
    32
  0
VERTEX
  8
0
  5
54CE
 10
11996.9
 20
8570.46
 30
0.000000
  70
    32
  0
VERTEX
  8
0
  5
54CF
 10
11997.0
 20
8570.48
 30
0.000000
  70
    32
  0
VERTEX
  8
0
  5
54D0
 10
11997.0
 20
8570.50
 30
0.000000
  70
    32
  0
VERTEX
  8
0
  5
54D1
 10
11997.1
 20
8570.51
 30
0.000000
  70
    32
  0
VERTEX
  8
0
  5
54D2
 10
11997.1
 20
8570.53
 30
0.000000
  70
    32
  0
VERTEX
  8
0
  5
54D3
 10
11997.2
 20
8570.54
 30
0.000000
  70
    32
  0
VERTEX
  8
0
  5
54D4
 10
11997.2
 20
8570.56
 30
0.000000
  70
    32
  0
VERTEX
  8
0
  5
54D5
 10
11997.2
 20
8570.58
 30
0.000000
  70
    32
  0
VERTEX
  8
0
  5
54D6
 10
11997.3
 20
8570.59
 30
0.000000
  70
    32
  0
VERTEX
  8
0
  5
54D7
 10
11997.3
 20
8570.61
 30
0.000000
  70
    32
  0
VERTEX
  8
0
  5
54D8
 10
11997.4
 20
8570.62
 30
0.000000
  70
    32
  0
VERTEX
  8
0
  5
54D9
 10
11997.4
 20
8570.63
 30
0.000000
  70
    32
  0
VERTEX
  8
0
  5
54DA
 10
11997.5
 20
8570.65
 30
0.000000
  70
    32
  0
VERTEX
  8
0
  5
54DB
 10
11997.5
 20
8570.66
 30
0.000000
  70
    32
  0
VERTEX
  8
0
  5
54DC
 10
11997.6
 20
8570.67
 30
0.000000
  70
    32
  0
VERTEX
  8
0
  5
54DD
 10
11997.6
 20
8570.69
 30
0.000000
  70
    32
  0
VERTEX
  8
0
  5
54DE
 10
11997.7
 20
8570.70
 30
0.000000
  70
    32
  0
VERTEX
  8
0
  5
54DF
 10
11997.8
 20
8570.71
 30
0.000000
  70
    32
  0
VERTEX
  8
0
  5
54E0
 10
11997.8
 20
8570.72
 30
0.000000
  70
    32
  0
VERTEX
  8
0
  5
54E1
 10
11997.9
 20
8570.73
 30
0.000000
  70
    32
  0
VERTEX
  8
0
  5
54E2
 10
11997.9
 20
8570.74
 30
0.000000
  70
    32
  0
VERTEX
  8
0
  5
54E3
 10
11998.0
 20
8570.75
 30
0.000000
  70
    32
  0
VERTEX
  8
0
  5
54E4
 10
11998.0
 20
8570.76
 30
0.000000
  70
    32
  0
VERTEX
  8
0
  5
54E5
 10
11998.1
 20
8570.77
 30
0.000000
  70
    32
  0
VERTEX
  8
0
  5
54E6
 10
11998.2
 20
8570.78
 30
0.000000
  70
    32
  0
VERTEX
  8
0
  5
54E7
 10
11998.2
 20
8570.79
 30
0.000000
  70
    32
  0
VERTEX
  8
0
  5
54E8
 10
11998.3
 20
8570.80
 30
0.000000
  70
    32
  0
VERTEX
  8
0
  5
54E9
 10
11998.3
 20
8570.81
 30
0.000000
  70
    32
  0
VERTEX
  8
0
  5
54EA
 10
11998.4
 20
8570.81
 30
0.000000
  70
    32
  0
VERTEX
  8
0
  5
54EB
 10
11998.5
 20
8570.82
 30
0.000000
  70
    32
  0
VERTEX
  8
0
  5
54EC
 10
11998.5
 20
8570.83
 30
0.000000
  70
    32
  0
VERTEX
  8
0
  5
54ED
 10
11998.6
 20
8570.83
 30
0.000000
  70
    32
  0
VERTEX
  8
0
  5
54EE
 10
11998.6
 20
8570.84
 30
0.000000
  70
    32
  0
VERTEX
  8
0
  5
54EF
 10
11998.7
 20
8570.84
 30
0.000000
  70
    32
  0
VERTEX
  8
0
  5
54F0
 10
11998.8
 20
8570.85
 30
0.000000
  70
    32
  0
VERTEX
  8
0
  5
54F1
 10
11998.8
 20
8570.85
 30
0.000000
  70
    32
  0
VERTEX
  8
0
  5
54F2
 10
11998.9
 20
8570.85
 30
0.000000
  70
    32
  0
VERTEX
  8
0
  5
54F3
 10
11999.0
 20
8570.86
 30
0.000000
  70
    32
  0
VERTEX
  8
0
  5
54F4
 10
11999.0
 20
8570.86
 30
0.000000
  70
    32
  0
VERTEX
  8
0
  5
54F5
 10
11999.1
 20
8570.86
 30
0.000000
  70
    32
  0
VERTEX
  8
0
  5
54F6
 10
11999.2
 20
8570.86
 30
0.000000
  70
    32
  0
VERTEX
  8
0
  5
54F7
 10
11999.2
 20
8570.87
 30
0.000000
  70
    32
  0
VERTEX
  8
0
  5
54F8
 10
11999.3
 20
8570.87
 30
0.000000
  70
    32
  0
VERTEX
  8
0
  5
54F9
 10
11999.4
 20
8570.87
 30
0.000000
  70
    32
  0
VERTEX
  8
0
  5
54FA
 10
11999.4
 20
8570.87
 30
0.000000
  70
    32
  0
VERTEX
  8
0
  5
54FB
 10
11999.5
 20
8570.87
 30
0.000000
  70
    32
  0
VERTEX
  8
0
  5
54FC
 10
11999.6
 20
8570.86
 30
0.000000
  70
    32
  0
VERTEX
  8
0
  5
54FD
 10
11999.6
 20
8570.86
 30
0.000000
  70
    32
  0
VERTEX
  8
0
  5
54FE
 10
11999.7
 20
8570.86
 30
0.000000
  70
    32
  0
VERTEX
  8
0
  5
54FF
 10
11999.7
 20
8570.86
 30
0.000000
  70
    32
  0
VERTEX
  8
0
  5
5500
 10
11999.8
 20
8570.85
 30
0.000000
  70
    32
  0
VERTEX
  8
0
  5
5501
 10
11999.9
 20
8570.85
 30
0.000000
  70
    32
  0
VERTEX
  8
0
  5
5502
 10
11999.9
 20
8570.85
 30
0.000000
  70
    32
  0
VERTEX
  8
0
  5
5503
 10
12000.0
 20
8570.84
 30
0.000000
  70
    32
  0
VERTEX
  8
0
  5
5504
 10
12000.1
 20
8570.84
 30
0.000000
  70
    32
  0
VERTEX
  8
0
  5
5505
 10
12000.1
 20
8570.83
 30
0.000000
  70
    32
  0
VERTEX
  8
0
  5
5506
 10
12000.2
 20
8570.83
 30
0.000000
  70
    32
  0
VERTEX
  8
0
  5
5507
 10
12000.3
 20
8570.82
 30
0.000000
  70
    32
  0
VERTEX
  8
0
  5
5508
 10
12000.3
 20
8570.81
 30
0.000000
  70
    32
  0
VERTEX
  8
0
  5
5509
 10
12000.4
 20
8570.81
 30
0.000000
  70
    32
  0
VERTEX
  8
0
  5
550A
 10
12000.4
 20
8570.80
 30
0.000000
  70
    32
  0
VERTEX
  8
0
  5
550B
 10
12000.5
 20
8570.79
 30
0.000000
  70
    32
  0
VERTEX
  8
0
  5
550C
 10
12000.6
 20
8570.78
 30
0.000000
  70
    32
  0
VERTEX
  8
0
  5
550D
 10
12000.6
 20
8570.77
 30
0.000000
  70
    32
  0
VERTEX
  8
0
  5
550E
 10
12000.7
 20
8570.76
 30
0.000000
  70
    32
  0
VERTEX
  8
0
  5
550F
 10
12000.7
 20
8570.75
 30
0.000000
  70
    32
  0
VERTEX
  8
0
  5
5510
 10
12000.8
 20
8570.74
 30
0.000000
  70
    32
  0
VERTEX
  8
0
  5
5511
 10
12000.9
 20
8570.73
 30
0.000000
  70
    32
  0
VERTEX
  8
0
  5
5512
 10
12000.9
 20
8570.72
 30
0.000000
  70
    32
  0
VERTEX
  8
0
  5
5513
 10
12001.0
 20
8570.71
 30
0.000000
  70
    32
  0
VERTEX
  8
0
  5
5514
 10
12001.0
 20
8570.70
 30
0.000000
  70
    32
  0
VERTEX
  8
0
  5
5515
 10
12001.1
 20
8570.69
 30
0.000000
  70
    32
  0
VERTEX
  8
0
  5
5516
 10
12001.1
 20
8570.67
 30
0.000000
  70
    32
  0
VERTEX
  8
0
  5
5517
 10
12001.2
 20
8570.66
 30
0.000000
  70
    32
  0
VERTEX
  8
0
  5
5518
 10
12001.2
 20
8570.65
 30
0.000000
  70
    32
  0
VERTEX
  8
0
  5
5519
 10
12001.3
 20
8570.63
 30
0.000000
  70
    32
  0
VERTEX
  8
0
  5
551A
 10
12001.3
 20
8570.62
 30
0.000000
  70
    32
  0
VERTEX
  8
0
  5
551B
 10
12001.4
 20
8570.61
 30
0.000000
  70
    32
  0
VERTEX
  8
0
  5
551C
 10
12001.4
 20
8570.59
 30
0.000000
  70
    32
  0
VERTEX
  8
0
  5
551D
 10
12001.5
 20
8570.58
 30
0.000000
  70
    32
  0
VERTEX
  8
0
  5
551E
 10
12001.5
 20
8570.56
 30
0.000000
  70
    32
  0
VERTEX
  8
0
  5
551F
 10
12001.6
 20
8570.54
 30
0.000000
  70
    32
  0
VERTEX
  8
0
  5
5520
 10
12001.6
 20
8570.53
 30
0.000000
  70
    32
  0
VERTEX
  8
0
  5
5521
 10
12001.6
 20
8570.51
 30
0.000000
  70
    32
  0
VERTEX
  8
0
  5
5522
 10
12001.7
 20
8570.50
 30
0.000000
  70
    32
  0
VERTEX
  8
0
  5
5523
 10
12001.7
 20
8570.48
 30
0.000000
  70
    32
  0
VERTEX
  8
0
  5
5524
 10
12001.8
 20
8570.46
 30
0.000000
  70
    32
  0
VERTEX
  8
0
  5
5525
 10
12001.8
 20
8570.44
 30
0.000000
  70
    32
  0
VERTEX
  8
0
  5
5526
 10
12001.8
 20
8570.43
 30
0.000000
  70
    32
  0
VERTEX
  8
0
  5
5527
 10
12001.9
 20
8570.41
 30
0.000000
  70
    32
  0
VERTEX
  8
0
  5
5528
 10
12001.9
 20
8570.39
 30
0.000000
  70
    32
  0
VERTEX
  8
0
  5
5529
 10
12001.9
 20
8570.37
 30
0.000000
  70
    32
  0
VERTEX
  8
0
  5
552A
 10
12002.0
 20
8570.35
 30
0.000000
  70
    32
  0
VERTEX
  8
0
  5
552B
 10
12002.0
 20
8570.33
 30
0.000000
  70
    32
  0
VERTEX
  8
0
  5
552C
 10
12002.0
 20
8570.31
 30
0.000000
  70
    32
  0
VERTEX
  8
0
  5
552D
 10
12002.1
 20
8570.29
 30
0.000000
  70
    32
  0
VERTEX
  8
0
  5
552E
 10
12002.1
 20
8570.27
 30
0.000000
  70
    32
  0
VERTEX
  8
0
  5
552F
 10
12002.1
 20
8570.25
 30
0.000000
  70
    32
  0
VERTEX
  8
0
  5
5530
 10
12002.1
 20
8570.23
 30
0.000000
  70
    32
  0
VERTEX
  8
0
  5
5531
 10
12002.2
 20
8570.21
 30
0.000000
  70
    32
  0
VERTEX
  8
0
  5
5532
 10
12002.2
 20
8570.19
 30
0.000000
  70
    32
  0
VERTEX
  8
0
  5
5533
 10
12002.2
 20
8570.17
 30
0.000000
  70
    32
  0
VERTEX
  8
0
  5
5534
 10
12002.2
 20
8570.15
 30
0.000000
  70
    32
  0
VERTEX
  8
0
  5
5535
 10
12002.3
 20
8570.13
 30
0.000000
  70
    32
  0
VERTEX
  8
0
  5
5536
 10
12002.3
 20
8570.11
 30
0.000000
  70
    32
  0
VERTEX
  8
0
  5
5537
 10
12002.3
 20
8570.09
 30
0.000000
  70
    32
  0
VERTEX
  8
0
  5
5538
 10
12002.3
 20
8570.07
 30
0.000000
  70
    32
  0
VERTEX
  8
0
  5
5539
 10
12002.3
 20
8570.05
 30
0.000000
  70
    32
  0
SEQEND
  8
0
  5
553A
  0
LINE
  5
46D5
  8
0
 10
11995.16349135296
 20
8568.1349790740569
 30
0.0
 11
12005.350000000961
 21
8568.1349790740569
 31
0.0
  0
LINE
  5
46D6
  8
0
 10
11995.16349135296
 20
8567.4349790740616
 30
0.0
 11
12004.350000000961
 21
8567.4349790740616
 31
0.0
  0
LINE
  5
46D7
  8
0
 10
11994.663491351959
 20
8571.6921565390585
 30
0.0
 11
11994.663491351959
 21
8568.6349790740569
 31
0.0
  0
LINE
  5
46D8
  8
0
 10
12005.15000000096
 20
8572.1921565390585
 30
0.0
 11
11995.16349135296
 21
8572.1921565390585
 31
0.0
  0
ARC
  5
46D9
  8
0
 10
11994.96349135297
 20
8544.9003452740581
 30
0.0
 40
0.2999999999999999
 50
90.0
 51
180.0
  0
ARC
  5
46DA
  8
0
 10
12005.14999999996
 20
8538.0000000000582
 30
0.0
 40
0.5
 50
270.0
 51
0.0
  0
ARC
  5
46DB
  8
0
 10
11994.96349135297
 20
8538.6000000000568
 30
0.0
 40
0.2999999999999999
 50
180.0
 51
270.0
  0
ARC
  5
46DC
  8
0
 10
11994.96349135297
 20
8537.8000000000593
 30
0.0
 40
0.2999999999999999
 50
180.0
 51
270.0
  0
ARC
  5
46DD
  8
0
 10
12004.16655179796
 20
8538.6000000000568
 30
0.0
 40
0.2999999999999999
 50
270.0
 51
0.0
  0
ARC
  5
46DE
  8
0
 10
12004.16655179796
 20
8547.4003452740562
 30
0.0
 40
0.2999999999999999
 50
0.0
 51
90.0
  0
ARC
  5
46DF
  8
0
 10
12005.14999999996
 20
8556.266863583056
 30
0.0
 40
0.5
 50
270.0
 51
0.0
  0
ARC
  5
46E0
  8
0
 10
11995.16349135296
 20
8548.2003452740573
 30
0.0
 40
0.5
 50
180.0
 51
270.0
  0
ARC
  5
46E1
  8
0
 10
11995.16349135296
 20
8555.2668635830541
 30
0.0
 40
0.5
 50
90.0
 51
180.0
  0
ARC
  5
46E2
  8
0
 10
12004.14999999996
 20
8557.0668635830589
 30
0.0
 40
0.5
 50
270.0
 51
0.0
  0
ARC
  5
46E3
  8
0
 10
11995.16349135296
 20
8556.0668635830607
 30
0.0
 40
0.5
 50
90.0
 51
180.0
  0
POLYLINE
  5
46E4
  8
0
 10
11996.388069524382
 20
8541.7768306989401
 30
0.0
 66
     1
 70
     8
  0
VERTEX
  8
0
  5
553B
 10
11996.4
 20
8541.78
 30
0.000000
  70
    32
  0
VERTEX
  8
0
  5
553C
 10
11996.4
 20
8541.81
 30
0.000000
  70
    32
  0
VERTEX
  8
0
  5
553D
 10
11996.4
 20
8541.84
 30
0.000000
  70
    32
  0
VERTEX
  8
0
  5
553E
 10
11996.4
 20
8541.88
 30
0.000000
  70
    32
  0
VERTEX
  8
0
  5
553F
 10
11996.4
 20
8541.91
 30
0.000000
  70
    32
  0
VERTEX
  8
0
  5
5540
 10
11996.5
 20
8541.94
 30
0.000000
  70
    32
  0
VERTEX
  8
0
  5
5541
 10
11996.5
 20
8541.97
 30
0.000000
  70
    32
  0
VERTEX
  8
0
  5
5542
 10
11996.5
 20
8542.01
 30
0.000000
  70
    32
  0
VERTEX
  8
0
  5
5543
 10
11996.5
 20
8542.04
 30
0.000000
  70
    32
  0
VERTEX
  8
0
  5
5544
 10
11996.5
 20
8542.07
 30
0.000000
  70
    32
  0
VERTEX
  8
0
  5
5545
 10
11996.6
 20
8542.10
 30
0.000000
  70
    32
  0
VERTEX
  8
0
  5
5546
 10
11996.6
 20
8542.13
 30
0.000000
  70
    32
  0
VERTEX
  8
0
  5
5547
 10
11996.6
 20
8542.16
 30
0.000000
  70
    32
  0
VERTEX
  8
0
  5
5548
 10
11996.6
 20
8542.19
 30
0.000000
  70
    32
  0
VERTEX
  8
0
  5
5549
 10
11996.7
 20
8542.22
 30
0.000000
  70
    32
  0
VERTEX
  8
0
  5
554A
 10
11996.7
 20
8542.25
 30
0.000000
  70
    32
  0
VERTEX
  8
0
  5
554B
 10
11996.7
 20
8542.28
 30
0.000000
  70
    32
  0
VERTEX
  8
0
  5
554C
 10
11996.8
 20
8542.31
 30
0.000000
  70
    32
  0
VERTEX
  8
0
  5
554D
 10
11996.8
 20
8542.34
 30
0.000000
  70
    32
  0
VERTEX
  8
0
  5
554E
 10
11996.8
 20
8542.37
 30
0.000000
  70
    32
  0
VERTEX
  8
0
  5
554F
 10
11996.9
 20
8542.40
 30
0.000000
  70
    32
  0
VERTEX
  8
0
  5
5550
 10
11996.9
 20
8542.43
 30
0.000000
  70
    32
  0
VERTEX
  8
0
  5
5551
 10
11996.9
 20
8542.45
 30
0.000000
  70
    32
  0
VERTEX
  8
0
  5
5552
 10
11997.0
 20
8542.48
 30
0.000000
  70
    32
  0
VERTEX
  8
0
  5
5553
 10
11997.0
 20
8542.51
 30
0.000000
  70
    32
  0
VERTEX
  8
0
  5
5554
 10
11997.1
 20
8542.53
 30
0.000000
  70
    32
  0
VERTEX
  8
0
  5
5555
 10
11997.1
 20
8542.56
 30
0.000000
  70
    32
  0
VERTEX
  8
0
  5
5556
 10
11997.1
 20
8542.58
 30
0.000000
  70
    32
  0
VERTEX
  8
0
  5
5557
 10
11997.2
 20
8542.61
 30
0.000000
  70
    32
  0
VERTEX
  8
0
  5
5558
 10
11997.2
 20
8542.63
 30
0.000000
  70
    32
  0
VERTEX
  8
0
  5
5559
 10
11997.3
 20
8542.66
 30
0.000000
  70
    32
  0
VERTEX
  8
0
  5
555A
 10
11997.3
 20
8542.68
 30
0.000000
  70
    32
  0
VERTEX
  8
0
  5
555B
 10
11997.4
 20
8542.70
 30
0.000000
  70
    32
  0
VERTEX
  8
0
  5
555C
 10
11997.4
 20
8542.72
 30
0.000000
  70
    32
  0
VERTEX
  8
0
  5
555D
 10
11997.5
 20
8542.74
 30
0.000000
  70
    32
  0
VERTEX
  8
0
  5
555E
 10
11997.5
 20
8542.76
 30
0.000000
  70
    32
  0
VERTEX
  8
0
  5
555F
 10
11997.6
 20
8542.78
 30
0.000000
  70
    32
  0
VERTEX
  8
0
  5
5560
 10
11997.7
 20
8542.80
 30
0.000000
  70
    32
  0
VERTEX
  8
0
  5
5561
 10
11997.7
 20
8542.82
 30
0.000000
  70
    32
  0
VERTEX
  8
0
  5
5562
 10
11997.8
 20
8542.84
 30
0.000000
  70
    32
  0
VERTEX
  8
0
  5
5563
 10
11997.8
 20
8542.86
 30
0.000000
  70
    32
  0
VERTEX
  8
0
  5
5564
 10
11997.9
 20
8542.88
 30
0.000000
  70
    32
  0
VERTEX
  8
0
  5
5565
 10
11997.9
 20
8542.89
 30
0.000000
  70
    32
  0
VERTEX
  8
0
  5
5566
 10
11998.0
 20
8542.91
 30
0.000000
  70
    32
  0
VERTEX
  8
0
  5
5567
 10
11998.1
 20
8542.92
 30
0.000000
  70
    32
  0
VERTEX
  8
0
  5
5568
 10
11998.1
 20
8542.94
 30
0.000000
  70
    32
  0
VERTEX
  8
0
  5
5569
 10
11998.2
 20
8542.95
 30
0.000000
  70
    32
  0
VERTEX
  8
0
  5
556A
 10
11998.2
 20
8542.96
 30
0.000000
  70
    32
  0
VERTEX
  8
0
  5
556B
 10
11998.3
 20
8542.97
 30
0.000000
  70
    32
  0
VERTEX
  8
0
  5
556C
 10
11998.4
 20
8542.99
 30
0.000000
  70
    32
  0
VERTEX
  8
0
  5
556D
 10
11998.4
 20
8543.00
 30
0.000000
  70
    32
  0
VERTEX
  8
0
  5
556E
 10
11998.5
 20
8543.01
 30
0.000000
  70
    32
  0
VERTEX
  8
0
  5
556F
 10
11998.6
 20
8543.02
 30
0.000000
  70
    32
  0
VERTEX
  8
0
  5
5570
 10
11998.6
 20
8543.02
 30
0.000000
  70
    32
  0
VERTEX
  8
0
  5
5571
 10
11998.7
 20
8543.03
 30
0.000000
  70
    32
  0
VERTEX
  8
0
  5
5572
 10
11998.8
 20
8543.04
 30
0.000000
  70
    32
  0
VERTEX
  8
0
  5
5573
 10
11998.8
 20
8543.05
 30
0.000000
  70
    32
  0
VERTEX
  8
0
  5
5574
 10
11998.9
 20
8543.05
 30
0.000000
  70
    32
  0
VERTEX
  8
0
  5
5575
 10
11999.0
 20
8543.06
 30
0.000000
  70
    32
  0
VERTEX
  8
0
  5
5576
 10
11999.0
 20
8543.06
 30
0.000000
  70
    32
  0
VERTEX
  8
0
  5
5577
 10
11999.1
 20
8543.06
 30
0.000000
  70
    32
  0
VERTEX
  8
0
  5
5578
 10
11999.2
 20
8543.07
 30
0.000000
  70
    32
  0
VERTEX
  8
0
  5
5579
 10
11999.2
 20
8543.07
 30
0.000000
  70
    32
  0
VERTEX
  8
0
  5
557A
 10
11999.3
 20
8543.07
 30
0.000000
  70
    32
  0
VERTEX
  8
0
  5
557B
 10
11999.4
 20
8543.07
 30
0.000000
  70
    32
  0
VERTEX
  8
0
  5
557C
 10
11999.4
 20
8543.07
 30
0.000000
  70
    32
  0
VERTEX
  8
0
  5
557D
 10
11999.5
 20
8543.07
 30
0.000000
  70
    32
  0
VERTEX
  8
0
  5
557E
 10
11999.6
 20
8543.07
 30
0.000000
  70
    32
  0
VERTEX
  8
0
  5
557F
 10
11999.6
 20
8543.06
 30
0.000000
  70
    32
  0
VERTEX
  8
0
  5
5580
 10
11999.7
 20
8543.06
 30
0.000000
  70
    32
  0
VERTEX
  8
0
  5
5581
 10
11999.8
 20
8543.06
 30
0.000000
  70
    32
  0
VERTEX
  8
0
  5
5582
 10
11999.8
 20
8543.05
 30
0.000000
  70
    32
  0
VERTEX
  8
0
  5
5583
 10
11999.9
 20
8543.05
 30
0.000000
  70
    32
  0
VERTEX
  8
0
  5
5584
 10
12000.0
 20
8543.04
 30
0.000000
  70
    32
  0
VERTEX
  8
0
  5
5585
 10
12000.0
 20
8543.03
 30
0.000000
  70
    32
  0
VERTEX
  8
0
  5
5586
 10
12000.1
 20
8543.02
 30
0.000000
  70
    32
  0
VERTEX
  8
0
  5
5587
 10
12000.2
 20
8543.02
 30
0.000000
  70
    32
  0
VERTEX
  8
0
  5
5588
 10
12000.2
 20
8543.01
 30
0.000000
  70
    32
  0
VERTEX
  8
0
  5
5589
 10
12000.3
 20
8543.00
 30
0.000000
  70
    32
  0
VERTEX
  8
0
  5
558A
 10
12000.3
 20
8542.99
 30
0.000000
  70
    32
  0
VERTEX
  8
0
  5
558B
 10
12000.4
 20
8542.97
 30
0.000000
  70
    32
  0
VERTEX
  8
0
  5
558C
 10
12000.5
 20
8542.96
 30
0.000000
  70
    32
  0
VERTEX
  8
0
  5
558D
 10
12000.5
 20
8542.95
 30
0.000000
  70
    32
  0
VERTEX
  8
0
  5
558E
 10
12000.6
 20
8542.94
 30
0.000000
  70
    32
  0
VERTEX
  8
0
  5
558F
 10
12000.7
 20
8542.92
 30
0.000000
  70
    32
  0
VERTEX
  8
0
  5
5590
 10
12000.7
 20
8542.91
 30
0.000000
  70
    32
  0
VERTEX
  8
0
  5
5591
 10
12000.8
 20
8542.89
 30
0.000000
  70
    32
  0
VERTEX
  8
0
  5
5592
 10
12000.8
 20
8542.88
 30
0.000000
  70
    32
  0
VERTEX
  8
0
  5
5593
 10
12000.9
 20
8542.86
 30
0.000000
  70
    32
  0
VERTEX
  8
0
  5
5594
 10
12001.0
 20
8542.84
 30
0.000000
  70
    32
  0
VERTEX
  8
0
  5
5595
 10
12001.0
 20
8542.82
 30
0.000000
  70
    32
  0
VERTEX
  8
0
  5
5596
 10
12001.1
 20
8542.80
 30
0.000000
  70
    32
  0
VERTEX
  8
0
  5
5597
 10
12001.1
 20
8542.78
 30
0.000000
  70
    32
  0
VERTEX
  8
0
  5
5598
 10
12001.2
 20
8542.76
 30
0.000000
  70
    32
  0
VERTEX
  8
0
  5
5599
 10
12001.2
 20
8542.74
 30
0.000000
  70
    32
  0
VERTEX
  8
0
  5
559A
 10
12001.3
 20
8542.72
 30
0.000000
  70
    32
  0
VERTEX
  8
0
  5
559B
 10
12001.3
 20
8542.70
 30
0.000000
  70
    32
  0
VERTEX
  8
0
  5
559C
 10
12001.4
 20
8542.68
 30
0.000000
  70
    32
  0
VERTEX
  8
0
  5
559D
 10
12001.4
 20
8542.66
 30
0.000000
  70
    32
  0
VERTEX
  8
0
  5
559E
 10
12001.5
 20
8542.63
 30
0.000000
  70
    32
  0
VERTEX
  8
0
  5
559F
 10
12001.5
 20
8542.61
 30
0.000000
  70
    32
  0
VERTEX
  8
0
  5
55A0
 10
12001.6
 20
8542.58
 30
0.000000
  70
    32
  0
VERTEX
  8
0
  5
55A1
 10
12001.6
 20
8542.56
 30
0.000000
  70
    32
  0
VERTEX
  8
0
  5
55A2
 10
12001.7
 20
8542.53
 30
0.000000
  70
    32
  0
VERTEX
  8
0
  5
55A3
 10
12001.7
 20
8542.51
 30
0.000000
  70
    32
  0
VERTEX
  8
0
  5
55A4
 10
12001.7
 20
8542.48
 30
0.000000
  70
    32
  0
VERTEX
  8
0
  5
55A5
 10
12001.8
 20
8542.45
 30
0.000000
  70
    32
  0
VERTEX
  8
0
  5
55A6
 10
12001.8
 20
8542.43
 30
0.000000
  70
    32
  0
VERTEX
  8
0
  5
55A7
 10
12001.9
 20
8542.40
 30
0.000000
  70
    32
  0
VERTEX
  8
0
  5
55A8
 10
12001.9
 20
8542.37
 30
0.000000
  70
    32
  0
VERTEX
  8
0
  5
55A9
 10
12001.9
 20
8542.34
 30
0.000000
  70
    32
  0
VERTEX
  8
0
  5
55AA
 10
12002.0
 20
8542.31
 30
0.000000
  70
    32
  0
VERTEX
  8
0
  5
55AB
 10
12002.0
 20
8542.28
 30
0.000000
  70
    32
  0
VERTEX
  8
0
  5
55AC
 10
12002.0
 20
8542.25
 30
0.000000
  70
    32
  0
VERTEX
  8
0
  5
55AD
 10
12002.1
 20
8542.22
 30
0.000000
  70
    32
  0
VERTEX
  8
0
  5
55AE
 10
12002.1
 20
8542.19
 30
0.000000
  70
    32
  0
VERTEX
  8
0
  5
55AF
 10
12002.1
 20
8542.16
 30
0.000000
  70
    32
  0
VERTEX
  8
0
  5
55B0
 10
12002.1
 20
8542.13
 30
0.000000
  70
    32
  0
VERTEX
  8
0
  5
55B1
 10
12002.2
 20
8542.10
 30
0.000000
  70
    32
  0
VERTEX
  8
0
  5
55B2
 10
12002.2
 20
8542.07
 30
0.000000
  70
    32
  0
VERTEX
  8
0
  5
55B3
 10
12002.2
 20
8542.04
 30
0.000000
  70
    32
  0
VERTEX
  8
0
  5
55B4
 10
12002.2
 20
8542.01
 30
0.000000
  70
    32
  0
VERTEX
  8
0
  5
55B5
 10
12002.2
 20
8541.97
 30
0.000000
  70
    32
  0
VERTEX
  8
0
  5
55B6
 10
12002.3
 20
8541.94
 30
0.000000
  70
    32
  0
VERTEX
  8
0
  5
55B7
 10
12002.3
 20
8541.91
 30
0.000000
  70
    32
  0
VERTEX
  8
0
  5
55B8
 10
12002.3
 20
8541.88
 30
0.000000
  70
    32
  0
VERTEX
  8
0
  5
55B9
 10
12002.3
 20
8541.84
 30
0.000000
  70
    32
  0
VERTEX
  8
0
  5
55BA
 10
12002.3
 20
8541.81
 30
0.000000
  70
    32
  0
VERTEX
  8
0
  5
55BB
 10
12002.3
 20
8541.78
 30
0.000000
  70
    32
  0
SEQEND
  8
0
  5
55BC
  0
POLYLINE
  5
46E5
  8
0
 10
11996.359389109961
 20
8541.9838144760579
 30
0.0
 66
     1
 70
     8
  0
VERTEX
  8
0
  5
55BD
 10
11996.4
 20
8541.98
 30
0.000000
  70
    32
  0
VERTEX
  8
0
  5
55BE
 10
11996.4
 20
8542.06
 30
0.000000
  70
    32
  0
VERTEX
  8
0
  5
55BF
 10
11996.4
 20
8542.13
 30
0.000000
  70
    32
  0
VERTEX
  8
0
  5
55C0
 10
11996.4
 20
8542.20
 30
0.000000
  70
    32
  0
VERTEX
  8
0
  5
55C1
 10
11996.4
 20
8542.28
 30
0.000000
  70
    32
  0
VERTEX
  8
0
  5
55C2
 10
11996.4
 20
8542.35
 30
0.000000
  70
    32
  0
VERTEX
  8
0
  5
55C3
 10
11996.5
 20
8542.42
 30
0.000000
  70
    32
  0
VERTEX
  8
0
  5
55C4
 10
11996.5
 20
8542.49
 30
0.000000
  70
    32
  0
VERTEX
  8
0
  5
55C5
 10
11996.6
 20
8542.56
 30
0.000000
  70
    32
  0
VERTEX
  8
0
  5
55C6
 10
11996.6
 20
8542.63
 30
0.000000
  70
    32
  0
VERTEX
  8
0
  5
55C7
 10
11996.7
 20
8542.69
 30
0.000000
  70
    32
  0
VERTEX
  8
0
  5
55C8
 10
11996.8
 20
8542.75
 30
0.000000
  70
    32
  0
VERTEX
  8
0
  5
55C9
 10
11996.9
 20
8542.82
 30
0.000000
  70
    32
  0
VERTEX
  8
0
  5
55CA
 10
11996.9
 20
8542.88
 30
0.000000
  70
    32
  0
VERTEX
  8
0
  5
55CB
 10
11997.0
 20
8542.94
 30
0.000000
  70
    32
  0
VERTEX
  8
0
  5
55CC
 10
11997.1
 20
8542.99
 30
0.000000
  70
    32
  0
VERTEX
  8
0
  5
55CD
 10
11997.2
 20
8543.04
 30
0.000000
  70
    32
  0
VERTEX
  8
0
  5
55CE
 10
11997.3
 20
8543.10
 30
0.000000
  70
    32
  0
VERTEX
  8
0
  5
55CF
 10
11997.5
 20
8543.14
 30
0.000000
  70
    32
  0
VERTEX
  8
0
  5
55D0
 10
11997.6
 20
8543.19
 30
0.000000
  70
    32
  0
VERTEX
  8
0
  5
55D1
 10
11997.7
 20
8543.23
 30
0.000000
  70
    32
  0
VERTEX
  8
0
  5
55D2
 10
11997.8
 20
8543.27
 30
0.000000
  70
    32
  0
VERTEX
  8
0
  5
55D3
 10
11997.9
 20
8543.31
 30
0.000000
  70
    32
  0
VERTEX
  8
0
  5
55D4
 10
11998.1
 20
8543.34
 30
0.000000
  70
    32
  0
VERTEX
  8
0
  5
55D5
 10
11998.2
 20
8543.37
 30
0.000000
  70
    32
  0
VERTEX
  8
0
  5
55D6
 10
11998.3
 20
8543.40
 30
0.000000
  70
    32
  0
VERTEX
  8
0
  5
55D7
 10
11998.5
 20
8543.42
 30
0.000000
  70
    32
  0
VERTEX
  8
0
  5
55D8
 10
11998.6
 20
8543.44
 30
0.000000
  70
    32
  0
VERTEX
  8
0
  5
55D9
 10
11998.8
 20
8543.45
 30
0.000000
  70
    32
  0
VERTEX
  8
0
  5
55DA
 10
11998.9
 20
8543.47
 30
0.000000
  70
    32
  0
VERTEX
  8
0
  5
55DB
 10
11999.1
 20
8543.48
 30
0.000000
  70
    32
  0
VERTEX
  8
0
  5
55DC
 10
11999.2
 20
8543.48
 30
0.000000
  70
    32
  0
VERTEX
  8
0
  5
55DD
 10
11999.4
 20
8543.48
 30
0.000000
  70
    32
  0
VERTEX
  8
0
  5
55DE
 10
11999.5
 20
8543.48
 30
0.000000
  70
    32
  0
VERTEX
  8
0
  5
55DF
 10
11999.7
 20
8543.48
 30
0.000000
  70
    32
  0
VERTEX
  8
0
  5
55E0
 10
11999.8
 20
8543.47
 30
0.000000
  70
    32
  0
VERTEX
  8
0
  5
55E1
 10
11999.9
 20
8543.45
 30
0.000000
  70
    32
  0
VERTEX
  8
0
  5
55E2
 10
12000.1
 20
8543.44
 30
0.000000
  70
    32
  0
VERTEX
  8
0
  5
55E3
 10
12000.2
 20
8543.42
 30
0.000000
  70
    32
  0
VERTEX
  8
0
  5
55E4
 10
12000.4
 20
8543.40
 30
0.000000
  70
    32
  0
VERTEX
  8
0
  5
55E5
 10
12000.5
 20
8543.37
 30
0.000000
  70
    32
  0
VERTEX
  8
0
  5
55E6
 10
12000.6
 20
8543.34
 30
0.000000
  70
    32
  0
VERTEX
  8
0
  5
55E7
 10
12000.8
 20
8543.31
 30
0.000000
  70
    32
  0
VERTEX
  8
0
  5
55E8
 10
12000.9
 20
8543.27
 30
0.000000
  70
    32
  0
VERTEX
  8
0
  5
55E9
 10
12001.0
 20
8543.23
 30
0.000000
  70
    32
  0
VERTEX
  8
0
  5
55EA
 10
12001.1
 20
8543.19
 30
0.000000
  70
    32
  0
VERTEX
  8
0
  5
55EB
 10
12001.3
 20
8543.14
 30
0.000000
  70
    32
  0
VERTEX
  8
0
  5
55EC
 10
12001.4
 20
8543.10
 30
0.000000
  70
    32
  0
VERTEX
  8
0
  5
55ED
 10
12001.5
 20
8543.04
 30
0.000000
  70
    32
  0
VERTEX
  8
0
  5
55EE
 10
12001.6
 20
8542.99
 30
0.000000
  70
    32
  0
VERTEX
  8
0
  5
55EF
 10
12001.7
 20
8542.94
 30
0.000000
  70
    32
  0
VERTEX
  8
0
  5
55F0
 10
12001.8
 20
8542.88
 30
0.000000
  70
    32
  0
VERTEX
  8
0
  5
55F1
 10
12001.9
 20
8542.82
 30
0.000000
  70
    32
  0
VERTEX
  8
0
  5
55F2
 10
12001.9
 20
8542.75
 30
0.000000
  70
    32
  0
VERTEX
  8
0
  5
55F3
 10
12002.0
 20
8542.69
 30
0.000000
  70
    32
  0
VERTEX
  8
0
  5
55F4
 10
12002.1
 20
8542.63
 30
0.000000
  70
    32
  0
VERTEX
  8
0
  5
55F5
 10
12002.1
 20
8542.56
 30
0.000000
  70
    32
  0
VERTEX
  8
0
  5
55F6
 10
12002.2
 20
8542.49
 30
0.000000
  70
    32
  0
VERTEX
  8
0
  5
55F7
 10
12002.2
 20
8542.42
 30
0.000000
  70
    32
  0
VERTEX
  8
0
  5
55F8
 10
12002.3
 20
8542.35
 30
0.000000
  70
    32
  0
VERTEX
  8
0
  5
55F9
 10
12002.3
 20
8542.28
 30
0.000000
  70
    32
  0
VERTEX
  8
0
  5
55FA
 10
12002.3
 20
8542.20
 30
0.000000
  70
    32
  0
VERTEX
  8
0
  5
55FB
 10
12002.3
 20
8542.13
 30
0.000000
  70
    32
  0
VERTEX
  8
0
  5
55FC
 10
12002.4
 20
8542.06
 30
0.000000
  70
    32
  0
VERTEX
  8
0
  5
55FD
 10
12002.4
 20
8541.98
 30
0.000000
  70
    32
  0
VERTEX
  8
0
  5
55FE
 10
12002.4
 20
8541.91
 30
0.000000
  70
    32
  0
VERTEX
  8
0
  5
55FF
 10
12002.3
 20
8541.84
 30
0.000000
  70
    32
  0
VERTEX
  8
0
  5
5600
 10
12002.3
 20
8541.76
 30
0.000000
  70
    32
  0
VERTEX
  8
0
  5
5601
 10
12002.3
 20
8541.69
 30
0.000000
  70
    32
  0
VERTEX
  8
0
  5
5602
 10
12002.3
 20
8541.62
 30
0.000000
  70
    32
  0
VERTEX
  8
0
  5
5603
 10
12002.2
 20
8541.55
 30
0.000000
  70
    32
  0
VERTEX
  8
0
  5
5604
 10
12002.2
 20
8541.48
 30
0.000000
  70
    32
  0
VERTEX
  8
0
  5
5605
 10
12002.1
 20
8541.41
 30
0.000000
  70
    32
  0
VERTEX
  8
0
  5
5606
 10
12002.1
 20
8541.34
 30
0.000000
  70
    32
  0
VERTEX
  8
0
  5
5607
 10
12002.0
 20
8541.28
 30
0.000000
  70
    32
  0
VERTEX
  8
0
  5
5608
 10
12001.9
 20
8541.21
 30
0.000000
  70
    32
  0
VERTEX
  8
0
  5
5609
 10
12001.9
 20
8541.15
 30
0.000000
  70
    32
  0
VERTEX
  8
0
  5
560A
 10
12001.8
 20
8541.09
 30
0.000000
  70
    32
  0
VERTEX
  8
0
  5
560B
 10
12001.7
 20
8541.03
 30
0.000000
  70
    32
  0
VERTEX
  8
0
  5
560C
 10
12001.6
 20
8540.98
 30
0.000000
  70
    32
  0
VERTEX
  8
0
  5
560D
 10
12001.5
 20
8540.92
 30
0.000000
  70
    32
  0
VERTEX
  8
0
  5
560E
 10
12001.4
 20
8540.87
 30
0.000000
  70
    32
  0
VERTEX
  8
0
  5
560F
 10
12001.3
 20
8540.82
 30
0.000000
  70
    32
  0
VERTEX
  8
0
  5
5610
 10
12001.1
 20
8540.78
 30
0.000000
  70
    32
  0
VERTEX
  8
0
  5
5611
 10
12001.0
 20
8540.74
 30
0.000000
  70
    32
  0
VERTEX
  8
0
  5
5612
 10
12000.9
 20
8540.70
 30
0.000000
  70
    32
  0
VERTEX
  8
0
  5
5613
 10
12000.8
 20
8540.66
 30
0.000000
  70
    32
  0
VERTEX
  8
0
  5
5614
 10
12000.6
 20
8540.63
 30
0.000000
  70
    32
  0
VERTEX
  8
0
  5
5615
 10
12000.5
 20
8540.60
 30
0.000000
  70
    32
  0
VERTEX
  8
0
  5
5616
 10
12000.4
 20
8540.57
 30
0.000000
  70
    32
  0
VERTEX
  8
0
  5
5617
 10
12000.2
 20
8540.55
 30
0.000000
  70
    32
  0
VERTEX
  8
0
  5
5618
 10
12000.1
 20
8540.53
 30
0.000000
  70
    32
  0
VERTEX
  8
0
  5
5619
 10
11999.9
 20
8540.51
 30
0.000000
  70
    32
  0
VERTEX
  8
0
  5
561A
 10
11999.8
 20
8540.50
 30
0.000000
  70
    32
  0
VERTEX
  8
0
  5
561B
 10
11999.7
 20
8540.49
 30
0.000000
  70
    32
  0
VERTEX
  8
0
  5
561C
 10
11999.5
 20
8540.49
 30
0.000000
  70
    32
  0
VERTEX
  8
0
  5
561D
 10
11999.4
 20
8540.48
 30
0.000000
  70
    32
  0
VERTEX
  8
0
  5
561E
 10
11999.2
 20
8540.49
 30
0.000000
  70
    32
  0
VERTEX
  8
0
  5
561F
 10
11999.1
 20
8540.49
 30
0.000000
  70
    32
  0
VERTEX
  8
0
  5
5620
 10
11998.9
 20
8540.50
 30
0.000000
  70
    32
  0
VERTEX
  8
0
  5
5621
 10
11998.8
 20
8540.51
 30
0.000000
  70
    32
  0
VERTEX
  8
0
  5
5622
 10
11998.6
 20
8540.53
 30
0.000000
  70
    32
  0
VERTEX
  8
0
  5
5623
 10
11998.5
 20
8540.55
 30
0.000000
  70
    32
  0
VERTEX
  8
0
  5
5624
 10
11998.3
 20
8540.57
 30
0.000000
  70
    32
  0
VERTEX
  8
0
  5
5625
 10
11998.2
 20
8540.60
 30
0.000000
  70
    32
  0
VERTEX
  8
0
  5
5626
 10
11998.1
 20
8540.63
 30
0.000000
  70
    32
  0
VERTEX
  8
0
  5
5627
 10
11997.9
 20
8540.66
 30
0.000000
  70
    32
  0
VERTEX
  8
0
  5
5628
 10
11997.8
 20
8540.70
 30
0.000000
  70
    32
  0
VERTEX
  8
0
  5
5629
 10
11997.7
 20
8540.74
 30
0.000000
  70
    32
  0
VERTEX
  8
0
  5
562A
 10
11997.6
 20
8540.78
 30
0.000000
  70
    32
  0
VERTEX
  8
0
  5
562B
 10
11997.5
 20
8540.82
 30
0.000000
  70
    32
  0
VERTEX
  8
0
  5
562C
 10
11997.3
 20
8540.87
 30
0.000000
  70
    32
  0
VERTEX
  8
0
  5
562D
 10
11997.2
 20
8540.92
 30
0.000000
  70
    32
  0
VERTEX
  8
0
  5
562E
 10
11997.1
 20
8540.98
 30
0.000000
  70
    32
  0
VERTEX
  8
0
  5
562F
 10
11997.0
 20
8541.03
 30
0.000000
  70
    32
  0
VERTEX
  8
0
  5
5630
 10
11996.9
 20
8541.09
 30
0.000000
  70
    32
  0
VERTEX
  8
0
  5
5631
 10
11996.9
 20
8541.15
 30
0.000000
  70
    32
  0
VERTEX
  8
0
  5
5632
 10
11996.8
 20
8541.21
 30
0.000000
  70
    32
  0
VERTEX
  8
0
  5
5633
 10
11996.7
 20
8541.28
 30
0.000000
  70
    32
  0
VERTEX
  8
0
  5
5634
 10
11996.6
 20
8541.34
 30
0.000000
  70
    32
  0
VERTEX
  8
0
  5
5635
 10
11996.6
 20
8541.41
 30
0.000000
  70
    32
  0
VERTEX
  8
0
  5
5636
 10
11996.5
 20
8541.48
 30
0.000000
  70
    32
  0
VERTEX
  8
0
  5
5637
 10
11996.5
 20
8541.55
 30
0.000000
  70
    32
  0
VERTEX
  8
0
  5
5638
 10
11996.4
 20
8541.62
 30
0.000000
  70
    32
  0
VERTEX
  8
0
  5
5639
 10
11996.4
 20
8541.69
 30
0.000000
  70
    32
  0
VERTEX
  8
0
  5
563A
 10
11996.4
 20
8541.76
 30
0.000000
  70
    32
  0
VERTEX
  8
0
  5
563B
 10
11996.4
 20
8541.84
 30
0.000000
  70
    32
  0
VERTEX
  8
0
  5
563C
 10
11996.4
 20
8541.91
 30
0.000000
  70
    32
  0
VERTEX
  8
0
  5
563D
 10
11996.4
 20
8541.98
 30
0.000000
  70
    32
  0
SEQEND
  8
0
  5
563E
  0
POLYLINE
  5
46E6
  8
0
 10
11996.359389109961
 20
8551.2703968630576
 30
0.0
 66
     1
 70
     8
  0
VERTEX
  8
0
  5
563F
 10
11996.4
 20
8551.27
 30
0.000000
  70
    32
  0
VERTEX
  8
0
  5
5640
 10
11996.4
 20
8551.37
 30
0.000000
  70
    32
  0
VERTEX
  8
0
  5
5641
 10
11996.4
 20
8551.47
 30
0.000000
  70
    32
  0
VERTEX
  8
0
  5
5642
 10
11996.4
 20
8551.56
 30
0.000000
  70
    32
  0
VERTEX
  8
0
  5
5643
 10
11996.4
 20
8551.66
 30
0.000000
  70
    32
  0
VERTEX
  8
0
  5
5644
 10
11996.4
 20
8551.76
 30
0.000000
  70
    32
  0
VERTEX
  8
0
  5
5645
 10
11996.5
 20
8551.85
 30
0.000000
  70
    32
  0
VERTEX
  8
0
  5
5646
 10
11996.5
 20
8551.94
 30
0.000000
  70
    32
  0
VERTEX
  8
0
  5
5647
 10
11996.6
 20
8552.04
 30
0.000000
  70
    32
  0
VERTEX
  8
0
  5
5648
 10
11996.6
 20
8552.13
 30
0.000000
  70
    32
  0
VERTEX
  8
0
  5
5649
 10
11996.7
 20
8552.21
 30
0.000000
  70
    32
  0
VERTEX
  8
0
  5
564A
 10
11996.8
 20
8552.30
 30
0.000000
  70
    32
  0
VERTEX
  8
0
  5
564B
 10
11996.9
 20
8552.38
 30
0.000000
  70
    32
  0
VERTEX
  8
0
  5
564C
 10
11996.9
 20
8552.46
 30
0.000000
  70
    32
  0
VERTEX
  8
0
  5
564D
 10
11997.0
 20
8552.54
 30
0.000000
  70
    32
  0
VERTEX
  8
0
  5
564E
 10
11997.1
 20
8552.61
 30
0.000000
  70
    32
  0
VERTEX
  8
0
  5
564F
 10
11997.2
 20
8552.68
 30
0.000000
  70
    32
  0
VERTEX
  8
0
  5
5650
 10
11997.3
 20
8552.75
 30
0.000000
  70
    32
  0
VERTEX
  8
0
  5
5651
 10
11997.5
 20
8552.82
 30
0.000000
  70
    32
  0
VERTEX
  8
0
  5
5652
 10
11997.6
 20
8552.88
 30
0.000000
  70
    32
  0
VERTEX
  8
0
  5
5653
 10
11997.7
 20
8552.93
 30
0.000000
  70
    32
  0
VERTEX
  8
0
  5
5654
 10
11997.8
 20
8552.99
 30
0.000000
  70
    32
  0
VERTEX
  8
0
  5
5655
 10
11997.9
 20
8553.03
 30
0.000000
  70
    32
  0
VERTEX
  8
0
  5
5656
 10
11998.1
 20
8553.08
 30
0.000000
  70
    32
  0
VERTEX
  8
0
  5
5657
 10
11998.2
 20
8553.12
 30
0.000000
  70
    32
  0
VERTEX
  8
0
  5
5658
 10
11998.3
 20
8553.15
 30
0.000000
  70
    32
  0
VERTEX
  8
0
  5
5659
 10
11998.5
 20
8553.18
 30
0.000000
  70
    32
  0
VERTEX
  8
0
  5
565A
 10
11998.6
 20
8553.21
 30
0.000000
  70
    32
  0
VERTEX
  8
0
  5
565B
 10
11998.8
 20
8553.23
 30
0.000000
  70
    32
  0
VERTEX
  8
0
  5
565C
 10
11998.9
 20
8553.25
 30
0.000000
  70
    32
  0
VERTEX
  8
0
  5
565D
 10
11999.1
 20
8553.26
 30
0.000000
  70
    32
  0
VERTEX
  8
0
  5
565E
 10
11999.2
 20
8553.27
 30
0.000000
  70
    32
  0
VERTEX
  8
0
  5
565F
 10
11999.4
 20
8553.27
 30
0.000000
  70
    32
  0
VERTEX
  8
0
  5
5660
 10
11999.5
 20
8553.27
 30
0.000000
  70
    32
  0
VERTEX
  8
0
  5
5661
 10
11999.7
 20
8553.26
 30
0.000000
  70
    32
  0
VERTEX
  8
0
  5
5662
 10
11999.8
 20
8553.25
 30
0.000000
  70
    32
  0
VERTEX
  8
0
  5
5663
 10
11999.9
 20
8553.23
 30
0.000000
  70
    32
  0
VERTEX
  8
0
  5
5664
 10
12000.1
 20
8553.21
 30
0.000000
  70
    32
  0
VERTEX
  8
0
  5
5665
 10
12000.2
 20
8553.18
 30
0.000000
  70
    32
  0
VERTEX
  8
0
  5
5666
 10
12000.4
 20
8553.15
 30
0.000000
  70
    32
  0
VERTEX
  8
0
  5
5667
 10
12000.5
 20
8553.12
 30
0.000000
  70
    32
  0
VERTEX
  8
0
  5
5668
 10
12000.6
 20
8553.08
 30
0.000000
  70
    32
  0
VERTEX
  8
0
  5
5669
 10
12000.8
 20
8553.03
 30
0.000000
  70
    32
  0
VERTEX
  8
0
  5
566A
 10
12000.9
 20
8552.99
 30
0.000000
  70
    32
  0
VERTEX
  8
0
  5
566B
 10
12001.0
 20
8552.93
 30
0.000000
  70
    32
  0
VERTEX
  8
0
  5
566C
 10
12001.1
 20
8552.88
 30
0.000000
  70
    32
  0
VERTEX
  8
0
  5
566D
 10
12001.3
 20
8552.82
 30
0.000000
  70
    32
  0
VERTEX
  8
0
  5
566E
 10
12001.4
 20
8552.75
 30
0.000000
  70
    32
  0
VERTEX
  8
0
  5
566F
 10
12001.5
 20
8552.68
 30
0.000000
  70
    32
  0
VERTEX
  8
0
  5
5670
 10
12001.6
 20
8552.61
 30
0.000000
  70
    32
  0
VERTEX
  8
0
  5
5671
 10
12001.7
 20
8552.54
 30
0.000000
  70
    32
  0
VERTEX
  8
0
  5
5672
 10
12001.8
 20
8552.46
 30
0.000000
  70
    32
  0
VERTEX
  8
0
  5
5673
 10
12001.9
 20
8552.38
 30
0.000000
  70
    32
  0
VERTEX
  8
0
  5
5674
 10
12001.9
 20
8552.30
 30
0.000000
  70
    32
  0
VERTEX
  8
0
  5
5675
 10
12002.0
 20
8552.21
 30
0.000000
  70
    32
  0
VERTEX
  8
0
  5
5676
 10
12002.1
 20
8552.13
 30
0.000000
  70
    32
  0
VERTEX
  8
0
  5
5677
 10
12002.1
 20
8552.04
 30
0.000000
  70
    32
  0
VERTEX
  8
0
  5
5678
 10
12002.2
 20
8551.94
 30
0.000000
  70
    32
  0
VERTEX
  8
0
  5
5679
 10
12002.2
 20
8551.85
 30
0.000000
  70
    32
  0
VERTEX
  8
0
  5
567A
 10
12002.3
 20
8551.76
 30
0.000000
  70
    32
  0
VERTEX
  8
0
  5
567B
 10
12002.3
 20
8551.66
 30
0.000000
  70
    32
  0
VERTEX
  8
0
  5
567C
 10
12002.3
 20
8551.56
 30
0.000000
  70
    32
  0
VERTEX
  8
0
  5
567D
 10
12002.3
 20
8551.47
 30
0.000000
  70
    32
  0
VERTEX
  8
0
  5
567E
 10
12002.4
 20
8551.37
 30
0.000000
  70
    32
  0
VERTEX
  8
0
  5
567F
 10
12002.4
 20
8551.27
 30
0.000000
  70
    32
  0
VERTEX
  8
0
  5
5680
 10
12002.4
 20
8551.17
 30
0.000000
  70
    32
  0
VERTEX
  8
0
  5
5681
 10
12002.3
 20
8551.07
 30
0.000000
  70
    32
  0
VERTEX
  8
0
  5
5682
 10
12002.3
 20
8550.98
 30
0.000000
  70
    32
  0
VERTEX
  8
0
  5
5683
 10
12002.3
 20
8550.88
 30
0.000000
  70
    32
  0
VERTEX
  8
0
  5
5684
 10
12002.3
 20
8550.78
 30
0.000000
  70
    32
  0
VERTEX
  8
0
  5
5685
 10
12002.2
 20
8550.69
 30
0.000000
  70
    32
  0
VERTEX
  8
0
  5
5686
 10
12002.2
 20
8550.60
 30
0.000000
  70
    32
  0
VERTEX
  8
0
  5
5687
 10
12002.1
 20
8550.51
 30
0.000000
  70
    32
  0
VERTEX
  8
0
  5
5688
 10
12002.1
 20
8550.42
 30
0.000000
  70
    32
  0
VERTEX
  8
0
  5
5689
 10
12002.0
 20
8550.33
 30
0.000000
  70
    32
  0
VERTEX
  8
0
  5
568A
 10
12001.9
 20
8550.24
 30
0.000000
  70
    32
  0
VERTEX
  8
0
  5
568B
 10
12001.9
 20
8550.16
 30
0.000000
  70
    32
  0
VERTEX
  8
0
  5
568C
 10
12001.8
 20
8550.08
 30
0.000000
  70
    32
  0
VERTEX
  8
0
  5
568D
 10
12001.7
 20
8550.00
 30
0.000000
  70
    32
  0
VERTEX
  8
0
  5
568E
 10
12001.6
 20
8549.93
 30
0.000000
  70
    32
  0
VERTEX
  8
0
  5
568F
 10
12001.5
 20
8549.86
 30
0.000000
  70
    32
  0
VERTEX
  8
0
  5
5690
 10
12001.4
 20
8549.79
 30
0.000000
  70
    32
  0
VERTEX
  8
0
  5
5691
 10
12001.3
 20
8549.72
 30
0.000000
  70
    32
  0
VERTEX
  8
0
  5
5692
 10
12001.1
 20
8549.66
 30
0.000000
  70
    32
  0
VERTEX
  8
0
  5
5693
 10
12001.0
 20
8549.61
 30
0.000000
  70
    32
  0
VERTEX
  8
0
  5
5694
 10
12000.9
 20
8549.55
 30
0.000000
  70
    32
  0
VERTEX
  8
0
  5
5695
 10
12000.8
 20
8549.51
 30
0.000000
  70
    32
  0
VERTEX
  8
0
  5
5696
 10
12000.6
 20
8549.46
 30
0.000000
  70
    32
  0
VERTEX
  8
0
  5
5697
 10
12000.5
 20
8549.42
 30
0.000000
  70
    32
  0
VERTEX
  8
0
  5
5698
 10
12000.4
 20
8549.39
 30
0.000000
  70
    32
  0
VERTEX
  8
0
  5
5699
 10
12000.2
 20
8549.36
 30
0.000000
  70
    32
  0
VERTEX
  8
0
  5
569A
 10
12000.1
 20
8549.33
 30
0.000000
  70
    32
  0
VERTEX
  8
0
  5
569B
 10
11999.9
 20
8549.31
 30
0.000000
  70
    32
  0
VERTEX
  8
0
  5
569C
 10
11999.8
 20
8549.29
 30
0.000000
  70
    32
  0
VERTEX
  8
0
  5
569D
 10
11999.7
 20
8549.28
 30
0.000000
  70
    32
  0
VERTEX
  8
0
  5
569E
 10
11999.5
 20
8549.27
 30
0.000000
  70
    32
  0
VERTEX
  8
0
  5
569F
 10
11999.4
 20
8549.27
 30
0.000000
  70
    32
  0
VERTEX
  8
0
  5
56A0
 10
11999.2
 20
8549.27
 30
0.000000
  70
    32
  0
VERTEX
  8
0
  5
56A1
 10
11999.1
 20
8549.28
 30
0.000000
  70
    32
  0
VERTEX
  8
0
  5
56A2
 10
11998.9
 20
8549.29
 30
0.000000
  70
    32
  0
VERTEX
  8
0
  5
56A3
 10
11998.8
 20
8549.31
 30
0.000000
  70
    32
  0
VERTEX
  8
0
  5
56A4
 10
11998.6
 20
8549.33
 30
0.000000
  70
    32
  0
VERTEX
  8
0
  5
56A5
 10
11998.5
 20
8549.36
 30
0.000000
  70
    32
  0
VERTEX
  8
0
  5
56A6
 10
11998.3
 20
8549.39
 30
0.000000
  70
    32
  0
VERTEX
  8
0
  5
56A7
 10
11998.2
 20
8549.42
 30
0.000000
  70
    32
  0
VERTEX
  8
0
  5
56A8
 10
11998.1
 20
8549.46
 30
0.000000
  70
    32
  0
VERTEX
  8
0
  5
56A9
 10
11997.9
 20
8549.51
 30
0.000000
  70
    32
  0
VERTEX
  8
0
  5
56AA
 10
11997.8
 20
8549.55
 30
0.000000
  70
    32
  0
VERTEX
  8
0
  5
56AB
 10
11997.7
 20
8549.61
 30
0.000000
  70
    32
  0
VERTEX
  8
0
  5
56AC
 10
11997.6
 20
8549.66
 30
0.000000
  70
    32
  0
VERTEX
  8
0
  5
56AD
 10
11997.5
 20
8549.72
 30
0.000000
  70
    32
  0
VERTEX
  8
0
  5
56AE
 10
11997.3
 20
8549.79
 30
0.000000
  70
    32
  0
VERTEX
  8
0
  5
56AF
 10
11997.2
 20
8549.86
 30
0.000000
  70
    32
  0
VERTEX
  8
0
  5
56B0
 10
11997.1
 20
8549.93
 30
0.000000
  70
    32
  0
VERTEX
  8
0
  5
56B1
 10
11997.0
 20
8550.00
 30
0.000000
  70
    32
  0
VERTEX
  8
0
  5
56B2
 10
11996.9
 20
8550.08
 30
0.000000
  70
    32
  0
VERTEX
  8
0
  5
56B3
 10
11996.9
 20
8550.16
 30
0.000000
  70
    32
  0
VERTEX
  8
0
  5
56B4
 10
11996.8
 20
8550.24
 30
0.000000
  70
    32
  0
VERTEX
  8
0
  5
56B5
 10
11996.7
 20
8550.33
 30
0.000000
  70
    32
  0
VERTEX
  8
0
  5
56B6
 10
11996.6
 20
8550.42
 30
0.000000
  70
    32
  0
VERTEX
  8
0
  5
56B7
 10
11996.6
 20
8550.51
 30
0.000000
  70
    32
  0
VERTEX
  8
0
  5
56B8
 10
11996.5
 20
8550.60
 30
0.000000
  70
    32
  0
VERTEX
  8
0
  5
56B9
 10
11996.5
 20
8550.69
 30
0.000000
  70
    32
  0
VERTEX
  8
0
  5
56BA
 10
11996.4
 20
8550.78
 30
0.000000
  70
    32
  0
VERTEX
  8
0
  5
56BB
 10
11996.4
 20
8550.88
 30
0.000000
  70
    32
  0
VERTEX
  8
0
  5
56BC
 10
11996.4
 20
8550.98
 30
0.000000
  70
    32
  0
VERTEX
  8
0
  5
56BD
 10
11996.4
 20
8551.07
 30
0.000000
  70
    32
  0
VERTEX
  8
0
  5
56BE
 10
11996.4
 20
8551.17
 30
0.000000
  70
    32
  0
VERTEX
  8
0
  5
56BF
 10
11996.4
 20
8551.27
 30
0.000000
  70
    32
  0
SEQEND
  8
0
  5
56C0
  0
POLYLINE
  5
46E7
  8
0
 10
12002.343962455243
 20
8551.4730271026056
 30
0.0
 66
     1
 70
     8
  0
VERTEX
  8
0
  5
56C1
 10
12002.3
 20
8551.47
 30
0.000000
  70
    32
  0
VERTEX
  8
0
  5
56C2
 10
12002.3
 20
8551.43
 30
0.000000
  70
    32
  0
VERTEX
  8
0
  5
56C3
 10
12002.3
 20
8551.38
 30
0.000000
  70
    32
  0
VERTEX
  8
0
  5
56C4
 10
12002.3
 20
8551.34
 30
0.000000
  70
    32
  0
VERTEX
  8
0
  5
56C5
 10
12002.3
 20
8551.29
 30
0.000000
  70
    32
  0
VERTEX
  8
0
  5
56C6
 10
12002.3
 20
8551.25
 30
0.000000
  70
    32
  0
VERTEX
  8
0
  5
56C7
 10
12002.3
 20
8551.20
 30
0.000000
  70
    32
  0
VERTEX
  8
0
  5
56C8
 10
12002.3
 20
8551.16
 30
0.000000
  70
    32
  0
VERTEX
  8
0
  5
56C9
 10
12002.2
 20
8551.11
 30
0.000000
  70
    32
  0
VERTEX
  8
0
  5
56CA
 10
12002.2
 20
8551.07
 30
0.000000
  70
    32
  0
VERTEX
  8
0
  5
56CB
 10
12002.2
 20
8551.03
 30
0.000000
  70
    32
  0
VERTEX
  8
0
  5
56CC
 10
12002.2
 20
8550.98
 30
0.000000
  70
    32
  0
VERTEX
  8
0
  5
56CD
 10
12002.1
 20
8550.94
 30
0.000000
  70
    32
  0
VERTEX
  8
0
  5
56CE
 10
12002.1
 20
8550.90
 30
0.000000
  70
    32
  0
VERTEX
  8
0
  5
56CF
 10
12002.1
 20
8550.85
 30
0.000000
  70
    32
  0
VERTEX
  8
0
  5
56D0
 10
12002.1
 20
8550.81
 30
0.000000
  70
    32
  0
VERTEX
  8
0
  5
56D1
 10
12002.0
 20
8550.77
 30
0.000000
  70
    32
  0
VERTEX
  8
0
  5
56D2
 10
12002.0
 20
8550.73
 30
0.000000
  70
    32
  0
VERTEX
  8
0
  5
56D3
 10
12002.0
 20
8550.69
 30
0.000000
  70
    32
  0
VERTEX
  8
0
  5
56D4
 10
12001.9
 20
8550.65
 30
0.000000
  70
    32
  0
VERTEX
  8
0
  5
56D5
 10
12001.9
 20
8550.61
 30
0.000000
  70
    32
  0
VERTEX
  8
0
  5
56D6
 10
12001.9
 20
8550.57
 30
0.000000
  70
    32
  0
VERTEX
  8
0
  5
56D7
 10
12001.8
 20
8550.54
 30
0.000000
  70
    32
  0
VERTEX
  8
0
  5
56D8
 10
12001.8
 20
8550.50
 30
0.000000
  70
    32
  0
VERTEX
  8
0
  5
56D9
 10
12001.7
 20
8550.46
 30
0.000000
  70
    32
  0
VERTEX
  8
0
  5
56DA
 10
12001.7
 20
8550.43
 30
0.000000
  70
    32
  0
VERTEX
  8
0
  5
56DB
 10
12001.7
 20
8550.39
 30
0.000000
  70
    32
  0
VERTEX
  8
0
  5
56DC
 10
12001.6
 20
8550.35
 30
0.000000
  70
    32
  0
VERTEX
  8
0
  5
56DD
 10
12001.6
 20
8550.32
 30
0.000000
  70
    32
  0
VERTEX
  8
0
  5
56DE
 10
12001.5
 20
8550.29
 30
0.000000
  70
    32
  0
VERTEX
  8
0
  5
56DF
 10
12001.5
 20
8550.25
 30
0.000000
  70
    32
  0
VERTEX
  8
0
  5
56E0
 10
12001.4
 20
8550.22
 30
0.000000
  70
    32
  0
VERTEX
  8
0
  5
56E1
 10
12001.4
 20
8550.19
 30
0.000000
  70
    32
  0
VERTEX
  8
0
  5
56E2
 10
12001.3
 20
8550.16
 30
0.000000
  70
    32
  0
VERTEX
  8
0
  5
56E3
 10
12001.3
 20
8550.13
 30
0.000000
  70
    32
  0
VERTEX
  8
0
  5
56E4
 10
12001.2
 20
8550.10
 30
0.000000
  70
    32
  0
VERTEX
  8
0
  5
56E5
 10
12001.2
 20
8550.07
 30
0.000000
  70
    32
  0
VERTEX
  8
0
  5
56E6
 10
12001.1
 20
8550.05
 30
0.000000
  70
    32
  0
VERTEX
  8
0
  5
56E7
 10
12001.0
 20
8550.02
 30
0.000000
  70
    32
  0
VERTEX
  8
0
  5
56E8
 10
12001.0
 20
8550.00
 30
0.000000
  70
    32
  0
VERTEX
  8
0
  5
56E9
 10
12000.9
 20
8549.97
 30
0.000000
  70
    32
  0
VERTEX
  8
0
  5
56EA
 10
12000.9
 20
8549.95
 30
0.000000
  70
    32
  0
VERTEX
  8
0
  5
56EB
 10
12000.8
 20
8549.93
 30
0.000000
  70
    32
  0
VERTEX
  8
0
  5
56EC
 10
12000.8
 20
8549.90
 30
0.000000
  70
    32
  0
VERTEX
  8
0
  5
56ED
 10
12000.7
 20
8549.88
 30
0.000000
  70
    32
  0
VERTEX
  8
0
  5
56EE
 10
12000.6
 20
8549.86
 30
0.000000
  70
    32
  0
VERTEX
  8
0
  5
56EF
 10
12000.6
 20
8549.84
 30
0.000000
  70
    32
  0
VERTEX
  8
0
  5
56F0
 10
12000.5
 20
8549.83
 30
0.000000
  70
    32
  0
VERTEX
  8
0
  5
56F1
 10
12000.4
 20
8549.81
 30
0.000000
  70
    32
  0
VERTEX
  8
0
  5
56F2
 10
12000.4
 20
8549.79
 30
0.000000
  70
    32
  0
VERTEX
  8
0
  5
56F3
 10
12000.3
 20
8549.78
 30
0.000000
  70
    32
  0
VERTEX
  8
0
  5
56F4
 10
12000.2
 20
8549.76
 30
0.000000
  70
    32
  0
VERTEX
  8
0
  5
56F5
 10
12000.2
 20
8549.75
 30
0.000000
  70
    32
  0
VERTEX
  8
0
  5
56F6
 10
12000.1
 20
8549.74
 30
0.000000
  70
    32
  0
VERTEX
  8
0
  5
56F7
 10
12000.0
 20
8549.73
 30
0.000000
  70
    32
  0
VERTEX
  8
0
  5
56F8
 10
12000.0
 20
8549.72
 30
0.000000
  70
    32
  0
VERTEX
  8
0
  5
56F9
 10
11999.9
 20
8549.71
 30
0.000000
  70
    32
  0
VERTEX
  8
0
  5
56FA
 10
11999.8
 20
8549.70
 30
0.000000
  70
    32
  0
VERTEX
  8
0
  5
56FB
 10
11999.8
 20
8549.69
 30
0.000000
  70
    32
  0
VERTEX
  8
0
  5
56FC
 10
11999.7
 20
8549.69
 30
0.000000
  70
    32
  0
VERTEX
  8
0
  5
56FD
 10
11999.6
 20
8549.68
 30
0.000000
  70
    32
  0
VERTEX
  8
0
  5
56FE
 10
11999.6
 20
8549.68
 30
0.000000
  70
    32
  0
VERTEX
  8
0
  5
56FF
 10
11999.5
 20
8549.68
 30
0.000000
  70
    32
  0
VERTEX
  8
0
  5
5700
 10
11999.4
 20
8549.68
 30
0.000000
  70
    32
  0
VERTEX
  8
0
  5
5701
 10
11999.4
 20
8549.68
 30
0.000000
  70
    32
  0
VERTEX
  8
0
  5
5702
 10
11999.3
 20
8549.68
 30
0.000000
  70
    32
  0
VERTEX
  8
0
  5
5703
 10
11999.2
 20
8549.68
 30
0.000000
  70
    32
  0
VERTEX
  8
0
  5
5704
 10
11999.2
 20
8549.68
 30
0.000000
  70
    32
  0
VERTEX
  8
0
  5
5705
 10
11999.1
 20
8549.68
 30
0.000000
  70
    32
  0
VERTEX
  8
0
  5
5706
 10
11999.0
 20
8549.69
 30
0.000000
  70
    32
  0
VERTEX
  8
0
  5
5707
 10
11998.9
 20
8549.69
 30
0.000000
  70
    32
  0
VERTEX
  8
0
  5
5708
 10
11998.9
 20
8549.70
 30
0.000000
  70
    32
  0
VERTEX
  8
0
  5
5709
 10
11998.8
 20
8549.71
 30
0.000000
  70
    32
  0
VERTEX
  8
0
  5
570A
 10
11998.7
 20
8549.72
 30
0.000000
  70
    32
  0
VERTEX
  8
0
  5
570B
 10
11998.7
 20
8549.73
 30
0.000000
  70
    32
  0
VERTEX
  8
0
  5
570C
 10
11998.6
 20
8549.74
 30
0.000000
  70
    32
  0
VERTEX
  8
0
  5
570D
 10
11998.5
 20
8549.75
 30
0.000000
  70
    32
  0
VERTEX
  8
0
  5
570E
 10
11998.5
 20
8549.76
 30
0.000000
  70
    32
  0
VERTEX
  8
0
  5
570F
 10
11998.4
 20
8549.78
 30
0.000000
  70
    32
  0
VERTEX
  8
0
  5
5710
 10
11998.3
 20
8549.79
 30
0.000000
  70
    32
  0
VERTEX
  8
0
  5
5711
 10
11998.3
 20
8549.81
 30
0.000000
  70
    32
  0
VERTEX
  8
0
  5
5712
 10
11998.2
 20
8549.83
 30
0.000000
  70
    32
  0
VERTEX
  8
0
  5
5713
 10
11998.2
 20
8549.84
 30
0.000000
  70
    32
  0
VERTEX
  8
0
  5
5714
 10
11998.1
 20
8549.86
 30
0.000000
  70
    32
  0
VERTEX
  8
0
  5
5715
 10
11998.0
 20
8549.88
 30
0.000000
  70
    32
  0
VERTEX
  8
0
  5
5716
 10
11998.0
 20
8549.90
 30
0.000000
  70
    32
  0
VERTEX
  8
0
  5
5717
 10
11997.9
 20
8549.93
 30
0.000000
  70
    32
  0
VERTEX
  8
0
  5
5718
 10
11997.8
 20
8549.95
 30
0.000000
  70
    32
  0
VERTEX
  8
0
  5
5719
 10
11997.8
 20
8549.97
 30
0.000000
  70
    32
  0
VERTEX
  8
0
  5
571A
 10
11997.7
 20
8550.00
 30
0.000000
  70
    32
  0
VERTEX
  8
0
  5
571B
 10
11997.7
 20
8550.02
 30
0.000000
  70
    32
  0
VERTEX
  8
0
  5
571C
 10
11997.6
 20
8550.05
 30
0.000000
  70
    32
  0
VERTEX
  8
0
  5
571D
 10
11997.6
 20
8550.07
 30
0.000000
  70
    32
  0
VERTEX
  8
0
  5
571E
 10
11997.5
 20
8550.10
 30
0.000000
  70
    32
  0
VERTEX
  8
0
  5
571F
 10
11997.5
 20
8550.13
 30
0.000000
  70
    32
  0
VERTEX
  8
0
  5
5720
 10
11997.4
 20
8550.16
 30
0.000000
  70
    32
  0
VERTEX
  8
0
  5
5721
 10
11997.3
 20
8550.19
 30
0.000000
  70
    32
  0
VERTEX
  8
0
  5
5722
 10
11997.3
 20
8550.22
 30
0.000000
  70
    32
  0
VERTEX
  8
0
  5
5723
 10
11997.2
 20
8550.25
 30
0.000000
  70
    32
  0
VERTEX
  8
0
  5
5724
 10
11997.2
 20
8550.29
 30
0.000000
  70
    32
  0
VERTEX
  8
0
  5
5725
 10
11997.2
 20
8550.32
 30
0.000000
  70
    32
  0
VERTEX
  8
0
  5
5726
 10
11997.1
 20
8550.35
 30
0.000000
  70
    32
  0
VERTEX
  8
0
  5
5727
 10
11997.1
 20
8550.39
 30
0.000000
  70
    32
  0
VERTEX
  8
0
  5
5728
 10
11997.0
 20
8550.43
 30
0.000000
  70
    32
  0
VERTEX
  8
0
  5
5729
 10
11997.0
 20
8550.46
 30
0.000000
  70
    32
  0
VERTEX
  8
0
  5
572A
 10
11996.9
 20
8550.50
 30
0.000000
  70
    32
  0
VERTEX
  8
0
  5
572B
 10
11996.9
 20
8550.54
 30
0.000000
  70
    32
  0
VERTEX
  8
0
  5
572C
 10
11996.9
 20
8550.57
 30
0.000000
  70
    32
  0
VERTEX
  8
0
  5
572D
 10
11996.8
 20
8550.61
 30
0.000000
  70
    32
  0
VERTEX
  8
0
  5
572E
 10
11996.8
 20
8550.65
 30
0.000000
  70
    32
  0
VERTEX
  8
0
  5
572F
 10
11996.7
 20
8550.69
 30
0.000000
  70
    32
  0
VERTEX
  8
0
  5
5730
 10
11996.7
 20
8550.73
 30
0.000000
  70
    32
  0
VERTEX
  8
0
  5
5731
 10
11996.7
 20
8550.77
 30
0.000000
  70
    32
  0
VERTEX
  8
0
  5
5732
 10
11996.7
 20
8550.81
 30
0.000000
  70
    32
  0
VERTEX
  8
0
  5
5733
 10
11996.6
 20
8550.85
 30
0.000000
  70
    32
  0
VERTEX
  8
0
  5
5734
 10
11996.6
 20
8550.90
 30
0.000000
  70
    32
  0
VERTEX
  8
0
  5
5735
 10
11996.6
 20
8550.94
 30
0.000000
  70
    32
  0
VERTEX
  8
0
  5
5736
 10
11996.5
 20
8550.98
 30
0.000000
  70
    32
  0
VERTEX
  8
0
  5
5737
 10
11996.5
 20
8551.03
 30
0.000000
  70
    32
  0
VERTEX
  8
0
  5
5738
 10
11996.5
 20
8551.07
 30
0.000000
  70
    32
  0
VERTEX
  8
0
  5
5739
 10
11996.5
 20
8551.11
 30
0.000000
  70
    32
  0
VERTEX
  8
0
  5
573A
 10
11996.5
 20
8551.16
 30
0.000000
  70
    32
  0
VERTEX
  8
0
  5
573B
 10
11996.4
 20
8551.20
 30
0.000000
  70
    32
  0
VERTEX
  8
0
  5
573C
 10
11996.4
 20
8551.25
 30
0.000000
  70
    32
  0
VERTEX
  8
0
  5
573D
 10
11996.4
 20
8551.29
 30
0.000000
  70
    32
  0
VERTEX
  8
0
  5
573E
 10
11996.4
 20
8551.34
 30
0.000000
  70
    32
  0
VERTEX
  8
0
  5
573F
 10
11996.4
 20
8551.38
 30
0.000000
  70
    32
  0
VERTEX
  8
0
  5
5740
 10
11996.4
 20
8551.43
 30
0.000000
  70
    32
  0
VERTEX
  8
0
  5
5741
 10
11996.4
 20
8551.47
 30
0.000000
  70
    32
  0
SEQEND
  8
0
  5
5742
  0
LINE
  5
46E8
  8
0
 10
11995.16349135296
 20
8555.7668635830578
 30
0.0
 11
12005.15000000096
 21
8555.7668635830578
 31
0.0
  0
LINE
  5
46E9
  8
0
 10
12004.65000000096
 20
8557.0668635830589
 30
0.0
 11
12004.65000000096
 21
8567.1349790740569
 31
0.0
  0
LINE
  5
46EA
  8
0
 10
12004.16655179796
 20
8538.3000000000575
 30
0.0
 11
11994.96349135297
 21
8538.3000000000575
 31
0.0
  0
LINE
  5
46EB
  8
0
 10
12004.466551797959
 20
8547.4003452740562
 30
0.0
 11
12004.466551797959
 21
8538.6000000000568
 31
0.0
  0
LINE
  5
46EC
  8
0
 10
11994.96349135297
 20
8537.5000000000582
 30
0.0
 11
12005.14999999996
 21
8537.5000000000582
 31
0.0
  0
LINE
  5
46ED
  8
0
 10
11994.663491352971
 20
8544.9003452740581
 30
0.0
 11
11994.663491352971
 21
8537.8000000000593
 31
0.0
  0
LINE
  5
46EE
  8
0
 10
12004.466551797959
 20
8545.2003452740573
 30
0.0
 11
11994.96349135297
 21
8545.2003452740573
 31
0.0
  0
LINE
  5
46EF
  8
0
 10
11995.16349135296
 20
8547.7003452740573
 30
0.0
 11
12004.16655179796
 21
8547.7003452740573
 31
0.0
  0
LINE
  5
46F0
  8
0
 10
11994.663491351959
 20
8556.0668635830607
 30
0.0
 11
11994.663491351959
 21
8548.2003452740573
 31
0.0
  0
LINE
  5
46F1
  8
0
 10
12004.15000000096
 20
8556.5668635830589
 30
0.0
 11
11995.16349135296
 21
8556.5668635830589
 31
0.0
  0
LINE
  5
46F2
  8
0
 10
12005.64999999996
 20
8571.6921565390585
 30
0.0
 11
12005.64999999996
 21
8538.0000000000582
 31
0.0
  0
LINE
  5
46F3
  8
0
 10
11995.24999999996
 20
8567.4349790740616
 30
0.0
 11
11995.24999999996
 21
8562.5000000000582
 31
0.0
  0
LINE
  5
46F4
  8
0
 10
12017.850354242029
 20
8589.1000000000568
 30
0.0
 11
12013.850354242029
 21
8589.1000000000568
 31
0.0
  0
LINE
  5
46F5
  8
0
 10
12013.350354242029
 20
8588.6000000000568
 30
0.0
 11
12013.350354242029
 21
8586.8000000000575
 31
0.0
  0
LINE
  5
46F6
  8
0
 10
12011.100354242029
 20
8579.5000000000582
 30
0.0
 11
12020.600354242029
 21
8579.5000000000582
 31
0.0
  0
LINE
  5
46F7
  8
0
 10
12017.850354242029
 20
8589.1000000000568
 30
0.0
 11
12018.350354242029
 21
8588.6000000000568
 31
0.0
  0
LINE
  5
46F8
  8
0
 10
12013.850354242029
 20
8589.1000000000568
 30
0.0
 11
12013.350354242029
 21
8588.6000000000568
 31
0.0
  0
ARC
  5
46F9
  8
0
 10
12015.85016078903
 20
8584.6596716480562
 30
0.0
 40
8.1285714289999991
 50
246.04773511196541
 51
293.95226488803451
  0
ARC
  5
46FA
  8
0
 10
12013.599125602839
 20
8579.4990358590221
 30
0.0
 40
2.4987715468207199
 50
179.9778926514596
 51
245.17853087701289
  0
ARC
  5
46FB
  8
0
 10
12018.100354242029
 20
8579.5000000000582
 30
0.0
 40
2.5
 50
294.82970220811308
 51
0.0
  0
LINE
  5
46FC
  8
0
 10
12092.79999999993
 20
8586.8000000000575
 30
0.0
 11
12102.29999999993
 21
8586.8000000000575
 31
0.0
  0
ARC
  5
46FD
  8
0
 10
12097.549806546929
 20
8580.9403283520605
 30
0.0
 40
8.1285714289999991
 50
66.047735111965451
 51
113.95226488803451
  0
ARC
  5
46FE
  8
0
 10
12095.68778727107
 20
8585.5857477293903
 30
0.0
 40
3.1326863711785582
 50
117.32419728650351
 51
157.1942964207804
  0
ARC
  5
46FF
  8
0
 10
12099.09366154399
 20
8585.2909442401251
 30
0.0
 40
3.5437064749576148
 50
25.203912070124691
 51
60.292835158216938
  0
LINE
  5
4700
  8
0
 10
12091.35035424198
 20
8586.8000000000575
 30
0.0
 11
12091.35035424198
 21
8588.6000000000568
 31
0.0
  0
LINE
  5
4701
  8
0
 10
11994.799999999979
 20
8586.8000000000575
 30
0.0
 11
12004.299999999979
 21
8586.8000000000575
 31
0.0
  0
ARC
  5
4702
  8
0
 10
11999.54980654698
 20
8580.9403283520605
 30
0.0
 40
8.1285714289999991
 50
66.047735111965451
 51
113.95226488803451
  0
ARC
  5
4703
  8
0
 10
11997.687787271119
 20
8585.5857477293903
 30
0.0
 40
3.1326863711785582
 50
117.32419728650351
 51
157.1942964207804
  0
ARC
  5
4704
  8
0
 10
12001.09366154403
 20
8585.2909442401251
 30
0.0
 40
3.5437064749576148
 50
25.203912070124691
 51
60.292835158216938
  0
LINE
  5
4705
  8
0
 10
12018.350354242029
 20
8586.8000000000575
 30
0.0
 11
12018.350354242029
 21
8588.6000000000568
 31
0.0
  0
LINE
  5
4706
  8
0
 10
11759.99999999996
 20
8544.5000000000582
 30
0.0
 11
11759.99999999996
 21
8548.5000000000582
 31
0.0
  0
LINE
  5
4707
  8
0
 10
11993.64999999996
 20
8569.50000000006
 30
0.0
 11
11925.249999999951
 21
8569.50000000006
 31
0.0
  0
LINE
  5
4708
  8
0
 10
11833.235703320621
 20
8569.50000000006
 30
0.0
 11
11764.21737175785
 21
8549.7093118916637
 31
0.0
  0
LINE
  5
4709
  8
0
 10
12004.466551797959
 20
8546.800000000112
 30
0.0
 11
11759.99999999996
 21
8546.800000000112
 31
0.0
  0
LINE
  5
470A
  8
0
 10
11759.99999999996
 20
8544.5000000000655
 30
0.0
 11
11994.663491352971
 21
8544.5000000000655
 31
0.0
  0
LINE
  5
470B
  8
0
 10
11789.49999999996
 20
8544.5000000000582
 30
0.0
 11
11749.59999999996
 21
8544.5000000000582
 31
0.0
  0
LINE
  5
470C
  8
0
 10
11749.59999999996
 20
8544.5000000000582
 30
0.0
 11
11749.59999999996
 21
8507.9000000000615
 31
0.0
  0
LINE
  5
470D
  8
0
 10
11747.59999999996
 20
8505.9000000000597
 30
0.0
 11
11745.99999999996
 21
8505.9000000000597
 31
0.0
  0
LINE
  5
470E
  8
0
 10
11745.99999999996
 20
8505.9000000000597
 30
0.0
 11
11745.99999999996
 21
8505.0000000000564
 31
0.0
  0
LINE
  5
470F
  8
0
 10
11745.99999999996
 20
8505.0000000000564
 30
0.0
 11
11759.49999999996
 21
8505.0000000000564
 31
0.0
  0
LINE
  5
4710
  8
0
 10
11759.49999999996
 20
8505.0000000000564
 30
0.0
 11
11759.49999999996
 21
8508.0000000000564
 31
0.0
  0
LINE
  5
4711
  8
0
 10
11759.49999999996
 20
8508.0000000000564
 30
0.0
 11
11754.59999999996
 21
8508.0000000000564
 31
0.0
  0
LINE
  5
4712
  8
0
 10
11754.59999999996
 20
8508.0000000000564
 30
0.0
 11
11754.59999999996
 21
8506.5000000000564
 31
0.0
  0
LINE
  5
4713
  8
0
 10
11754.59999999996
 20
8506.5000000000564
 30
0.0
 11
11752.59999999996
 21
8506.5000000000564
 31
0.0
  0
LINE
  5
4714
  8
0
 10
11752.59999999996
 20
8506.5000000000564
 30
0.0
 11
11752.59999999996
 21
8541.5000000000582
 31
0.0
  0
LINE
  5
4715
  8
0
 10
11752.59999999996
 20
8541.5000000000582
 30
0.0
 11
11754.59999999996
 21
8541.5000000000582
 31
0.0
  0
LINE
  5
4716
  8
0
 10
11754.59999999996
 20
8541.5000000000582
 30
0.0
 11
11754.59999999996
 21
8539.5000000000582
 31
0.0
  0
LINE
  5
4717
  8
0
 10
11754.59999999996
 20
8539.5000000000582
 30
0.0
 11
11756.59999999996
 21
8539.5000000000582
 31
0.0
  0
LINE
  5
4718
  8
0
 10
11756.59999999996
 20
8539.5000000000582
 30
0.0
 11
11756.59999999996
 21
8541.5000000000582
 31
0.0
  0
LINE
  5
4719
  8
0
 10
11789.49999999996
 20
8544.5000000000582
 30
0.0
 11
11789.49999999996
 21
8541.5000000000582
 31
0.0
  0
LINE
  5
471A
  8
0
 10
11789.49999999996
 20
8541.5000000000582
 30
0.0
 11
11756.59999999996
 21
8541.5000000000582
 31
0.0
  0
ARC
  5
471B
  8
0
 10
11747.59999999996
 20
8507.9000000000615
 30
0.0
 40
2.0
 50
270.0
 51
0.0
  0
LINE
  5
471C
  8
0
 10
11771.49999999996
 20
8559.5000000000582
 30
0.0
 11
11771.49999999996
 21
8556.5000000000582
 31
0.0
  0
LINE
  5
471D
  8
0
 10
11771.49999999996
 20
8556.5000000000582
 30
0.0
 11
11744.49999999996
 21
8556.5000000000582
 31
0.0
  0
LINE
  5
471E
  8
0
 10
11744.49999999996
 20
8556.5000000000582
 30
0.0
 11
11744.49999999996
 21
8512.0000000000582
 31
0.0
  0
LINE
  5
471F
  8
0
 10
11744.39999999996
 20
8512.0000000000582
 30
0.0
 11
11742.99999999996
 21
8512.0000000000582
 31
0.0
  0
LINE
  5
4720
  8
0
 10
11742.99999999996
 20
8512.0000000000582
 30
0.0
 11
11742.99999999996
 21
8505.0000000000564
 31
0.0
  0
LINE
  5
4721
  8
0
 10
11742.99999999996
 20
8505.0000000000564
 30
0.0
 11
11729.49999999996
 21
8505.0000000000564
 31
0.0
  0
LINE
  5
4722
  8
0
 10
11729.49999999996
 20
8508.0000000000564
 30
0.0
 11
11739.49999999996
 21
8508.0000000000564
 31
0.0
  0
LINE
  5
4723
  8
0
 10
11739.49999999996
 20
8508.0000000000564
 30
0.0
 11
11739.49999999996
 21
8506.5000000000564
 31
0.0
  0
LINE
  5
4724
  8
0
 10
11739.49999999996
 20
8506.5000000000564
 30
0.0
 11
11741.49999999996
 21
8506.5000000000564
 31
0.0
  0
LINE
  5
4725
  8
0
 10
11741.49999999996
 20
8506.5000000000564
 30
0.0
 11
11741.49999999996
 21
8556.5000000000582
 31
0.0
  0
LINE
  5
4726
  8
0
 10
11741.49999999996
 20
8556.5000000000582
 30
0.0
 11
11739.49999999996
 21
8556.5000000000582
 31
0.0
  0
LINE
  5
4727
  8
0
 10
11739.49999999996
 20
8556.5000000000582
 30
0.0
 11
11739.49999999996
 21
8554.5000000000582
 31
0.0
  0
LINE
  5
4728
  8
0
 10
11739.49999999996
 20
8554.5000000000582
 30
0.0
 11
11737.49999999996
 21
8554.5000000000582
 31
0.0
  0
LINE
  5
4729
  8
0
 10
11737.49999999996
 20
8554.5000000000582
 30
0.0
 11
11737.49999999996
 21
8559.5000000000582
 31
0.0
  0
LINE
  5
472A
  8
0
 10
11729.49999999996
 20
8508.0000000000564
 30
0.0
 11
11729.49999999996
 21
8505.0000000000564
 31
0.0
  0
LINE
  5
472B
  8
0
 10
11771.49999999996
 20
8559.5000000000582
 30
0.0
 11
11737.49999999996
 21
8559.5000000000582
 31
0.0
  0
LINE
  5
472C
  8
0
 10
11766.24999999996
 20
8556.5000000000582
 30
0.0
 11
11766.24999999996
 21
8554.9000000000597
 31
0.0
  0
LINE
  5
472D
  8
0
 10
11766.24999999996
 20
8554.9000000000597
 30
0.0
 11
11753.74999999996
 21
8554.9000000000597
 31
0.0
  0
LINE
  5
472E
  8
0
 10
11753.74999999996
 20
8554.9000000000597
 30
0.0
 11
11753.74999999996
 21
8556.5000000000582
 31
0.0
  0
LINE
  5
472F
  8
0
 10
11754.19999999997
 20
8554.9000000000597
 30
0.0
 11
11754.19999999997
 21
8550.4000000000597
 31
0.0
  0
LINE
  5
4730
  8
0
 10
11757.099999999969
 20
8554.9000000000597
 30
0.0
 11
11757.099999999969
 21
8550.4000000000597
 31
0.0
  0
LINE
  5
4731
  8
0
 10
11762.899999999971
 20
8554.9000000000597
 30
0.0
 11
11762.899999999971
 21
8550.4000000000597
 31
0.0
  0
LINE
  5
4732
  8
0
 10
11765.79999999997
 20
8554.9000000000597
 30
0.0
 11
11765.79999999997
 21
8550.4000000000597
 31
0.0
  0
LINE
  5
4733
  8
0
 10
11755.649999999971
 20
8549.9000000000597
 30
0.0
 11
11764.349999999969
 21
8549.9000000000597
 31
0.0
  0
ARC
  5
4734
  8
0
 10
11759.999999999971
 20
8558.5600000000559
 30
0.0
 40
8.6599999999999966
 50
250.4351859363023
 51
289.56481406369772
  0
ARC
  5
4735
  8
0
 10
11755.649999999971
 20
8552.2525000000569
 30
0.0
 40
2.3525000000000631
 50
231.94878792483851
 51
308.05121207516152
  0
ARC
  5
4736
  8
0
 10
11764.349999999969
 20
8552.2525000000569
 30
0.0
 40
2.35249999999973
 50
231.94878792483851
 51
308.05121207516152
  0
LINE
  5
4737
  8
0
 10
11766.249999999971
 20
8584.5000000000582
 30
0.0
 11
11766.249999999971
 21
8586.1000000000568
 31
0.0
  0
LINE
  5
4738
  8
0
 10
11766.249999999971
 20
8586.1000000000568
 30
0.0
 11
11753.749999999971
 21
8586.1000000000568
 31
0.0
  0
LINE
  5
4739
  8
0
 10
11753.749999999971
 20
8586.1000000000568
 30
0.0
 11
11753.749999999971
 21
8584.5000000000582
 31
0.0
  0
LINE
  5
473A
  8
0
 10
11754.199999999981
 20
8586.1000000000568
 30
0.0
 11
11754.199999999981
 21
8588.9000000000597
 31
0.0
  0
LINE
  5
473B
  8
0
 10
11757.09999999998
 20
8586.1000000000568
 30
0.0
 11
11757.09999999998
 21
8588.9000000000597
 31
0.0
  0
LINE
  5
473C
  8
0
 10
11762.89999999998
 20
8586.1000000000568
 30
0.0
 11
11762.89999999998
 21
8588.9000000000597
 31
0.0
  0
LINE
  5
473D
  8
0
 10
11765.799999999979
 20
8586.1000000000568
 30
0.0
 11
11765.799999999979
 21
8588.9000000000597
 31
0.0
  0
LINE
  5
473E
  8
0
 10
11755.64999999998
 20
8589.4000000000597
 30
0.0
 11
11764.34999999998
 21
8589.4000000000597
 31
0.0
  0
ARC
  5
473F
  8
0
 10
11759.99999999998
 20
8580.7400000000562
 30
0.0
 40
8.6599999999999966
 50
70.435185936302332
 51
109.5648140636976
  0
ARC
  5
4740
  8
0
 10
11755.64999999998
 20
8587.0475000000588
 30
0.0
 40
2.3525000000000631
 50
51.948787924838442
 51
128.05121207516149
  0
ARC
  5
4741
  8
0
 10
11764.34999999998
 20
8587.0475000000588
 30
0.0
 40
2.35249999999973
 50
51.948787924838442
 51
128.05121207516149
  0
LINE
  5
4742
  8
0
 10
11753.749999999971
 20
8584.5000000000582
 30
0.0
 11
11766.249999999971
 21
8584.5000000000582
 31
0.0
  0
LINE
  5
4743
  8
0
 10
11753.749999999971
 20
8556.5000000000582
 30
0.0
 11
11766.24999999996
 21
8556.5000000000582
 31
0.0
  0
LINE
  5
4744
  8
0
 10
12238.21635365337
 20
8549.0114523597658
 30
0.0
 11
12239.99999999996
 21
8548.5000000000582
 31
0.0
  0
LINE
  5
4745
  8
0
  6
PHANTOM2
 10
11804.49999999996
 20
8591.2000000000589
 30
0.0
 11
11815.299999999959
 21
8591.2000000000589
 31
0.0
  0
LINE
  5
4746
  8
0
  6
PHANTOM2
 10
11815.299999999959
 20
8591.2000000000589
 30
0.0
 11
11815.299999999959
 21
8626.8000000000575
 31
0.0
  0
LINE
  5
4747
  8
0
  6
PHANTOM2
 10
11815.299999999959
 20
8626.8000000000575
 30
0.0
 11
11804.49999999996
 21
8626.8000000000575
 31
0.0
  0
LINE
  5
4748
  8
0
  6
PHANTOM2
 10
11804.49999999996
 20
8626.8000000000575
 30
0.0
 11
11804.49999999996
 21
8628.0000000000582
 31
0.0
  0
LINE
  5
4749
  8
0
  6
PHANTOM2
 10
11804.49999999996
 20
8628.0000000000582
 30
0.0
 11
11815.299999999959
 21
8628.0000000000582
 31
0.0
  0
LINE
  5
474A
  8
0
  6
PHANTOM2
 10
11815.299999999959
 20
8590.0000000000582
 30
0.0
 11
11804.49999999996
 21
8590.0000000000582
 31
0.0
  0
LINE
  5
474B
  8
0
  6
PHANTOM2
 10
11804.49999999996
 20
8590.0000000000582
 30
0.0
 11
11804.49999999996
 21
8591.2000000000589
 31
0.0
  0
ARC
  5
474C
  8
0
  6
PHANTOM2
 10
11815.299999999959
 20
8626.8000000000575
 30
0.0
 40
1.1999999999999991
 50
0.0
 51
90.0
  0
ARC
  5
474D
  8
0
  6
PHANTOM2
 10
11815.299999999959
 20
8591.2000000000589
 30
0.0
 40
1.1999999999999991
 50
270.0
 51
0.0
  0
LINE
  5
474E
  8
0
 10
11804.49999999996
 20
8619.0000000000582
 30
0.0
 11
11804.49999999996
 21
8628.0000000000582
 31
0.0
  0
LINE
  5
474F
  8
0
 10
11804.49999999996
 20
8628.0000000000582
 30
0.0
 11
11816.49999999996
 21
8628.0000000000582
 31
0.0
  0
LINE
  5
4750
  8
0
 10
11816.49999999996
 20
8628.0000000000582
 30
0.0
 11
11816.49999999996
 21
8590.0000000000582
 31
0.0
  0
LINE
  5
4751
  8
0
 10
11822.49999999996
 20
8540.0000000000582
 30
0.0
 11
11822.49999999996
 21
8544.5000000000582
 31
0.0
  0
LINE
  5
4752
  8
0
 10
11816.49999999996
 20
8634.0000000000582
 30
0.0
 11
11804.49999999996
 21
8634.0000000000582
 31
0.0
  0
LINE
  5
4753
  8
0
 10
11798.49999999996
 20
8628.0000000000582
 30
0.0
 11
11798.49999999996
 21
8619.0000000000582
 31
0.0
  0
LINE
  5
4754
  8
0
 10
11798.49999999996
 20
8619.0000000000582
 30
0.0
 11
11804.49999999996
 21
8619.0000000000582
 31
0.0
  0
ARC
  5
4755
  8
0
 10
11816.49999999996
 20
8628.0000000000582
 30
0.0
 40
6.0
 50
0.0
 51
90.0
  0
ARC
  5
4756
  8
0
 10
11804.49999999996
 20
8628.0000000000582
 30
0.0
 40
6.0
 50
90.0
 51
180.0
  0
LINE
  5
4757
  8
0
 10
11816.49999999996
 20
8540.0000000000582
 30
0.0
 11
11816.99999999996
 21
8539.5000000000582
 31
0.0
  0
LINE
  5
4758
  8
0
 10
11822.49999999996
 20
8540.0000000000582
 30
0.0
 11
11821.99999999996
 21
8539.5000000000582
 31
0.0
  0
LINE
  5
4759
  8
0
 10
11821.99999999996
 20
8539.5000000000582
 30
0.0
 11
11816.99999999996
 21
8539.5000000000582
 31
0.0
  0
LINE
  5
475A
  8
0
 10
11816.49999999996
 20
8544.5000000000582
 30
0.0
 11
11816.49999999996
 21
8540.0000000000582
 31
0.0
  0
LINE
  5
475B
  8
0
 10
11822.49999999996
 20
8590.0000000000582
 30
0.0
 11
11822.49999999996
 21
8628.0000000000582
 31
0.0
  0
LINE
  5
475C
  8
0
 10
11829.499999999971
 20
8589.4000000000597
 30
0.0
 11
11829.499999999971
 21
8584.5000000000582
 31
0.0
  0
LINE
  5
475D
  8
0
 10
11804.499999999971
 20
8589.4000000000597
 30
0.0
 11
11804.499999999971
 21
8584.5000000000582
 31
0.0
  0
LINE
  5
475E
  8
0
 10
11781.95026314715
 20
8540.0000000001128
 30
0.0
 11
11777.95026314715
 21
8540.0000000001128
 31
0.0
  0
LINE
  5
475F
  8
0
 10
11777.45026314715
 20
8540.5000000001128
 30
0.0
 11
11777.45026314715
 21
8541.5000000000582
 31
0.0
  0
LINE
  5
4760
  8
0
 10
11781.95026314715
 20
8540.0000000001128
 30
0.0
 11
11782.45026314715
 21
8540.5000000001128
 31
0.0
  0
LINE
  5
4761
  8
0
 10
11777.95026314715
 20
8540.0000000001128
 30
0.0
 11
11777.45026314715
 21
8540.5000000001128
 31
0.0
  0
LINE
  5
4762
  8
0
 10
11767.200326856469
 20
8540.0000000001055
 30
0.0
 11
11763.200326856469
 21
8540.0000000001055
 31
0.0
  0
LINE
  5
4763
  8
0
 10
11762.700326856469
 20
8540.5000000001055
 30
0.0
 11
11762.700326856469
 21
8541.5000000000582
 31
0.0
  0
LINE
  5
4764
  8
0
 10
11760.450326856469
 20
8546.8000000001048
 30
0.0
 11
11769.950326856469
 21
8546.8000000001048
 31
0.0
  0
LINE
  5
4765
  8
0
 10
11767.200326856469
 20
8540.0000000001055
 30
0.0
 11
11767.70032685648
 21
8540.5000000001055
 31
0.0
  0
LINE
  5
4766
  8
0
 10
11763.200326856469
 20
8540.0000000001055
 30
0.0
 11
11762.700326856469
 21
8540.5000000001055
 31
0.0
  0
LINE
  5
4767
  8
0
 10
11760.449999999961
 20
8546.800000000112
 30
0.0
 11
11769.949999999961
 21
8546.800000000112
 31
0.0
  0
ARC
  5
4768
  8
0
 10
11765.199806546951
 20
8541.640328352114
 30
0.0
 40
8.1285714289999991
 50
66.047735111965451
 51
113.95226488803451
  0
ARC
  5
4769
  8
0
 10
11762.94877136077
 20
8546.8009641411481
 30
0.0
 40
2.4987715468207199
 50
114.8214691229871
 51
180.02210734854029
  0
ARC
  5
476A
  8
0
 10
11767.44999999995
 20
8546.800000000112
 30
0.0
 40
2.5
 50
0.0
 51
65.170297791886867
  0
LINE
  5
476B
  8
0
 10
11775.19993629063
 20
8546.800000000112
 30
0.0
 11
11784.69993629063
 21
8546.800000000112
 31
0.0
  0
ARC
  5
476C
  8
0
 10
11779.949742837631
 20
8541.640328352114
 30
0.0
 40
8.1285714289999991
 50
66.047735111965451
 51
113.95226488803451
  0
ARC
  5
476D
  8
0
 10
11777.698707651451
 20
8546.8009641411481
 30
0.0
 40
2.4987715468207199
 50
114.8214691229871
 51
180.02210734854029
  0
ARC
  5
476E
  8
0
 10
11782.19993629063
 20
8546.800000000112
 30
0.0
 40
2.5
 50
0.0
 51
65.170297791886867
  0
LINE
  5
476F
  8
0
 10
11761.78356656446
 20
8549.0114294826199
 30
0.0
 11
11759.99999999996
 21
8548.5000000000582
 31
0.0
  0
LINE
  5
4770
  8
0
 10
11782.45026314715
 20
8541.5000000000582
 30
0.0
 11
11782.45026314715
 21
8540.5000000001128
 31
0.0
  0
LINE
  5
4771
  8
0
 10
11767.70032685648
 20
8541.5000000000582
 30
0.0
 11
11767.70032685648
 21
8540.5000000001055
 31
0.0
  0
LINE
  5
4772
  8
0
 10
11745.49999999996
 20
8536.2000000000662
 30
0.0
 11
11746.49999999996
 21
8536.2000000000662
 31
0.0
  0
LINE
  5
4773
  8
0
 10
11746.49999999996
 20
8536.2000000000662
 30
0.0
 11
11746.49999999996
 21
8530.2000000000662
 31
0.0
  0
LINE
  5
4774
  8
0
 10
11746.49999999996
 20
8530.2000000000662
 30
0.0
 11
11745.49999999996
 21
8530.2000000000662
 31
0.0
  0
LINE
  5
4775
  8
0
 10
11741.49999999996
 20
8536.2000000000662
 30
0.0
 11
11740.49999999996
 21
8536.2000000000662
 31
0.0
  0
LINE
  5
4776
  8
0
 10
11740.49999999996
 20
8536.2000000000662
 30
0.0
 11
11740.49999999996
 21
8530.2000000000662
 31
0.0
  0
LINE
  5
4777
  8
0
 10
11740.49999999996
 20
8530.2000000000662
 30
0.0
 11
11741.49999999996
 21
8530.2000000000662
 31
0.0
  0
LINE
  5
4778
  8
0
 10
11752.59999999996
 20
8536.2000000000662
 30
0.0
 11
11753.59999999996
 21
8536.2000000000662
 31
0.0
  0
LINE
  5
4779
  8
0
 10
11753.59999999996
 20
8536.2000000000662
 30
0.0
 11
11753.59999999996
 21
8530.2000000000662
 31
0.0
  0
LINE
  5
477A
  8
0
 10
11753.59999999996
 20
8530.2000000000662
 30
0.0
 11
11752.59999999996
 21
8530.2000000000662
 31
0.0
  0
LINE
  5
477B
  8
0
 10
11748.59999999996
 20
8536.2000000000662
 30
0.0
 11
11747.59999999996
 21
8536.2000000000662
 31
0.0
  0
LINE
  5
477C
  8
0
 10
11747.59999999996
 20
8536.2000000000662
 30
0.0
 11
11747.59999999996
 21
8530.2000000000662
 31
0.0
  0
LINE
  5
477D
  8
0
 10
11747.59999999996
 20
8530.2000000000662
 30
0.0
 11
11748.59999999996
 21
8530.2000000000662
 31
0.0
  0
LINE
  5
477E
  8
0
 10
11745.49999999996
 20
8518.5000000000655
 30
0.0
 11
11746.49999999996
 21
8518.5000000000655
 31
0.0
  0
LINE
  5
477F
  8
0
 10
11746.49999999996
 20
8518.5000000000655
 30
0.0
 11
11746.49999999996
 21
8512.5000000000655
 31
0.0
  0
LINE
  5
4780
  8
0
 10
11746.49999999996
 20
8512.5000000000655
 30
0.0
 11
11745.49999999996
 21
8512.5000000000655
 31
0.0
  0
LINE
  5
4781
  8
0
 10
11741.49999999996
 20
8518.5000000000655
 30
0.0
 11
11740.49999999996
 21
8518.5000000000655
 31
0.0
  0
LINE
  5
4782
  8
0
 10
11740.49999999996
 20
8518.5000000000655
 30
0.0
 11
11740.49999999996
 21
8512.5000000000655
 31
0.0
  0
LINE
  5
4783
  8
0
 10
11740.49999999996
 20
8512.5000000000655
 30
0.0
 11
11741.49999999996
 21
8512.5000000000655
 31
0.0
  0
LINE
  5
4784
  8
0
 10
11752.59999999996
 20
8518.5000000000655
 30
0.0
 11
11753.59999999996
 21
8518.5000000000655
 31
0.0
  0
LINE
  5
4785
  8
0
 10
11753.59999999996
 20
8518.5000000000655
 30
0.0
 11
11753.59999999996
 21
8512.5000000000655
 31
0.0
  0
LINE
  5
4786
  8
0
 10
11753.59999999996
 20
8512.5000000000655
 30
0.0
 11
11752.59999999996
 21
8512.5000000000655
 31
0.0
  0
LINE
  5
4787
  8
0
 10
11748.59999999996
 20
8518.5000000000655
 30
0.0
 11
11747.59999999996
 21
8518.5000000000655
 31
0.0
  0
LINE
  5
4788
  8
0
 10
11747.59999999996
 20
8518.5000000000655
 30
0.0
 11
11747.59999999996
 21
8512.5000000000655
 31
0.0
  0
LINE
  5
4789
  8
0
 10
11747.59999999996
 20
8512.5000000000655
 30
0.0
 11
11748.59999999996
 21
8512.5000000000655
 31
0.0
  0
LINE
  5
478A
  8
0
 10
11749.59999999996
 20
8538.5000000000655
 30
0.0
 11
11748.59999999996
 21
8538.5000000000655
 31
0.0
  0
LINE
  5
478B
  8
0
 10
11748.59999999996
 20
8538.5000000000655
 30
0.0
 11
11748.59999999996
 21
8510.5493901532318
 31
0.0
  0
LINE
  5
478C
  8
0
 10
11744.49999999996
 20
8538.5000000000655
 30
0.0
 11
11745.49999999996
 21
8538.5000000000655
 31
0.0
  0
LINE
  5
478D
  8
0
 10
11745.49999999996
 20
8538.5000000000655
 30
0.0
 11
11745.49999999996
 21
8510.6236760582487
 31
0.0
  0
CIRCLE
  5
478E
  8
0
 10
11746.999999999931
 20
8508.5000000000673
 30
0.0
 40
1.6000000000000001
  0
CIRCLE
  5
478F
  8
0
 10
11746.999999999931
 20
8508.5000000000673
 30
0.0
 40
2.6000000000000001
  0
LINE
  5
4790
  8
0
 10
11744.49999999996
 20
8538.5000000000655
 30
0.0
 11
11744.499999999931
 21
8509.2141428429259
 31
0.0
  0
LINE
  5
4791
  8
0
 10
11749.59999999996
 20
8538.5000000000655
 30
0.0
 11
11749.59999999996
 21
8508.5000000000673
 31
0.0
  0
LINE
  5
4792
  8
0
  6
PHANTOM2
 10
11754.59999999996
 20
8508.0000000000564
 30
0.0
 11
11754.59999999996
 21
8520.0000000000582
 31
0.0
  0
LINE
  5
4793
  8
0
  6
PHANTOM2
 10
11739.49999999996
 20
8508.0000000000564
 30
0.0
 11
11739.49999999996
 21
8520.0000000000582
 31
0.0
  0
LINE
  5
4794
  8
0
  6
PHANTOM2
 10
12260.49999999996
 20
8520.0000000000582
 30
0.0
 11
13192.5
 21
8520.0000000000582
 31
0.0
  0
LINE
  5
4795
  8
0
  6
PHANTOM2
 10
12260.49999999996
 20
8508.0000000000564
 30
0.0
 11
13192.5
 21
8508.0000000000564
 31
0.0
  0
LINE
  5
4796
  8
0
 10
12228.49999999996
 20
8559.5000000000582
 30
0.0
 11
12224.499999999951
 21
8559.5000000000582
 31
0.0
  0
LINE
  5
4797
  8
0
 10
12216.499999999951
 20
8559.5000000000582
 30
0.0
 11
12201.63844111771
 21
8559.5000000000582
 31
0.0
  0
LINE
  5
4798
  8
0
 10
11771.49999999996
 20
8559.5000000000582
 30
0.0
 11
11798.36155888221
 21
8559.5000000000582
 31
0.0
  0
LINE
  5
4799
  8
0
 10
12160.00001646214
 20
8569.50000000006
 30
0.0
 11
12166.764296679299
 21
8569.50000000006
 31
0.0
  0
LINE
  5
479A
  8
0
 10
12181.73931106242
 20
8565.2059837240304
 30
0.0
 11
12216.499999999951
 21
8555.2385165653941
 31
0.0
  0
LINE
  5
479B
  8
0
 10
12224.499999999951
 20
8552.9445534793213
 30
0.0
 11
12235.782628243889
 21
8549.7093118911434
 31
0.0
  0
LINE
  5
479C
  8
0
 10
11925.249999999951
 20
8589.4000000000597
 30
0.0
 11
11925.249999999951
 21
8566.6000000000568
 31
0.0
  0
LINE
  5
479D
  8
0
 10
11923.749999999951
 20
8565.1000000000568
 30
0.0
 11
11896.749999999951
 21
8565.1000000000568
 31
0.0
  0
LINE
  5
479E
  8
0
 10
11895.249999999951
 20
8566.6000000000568
 30
0.0
 11
11895.249999999951
 21
8589.4000000000597
 31
0.0
  0
LINE
  5
479F
  8
0
 10
11925.249999999951
 20
8587.1000000000568
 30
0.0
 11
11895.249999999951
 21
8587.1000000000568
 31
0.0
  0
LINE
  5
47A0
  8
0
 10
11895.249999999951
 20
8569.50000000006
 30
0.0
 11
11833.235703320621
 21
8569.50000000006
 31
0.0
  0
ARC
  5
47A1
  8
0
 10
11923.749999999951
 20
8566.6000000000568
 30
0.0
 40
1.5
 50
270.0
 51
0.0
  0
ARC
  5
47A2
  8
0
 10
11896.749999999951
 20
8566.6000000000568
 30
0.0
 40
1.5
 50
180.0
 51
270.0
  0
LINE
  5
47A3
  8
0
  6
PHANTOM2
 10
12211.499999999951
 20
8520.0000000000582
 30
0.0
 11
11754.59999999996
 21
8520.0000000000582
 31
0.0
  0
LINE
  5
47A4
  8
0
 10
12208.499999999951
 20
8568.0000000000673
 30
0.0
 11
12208.499999999951
 21
8570.5000000000637
 31
0.0
  0
LINE
  5
47A5
  8
0
 10
12208.499999999951
 20
8570.5000000000637
 30
0.0
 11
12203.499999999951
 21
8570.5000000000637
 31
0.0
  0
LINE
  5
47A6
  8
0
 10
12203.499999999951
 20
8570.5000000000637
 30
0.0
 11
12203.499999999951
 21
8568.0000000000673
 31
0.0
  0
LINE
  5
47A7
  8
0
 10
12203.499999999951
 20
8568.0000000000673
 30
0.0
 11
12208.499999999951
 21
8568.0000000000673
 31
0.0
  0
LINE
  5
47A8
  8
0
 10
12208.499999999951
 20
8570.0000000000655
 30
0.0
 11
12230.999999999951
 21
8570.0000000000655
 31
0.0
  0
LINE
  5
47A9
  8
0
 10
12208.499999999951
 20
8568.5000000000655
 30
0.0
 11
12216.499999999951
 21
8568.5000000000655
 31
0.0
  0
LINE
  5
47AA
  8
0
 10
12224.499999999951
 20
8568.5000000000655
 30
0.0
 11
12230.999999999951
 21
8568.5000000000655
 31
0.0
  0
LINE
  5
47AB
  8
0
  6
PHANTOM2
 10
11816.49999999996
 20
8626.8000000000575
 30
0.0
 11
11816.49999999996
 21
8591.2000000000589
 31
0.0
  0
LINE
  5
47AC
  8
0
  6
PHANTOM2
 10
12225.49999999996
 20
8678.0000000000582
 30
0.0
 11
12197.49999999996
 21
8678.0000000000582
 31
0.0
  0
LINE
  5
47AD
  8
0
  6
PHANTOM2
 10
12195.49999999996
 20
8676.0000000000582
 30
0.0
 11
12195.49999999996
 21
8590.0000000000582
 31
0.0
  0
LINE
  5
47AE
  8
0
  6
PHANTOM2
 10
12195.49999999996
 20
8590.0000000000582
 30
0.0
 11
12183.49999999996
 21
8590.0000000000582
 31
0.0
  0
LINE
  5
47AF
  8
0
  6
PHANTOM2
 10
12183.49999999996
 20
8590.0000000000582
 30
0.0
 11
12183.49999999996
 21
8638.0000000000582
 31
0.0
  0
LINE
  5
47B0
  8
0
  6
PHANTOM2
 10
12183.49999999996
 20
8638.0000000000582
 30
0.0
 11
12181.49999999996
 21
8638.0000000000582
 31
0.0
  0
LINE
  5
47B1
  8
0
  6
PHANTOM2
 10
12181.49999999996
 20
8638.0000000000582
 30
0.0
 11
12181.49999999996
 21
8590.0000000000582
 31
0.0
  0
LINE
  5
47B2
  8
0
  6
PHANTOM2
 10
12183.49999999996
 20
8588.0000000000564
 30
0.0
 11
12195.49999999996
 21
8588.0000000000564
 31
0.0
  0
LINE
  5
47B3
  8
0
  6
PHANTOM2
 10
12197.49999999996
 20
8590.0000000000582
 30
0.0
 11
12197.49999999996
 21
8676.0000000000582
 31
0.0
  0
LINE
  5
47B4
  8
0
  6
PHANTOM2
 10
12197.49999999996
 20
8676.0000000000582
 30
0.0
 11
12225.49999999996
 21
8676.0000000000582
 31
0.0
  0
LINE
  5
47B5
  8
0
  6
PHANTOM2
 10
12225.49999999996
 20
8676.0000000000582
 30
0.0
 11
12225.49999999996
 21
8678.0000000000582
 31
0.0
  0
ARC
  5
47B6
  8
0
  6
PHANTOM2
 10
12197.49999999996
 20
8676.0000000000582
 30
0.0
 40
2.0
 50
90.0
 51
180.0
  0
ARC
  5
47B7
  8
0
  6
PHANTOM2
 10
12183.49999999996
 20
8590.0000000000582
 30
0.0
 40
2.0
 50
180.0
 51
270.0
  0
ARC
  5
47B8
  8
0
  6
PHANTOM2
 10
12195.49999999996
 20
8590.0000000000582
 30
0.0
 40
2.0
 50
270.0
 51
0.0
  0
LINE
  5
47B9
  8
0
  6
PHANTOM2
 10
11804.49999999996
 20
8676.0
 30
0.0
 11
11804.49999999996
 21
8590.0
 31
0.0
  0
LINE
  5
47BA
  8
0
  6
PHANTOM2
 10
11804.49999999996
 20
8590.0
 30
0.0
 11
11816.49999999996
 21
8590.0
 31
0.0
  0
LINE
  5
47BB
  8
0
  6
PHANTOM2
 10
11816.49999999996
 20
8590.0
 30
0.0
 11
11816.49999999996
 21
8638.0
 31
0.0
  0
LINE
  5
47BC
  8
0
  6
PHANTOM2
 10
11816.49999999996
 20
8638.0
 30
0.0
 11
11818.49999999996
 21
8638.0
 31
0.0
  0
LINE
  5
47BD
  8
0
  6
PHANTOM2
 10
11818.49999999996
 20
8638.0
 30
0.0
 11
11818.49999999996
 21
8590.0
 31
0.0
  0
LINE
  5
47BE
  8
0
  6
PHANTOM2
 10
11816.49999999996
 20
8588.0
 30
0.0
 11
11804.49999999996
 21
8588.0
 31
0.0
  0
LINE
  5
47BF
  8
0
  6
PHANTOM2
 10
11802.49999999996
 20
8590.0
 30
0.0
 11
11802.49999999996
 21
8676.0
 31
0.0
  0
ARC
  5
47C0
  8
0
  6
PHANTOM2
 10
11816.49999999996
 20
8590.0
 30
0.0
 40
2.0
 50
270.0
 51
0.0
  0
ARC
  5
47C1
  8
0
  6
PHANTOM2
 10
11804.49999999996
 20
8590.0
 30
0.0
 40
2.0
 50
180.0
 51
270.0
  0
LINE
  5
47C2
  8
0
  6
PHANTOM2
 10
12214.999999999931
 20
8654.3119999999999
 30
0.0
 11
12214.999999999931
 21
8663.5
 31
0.0
  0
LINE
  5
47C3
  8
0
  6
PHANTOM2
 10
12201.29999999993
 20
8680.5
 30
0.0
 11
12201.29999999993
 21
8678.0
 31
0.0
  0
LINE
  5
47C4
  8
0
  6
PHANTOM2
 10
12206.811999999931
 20
8653.4999999999982
 30
0.0
 11
12214.187999999929
 21
8653.4999999999982
 31
0.0
  0
LINE
  5
47C5
  8
0
  6
PHANTOM2
 10
12205.999999999931
 20
8654.3119999999999
 30
0.0
 11
12206.811999999931
 21
8653.4999999999982
 31
0.0
  0
LINE
  5
47C6
  8
0
  6
PHANTOM2
 10
12205.999999999931
 20
8663.5
 30
0.0
 11
12205.999999999931
 21
8654.3119999999999
 31
0.0
  0
LINE
  5
47C7
  8
0
  6
PHANTOM2
 10
12201.29999999993
 20
8674.0
 30
0.0
 11
12201.29999999993
 21
8671.4999999999982
 31
0.0
  0
LINE
  5
47C8
  8
0
  6
PHANTOM2
 10
12199.999999999931
 20
8676.0
 30
0.0
 11
12199.999999999931
 21
8674.0
 31
0.0
  0
LINE
  5
47C9
  8
0
  6
PHANTOM2
 10
12219.69999999993
 20
8678.0
 30
0.0
 11
12219.69999999993
 21
8680.5
 31
0.0
  0
LINE
  5
47CA
  8
0
  6
PHANTOM2
 10
12219.69999999993
 20
8671.4999999999982
 30
0.0
 11
12219.69999999993
 21
8674.0
 31
0.0
  0
LINE
  5
47CB
  8
0
  6
PHANTOM2
 10
12220.999999999931
 20
8674.0
 30
0.0
 11
12220.999999999931
 21
8676.0
 31
0.0
  0
LINE
  5
47CC
  8
0
  6
PHANTOM2
 10
12199.999999999931
 20
8674.0
 30
0.0
 11
12220.999999999931
 21
8674.0
 31
0.0
  0
LINE
  5
47CD
  8
0
  6
PHANTOM2
 10
12214.999999999931
 20
9154.9973202112815
 30
0.0
 11
12214.999999999931
 21
8687.5
 31
0.0
  0
LINE
  5
47CE
  8
0
  6
PHANTOM2
 10
12205.999999999931
 20
9154.9973202112815
 30
0.0
 11
12205.999999999931
 21
8687.5
 31
0.0
  0
LINE
  5
47CF
  8
0
  6
PHANTOM2
 10
12214.187999999929
 20
8653.4999999999982
 30
0.0
 11
12214.999999999931
 21
8654.3119999999999
 31
0.0
  0
LINE
  5
47D0
  8
0
  6
PHANTOM2
 10
11782.99999999992
 20
8045.0000000000327
 30
0.0
 11
11782.99999999992
 21
8005.1000000000322
 31
0.0
  0
LINE
  5
47D1
  8
0
  6
PHANTOM2
 10
11782.99999999992
 20
8005.1000000000322
 30
0.0
 11
11746.39999999992
 21
8005.1000000000322
 31
0.0
  0
LINE
  5
47D2
  8
0
  6
PHANTOM2
 10
11744.39999999992
 20
8003.1000000000313
 30
0.0
 11
11744.39999999992
 21
8001.5000000000327
 31
0.0
  0
LINE
  5
47D3
  8
0
  6
PHANTOM2
 10
11744.39999999992
 20
8001.5000000000327
 30
0.0
 11
11743.49999999992
 21
8001.5000000000327
 31
0.0
  0
LINE
  5
47D4
  8
0
  6
PHANTOM2
 10
11743.49999999992
 20
8001.5000000000327
 30
0.0
 11
11743.49999999992
 21
8015.0000000000337
 31
0.0
  0
LINE
  5
47D5
  8
0
  6
PHANTOM2
 10
11743.49999999992
 20
8015.0000000000337
 30
0.0
 11
11746.49999999992
 21
8015.0000000000337
 31
0.0
  0
LINE
  5
47D6
  8
0
  6
PHANTOM2
 10
11746.49999999992
 20
8015.0000000000337
 30
0.0
 11
11746.49999999992
 21
8010.1000000000313
 31
0.0
  0
LINE
  5
47D7
  8
0
  6
PHANTOM2
 10
11746.49999999992
 20
8010.1000000000313
 30
0.0
 11
11744.99999999992
 21
8010.1000000000313
 31
0.0
  0
LINE
  5
47D8
  8
0
  6
PHANTOM2
 10
11744.99999999992
 20
8010.1000000000313
 30
0.0
 11
11744.99999999992
 21
8008.1000000000322
 31
0.0
  0
LINE
  5
47D9
  8
0
  6
PHANTOM2
 10
11744.99999999992
 20
8008.1000000000322
 30
0.0
 11
11779.99999999992
 21
8008.1000000000322
 31
0.0
  0
LINE
  5
47DA
  8
0
  6
PHANTOM2
 10
11779.99999999992
 20
8008.1000000000322
 30
0.0
 11
11779.99999999992
 21
8010.1000000000313
 31
0.0
  0
LINE
  5
47DB
  8
0
  6
PHANTOM2
 10
11779.99999999992
 20
8010.1000000000313
 30
0.0
 11
11777.99999999992
 21
8010.1000000000313
 31
0.0
  0
LINE
  5
47DC
  8
0
  6
PHANTOM2
 10
11777.99999999992
 20
8010.1000000000313
 30
0.0
 11
11777.99999999992
 21
8012.1000000000304
 31
0.0
  0
LINE
  5
47DD
  8
0
  6
PHANTOM2
 10
11777.99999999992
 20
8012.1000000000304
 30
0.0
 11
11779.99999999992
 21
8012.1000000000304
 31
0.0
  0
LINE
  5
47DE
  8
0
  6
PHANTOM2
 10
11782.99999999992
 20
8045.0000000000327
 30
0.0
 11
11779.99999999992
 21
8045.0000000000327
 31
0.0
  0
LINE
  5
47DF
  8
0
  6
PHANTOM2
 10
11779.99999999992
 20
8045.0000000000327
 30
0.0
 11
11779.99999999992
 21
8012.1000000000304
 31
0.0
  0
ARC
  5
47E0
  8
0
  6
PHANTOM2
 10
11746.39999999992
 20
8003.1000000000313
 30
0.0
 40
2.0
 50
90.0
 51
180.0
  0
LINE
  5
47E1
  8
0
  6
PHANTOM2
 10
11746.49999999992
 20
8010.1000000000313
 30
0.0
 11
11758.49999999992
 21
8010.1000000000313
 31
0.0
  0
LINE
  5
47E2
  8
0
  6
PHANTOM2
 10
11758.49999999992
 20
8010.1000000000313
 30
0.0
 11
11758.49999999992
 21
8026.0000000000437
 31
0.0
  0
LINE
  5
47E3
  8
0
  6
PHANTOM2
 10
11746.49999999992
 20
8044.0000000000437
 30
0.0
 11
11746.49999999992
 21
8500.9000000000306
 31
0.0
  0
LINE
  5
47E4
  8
0
  6
PHANTOM2
 10
11782.99999999992
 20
8045.0000000000327
 30
0.0
 11
11786.99999999992
 21
8045.0000000000327
 31
0.0
  0
LINE
  5
47E5
  8
0
  6
PHANTOM2
 10
11786.99999999992
 20
8045.0000000000327
 30
0.0
 11
11786.99999999992
 21
8025.0000000000318
 31
0.0
  0
LINE
  5
47E6
  8
0
  6
PHANTOM2
 10
11786.99999999992
 20
8025.0000000000318
 30
0.0
 11
11782.99999999992
 21
8025.0000000000318
 31
0.0
  0
LINE
  5
47E7
  8
0
  6
PHANTOM2
 10
11786.99999999992
 20
8030.0000000000327
 30
0.0
 11
11782.99999999992
 21
8030.0000000000327
 31
0.0
  0
LINE
  5
47E8
  8
0
  6
PHANTOM2
 10
11786.99999999992
 20
8040.0000000000318
 30
0.0
 11
11782.99999999992
 21
8040.0000000000318
 31
0.0
  0
LINE
  5
47E9
  8
0
  6
PHANTOM2
 10
11779.99999999992
 20
8026.0000000000437
 30
0.0
 11
11746.49999999992
 21
8026.0000000000437
 31
0.0
  0
LINE
  5
47EA
  8
0
  6
PHANTOM2
 10
11779.99999999992
 20
8044.0000000000437
 30
0.0
 11
11746.49999999992
 21
8044.0000000000437
 31
0.0
  0
LINE
  5
47EB
  8
0
  6
PHANTOM2
 10
11746.49999999992
 20
8047.5000000000427
 30
0.0
 11
11746.49999999992
 21
8022.5000000000427
 31
0.0
  0
LINE
  5
47EC
  8
0
  6
PHANTOM2
 10
11746.49999999992
 20
8022.5000000000427
 30
0.0
 11
11744.49999999992
 21
8022.5000000000427
 31
0.0
  0
LINE
  5
47ED
  8
0
  6
PHANTOM2
 10
11744.49999999992
 20
8022.5000000000427
 30
0.0
 11
11744.49999999992
 21
8047.5000000000427
 31
0.0
  0
LINE
  5
47EE
  8
0
  6
PHANTOM2
 10
11744.49999999992
 20
8047.5000000000427
 30
0.0
 11
11746.49999999992
 21
8047.5000000000427
 31
0.0
  0
LINE
  5
47EF
  8
0
  6
PHANTOM2
 10
11743.49999999992
 20
8023.5000000000437
 30
0.0
 11
11743.49999999992
 21
8046.5000000000437
 31
0.0
  0
ARC
  5
47F0
  8
0
  6
PHANTOM2
 10
11744.49999999992
 20
8023.5000000000437
 30
0.0
 40
1.0
 50
180.0
 51
270.0
  0
ARC
  5
47F1
  8
0
  6
PHANTOM2
 10
11744.49999999992
 20
8046.5000000000437
 30
0.0
 40
1.0
 50
90.0
 51
180.0
  0
LINE
  5
47F2
  8
0
  6
PHANTOM2
 10
11808.499999999931
 20
8031.0000000000437
 30
0.0
 11
11786.99999999992
 21
8031.0000000000437
 31
0.0
  0
LINE
  5
47F3
  8
0
  6
PHANTOM2
 10
11808.499999999931
 20
8039.0000000000437
 30
0.0
 11
11786.99999999992
 21
8039.0000000000437
 31
0.0
  0
LINE
  5
47F4
  8
0
  6
PHANTOM2
 10
11806.999999999931
 20
8075.700000000038
 30
0.0
 11
11806.999999999931
 21
8052.0000000000437
 31
0.0
  0
LINE
  5
47F5
  8
0
  6
PHANTOM2
 10
11808.499999999931
 20
8075.700000000038
 30
0.0
 11
11808.499999999931
 21
8052.0000000000437
 31
0.0
  0
ARC
  5
47F6
  8
0
  6
PHANTOM2
 10
11807.749999999931
 20
8024.5000000000437
 30
0.0
 40
0.75
 50
180.0
 51
0.0
  0
LINE
  5
47F7
  8
0
  6
PHANTOM2
 10
11808.499999999931
 20
8027.5000000000437
 30
0.0
 11
11814.29999999993
 21
8027.5000000000437
 31
0.0
  0
LINE
  5
47F8
  8
0
  6
PHANTOM2
 10
11808.499999999931
 20
8031.2000000000398
 30
0.0
 11
11814.29999999993
 21
8031.2000000000398
 31
0.0
  0
LINE
  5
47F9
  8
0
  6
PHANTOM2
 10
11808.499999999931
 20
8038.800000000042
 30
0.0
 11
11814.29999999993
 21
8038.800000000042
 31
0.0
  0
LINE
  5
47FA
  8
0
  6
PHANTOM2
 10
11808.499999999931
 20
8042.5000000000437
 30
0.0
 11
11814.29999999993
 21
8042.5000000000437
 31
0.0
  0
ARC
  5
47FB
  8
0
  6
PHANTOM2
 10
11812.20535714279
 20
8029.3500000000413
 30
0.0
 40
2.7946428571426911
 50
318.54888226898311
 51
41.451117731016858
  0
ARC
  5
47FC
  8
0
  6
PHANTOM2
 10
11804.33571428564
 20
8035.0000000000437
 30
0.0
 40
10.664285714285089
 50
339.12504929779737
 51
20.874950702202639
  0
ARC
  5
47FD
  8
0
  6
PHANTOM2
 10
11812.20535714279
 20
8040.6500000000424
 30
0.0
 40
2.7946428571426529
 50
318.54888226898311
 51
41.451117731016858
  0
LINE
  5
47FE
  8
0
  6
PHANTOM2
 10
11814.999999999931
 20
8040.6500000000424
 30
0.0
 11
11814.999999999931
 21
8029.3500000000413
 31
0.0
  0
LINE
  5
47FF
  8
0
  6
PHANTOM2
 10
11814.999999999931
 20
8031.0000000000437
 30
0.0
 11
11817.999999999931
 21
8031.0000000000437
 31
0.0
  0
LINE
  5
4800
  8
0
  6
PHANTOM2
 10
11817.999999999931
 20
8031.0000000000437
 30
0.0
 11
11818.499999999931
 21
8031.5000000000427
 31
0.0
  0
LINE
  5
4801
  8
0
  6
PHANTOM2
 10
11814.999999999931
 20
8039.0000000000437
 30
0.0
 11
11817.999999999931
 21
8039.0000000000437
 31
0.0
  0
LINE
  5
4802
  8
0
  6
PHANTOM2
 10
11817.999999999931
 20
8039.0000000000437
 30
0.0
 11
11818.499999999931
 21
8038.5000000000427
 31
0.0
  0
LINE
  5
4803
  8
0
  6
PHANTOM2
 10
11818.499999999931
 20
8038.5000000000427
 30
0.0
 11
11818.499999999931
 21
8031.5000000000427
 31
0.0
  0
LINE
  5
4804
  8
0
  6
PHANTOM2
 10
11743.49999999992
 20
8031.0000000000437
 30
0.0
 11
11741.49999999992
 21
8031.0000000000437
 31
0.0
  0
LINE
  5
4805
  8
0
  6
PHANTOM2
 10
11741.49999999992
 20
8031.0000000000437
 30
0.0
 11
11741.49999999992
 21
8039.0000000000437
 31
0.0
  0
LINE
  5
4806
  8
0
  6
PHANTOM2
 10
11741.49999999992
 20
8039.0000000000437
 30
0.0
 11
11743.49999999992
 21
8039.0000000000437
 31
0.0
  0
LINE
  5
4807
  8
0
  6
PHANTOM2
 10
11785.299999999919
 20
8025.0000000000318
 30
0.0
 11
11785.299999999919
 21
8015.5000000000327
 31
0.0
  0
LINE
  5
4808
  8
0
  6
PHANTOM2
 10
11782.99999999992
 20
8015.5000000000327
 30
0.0
 11
11786.99999999992
 21
8015.5000000000327
 31
0.0
  0
LINE
  5
4809
  8
0
  6
PHANTOM2
 10
11779.99999999992
 20
8018.2000000000326
 30
0.0
 11
11778.99999999992
 21
8018.2000000000326
 31
0.0
  0
LINE
  5
480A
  8
0
  6
PHANTOM2
 10
11779.99999999992
 20
8023.2000000000344
 30
0.0
 11
11778.99999999992
 21
8023.2000000000344
 31
0.0
  0
LINE
  5
480B
  8
0
  6
PHANTOM2
 10
11778.99999999992
 20
8018.2000000000326
 30
0.0
 11
11778.49999999992
 21
8018.7000000000344
 31
0.0
  0
LINE
  5
480C
  8
0
  6
PHANTOM2
 10
11778.99999999992
 20
8023.2000000000344
 30
0.0
 11
11778.49999999992
 21
8022.7000000000344
 31
0.0
  0
LINE
  5
480D
  8
0
  6
PHANTOM2
 10
11778.49999999992
 20
8022.7000000000344
 30
0.0
 11
11778.49999999992
 21
8018.7000000000344
 31
0.0
  0
ARC
  5
480E
  8
0
  6
PHANTOM2
 10
11780.140328351919
 20
8020.6998065490343
 30
0.0
 40
8.1285714289999991
 50
336.04773511200727
 51
23.952264887992701
  0
ARC
  5
480F
  8
0
  6
PHANTOM2
 10
11785.299999999919
 20
8022.9500000010348
 30
0.0
 40
2.5
 50
24.829702208018372
 51
55.084793705140491
  0
ARC
  5
4810
  8
0
  6
PHANTOM2
 10
11785.299999999919
 20
8018.4496130960324
 30
0.0
 40
2.5
 50
270.0
 51
335.17029779198162
  0
LINE
  5
4811
  8
0
  6
PHANTOM2
 10
11782.99999999992
 20
8045.0000000000327
 30
0.0
 11
11782.99999999992
 21
8115.550000000032
 31
0.0
  0
LINE
  5
4812
  8
0
  6
PHANTOM2
 10
11785.299999999919
 20
8045.0000000000327
 30
0.0
 11
11785.299999999919
 21
8116.0000000000327
 31
0.0
  0
ARC
  5
4813
  8
0
  6
PHANTOM2
 10
11807.999999999931
 20
8085.5000000000364
 30
0.0
 40
10.0
 50
272.86598398255842
 51
264.26082952281712
  0
ARC
  5
4814
  8
0
  6
PHANTOM2
 10
11807.999999999931
 20
8085.5000000000364
 30
0.0
 40
12.5
 50
180.0
 51
265.4224307697711
  0
LINE
  5
4815
  8
0
  6
PHANTOM2
 10
11795.499999999931
 20
8085.5000000000364
 30
0.0
 11
11795.499999999931
 21
8107.6751063167621
 31
0.0
  0
LINE
  5
4816
  8
0
  6
PHANTOM2
 10
11772.99999999992
 20
8104.300000000032
 30
0.0
 11
11780.699999999921
 21
8104.300000000032
 31
0.0
  0
LINE
  5
4817
  8
0
  6
PHANTOM2
 10
11780.699999999921
 20
8104.300000000032
 30
0.0
 11
11780.699999999921
 21
8142.0000000000327
 31
0.0
  0
LINE
  5
4818
  8
0
  6
PHANTOM2
 10
11780.699999999921
 20
8142.0000000000327
 30
0.0
 11
11782.99999999992
 21
8142.0000000000327
 31
0.0
  0
LINE
  5
4819
  8
0
  6
PHANTOM2
 10
11782.99999999992
 20
8142.0000000000327
 30
0.0
 11
11782.99999999992
 21
8104.300000000032
 31
0.0
  0
LINE
  5
481A
  8
0
  6
PHANTOM2
 10
11780.699999999921
 20
8102.0000000000318
 30
0.0
 11
11772.99999999992
 21
8102.0000000000318
 31
0.0
  0
LINE
  5
481B
  8
0
  6
PHANTOM2
 10
11772.99999999992
 20
8102.0000000000318
 30
0.0
 11
11772.99999999992
 21
8104.300000000032
 31
0.0
  0
ARC
  5
481C
  8
0
  6
PHANTOM2
 10
11780.699999999921
 20
8104.300000000032
 30
0.0
 40
2.2999999999999989
 50
270.0
 51
0.0
  0
LINE
  5
481D
  8
0
  6
PHANTOM2
 10
11782.99999999992
 20
8116.0000000000327
 30
0.0
 11
11795.99999999992
 21
8116.0000000000327
 31
0.0
  0
LINE
  5
481E
  8
0
  6
PHANTOM2
 10
11795.99999999992
 20
8141.0000000000309
 30
0.0
 11
11782.99999999992
 21
8141.0000000000309
 31
0.0
  0
LINE
  5
481F
  8
0
  6
PHANTOM2
 10
11793.699999999921
 20
8141.0000000000309
 30
0.0
 11
11793.699999999921
 21
8108.1159237685351
 31
0.0
  0
LINE
  5
4820
  8
0
  6
PHANTOM2
 10
11793.699999999921
 20
8108.1159237685351
 30
0.0
 11
11805.699999999921
 21
8106.0000000000327
 31
0.0
  0
LINE
  5
4821
  8
0
  6
PHANTOM2
 10
11795.99999999992
 20
8116.0000000000327
 30
0.0
 11
11795.99999999992
 21
8124.0000000000337
 31
0.0
  0
LINE
  5
4822
  8
0
  6
PHANTOM2
 10
11795.99999999992
 20
8124.0000000000337
 30
0.0
 11
11795.699999999921
 21
8124.0000000000337
 31
0.0
  0
LINE
  5
4823
  8
0
  6
PHANTOM2
 10
11795.99999999992
 20
8141.0000000000309
 30
0.0
 11
11795.99999999992
 21
8133.0000000000318
 31
0.0
  0
LINE
  5
4824
  8
0
  6
PHANTOM2
 10
11795.99999999992
 20
8133.0000000000318
 30
0.0
 11
11795.699999999921
 21
8133.0000000000318
 31
0.0
  0
LINE
  5
4825
  8
0
  6
PHANTOM2
 10
11795.699999999921
 20
8124.0000000000337
 30
0.0
 11
11795.699999999921
 21
8133.0000000000318
 31
0.0
  0
LINE
  5
4826
  8
0
  6
PHANTOM2
 10
11793.699999999921
 20
8121.0000000000337
 30
0.0
 11
11795.99999999992
 21
8121.0000000000337
 31
0.0
  0
LINE
  5
4827
  8
0
  6
PHANTOM2
 10
11795.99999999992
 20
8136.0000000000318
 30
0.0
 11
11793.699999999921
 21
8136.0000000000318
 31
0.0
  0
LINE
  5
4828
  8
0
  6
PHANTOM2
 10
11805.699999999921
 20
8106.0000000000327
 30
0.0
 11
11808.50943331724
 21
8107.7555287762552
 31
0.0
  0
LINE
  5
4829
  8
0
  6
PHANTOM2
 10
11808.50943331724
 20
8107.7555287762552
 30
0.0
 11
11808.50943331724
 21
8138.1119697580589
 31
0.0
  0
LINE
  5
482A
  8
0
  6
PHANTOM2
 10
11808.50943331724
 20
8138.1119697580589
 30
0.0
 11
11795.99999999992
 21
8141.0000000000309
 31
0.0
  0
LINE
  5
482B
  8
0
  6
PHANTOM2
 10
11808.50943331724
 20
8138.1119697580589
 30
0.0
 11
11805.699999999921
 21
8106.0000000000327
 31
0.0
  0
LINE
  5
482C
  8
0
  6
PHANTOM2
 10
11808.50943331724
 20
8138.1119697580589
 30
0.0
 11
11806.704791731639
 21
8141.0000000000309
 31
0.0
  0
LINE
  5
482D
  8
0
  6
PHANTOM2
 10
11806.704791731639
 20
8141.0000000000309
 30
0.0
 11
11795.99999999992
 21
8141.0000000000309
 31
0.0
  0
ARC
  5
482E
  8
0
  6
PHANTOM2
 10
11807.749999999931
 20
8075.700000000038
 30
0.0
 40
0.75
 50
0.0
 51
180.0
  0
ARC
  5
482F
  8
0
  6
PHANTOM2
 10
11807.999999999931
 20
8085.5000000000364
 30
0.0
 40
12.49999999999997
 50
272.29244277600651
 51
98.159859869847466
  0
LINE
  5
4830
  8
0
  6
PHANTOM2
 10
11802.79999999993
 20
8100.8430766145857
 30
0.0
 11
11802.79999999993
 21
8106.3879193575876
 31
0.0
  0
ARC
  5
4831
  8
0
  6
PHANTOM2
 10
11805.79999999993
 20
8100.8430766145857
 30
0.0
 40
3.0
 50
180.0
 51
278.15985986984748
  0
LINE
  5
4832
  8
0
  6
PHANTOM2
 10
11785.299999999919
 20
8141.0000000000309
 30
0.0
 11
11785.299999999919
 21
8148.8500000000313
 31
0.0
  0
LINE
  5
4833
  8
0
  6
PHANTOM2
 10
11809.99999999992
 20
8148.8500000000313
 30
0.0
 11
11809.99999999992
 21
8151.1500000000306
 31
0.0
  0
LINE
  5
4834
  8
0
  6
PHANTOM2
 10
11809.99999999992
 20
8151.1500000000306
 30
0.0
 11
11800.069444444371
 21
8151.1500000000306
 31
0.0
  0
LINE
  5
4835
  8
0
  6
PHANTOM2
 10
11794.99999999992
 20
8151.1500000000306
 30
0.0
 11
11785.299999999919
 21
8151.1500000000306
 31
0.0
  0
LINE
  5
4836
  8
0
  6
PHANTOM2
 10
11782.99999999992
 20
8148.8500000000313
 30
0.0
 11
11782.99999999992
 21
8141.0000000000309
 31
0.0
  0
ARC
  5
4837
  8
0
  6
PHANTOM2
 10
11785.299999999919
 20
8148.8500000000313
 30
0.0
 40
2.2999999999999989
 50
90.0
 51
180.0
  0
LINE
  5
4838
  8
0
  6
PHANTOM2
 10
11782.99999999992
 20
8141.0000000000309
 30
0.0
 11
11785.299999999919
 21
8141.0000000000309
 31
0.0
  0
LINE
  5
4839
  8
0
  6
PHANTOM2
 10
11807.99999999992
 20
8107.4371995094234
 30
0.0
 11
11807.99999999992
 21
8098.0000000000364
 31
0.0
  0
LINE
  5
483A
  8
0
  6
PHANTOM2
 10
11807.99999999992
 20
8088.7357033206927
 30
0.0
 11
11804.39728037157
 21
8076.1715268516864
 31
0.0
  0
LINE
  5
483B
  8
0
  6
PHANTOM2
 10
11804.99999999992
 20
8141.0000000000309
 30
0.0
 11
11804.99999999992
 21
8147.6000000000304
 31
0.0
  0
LINE
  5
483C
  8
0
  6
PHANTOM2
 10
11794.99999999992
 20
8153.0000000000318
 30
0.0
 11
11797.49999999992
 21
8153.0000000000318
 31
0.0
  0
LINE
  5
483D
  8
0
  6
PHANTOM2
 10
11797.49999999992
 20
8153.0000000000318
 30
0.0
 11
11804.99999999992
 21
8147.6000000000304
 31
0.0
  0
LINE
  5
483E
  8
0
  6
PHANTOM2
 10
11807.99999999992
 20
8138.9272334859988
 30
0.0
 11
11807.99999999992
 21
8148.8500000000313
 31
0.0
  0
LINE
  5
483F
  8
0
  6
PHANTOM2
 10
11785.299999999919
 20
8148.8500000000313
 30
0.0
 11
11794.99999999992
 21
8148.8500000000313
 31
0.0
  0
LINE
  5
4840
  8
0
  6
PHANTOM2
 10
11803.26388888881
 20
8148.8500000000313
 30
0.0
 11
11809.99999999992
 21
8148.8500000000313
 31
0.0
  0
LINE
  5
4841
  8
0
  6
PHANTOM2
 10
11782.99999999992
 20
8495.5000000000327
 30
0.0
 11
11786.99999999992
 21
8495.5000000000327
 31
0.0
  0
LINE
  5
4842
  8
0
  6
PHANTOM2
 10
11807.99999999992
 20
8422.2642966793701
 30
0.0
 11
11788.209311891531
 21
8491.2826282421447
 31
0.0
  0
LINE
  5
4843
  8
0
  6
PHANTOM2
 10
11785.299999999979
 20
8151.1500000000306
 30
0.0
 11
11785.299999999979
 21
8495.5000000000327
 31
0.0
  0
LINE
  5
4844
  8
0
  6
PHANTOM2
 10
11782.999999999931
 20
8495.5000000000327
 30
0.0
 11
11782.999999999931
 21
8148.8500000000313
 31
0.0
  0
LINE
  5
4845
  8
0
  6
PHANTOM2
 10
11782.99999999992
 20
8466.0000000000327
 30
0.0
 11
11782.99999999992
 21
8505.9000000000306
 31
0.0
  0
LINE
  5
4846
  8
0
  6
PHANTOM2
 10
11782.99999999992
 20
8505.9000000000306
 30
0.0
 11
11743.49999999992
 21
8505.9000000000342
 31
0.0
  0
LINE
  5
4847
  8
0
  6
PHANTOM2
 10
11743.49999999992
 20
8505.9000000000342
 30
0.0
 11
11743.49999999992
 21
8496.0000000000346
 31
0.0
  0
LINE
  5
4848
  8
0
  6
PHANTOM2
 10
11743.49999999992
 20
8496.0000000000346
 30
0.0
 11
11746.49999999992
 21
8496.0000000000346
 31
0.0
  0
LINE
  5
4849
  8
0
  6
PHANTOM2
 10
11746.49999999992
 20
8496.0000000000346
 30
0.0
 11
11746.49999999992
 21
8500.9000000000306
 31
0.0
  0
LINE
  5
484A
  8
0
  6
PHANTOM2
 10
11746.49999999992
 20
8500.9000000000306
 30
0.0
 11
11744.99999999992
 21
8500.9000000000306
 31
0.0
  0
LINE
  5
484B
  8
0
  6
PHANTOM2
 10
11744.99999999992
 20
8500.9000000000306
 30
0.0
 11
11744.99999999992
 21
8502.9000000000306
 31
0.0
  0
LINE
  5
484C
  8
0
  6
PHANTOM2
 10
11744.99999999992
 20
8502.9000000000306
 30
0.0
 11
11779.99999999992
 21
8502.9000000000306
 31
0.0
  0
LINE
  5
484D
  8
0
  6
PHANTOM2
 10
11779.99999999992
 20
8502.9000000000306
 30
0.0
 11
11779.99999999992
 21
8500.9000000000306
 31
0.0
  0
LINE
  5
484E
  8
0
  6
PHANTOM2
 10
11779.99999999992
 20
8500.9000000000306
 30
0.0
 11
11777.99999999992
 21
8500.9000000000306
 31
0.0
  0
LINE
  5
484F
  8
0
  6
PHANTOM2
 10
11777.99999999992
 20
8500.9000000000306
 30
0.0
 11
11777.99999999992
 21
8498.9000000000306
 31
0.0
  0
LINE
  5
4850
  8
0
  6
PHANTOM2
 10
11777.99999999992
 20
8498.9000000000306
 30
0.0
 11
11779.99999999992
 21
8498.9000000000306
 31
0.0
  0
LINE
  5
4851
  8
0
  6
PHANTOM2
 10
11782.99999999992
 20
8466.0000000000327
 30
0.0
 11
11779.99999999992
 21
8466.0000000000327
 31
0.0
  0
LINE
  5
4852
  8
0
  6
PHANTOM2
 10
11779.99999999992
 20
8466.0000000000327
 30
0.0
 11
11779.99999999992
 21
8498.9000000000306
 31
0.0
  0
LINE
  5
4853
  8
0
  6
PHANTOM2
 10
11787.511452359629
 20
8017.2836463466192
 30
0.0
 11
11786.99999999992
 21
8015.5000000000327
 31
0.0
  0
LINE
  5
4854
  8
0
  6
PHANTOM2
 10
11778.49999999998
 20
8473.5497368528413
 30
0.0
 11
11778.49999999998
 21
8477.5497368528413
 31
0.0
  0
LINE
  5
4855
  8
0
  6
PHANTOM2
 10
11778.99999999998
 20
8478.0497368528413
 30
0.0
 11
11779.99999999992
 21
8478.0497368528413
 31
0.0
  0
LINE
  5
4856
  8
0
  6
PHANTOM2
 10
11778.49999999998
 20
8473.5497368528413
 30
0.0
 11
11778.99999999998
 21
8473.0497368528413
 31
0.0
  0
LINE
  5
4857
  8
0
  6
PHANTOM2
 10
11778.49999999998
 20
8477.5497368528413
 30
0.0
 11
11778.99999999998
 21
8478.0497368528413
 31
0.0
  0
LINE
  5
4858
  8
0
  6
PHANTOM2
 10
11778.499999999971
 20
8488.2996731435196
 30
0.0
 11
11778.499999999971
 21
8492.2996731435178
 31
0.0
  0
LINE
  5
4859
  8
0
  6
PHANTOM2
 10
11778.999999999971
 20
8492.7996731435214
 30
0.0
 11
11779.99999999992
 21
8492.7996731435214
 31
0.0
  0
LINE
  5
485A
  8
0
  6
PHANTOM2
 10
11785.29999999997
 20
8495.0496731435196
 30
0.0
 11
11785.29999999997
 21
8485.5496731435196
 31
0.0
  0
LINE
  5
485B
  8
0
  6
PHANTOM2
 10
11778.499999999971
 20
8488.2996731435196
 30
0.0
 11
11778.999999999971
 21
8487.7996731435196
 31
0.0
  0
LINE
  5
485C
  8
0
  6
PHANTOM2
 10
11778.499999999971
 20
8492.2996731435178
 30
0.0
 11
11778.999999999971
 21
8492.7996731435214
 31
0.0
  0
LINE
  5
485D
  8
0
  6
PHANTOM2
 10
11785.299999999979
 20
8495.0500000000393
 30
0.0
 11
11785.299999999979
 21
8485.5500000000393
 31
0.0
  0
ARC
  5
485E
  8
0
  6
PHANTOM2
 10
11780.140328351979
 20
8490.3001934530403
 30
0.0
 40
8.1285714289999991
 50
336.04773511200727
 51
23.952264887992701
  0
ARC
  5
485F
  8
0
  6
PHANTOM2
 10
11785.30096414101
 20
8492.5512286392277
 30
0.0
 40
2.4987715468207199
 50
24.821469122987519
 51
90.022107348540288
  0
ARC
  5
4860
  8
0
  6
PHANTOM2
 10
11785.299999999979
 20
8488.0500000000393
 30
0.0
 40
2.5
 50
270.0
 51
335.17029779198162
  0
LINE
  5
4861
  8
0
  6
PHANTOM2
 10
11785.299999999979
 20
8480.3000637093628
 30
0.0
 11
11785.299999999979
 21
8470.8000637093592
 31
0.0
  0
ARC
  5
4862
  8
0
  6
PHANTOM2
 10
11780.140328351979
 20
8475.550257162362
 30
0.0
 40
8.1285714289999991
 50
336.04773511200727
 51
23.952264887992701
  0
ARC
  5
4863
  8
0
  6
PHANTOM2
 10
11785.30096414101
 20
8477.8012923485476
 30
0.0
 40
2.4987715468207199
 50
24.821469122987519
 51
90.022107348540288
  0
ARC
  5
4864
  8
0
  6
PHANTOM2
 10
11785.299999999979
 20
8473.300063709361
 30
0.0
 40
2.5
 50
270.0
 51
335.17029779198162
  0
LINE
  5
4865
  8
0
  6
PHANTOM2
 10
11787.511429482491
 20
8493.7164334355366
 30
0.0
 11
11786.99999999992
 21
8495.5000000000327
 31
0.0
  0
LINE
  5
4866
  8
0
  6
PHANTOM2
 10
11779.99999999992
 20
8473.0497368528413
 30
0.0
 11
11778.99999999998
 21
8473.0497368528413
 31
0.0
  0
LINE
  5
4867
  8
0
  6
PHANTOM2
 10
11779.99999999992
 20
8487.7996731435196
 30
0.0
 11
11778.999999999971
 21
8487.7996731435196
 31
0.0
  0
LINE
  5
4868
  8
0
  6
PHANTOM2
 10
11746.49999999992
 20
8500.9000000000306
 30
0.0
 11
11758.49999999992
 21
8500.9000000000306
 31
0.0
  0
LINE
  5
4869
  8
0
  6
PHANTOM2
 10
11807.99999999992
 20
8095.499983537854
 30
0.0
 11
11807.99999999992
 21
8088.7357033206927
 31
0.0
  0
LINE
  5
486A
  8
0
  6
PHANTOM2
 10
11803.70598372389
 20
8073.7606889375793
 30
0.0
 11
11793.738516565259
 21
8039.0000000000437
 31
0.0
  0
LINE
  5
486B
  8
0
  6
PHANTOM2
 10
11791.44455347919
 20
8031.0000000000437
 30
0.0
 11
11788.209311891011
 21
8019.7173717561063
 31
0.0
  0
LINE
  5
486C
  8
0
  6
PHANTOM2
 10
11807.99999999992
 20
8151.1500000000306
 30
0.0
 11
11807.99999999992
 21
8422.2642966793701
 31
0.0
  0
LINE
  5
486D
  8
0
  6
PHANTOM2
 10
11758.49999999992
 20
8044.0000000000437
 30
0.0
 11
11758.49999999992
 21
8500.9000000000306
 31
0.0
  0
LINE
  5
486E
  8
0
  6
PHANTOM2
 10
11806.499999999931
 20
8047.0000000000446
 30
0.0
 11
11808.999999999931
 21
8047.0000000000446
 31
0.0
  0
LINE
  5
486F
  8
0
  6
PHANTOM2
 10
11808.999999999931
 20
8047.0000000000446
 30
0.0
 11
11808.999999999931
 21
8052.0000000000437
 31
0.0
  0
LINE
  5
4870
  8
0
  6
PHANTOM2
 10
11808.999999999931
 20
8052.0000000000437
 30
0.0
 11
11806.499999999931
 21
8052.0000000000437
 31
0.0
  0
LINE
  5
4871
  8
0
  6
PHANTOM2
 10
11806.499999999931
 20
8052.0000000000437
 30
0.0
 11
11806.499999999931
 21
8047.0000000000446
 31
0.0
  0
LINE
  5
4872
  8
0
  6
PHANTOM2
 10
11808.499999999931
 20
8047.0000000000446
 30
0.0
 11
11808.499999999931
 21
8024.5000000000437
 31
0.0
  0
LINE
  5
4873
  8
0
  6
PHANTOM2
 10
11806.999999999931
 20
8047.0000000000446
 30
0.0
 11
11806.999999999931
 21
8039.0000000000437
 31
0.0
  0
LINE
  5
4874
  8
0
  6
PHANTOM2
 10
11806.999999999931
 20
8031.0000000000437
 30
0.0
 11
11806.999999999931
 21
8024.5000000000437
 31
0.0
  0
LINE
  5
4875
  8
0
  6
PHANTOM2
 10
11794.99999999992
 20
8153.0000000000318
 30
0.0
 11
11794.99999999992
 21
8141.0000000000309
 31
0.0
  0
LINE
  5
4876
  8
0
  6
PHANTOM2
 10
11746.49999999992
 20
8010.1000000000313
 30
0.0
 11
11746.49999999992
 21
8026.0000000000437
 31
0.0
  0
ARC
  5
4877
  8
0
  6
PHANTOM2
 10
11746.999999999931
 20
8508.5000000000673
 30
0.0
 40
507.012080723954
 50
269.6044732883833
 51
359.60447328838308
  0
LINE
  5
4878
  8
0
 10
6653.0
 20
8505.0
 30
0.0
 11
3347.0
 21
8505.0
 31
0.0
  0
LINE
  5
4879
  8
0
 10
6703.0
 20
8705.0
 30
0.0
 11
6703.0
 21
6000.0
 31
0.0
  0
LINE
  5
487A
  8
0
 10
2797.0
 20
6000.0
 30
0.0
 11
7703.0
 21
6000.0
 31
0.0
  0
LINE
  5
487B
  8
0
 10
3297.0
 20
8705.0
 30
0.0
 11
3297.0
 21
6000.0
 31
0.0
  0
LINE
  5
487C
  8
0
 10
6653.0
 20
8505.0
 30
0.0
 11
6653.0
 21
8559.4999999999982
 31
0.0
  0
LINE
  5
487D
  8
0
 10
3347.0
 20
8505.0
 30
0.0
 11
3347.0
 21
8559.4999999999982
 31
0.0
  0
LINE
  5
487E
  8
0
  6
PHANTOM2
 10
6636.4999999999991
 20
8001.5
 30
0.0
 11
5553.0
 21
8001.5
 31
0.0
  0
LINE
  5
487F
  8
0
  6
PHANTOM2
 10
5550.0
 20
8001.5
 30
0.0
 11
4450.0
 21
8001.5
 31
0.0
  0
LINE
  5
4880
  8
0
  6
PHANTOM2
 10
4447.0
 20
8001.5
 30
0.0
 11
3363.5
 21
8001.5
 31
0.0
  0
LINE
  5
4881
  8
0
 10
3347.0
 20
8508.0000000001164
 30
0.0
 11
6653.0
 21
8508.0000000001164
 31
0.0
  0
LINE
  5
4882
  8
0
  6
PHANTOM2
 10
3363.5
 20
8001.5
 30
0.0
 11
3363.5
 21
8505.0
 31
0.0
  0
LINE
  5
4883
  8
0
  6
PHANTOM2
 10
4447.0
 20
8001.5
 30
0.0
 11
4447.0
 21
8505.0
 31
0.0
  0
LINE
  5
4884
  8
0
  6
PHANTOM2
 10
4450.0
 20
8505.0
 30
0.0
 11
4450.0
 21
8001.5
 31
0.0
  0
LINE
  5
4885
  8
0
  6
PHANTOM2
 10
5550.0
 20
8505.0
 30
0.0
 11
5550.0
 21
8001.5
 31
0.0
  0
LINE
  5
4886
  8
0
  6
PHANTOM2
 10
5553.0
 20
8001.5
 30
0.0
 11
5553.0
 21
8505.0
 31
0.0
  0
LINE
  5
4887
  8
0
  6
PHANTOM2
 10
6636.4999999999991
 20
8001.5
 30
0.0
 11
6636.4999999999991
 21
8505.0
 31
0.0
  0
LINE
  5
4888
  8
0
 10
6518.0
 20
8590.0
 30
0.0
 11
6518.0
 21
8678.0
 31
0.0
  0
LINE
  5
4889
  8
0
 10
6518.0
 20
8678.0
 30
0.0
 11
6488.0
 21
8678.0
 31
0.0
  0
LINE
  5
488A
  8
0
 10
6488.0
 20
8678.0
 30
0.0
 11
6488.0
 21
8590.0
 31
0.0
  0
LINE
  5
488B
  8
0
 10
6653.0
 20
8559.4999999999982
 30
0.0
 11
3347.0
 21
8559.4999999999982
 31
0.0
  0
LINE
  5
488C
  8
0
 10
6553.0
 20
8559.4999999999982
 30
0.0
 11
6553.0
 21
8590.0
 31
0.0
  0
LINE
  5
488D
  8
0
 10
3447.0
 20
8559.4999999999982
 30
0.0
 11
3447.0
 21
8590.0
 31
0.0
  0
LINE
  5
488E
  8
0
 10
3447.0
 20
8590.0
 30
0.0
 11
6553.0
 21
8590.0
 31
0.0
  0
LINE
  5
488F
  8
0
  6
PHANTOM2
 10
11774.49999999996
 20
8678.0
 30
0.0
 11
11802.49999999996
 21
8678.0
 31
0.0
  0
LINE
  5
4890
  8
0
  6
PHANTOM2
 10
11802.49999999996
 20
8676.0
 30
0.0
 11
11774.49999999996
 21
8676.0
 31
0.0
  0
LINE
  5
4891
  8
0
  6
PHANTOM2
 10
11774.49999999996
 20
8676.0
 30
0.0
 11
11774.49999999996
 21
8678.0
 31
0.0
  0
ARC
  5
4892
  8
0
  6
PHANTOM2
 10
11802.49999999996
 20
8676.0
 30
0.0
 40
2.0
 50
0.0
 51
90.0
  0
ARC
  5
4893
  8
0
  6
PHANTOM2
 10
11789.5
 20
8673.7111111119411
 30
0.0
 40
13.788888889000001
 50
69.184577374960483
 51
110.8154226250395
  0
LINE
  5
4894
  8
0
  6
PHANTOM2
 10
11782.374800326799
 20
8687.4999999999418
 30
0.0
 11
11796.625199673161
 21
8687.4999999999382
 31
0.0
  0
ARC
  5
4895
  8
0
  6
PHANTOM2
 10
11796.849999999429
 20
8683.7433528798829
 30
0.0
 40
3.76336721186187
 50
49.381998276927703
 51
130.6180017024522
  0
ARC
  5
4896
  8
0
  6
PHANTOM2
 10
11782.150000000571
 20
8683.7433528798792
 30
0.0
 40
3.7633672118671999
 50
49.38199829761659
 51
130.6180017230723
  0
LINE
  5
4897
  8
0
  6
PHANTOM2
 10
11796.62519968947
 20
8663.4999999999418
 30
0.0
 11
11782.37480031049
 21
8663.4999999999418
 31
0.0
  0
ARC
  5
4898
  8
0
  6
PHANTOM2
 10
11789.5
 20
8677.2888888889429
 30
0.0
 40
13.788888889000001
 50
249.18457737496041
 51
290.8154226250395
  0
LINE
  5
4899
  8
0
  6
PHANTOM2
 10
11785.0
 20
8654.3119999999399
 30
0.0
 11
11785.0
 21
8663.4999999999418
 31
0.0
  0
LINE
  5
489A
  8
0
  6
PHANTOM2
 10
11784.6
 20
8671.4999999999436
 30
0.0
 11
11784.6
 21
8664.3999999999396
 31
0.0
  0
LINE
  5
489B
  8
0
  6
PHANTOM2
 10
11794.4
 20
8671.4999999999436
 30
0.0
 11
11794.4
 21
8664.3999999999396
 31
0.0
  0
LINE
  5
489C
  8
0
  6
PHANTOM2
 10
11799.299999999999
 20
8671.4999999999436
 30
0.0
 11
11799.299999999999
 21
8664.3999999999396
 31
0.0
  0
LINE
  5
489D
  8
0
  6
PHANTOM2
 10
11798.700000000001
 20
8680.4999999999436
 30
0.0
 11
11798.700000000001
 21
8677.9999999999418
 31
0.0
  0
LINE
  5
489E
  8
0
  6
PHANTOM2
 10
11793.188
 20
8653.4999999999418
 30
0.0
 11
11785.812
 21
8653.4999999999418
 31
0.0
  0
LINE
  5
489F
  8
0
  6
PHANTOM2
 10
11794.0
 20
8654.3119999999399
 30
0.0
 11
11793.188
 21
8653.4999999999418
 31
0.0
  0
LINE
  5
48A0
  8
0
  6
PHANTOM2
 10
11794.0
 20
8663.4999999999418
 30
0.0
 11
11794.0
 21
8654.3119999999399
 31
0.0
  0
ARC
  5
48A1
  8
0
  6
PHANTOM2
 10
11796.850000000009
 20
8667.2566471223363
 30
0.0
 40
3.7633672132585581
 50
229.38199830412461
 51
310.6180016933651
  0
LINE
  5
48A2
  8
0
  6
PHANTOM2
 10
11798.700000000001
 20
8673.9999999999418
 30
0.0
 11
11798.700000000001
 21
8671.4999999999436
 31
0.0
  0
LINE
  5
48A3
  8
0
  6
PHANTOM2
 10
11800.0
 20
8675.9999999999436
 30
0.0
 11
11800.0
 21
8673.9999999999418
 31
0.0
  0
LINE
  5
48A4
  8
0
  6
PHANTOM2
 10
11779.700000000001
 20
8664.3999999999396
 30
0.0
 11
11779.700000000001
 21
8671.4999999999436
 31
0.0
  0
LINE
  5
48A5
  8
0
  6
PHANTOM2
 10
11780.299999999999
 20
8677.9999999999418
 30
0.0
 11
11780.299999999999
 21
8680.4999999999436
 31
0.0
  0
LINE
  5
48A6
  8
0
  6
PHANTOM2
 10
11780.299999999999
 20
8671.4999999999436
 30
0.0
 11
11780.299999999999
 21
8673.9999999999418
 31
0.0
  0
LINE
  5
48A7
  8
0
  6
PHANTOM2
 10
11779.0
 20
8673.9999999999418
 30
0.0
 11
11779.0
 21
8675.9999999999436
 31
0.0
  0
LINE
  5
48A8
  8
0
  6
PHANTOM2
 10
11799.299999999999
 20
8680.4999999999436
 30
0.0
 11
11779.700000000001
 21
8680.4999999999436
 31
0.0
  0
LINE
  5
48A9
  8
0
  6
PHANTOM2
 10
11800.0
 20
8673.9999999999418
 30
0.0
 11
11779.0
 21
8673.9999999999418
 31
0.0
  0
LINE
  5
48AA
  8
0
  6
PHANTOM2
 10
11799.299999999999
 20
8671.4999999999436
 30
0.0
 11
11779.700000000001
 21
8671.4999999999436
 31
0.0
  0
ARC
  5
48AB
  8
0
  6
PHANTOM2
 10
11782.14999999998
 20
8667.2566471223345
 30
0.0
 40
3.7633672132528879
 50
229.3819983066349
 51
310.61800169587542
  0
LINE
  5
48AC
  8
0
  6
PHANTOM2
 10
11799.299999999999
 20
8686.5999999999385
 30
0.0
 11
11799.299999999999
 21
8680.4999999999436
 31
0.0
  0
LINE
  5
48AD
  8
0
  6
PHANTOM2
 10
11779.700000000001
 20
8680.4999999999436
 30
0.0
 11
11779.700000000001
 21
8686.5999999999385
 31
0.0
  0
LINE
  5
48AE
  8
0
  6
PHANTOM2
 10
11785.0
 20
9155.0
 30
0.0
 11
11785.0
 21
8687.4999999999418
 31
0.0
  0
LINE
  5
48AF
  8
0
  6
PHANTOM2
 10
11794.0
 20
9155.0
 30
0.0
 11
11794.0
 21
8687.4999999999418
 31
0.0
  0
LINE
  5
48B0
  8
0
  6
PHANTOM2
 10
11785.812
 20
8653.4999999999418
 30
0.0
 11
11785.0
 21
8654.3119999999399
 31
0.0
  0
LINE
  5
48B1
  8
0
  6
PHANTOM2
 10
11784.6
 20
8686.6000000009481
 30
0.0
 11
11784.6
 21
8680.4999999999382
 31
0.0
  0
LINE
  5
48B2
  8
0
  6
PHANTOM2
 10
11794.4
 20
8686.6000000009481
 30
0.0
 11
11794.4
 21
8680.4999999999382
 31
0.0
  0
ARC
  5
48B3
  8
0
  6
PHANTOM2
 10
6503.0
 20
8673.7111111119993
 30
0.0
 40
13.788888889000001
 50
69.184577374960483
 51
110.8154226250395
  0
LINE
  5
48B4
  8
0
  6
PHANTOM2
 10
6495.8748003268302
 20
8687.4999999999982
 30
0.0
 11
6510.1251996731862
 21
8687.4999999999982
 31
0.0
  0
ARC
  5
48B5
  8
0
  6
PHANTOM2
 10
6510.3499999994337
 20
8683.7433528799411
 30
0.0
 40
3.7633672118614778
 50
49.381998276927703
 51
130.6180017024522
  0
ARC
  5
48B6
  8
0
  6
PHANTOM2
 10
6495.650000000569
 20
8683.7433528799411
 30
0.0
 40
3.76336721186187
 50
49.381998297547788
 51
130.6180017230723
  0
LINE
  5
48B7
  8
0
  6
PHANTOM2
 10
6512.1999999999989
 20
8680.5
 30
0.0
 11
6512.1999999999989
 21
8678.0
 31
0.0
  0
LINE
  5
48B8
  8
0
  6
PHANTOM2
 10
6493.7999999999993
 20
8678.0
 30
0.0
 11
6493.7999999999993
 21
8680.5
 31
0.0
  0
LINE
  5
48B9
  8
0
  6
PHANTOM2
 10
6512.8000000000002
 20
8680.5
 30
0.0
 11
6493.199999999998
 21
8680.5
 31
0.0
  0
LINE
  5
48BA
  8
0
  6
PHANTOM2
 10
6512.8000000000002
 20
8686.5999999999985
 30
0.0
 11
6512.8000000000002
 21
8680.5
 31
0.0
  0
LINE
  5
48BB
  8
0
  6
PHANTOM2
 10
6493.199999999998
 20
8680.5
 30
0.0
 11
6493.199999999998
 21
8686.5999999999985
 31
0.0
  0
LINE
  5
48BC
  8
0
  6
PHANTOM2
 10
6498.5000000000009
 20
9154.9999999999673
 30
0.0
 11
6498.4999999999991
 21
8687.5
 31
0.0
  0
LINE
  5
48BD
  8
0
  6
PHANTOM2
 10
6507.5000000000018
 20
9154.9999999999673
 30
0.0
 11
6507.5
 21
8687.5
 31
0.0
  0
LINE
  5
48BE
  8
0
  6
PHANTOM2
 10
6498.1000000000004
 20
8686.6000000010044
 30
0.0
 11
6498.1000000000004
 21
8680.4999999999964
 31
0.0
  0
LINE
  5
48BF
  8
0
  6
PHANTOM2
 10
6507.9000000000024
 20
8686.6000000010044
 30
0.0
 11
6507.8999999999978
 21
8680.4999999999964
 31
0.0
  0
LINE
  5
48C0
  8
0
 10
3511.999999999884
 20
8590.0
 30
0.0
 11
3511.999999999884
 21
8678.0000000001164
 31
0.0
  0
LINE
  5
48C1
  8
0
 10
3481.999999999884
 20
8678.0000000001164
 30
0.0
 11
3481.999999999884
 21
8590.0
 31
0.0
  0
LINE
  5
48C2
  8
0
  6
PHANTOM2
 10
3492.4999999998859
 20
9154.9999999999673
 30
0.0
 11
3492.499999999884
 21
8687.5000000001164
 31
0.0
  0
LINE
  5
48C3
  8
0
  6
PHANTOM2
 10
3501.4999999998859
 20
9154.9999999999673
 30
0.0
 11
3501.499999999884
 21
8687.5000000001164
 31
0.0
  0
LINE
  5
48C4
  8
0
 10
5766.4999999998827
 20
8590.0
 30
0.0
 11
5766.4999999998827
 21
8678.0
 31
0.0
  0
LINE
  5
48C5
  8
0
 10
5736.4999999998836
 20
8678.0
 30
0.0
 11
5736.4999999998836
 21
8590.0
 31
0.0
  0
LINE
  5
48C6
  8
0
  6
PHANTOM2
 10
5746.9999999998863
 20
9154.9999999999673
 30
0.0
 11
5746.9999999998827
 21
8687.5
 31
0.0
  0
LINE
  5
48C7
  8
0
  6
PHANTOM2
 10
5755.9999999998863
 20
9154.9999999999673
 30
0.0
 11
5755.9999999998827
 21
8687.5
 31
0.0
  0
LINE
  5
48C8
  8
0
 10
5014.9999999998836
 20
8590.0
 30
0.0
 11
5014.9999999998836
 21
8678.0000000001164
 31
0.0
  0
LINE
  5
48C9
  8
0
 10
4984.9999999998827
 20
8678.0000000001164
 30
0.0
 11
4984.9999999998827
 21
8590.0
 31
0.0
  0
LINE
  5
48CA
  8
0
  6
PHANTOM2
 10
4995.4999999998863
 20
9154.9999999999673
 30
0.0
 11
4995.4999999998836
 21
8687.5000000001164
 31
0.0
  0
LINE
  5
48CB
  8
0
  6
PHANTOM2
 10
5004.4999999998863
 20
9154.9999999999673
 30
0.0
 11
5004.4999999998827
 21
8687.5000000001164
 31
0.0
  0
LINE
  5
48CC
  8
0
 10
13192.5
 20
8905.0
 30
0.0
 11
11026.499999999931
 21
8905.0
 31
0.0
  0
LINE
  5
48CD
  8
0
 10
13192.5
 20
9055.0
 30
0.0
 11
11026.499999999931
 21
9055.0
 31
0.0
  0
LINE
  5
48CE
  8
0
 10
7203.0
 20
8905.0
 30
0.0
 11
2797.0
 21
8905.0
 31
0.0
  0
LINE
  5
48CF
  8
0
 10
7203.0
 20
9055.0
 30
0.0
 11
2797.0
 21
9055.0
 31
0.0
  0
LINE
  5
48D0
  8
0
 10
6703.0
 20
7675.150858889946
 30
0.0
 11
6903.0
 21
7875.1508588899451
 31
0.0
  0
LINE
  5
48D1
  8
0
 10
6703.0
 20
7657.1508588899451
 30
0.0
 11
6903.0
 21
7857.1508588899442
 31
0.0
  0
LINE
  5
48D2
  8
0
 10
6703.0
 20
7175.1508588899442
 30
0.0
 11
6903.0
 21
7375.1508588899451
 31
0.0
  0
LINE
  5
48D3
  8
0
 10
6703.0
 20
7157.1508588899451
 30
0.0
 11
6903.0
 21
7357.1508588899442
 31
0.0
  0
LINE
  5
48D4
  8
0
 10
6703.0
 20
6675.1508588899442
 30
0.0
 11
6903.0
 21
6875.1508588899442
 31
0.0
  0
LINE
  5
48D5
  8
0
 10
6703.0
 20
6657.1508588899451
 30
0.0
 11
6903.0
 21
6857.1508588899442
 31
0.0
  0
LINE
  5
48D6
  8
0
 10
6703.0
 20
6175.1508588899442
 30
0.0
 11
6903.0
 21
6375.1508588899442
 31
0.0
  0
LINE
  5
48D7
  8
0
 10
6703.0
 20
6157.1508588899442
 30
0.0
 11
6903.0
 21
6357.1508588899442
 31
0.0
  0
LINE
  5
48D8
  8
0
 10
6703.0
 20
8175.150858889946
 30
0.0
 11
6903.0
 21
8375.1508588899451
 31
0.0
  0
LINE
  5
48D9
  8
0
 10
6703.0
 20
8157.1508588899451
 30
0.0
 11
6903.0
 21
8357.1508588899433
 31
0.0
  0
LINE
  5
48DA
  8
0
 10
3097.0
 20
7675.150858889946
 30
0.0
 11
3297.0
 21
7875.1508588899451
 31
0.0
  0
LINE
  5
48DB
  8
0
 10
3097.0
 20
7657.1508588899451
 30
0.0
 11
3297.0
 21
7857.1508588899442
 31
0.0
  0
LINE
  5
48DC
  8
0
 10
3097.0
 20
7175.1508588899442
 30
0.0
 11
3297.0
 21
7375.1508588899451
 31
0.0
  0
LINE
  5
48DD
  8
0
 10
3097.0
 20
7157.1508588899451
 30
0.0
 11
3297.0
 21
7357.1508588899442
 31
0.0
  0
LINE
  5
48DE
  8
0
 10
3097.0
 20
6675.1508588899442
 30
0.0
 11
3297.0
 21
6875.1508588899442
 31
0.0
  0
LINE
  5
48DF
  8
0
 10
3097.0
 20
6657.1508588899451
 30
0.0
 11
3297.0
 21
6857.1508588899442
 31
0.0
  0
LINE
  5
48E0
  8
0
 10
3097.0
 20
6175.1508588899442
 30
0.0
 11
3297.0
 21
6375.1508588899442
 31
0.0
  0
LINE
  5
48E1
  8
0
 10
3097.0
 20
6157.1508588899442
 30
0.0
 11
3297.0
 21
6357.1508588899442
 31
0.0
  0
LINE
  5
48E2
  8
0
 10
3097.0
 20
8175.150858889946
 30
0.0
 11
3297.0
 21
8375.1508588899451
 31
0.0
  0
LINE
  5
48E3
  8
0
 10
3097.0
 20
8157.1508588899451
 30
0.0
 11
3297.0
 21
8357.1508588899433
 31
0.0
  0
LINE
  5
48E4
  8
0
 10
4532.3624351794997
 20
9055.0
 30
0.0
 11
4382.3624351794997
 21
8905.0
 31
0.0
  0
LINE
  5
48E5
  8
0
 10
4550.3624351794997
 20
9055.0
 30
0.0
 11
4400.3624351794997
 21
8905.0
 31
0.0
  0
LINE
  5
48E6
  8
0
 10
5032.3624351794997
 20
9055.0
 30
0.0
 11
4882.3624351794997
 21
8905.0
 31
0.0
  0
LINE
  5
48E7
  8
0
 10
5050.3624351795006
 20
9055.0
 30
0.0
 11
4900.3624351794997
 21
8905.0
 31
0.0
  0
LINE
  5
48E8
  8
0
 10
5532.3624351794997
 20
9055.0
 30
0.0
 11
5382.3624351794997
 21
8905.0
 31
0.0
  0
LINE
  5
48E9
  8
0
 10
5550.3624351795006
 20
9055.0
 30
0.0
 11
5400.3624351794997
 21
8905.0
 31
0.0
  0
LINE
  5
48EA
  8
0
 10
6032.3624351794997
 20
9055.0
 30
0.0
 11
5882.3624351794997
 21
8905.0
 31
0.0
  0
LINE
  5
48EB
  8
0
 10
6050.3624351795006
 20
9055.0
 30
0.0
 11
5900.3624351794997
 21
8905.0
 31
0.0
  0
LINE
  5
48EC
  8
0
 10
6548.8624351795006
 20
9055.0
 30
0.0
 11
6398.8624351795006
 21
8905.0
 31
0.0
  0
LINE
  5
48ED
  8
0
 10
6566.8624351794997
 20
9055.0
 30
0.0
 11
6416.8624351794997
 21
8905.0
 31
0.0
  0
LINE
  5
48EE
  8
0
 10
7015.8624351795006
 20
9055.0
 30
0.0
 11
6865.8624351795006
 21
8905.0
 31
0.0
  0
LINE
  5
48EF
  8
0
 10
7033.8624351794997
 20
9055.0
 30
0.0
 11
6883.8624351795006
 21
8905.0
 31
0.0
  0
LINE
  5
48F0
  8
0
 10
12947.813244597421
 20
9055.0
 30
0.0
 11
12797.813244597421
 21
8905.0
 31
0.0
  0
LINE
  5
48F1
  8
0
 10
12965.813244597421
 20
9055.0
 30
0.0
 11
12815.813244597421
 21
8905.0
 31
0.0
  0
LINE
  5
48F2
  8
0
 10
12447.813244597421
 20
9055.0
 30
0.0
 11
12297.813244597421
 21
8905.0
 31
0.0
  0
LINE
  5
48F3
  8
0
 10
12465.813244597421
 20
9055.0
 30
0.0
 11
12315.813244597421
 21
8905.0
 31
0.0
  0
LINE
  5
48F4
  8
0
 10
11947.813244597421
 20
9055.0
 30
0.0
 11
11797.813244597421
 21
8905.0
 31
0.0
  0
LINE
  5
48F5
  8
0
 10
11965.813244597421
 20
9055.0
 30
0.0
 11
11815.813244597421
 21
8905.0
 31
0.0
  0
LINE
  5
48F6
  8
0
 10
11447.813244597421
 20
9055.0
 30
0.0
 11
11297.813244597421
 21
8905.0
 31
0.0
  0
LINE
  5
48F7
  8
0
 10
11465.813244597421
 20
9055.0
 30
0.0
 11
11315.813244597421
 21
8905.0
 31
0.0
  0
LINE
  5
48F8
  8
0
  6
PHANTOM2
 10
6618.0
 20
8628.0000000001164
 30
0.0
 11
3382.0
 21
8628.0000000001164
 31
0.0
  0
LINE
  5
48F9
  8
0
  6
PHANTOM2
 10
3382.0
 20
8628.0000000001164
 30
0.0
 11
3382.0
 21
8590.0000000001164
 31
0.0
  0
LINE
  5
48FA
  8
0
  6
PHANTOM2
 10
3382.0
 20
8590.0000000001164
 30
0.0
 11
6618.0
 21
8590.0000000001164
 31
0.0
  0
LINE
  5
48FB
  8
0
  6
PHANTOM2
 10
6618.0
 20
8590.0000000001164
 30
0.0
 11
6618.0
 21
8628.0000000001164
 31
0.0
  0
LINE
  5
48FC
  8
0
 10
6703.0
 20
3500.0000000000191
 30
0.0
 11
6703.0
 21
2308.9999999999382
 31
0.0
  0
LINE
  5
48FD
  8
0
 10
6703.0
 20
2308.9999999999382
 30
0.0
 11
7703.0
 21
2308.9999999999382
 31
0.0
  0
LINE
  5
48FE
  8
0
 10
3297.0
 20
3500.0000000000191
 30
0.0
 11
3297.0
 21
2940.0000000000191
 31
0.0
  0
LINE
  5
48FF
  8
0
 10
3297.0
 20
2940.0000000000191
 30
0.0
 11
2797.0
 21
2940.0000000000191
 31
0.0
  0
LINE
  5
4900
  8
0
  6
PHANTOM2
 10
3363.5
 20
8001.5
 30
0.0
 11
3905.25
 21
8505.0
 31
0.0
  0
LINE
  5
4901
  8
0
  6
PHANTOM2
 10
3905.25
 20
8505.0
 30
0.0
 11
4447.0
 21
8001.5
 31
0.0
  0
LINE
  5
4902
  8
0
  6
PHANTOM2
 10
4450.0
 20
8001.5
 30
0.0
 11
5000.0
 21
8505.0
 31
0.0
  0
LINE
  5
4903
  8
0
  6
PHANTOM2
 10
5000.0
 20
8505.0
 30
0.0
 11
5550.0
 21
8001.5
 31
0.0
  0
LINE
  5
4904
  8
0
  6
PHANTOM2
 10
5553.0
 20
8001.5
 30
0.0
 11
6094.75
 21
8505.0
 31
0.0
  0
LINE
  5
4905
  8
0
  6
PHANTOM2
 10
6094.75
 20
8505.0
 30
0.0
 11
6636.4999999999991
 21
8001.5
 31
0.0
  0
LINE
  5
4906
  8
0
 10
4263.4999999998836
 20
8590.0
 30
0.0
 11
4263.4999999998836
 21
8678.0000000001164
 31
0.0
  0
LINE
  5
4907
  8
0
 10
4233.4999999998827
 20
8678.0000000001164
 30
0.0
 11
4233.4999999998827
 21
8590.0
 31
0.0
  0
LINE
  5
4908
  8
0
  6
PHANTOM2
 10
4243.9999999998854
 20
9154.9999999999673
 30
0.0
 11
4243.9999999998836
 21
8687.5000000001164
 31
0.0
  0
LINE
  5
4909
  8
0
  6
PHANTOM2
 10
4252.9999999998854
 20
9154.9999999999673
 30
0.0
 11
4252.9999999998827
 21
8687.5000000001164
 31
0.0
  0
LINE
  5
490A
  8
0
 10
3048.862435179617
 20
9055.0
 30
0.0
 11
2898.862435179617
 21
8905.0
 31
0.0
  0
LINE
  5
490B
  8
0
 10
3066.862435179617
 20
9055.0
 30
0.0
 11
2916.862435179617
 21
8905.0
 31
0.0
  0
LINE
  5
490C
  8
0
 10
3548.862435179617
 20
9055.0
 30
0.0
 11
3398.862435179617
 21
8905.0
 31
0.0
  0
LINE
  5
490D
  8
0
 10
3566.862435179617
 20
9055.0
 30
0.0
 11
3416.862435179617
 21
8905.0
 31
0.0
  0
LINE
  5
490E
  8
0
 10
4032.3624351795002
 20
9055.0
 30
0.0
 11
3882.3624351795002
 21
8905.0
 31
0.0
  0
LINE
  5
490F
  8
0
 10
4050.3624351795002
 20
9055.0
 30
0.0
 11
3900.3624351795011
 21
8905.0
 31
0.0
  0
LINE
  5
4910
  8
0
  6
PHANTOM2
 10
3347.0
 20
3000.0
 30
0.0
 11
6653.0
 21
3000.0
 31
0.0
  0
LINE
  5
4911
  8
0
  6
PHANTOM2
 10
6653.0
 20
3000.0
 30
0.0
 11
6653.0
 21
2458.9999999999382
 31
0.0
  0
LINE
  5
4912
  8
0
  6
PHANTOM2
 10
6653.0
 20
2458.9999999999382
 30
0.0
 11
3347.0
 21
2458.9999999999382
 31
0.0
  0
LINE
  5
4913
  8
0
  6
PHANTOM2
 10
3347.0
 20
2458.9999999999382
 30
0.0
 11
3347.0
 21
3000.0
 31
0.0
  0
LINE
  5
4914
  8
0
  6
PHANTOM2
 10
6639.4999999999991
 20
2472.4999999999382
 30
0.0
 11
3360.5
 21
2472.4999999999382
 31
0.0
  0
LINE
  5
4915
  8
0
  6
PHANTOM2
 10
3360.5
 20
2472.4999999999382
 30
0.0
 11
3360.5
 21
2986.499999999935
 31
0.0
  0
LINE
  5
4916
  8
0
  6
PHANTOM2
 10
3360.5
 20
2986.499999999935
 30
0.0
 11
6639.4999999999991
 21
2986.499999999935
 31
0.0
  0
LINE
  5
4917
  8
0
  6
PHANTOM2
 10
6639.4999999999991
 20
2986.499999999935
 30
0.0
 11
6639.4999999999991
 21
2472.4999999999382
 31
0.0
  0
LINE
  5
4918
  8
0
  6
PHANTOM2
 10
5553.0
 20
2983.4999999999382
 30
0.0
 11
6636.4999999999991
 21
2983.4999999999382
 31
0.0
  0
LINE
  5
4919
  8
0
  6
PHANTOM2
 10
6636.4999999999991
 20
2983.4999999999382
 30
0.0
 11
6636.4999999999991
 21
2475.4999999999382
 31
0.0
  0
LINE
  5
491A
  8
0
  6
PHANTOM2
 10
6636.4999999999991
 20
2475.4999999999382
 30
0.0
 11
5553.0
 21
2475.4999999999382
 31
0.0
  0
LINE
  5
491B
  8
0
  6
PHANTOM2
 10
5553.0
 20
2475.4999999999382
 30
0.0
 11
5553.0
 21
2983.4999999999382
 31
0.0
  0
LINE
  5
491C
  8
0
  6
PHANTOM2
 10
6623.0
 20
2488.9999999999391
 30
0.0
 11
5566.5
 21
2488.9999999999391
 31
0.0
  0
LINE
  5
491D
  8
0
  6
PHANTOM2
 10
5566.5
 20
2488.9999999999391
 30
0.0
 11
5566.5
 21
2969.9999999999382
 31
0.0
  0
LINE
  5
491E
  8
0
  6
PHANTOM2
 10
5566.5
 20
2969.9999999999382
 30
0.0
 11
6623.0
 21
2969.9999999999382
 31
0.0
  0
LINE
  5
491F
  8
0
  6
PHANTOM2
 10
6623.0
 20
2969.9999999999382
 30
0.0
 11
6623.0
 21
2488.9999999999391
 31
0.0
  0
LINE
  5
4920
  8
0
  6
PHANTOM2
 10
5550.0
 20
2983.4999999998831
 30
0.0
 11
4450.0
 21
2983.4999999998831
 31
0.0
  0
LINE
  5
4921
  8
0
  6
PHANTOM2
 10
4450.0
 20
2983.4999999998831
 30
0.0
 11
4450.0
 21
2475.5000000000091
 31
0.0
  0
LINE
  5
4922
  8
0
  6
PHANTOM2
 10
4450.0
 20
2475.5000000000091
 30
0.0
 11
5550.0
 21
2475.5000000000091
 31
0.0
  0
LINE
  5
4923
  8
0
  6
PHANTOM2
 10
5550.0
 20
2475.5000000000091
 30
0.0
 11
5550.0
 21
2983.4999999998831
 31
0.0
  0
LINE
  5
4924
  8
0
  6
PHANTOM2
 10
4463.49999999998
 20
2488.9999999999668
 30
0.0
 11
5536.5
 21
2488.9999999999668
 31
0.0
  0
LINE
  5
4925
  8
0
  6
PHANTOM2
 10
5536.5
 20
2488.9999999999668
 30
0.0
 11
5536.5
 21
2969.9999999999341
 31
0.0
  0
LINE
  5
4926
  8
0
  6
PHANTOM2
 10
5536.5
 20
2969.9999999999341
 30
0.0
 11
4463.49999999998
 21
2969.9999999999341
 31
0.0
  0
LINE
  5
4927
  8
0
  6
PHANTOM2
 10
4463.49999999998
 20
2969.9999999999341
 30
0.0
 11
4463.49999999998
 21
2488.9999999999668
 31
0.0
  0
LINE
  5
4928
  8
0
  6
PHANTOM2
 10
3363.5
 20
2983.499999999935
 30
0.0
 11
4447.0
 21
2983.499999999935
 31
0.0
  0
LINE
  5
4929
  8
0
  6
PHANTOM2
 10
4447.0
 20
2983.499999999935
 30
0.0
 11
4447.0
 21
2475.5000000000091
 31
0.0
  0
LINE
  5
492A
  8
0
  6
PHANTOM2
 10
4447.0
 20
2475.5000000000091
 30
0.0
 11
3363.5
 21
2475.5000000000091
 31
0.0
  0
LINE
  5
492B
  8
0
  6
PHANTOM2
 10
3363.5
 20
2475.5000000000091
 30
0.0
 11
3363.5
 21
2983.499999999935
 31
0.0
  0
LINE
  5
492C
  8
0
  6
PHANTOM2
 10
4433.5
 20
2489.00000000001
 30
0.0
 11
3377.0
 21
2489.00000000001
 31
0.0
  0
LINE
  5
492D
  8
0
  6
PHANTOM2
 10
3377.0
 20
2489.00000000001
 30
0.0
 11
3377.0
 21
2969.9999999999341
 31
0.0
  0
LINE
  5
492E
  8
0
  6
PHANTOM2
 10
3377.0
 20
2969.9999999999341
 30
0.0
 11
4433.5
 21
2969.9999999999341
 31
0.0
  0
LINE
  5
492F
  8
0
  6
PHANTOM2
 10
4433.5
 20
2969.9999999999341
 30
0.0
 11
4433.5
 21
2489.00000000001
 31
0.0
  0
LINE
  5
4930
  8
0
  6
PHANTOM2
 10
3363.5
 20
2475.5000000000091
 30
0.0
 11
3905.25
 21
2983.499999999935
 31
0.0
  0
LINE
  5
4931
  8
0
  6
PHANTOM2
 10
3905.25
 20
2983.499999999935
 30
0.0
 11
4447.0
 21
2475.5000000000091
 31
0.0
  0
LINE
  5
4932
  8
0
  6
PHANTOM2
 10
4450.0
 20
2475.5000000000091
 30
0.0
 11
5000.0
 21
2983.4999999998831
 31
0.0
  0
LINE
  5
4933
  8
0
  6
PHANTOM2
 10
5000.0
 20
2983.4999999998831
 30
0.0
 11
5550.0
 21
2475.5000000000091
 31
0.0
  0
LINE
  5
4934
  8
0
  6
PHANTOM2
 10
5553.0
 20
2475.4999999999382
 30
0.0
 11
6094.75
 21
2983.4999999999382
 31
0.0
  0
LINE
  5
4935
  8
0
  6
PHANTOM2
 10
6094.75
 20
2983.4999999999382
 30
0.0
 11
6636.4999999999991
 21
2475.4999999999382
 31
0.0
  0
DIMENSION
  5
4936
  8
0
  2
*D3
 10
4447.0
 20
7501.5
 30
0.0
 11
3897.0
 21
7584.0
 31
0.0
 70
     0
  1
本体枠長さ：L
 13
3347.0
 23
7901.5
 33
0.0
 14
4447.0
 24
7901.5
 34
0.0
  0
DIMENSION
  5
4937
  8
0
  2
*D4
 10
5550.0
 20
7501.5
 30
0.0
 11
5000.0
 21
7584.0
 31
0.0
 70
     0
  1
本体枠長さ：L
 13
4450.0
 23
7901.5
 33
0.0
 14
5550.0
 24
7901.5
 34
0.0
  0
DIMENSION
  5
4938
  8
0
  2
*D5
 10
6653.0
 20
7501.5
 30
0.0
 11
6103.0
 21
7584.0
 31
0.0
 70
     0
  1
本体枠長さ：L
 13
5553.0
 23
7901.5
 33
0.0
 14
6653.0
 24
7901.5
 34
0.0
  0
DIMENSION
  5
4939
  8
0
  2
*D6
 10
3347.0
 20
9155.0
 30
0.0
 11
2514.2000000000012
 21
9155.0
 31
0.0
 70
   128
  1
50以下（壁面と本体間の隙間）
 13
3297.0
 23
8755.0
 33
0.0
 14
3347.0
 24
8755.0
 34
0.0
  0
DIMENSION
  5
493A
  8
0
  2
*D7
 10
3496.9999999998831
 20
9555.0
 30
0.0
 11
3321.9999999999418
 21
9637.5000000000018
 31
0.0
 70
   128
  1
150以内
 13
3347.0
 23
9155.0
 33
0.0
 14
3496.9999999998831
 24
9155.0
 34
0.0
  0
DIMENSION
  5
493D
  8
0
  2
*D8
 10
5751.4999999998827
 20
9555.0
 30
0.0
 11
5375.7499999998827
 21
9637.5000000000018
 31
0.0
 70
     0
  1
900以内
 13
4999.9999999998827
 23
9155.0
 33
0.0
 14
5751.4999999998827
 24
9155.0
 34
0.0
  0
DIMENSION
  5
493F
  8
0
  2
*D9
 10
6653.0
 20
9555.0
 30
0.0
 11
6678.0
 21
9637.5000000000018
 31
0.0
 70
   128
  1
150以内
 13
6503.0
 23
9155.0
 33
0.0
 14
6653.0
 24
9155.0
 34
0.0
  0
DIMENSION
  5
4940
  8
0
  2
*D10
 10
6703.0
 20
9155.0
 30
0.0
 11
7485.800000000002
 21
9155.0
 31
0.0
 70
   128
  1
50以下（壁面と本体間の隙間）
 13
6653.0
 23
8755.0
 33
0.0
 14
6703.0
 24
8755.0
 34
0.0
  0
DIMENSION
  5
4941
  8
0
  2
*D11
 10
6700.0
 20
7276.5
 30
0.0
 11
5000.0
 21
7359.0
 31
0.0
 70
     0
  1
W
 13
3300.0
 23
7426.5
 33
0.0
 14
6700.0
 24
7426.5
 34
0.0
  0
LINE
  5
4944
  8
0
 10
11026.499999999931
 20
6000.0
 30
0.0
 11
13192.5
 21
6000.0
 31
0.0
  0
DIMENSION
  5
4945
  8
0
  2
*D12
 10
12767.5
 20
8000.0
 30
0.0
 11
12685.0
 21
8254.0000000000327
 31
0.0
 70
     0
  1
H =<>
 13
12617.5
 23
8508.0000000000564
 33
0.0
 14
12367.5
 24
8000.0
 34
0.0
 50
90.0
  0
DIMENSION
  5
4946
  8
0
  2
*D13
 10
12767.5
 20
6000.0
 30
0.0
 11
12685.0
 21
7000.0000000000009
 31
0.0
 70
     0
  1
開口高さ1800以上
 13
12367.5
 23
8000.0
 33
0.0
 14
12617.5
 24
6000.0
 34
0.0
 50
90.0
  0
DIMENSION
  5
4947
  8
0
  2
*D14
 10
11526.499999999931
 20
8505.0000000000564
 30
0.0
 11
11458.999999999931
 21
8587.5000000000891
 31
0.0
 70
   128
 13
11726.499999999931
 23
8590.0000000001164
 33
0.0
 14
11726.499999999931
 24
8505.0000000000564
 34
0.0
 50
90.0
  0
DIMENSION
  5
4948
  8
0
  2
*D15
 10
11376.499999999931
 20
8505.0000000000564
 30
0.0
 11
11308.999999999931
 21
8641.5000000000346
 31
0.0
 70
   128
  1
（180）
 13
11726.499999999931
 23
8678.0
 33
0.0
 14
11726.499999999931
 24
8505.0000000000564
 34
0.0
 50
90.0
  0
TEXT
  5
4949
  8
0
 10
5132.621955196194
 20
9266.8641581027969
 30
0.0
 40
105.0
  1
吊りボルト
 41
0.8
  7
横文字
 72
     1
 11
5367.8219551961938
 21
9266.8641581027969
 31
0.0
  0
INSERT
  5
494A
  8
0
  2
*U21
 10
0.0
 20
0.0
 30
0.0
1001
ACAD
1000
DSTYLE
1002
{
1070
    41
1040
2.0
1002
}
  0
LINE
  5
494B
  8
0
  6
PHANTOM2
 10
6019.75
 20
2804.499999999904
 30
0.0
 11
6169.75
 21
2804.499999999904
 31
0.0
  0
LINE
  5
494C
  8
0
  6
PHANTOM2
 10
6169.75
 20
2804.499999999904
 30
0.0
 11
6169.75
 21
2654.499999999904
 31
0.0
  0
LINE
  5
494D
  8
0
  6
PHANTOM2
 10
6169.75
 20
2654.499999999904
 30
0.0
 11
6019.75
 21
2654.499999999904
 31
0.0
  0
LINE
  5
494E
  8
0
  6
PHANTOM2
 10
6019.75
 20
2654.499999999904
 30
0.0
 11
6019.75
 21
2804.499999999904
 31
0.0
  0
TEXT
  5
494F
  8
0
 10
5099.8267448058596
 20
3438.6796008577148
 30
0.0
 40
105.0
  1
自動閉鎖装置
 41
0.8
  7
横文字
 72
     1
 11
5396.6267448058597
 21
3438.6796008577148
 31
0.0
  0
INSERT
  5
4950
  8
0
  2
*U22
 10
0.0
 20
0.0
 30
0.0
1001
ACAD
1000
DSTYLE
1002
{
1070
    41
1040
2.0
1002
}
  0
TEXT
  5
4951
  8
0
 10
4560.6000000000577
 20
7141.5
 30
0.0
 40
105.0
  1
躯体内々仕上げ寸法
 41
0.8
  7
横文字
 72
     1
 11
5003.0000000000582
 21
7194.0
 31
0.0
 73
     2
  0
TEXT
  5
4952
  8
0
 10
12902.5
 20
8018.800000000032
 30
0.0
 40
105.0
  1
たれ壁高さ
 50
90.0
 41
0.8
  7
横文字
 72
     1
 11
12850.0
 21
8254.0000000000327
 31
0.0
 73
     2
  0
LINE
  5
4955
  8
0
 10
7058.0
 20
7400.0
 30
0.0
 11
7148.0
 21
7400.0
 31
0.0
  0
LINE
  5
4956
  8
0
 10
7148.0
 20
7400.0
 30
0.0
 11
7148.0
 21
7200.0
 31
0.0
  0
LINE
  5
4957
  8
0
 10
7148.0
 20
7200.0
 30
0.0
 11
7058.0
 21
7200.0
 31
0.0
  0
LINE
  5
4958
  8
0
 10
7058.0
 20
7200.0
 30
0.0
 11
7058.0
 21
7400.0
 31
0.0
  0
LINE
  5
4959
  8
0
 10
7133.0000000000509
 20
7385.0000000000109
 30
0.0
 11
7073.0000000000509
 21
7385.0000000000109
 31
0.0
  0
LINE
  5
495A
  8
0
 10
7073.0000000000509
 20
7385.0000000000109
 30
0.0
 11
7073.0000000000509
 21
7215.00000000001
 31
0.0
  0
LINE
  5
495B
  8
0
 10
7073.0000000000509
 20
7215.00000000001
 30
0.0
 11
7133.0000000000509
 21
7215.00000000001
 31
0.0
  0
LINE
  5
495C
  8
0
 10
7133.0000000000509
 20
7215.00000000001
 30
0.0
 11
7133.0000000000509
 21
7385.0000000000109
 31
0.0
  0
LINE
  5
495D
  8
0
 10
7133.0000000000509
 20
7350.0000000000118
 30
0.0
 11
7073.0000000000509
 21
7350.0000000000118
 31
0.0
  0
LINE
  5
495E
  8
0
  6
CENTER2
 10
7103.0
 20
7150.0
 30
0.0
 11
7103.0
 21
7450.0
 31
0.0
  0
LINE
  5
495F
  8
0
  6
CENTER2
 10
7008.0
 20
7300.0
 30
0.0
 11
7198.0
 21
7300.0
 31
0.0
  0
LINE
  5
4961
  8
0
  6
HIDDEN
 10
7126.0000000000509
 20
7400.0
 30
0.0
 11
7126.0000000000509
 21
7900.0
 31
0.0
  0
LINE
  5
4962
  8
0
  6
HIDDEN
 10
7106.0000000000509
 20
7400.0
 30
0.0
 11
7106.0000000000509
 21
7900.0
 31
0.0
  0
INSERT
  5
4963
  8
0
  2
*U23
 10
0.0
 20
0.0
 30
0.0
1001
ACAD
1000
DSTYLE
1002
{
1070
    41
1040
2.0
1070
   147
1040
1.0
1070
    77
1070
     1
1002
}
  0
TEXT
  5
4964
  8
0
 10
7315.9700538379266
 20
7595.0
 30
0.0
 40
105.0
  1
随時閉鎖装置
 41
0.8
  7
横文字
 72
     1
 11
7607.1700538379264
 21
7595.0
 31
0.0
 73
     1
  0
TEXT
  5
4965
  8
0
 10
7353.50000000005
 20
8022.365502372727
 30
0.0
 40
105.0
  1
配管%%C19（当社工事外）
 41
0.8
  7
横文字
 72
     1
 11
7888.7000000000507
 21
8022.365502372727
 31
0.0
  0
INSERT
  5
4966
  8
0
  2
*U24
 10
0.0
 20
0.0
 30
0.0
1001
ACAD
1000
DSTYLE
1002
{
1070
    41
1040
2.0
1002
}
  0
TEXT
  5
4967
  8
0
 10
7297.570053837926
 20
7415.0
 30
0.0
 40
105.0
  1
（MS-50）
 41
0.8
  7
横文字
 72
     1
 11
7607.1700538379264
 21
7415.0
 31
0.0
 73
     1
  0
DIMENSION
  5
4977
  8
0
  2
*D16
 10
3697.0000000000009
 20
2940.0000000000191
 30
0.0
 11
3697.0
 21
3251.6000000000199
 31
0.0
 70
   128
  1
60以上
 13
3297.0
 23
3000.0000000000182
 33
0.0
 14
3297.0
 24
2940.0000000000191
 34
0.0
 50
90.0
  0
DIMENSION
  5
4978
  8
0
  2
*D17
 10
4450.0
 20
7501.5
 30
0.0
 11
4398.5
 21
7419.0
 31
0.0
 70
   128
 13
4447.0
 23
7901.5
 33
0.0
 14
4450.0
 24
7901.5
 34
0.0
  0
DIMENSION
  5
4979
  8
0
  2
*D18
 10
5553.0
 20
7501.5
 30
0.0
 11
5601.5
 21
7419.0
 31
0.0
 70
   128
 13
5550.0
 23
7901.5
 33
0.0
 14
5553.0
 24
7901.5
 34
0.0
  0
TEXT
  5
4983
  8
0
 10
6654.0134816624777
 20
1888.699054437511
 30
0.0
 40
105.0
  1
防災信号　DC24V　0.9A
 41
0.8
  7
横文字
 72
     1
 11
7293.2134816624784
 21
1888.699054437511
 31
0.0
  0
TEXT
  5
4984
  8
0
 10
6951.6134816624781
 20
1708.699054437511
 30
0.0
 40
105.0
  1
（当社工事外）
 41
0.8
  7
横文字
 72
     1
 11
7293.2134816624784
 21
1708.699054437511
 31
0.0
  0
INSERT
  5
4985
  8
0
  2
*U25
 10
0.0
 20
0.0
 30
0.0
1001
ACAD
1000
DSTYLE
1002
{
1070
    41
1040
2.0
1002
}
  0
DIMENSION
  5
4986
  8
0
  2
*D19
 10
11226.499999999931
 20
8905.0
 30
0.0
 11
11143.999999999931
 21
8705.0000000000327
 31
0.0
 70
     0
  1
230以上
 13
11726.49999999996
 23
8505.0000000000564
 33
0.0
 14
11376.499999999931
 24
8905.0
 34
0.0
 50
90.0
  0
DIMENSION
  5
49AD
  8
0
  2
*D20
 10
12180.49999999996
 20
9555.0
 30
0.0
 11
11999.99999999996
 21
9637.5000000000018
 31
0.0
 70
     0
 13
11819.49999999996
 23
9154.9973202112815
 33
0.0
 14
12180.49999999996
 24
9155.0
 34
0.0
  0
LINE
  5
49B1
  8
0
 10
6069.7499999999991
 20
7001.4999999999991
 30
0.0
 11
6069.7499999999991
 21
6951.4999999999991
 31
0.0
  0
LINE
  5
49B2
  8
0
 10
6069.7499999999991
 20
6951.4999999999991
 30
0.0
 11
5869.7499999999991
 21
6951.4999999999991
 31
0.0
  0
LINE
  5
49B3
  8
0
 10
5869.7499999999991
 20
6951.4999999999991
 30
0.0
 11
5869.7499999999991
 21
6901.4999999999982
 31
0.0
  0
LINE
  5
49B4
  8
0
 10
5869.7499999999991
 20
7051.4999999999982
 30
0.0
 11
5869.7499999999991
 21
7001.4999999999991
 31
0.0
  0
LINE
  5
49B5
  8
0
 10
5869.7499999999991
 20
7001.4999999999991
 30
0.0
 11
6069.7499999999991
 21
7001.4999999999991
 31
0.0
  0
LINE
  5
49B6
  8
0
 10
5869.7499999999991
 20
7051.4999999999982
 30
0.0
 11
5769.75
 21
6976.4999999999982
 31
0.0
  0
LINE
  5
49B7
  8
0
 10
5769.75
 20
6976.4999999999982
 30
0.0
 11
5869.7499999999991
 21
6901.4999999999982
 31
0.0
  0
TEXT
  5
49B8
  8
0
 10
6119.7500000000009
 20
6923.9999999999991
 30
0.0
 40
105.0
  1
連動方向
 41
0.8
  7
横文字
 72
     2
 11
6494.9500000000007
 21
6976.4999999999982
 31
0.0
 73
     2
  0
LINE
  5
49BB
  8
0
 10
6069.7499999999991
 20
3725.0
 30
0.0
 11
6069.7499999999991
 21
3675.0
 31
0.0
  0
LINE
  5
49BC
  8
0
 10
6069.7499999999991
 20
3675.0
 30
0.0
 11
5869.7499999999991
 21
3675.0
 31
0.0
  0
LINE
  5
49BD
  8
0
 10
5869.7499999999991
 20
3675.0
 30
0.0
 11
5869.7499999999991
 21
3625.0
 31
0.0
  0
LINE
  5
49BE
  8
0
 10
5869.7499999999991
 20
3775.0
 30
0.0
 11
5869.7499999999991
 21
3725.0
 31
0.0
  0
LINE
  5
49BF
  8
0
 10
5869.7499999999991
 20
3725.0
 30
0.0
 11
6069.7499999999991
 21
3725.0
 31
0.0
  0
LINE
  5
49C0
  8
0
 10
5869.7499999999991
 20
3775.0
 30
0.0
 11
5769.75
 21
3700.0
 31
0.0
  0
LINE
  5
49C1
  8
0
 10
5769.75
 20
3700.0
 30
0.0
 11
5869.7499999999991
 21
3625.0
 31
0.0
  0
TEXT
  5
49C2
  8
0
 10
6119.7500000000009
 20
3647.5
 30
0.0
 40
105.0
  1
連動方向
 41
0.8
  7
横文字
 72
     2
 11
6494.9500000000007
 21
3700.0
 31
0.0
 73
     2
  0
TEXT
  5
49C3
  8
0
 10
4806.8000000000002
 20
3097.5
 30
0.0
 40
105.0
  1
回転軸側
 41
0.8
  7
横文字
 72
     1
 11
5000.0
 21
3150.0
 31
0.0
 73
     2
  0
LINE
  5
49C4
  8
0
 10
5766.4999999998827
 20
8678.0
 30
0.0
 11
5736.4999999998836
 21
8678.0
 31
0.0
  0
ARC
  5
49C5
  8
0
  6
PHANTOM2
 10
5751.4999999998827
 20
8673.7111111119993
 30
0.0
 40
13.788888889000001
 50
69.184577374960483
 51
110.8154226250395
  0
LINE
  5
49C6
  8
0
  6
PHANTOM2
 10
5744.3748003267128
 20
8687.4999999999982
 30
0.0
 11
5758.6251996730698
 21
8687.4999999999982
 31
0.0
  0
ARC
  5
49C7
  8
0
  6
PHANTOM2
 10
5758.8499999993182
 20
8683.7433528799411
 30
0.0
 40
3.7633672118614778
 50
49.381998276927703
 51
130.6180017024522
  0
ARC
  5
49C8
  8
0
  6
PHANTOM2
 10
5744.1500000004517
 20
8683.7433528799411
 30
0.0
 40
3.76336721186187
 50
49.381998297547788
 51
130.6180017230723
  0
LINE
  5
49C9
  8
0
  6
PHANTOM2
 10
5760.6999999998816
 20
8680.5
 30
0.0
 11
5760.6999999998816
 21
8678.0
 31
0.0
  0
LINE
  5
49CA
  8
0
  6
PHANTOM2
 10
5742.2999999998819
 20
8678.0
 30
0.0
 11
5742.2999999998819
 21
8680.5
 31
0.0
  0
LINE
  5
49CB
  8
0
  6
PHANTOM2
 10
5761.2999999998829
 20
8680.5
 30
0.0
 11
5741.6999999998834
 21
8680.5
 31
0.0
  0
LINE
  5
49CC
  8
0
  6
PHANTOM2
 10
5761.2999999998829
 20
8686.5999999999985
 30
0.0
 11
5761.2999999998829
 21
8680.5
 31
0.0
  0
LINE
  5
49CD
  8
0
  6
PHANTOM2
 10
5741.6999999998834
 20
8680.5
 30
0.0
 11
5741.6999999998834
 21
8686.5999999999985
 31
0.0
  0
LINE
  5
49CE
  8
0
  6
PHANTOM2
 10
5746.5999999998839
 20
8686.6000000010044
 30
0.0
 11
5746.5999999998839
 21
8680.4999999999964
 31
0.0
  0
LINE
  5
49CF
  8
0
  6
PHANTOM2
 10
5756.399999999885
 20
8686.6000000010044
 30
0.0
 11
5756.3999999998823
 21
8680.4999999999964
 31
0.0
  0
LINE
  5
49D0
  8
0
 10
5014.9999999998836
 20
8678.0000000001164
 30
0.0
 11
4984.9999999998827
 21
8678.0000000001164
 31
0.0
  0
ARC
  5
49D1
  8
0
  6
PHANTOM2
 10
4999.9999999998827
 20
8673.7111111121176
 30
0.0
 40
13.788888889000001
 50
69.184577374960483
 51
110.8154226250395
  0
LINE
  5
49D2
  8
0
  6
PHANTOM2
 10
4992.8748003267128
 20
8687.500000000111
 30
0.0
 11
5007.1251996730698
 21
8687.500000000111
 31
0.0
  0
ARC
  5
49D3
  8
0
  6
PHANTOM2
 10
5007.3499999993182
 20
8683.7433528800575
 30
0.0
 40
3.7633672118614778
 50
49.381998276927703
 51
130.6180017024522
  0
ARC
  5
49D4
  8
0
  6
PHANTOM2
 10
4992.6500000004517
 20
8683.7433528800575
 30
0.0
 40
3.76336721186187
 50
49.38199829761659
 51
130.6180017230723
  0
LINE
  5
49D5
  8
0
  6
PHANTOM2
 10
5009.1999999998816
 20
8680.5000000001164
 30
0.0
 11
5009.1999999998816
 21
8678.0000000001164
 31
0.0
  0
LINE
  5
49D6
  8
0
  6
PHANTOM2
 10
4990.7999999998819
 20
8678.0000000001164
 30
0.0
 11
4990.7999999998819
 21
8680.5000000001164
 31
0.0
  0
LINE
  5
49D7
  8
0
  6
PHANTOM2
 10
5009.7999999998829
 20
8680.5000000001164
 30
0.0
 11
4990.1999999998834
 21
8680.5000000001164
 31
0.0
  0
LINE
  5
49D8
  8
0
  6
PHANTOM2
 10
5009.7999999998829
 20
8686.600000000115
 30
0.0
 11
5009.7999999998829
 21
8680.5000000001164
 31
0.0
  0
LINE
  5
49D9
  8
0
  6
PHANTOM2
 10
4990.1999999998834
 20
8680.5000000001164
 30
0.0
 11
4990.1999999998834
 21
8686.600000000115
 31
0.0
  0
LINE
  5
49DA
  8
0
  6
PHANTOM2
 10
4995.0999999998839
 20
8686.6000000011227
 30
0.0
 11
4995.0999999998839
 21
8680.5000000001146
 31
0.0
  0
LINE
  5
49DB
  8
0
  6
PHANTOM2
 10
5004.899999999885
 20
8686.6000000011227
 30
0.0
 11
5004.8999999998814
 21
8680.5000000001146
 31
0.0
  0
LINE
  5
49DC
  8
0
 10
4263.4999999998836
 20
8678.0000000001164
 30
0.0
 11
4233.4999999998827
 21
8678.0000000001164
 31
0.0
  0
ARC
  5
49DD
  8
0
  6
PHANTOM2
 10
4248.4999999998827
 20
8673.7111111121176
 30
0.0
 40
13.788888889000001
 50
69.184577374960483
 51
110.8154226250395
  0
LINE
  5
49DE
  8
0
  6
PHANTOM2
 10
4241.3748003267128
 20
8687.500000000111
 30
0.0
 11
4255.6251996730698
 21
8687.500000000111
 31
0.0
  0
ARC
  5
49DF
  8
0
  6
PHANTOM2
 10
4255.8499999993182
 20
8683.7433528800575
 30
0.0
 40
3.7633672118614778
 50
49.381998276927703
 51
130.6180017024522
  0
ARC
  5
49E0
  8
0
  6
PHANTOM2
 10
4241.1500000004526
 20
8683.7433528800575
 30
0.0
 40
3.76336721186187
 50
49.38199829761659
 51
130.6180017230723
  0
LINE
  5
49E1
  8
0
  6
PHANTOM2
 10
4257.6999999998816
 20
8680.5000000001164
 30
0.0
 11
4257.6999999998816
 21
8678.0000000001164
 31
0.0
  0
LINE
  5
49E2
  8
0
  6
PHANTOM2
 10
4239.2999999998819
 20
8678.0000000001164
 30
0.0
 11
4239.2999999998819
 21
8680.5000000001164
 31
0.0
  0
LINE
  5
49E3
  8
0
  6
PHANTOM2
 10
4258.2999999998819
 20
8680.5000000001164
 30
0.0
 11
4238.6999999998834
 21
8680.5000000001164
 31
0.0
  0
LINE
  5
49E4
  8
0
  6
PHANTOM2
 10
4258.2999999998819
 20
8686.600000000115
 30
0.0
 11
4258.2999999998819
 21
8680.5000000001164
 31
0.0
  0
LINE
  5
49E5
  8
0
  6
PHANTOM2
 10
4238.6999999998834
 20
8680.5000000001164
 30
0.0
 11
4238.6999999998834
 21
8686.600000000115
 31
0.0
  0
LINE
  5
49E6
  8
0
  6
PHANTOM2
 10
4243.5999999998839
 20
8686.6000000011227
 30
0.0
 11
4243.5999999998839
 21
8680.5000000001146
 31
0.0
  0
LINE
  5
49E7
  8
0
  6
PHANTOM2
 10
4253.3999999998841
 20
8686.6000000011227
 30
0.0
 11
4253.3999999998814
 21
8680.5000000001146
 31
0.0
  0
LINE
  5
49E8
  8
0
 10
3511.999999999884
 20
8678.0000000001164
 30
0.0
 11
3481.999999999884
 21
8678.0000000001164
 31
0.0
  0
ARC
  5
49E9
  8
0
  6
PHANTOM2
 10
3496.9999999998831
 20
8673.7111111121176
 30
0.0
 40
13.788888889000001
 50
69.184577374960483
 51
110.8154226250395
  0
LINE
  5
49EA
  8
0
  6
PHANTOM2
 10
3489.8748003267142
 20
8687.500000000111
 30
0.0
 11
3504.1251996730698
 21
8687.500000000111
 31
0.0
  0
ARC
  5
49EB
  8
0
  6
PHANTOM2
 10
3504.3499999993178
 20
8683.7433528800575
 30
0.0
 40
3.7633672118614778
 50
49.381998276927703
 51
130.6180017024522
  0
ARC
  5
49EC
  8
0
  6
PHANTOM2
 10
3489.650000000453
 20
8683.7433528800575
 30
0.0
 40
3.76336721186187
 50
49.38199829761659
 51
130.6180017230723
  0
LINE
  5
49ED
  8
0
  6
PHANTOM2
 10
3506.199999999882
 20
8680.5000000001164
 30
0.0
 11
3506.199999999882
 21
8678.0000000001164
 31
0.0
  0
LINE
  5
49EE
  8
0
  6
PHANTOM2
 10
3487.7999999998829
 20
8678.0000000001164
 30
0.0
 11
3487.7999999998829
 21
8680.5000000001164
 31
0.0
  0
LINE
  5
49EF
  8
0
  6
PHANTOM2
 10
3506.7999999998829
 20
8680.5000000001164
 30
0.0
 11
3487.1999999998829
 21
8680.5000000001164
 31
0.0
  0
LINE
  5
49F0
  8
0
  6
PHANTOM2
 10
3506.7999999998829
 20
8686.600000000115
 30
0.0
 11
3506.7999999998829
 21
8680.5000000001164
 31
0.0
  0
LINE
  5
49F1
  8
0
  6
PHANTOM2
 10
3487.1999999998829
 20
8680.5000000001164
 30
0.0
 11
3487.1999999998829
 21
8686.600000000115
 31
0.0
  0
LINE
  5
49F2
  8
0
  6
PHANTOM2
 10
3492.0999999998839
 20
8686.6000000011227
 30
0.0
 11
3492.0999999998839
 21
8680.5000000001146
 31
0.0
  0
LINE
  5
49F3
  8
0
  6
PHANTOM2
 10
3501.899999999885
 20
8686.6000000011227
 30
0.0
 11
3501.8999999998809
 21
8680.5000000001146
 31
0.0
  0
ARC
  5
49F4
  8
0
  6
PHANTOM2
 10
12210.499999999931
 20
8673.7111111119993
 30
0.0
 40
13.788888889000001
 50
69.184577374960483
 51
110.8154226250395
  0
LINE
  5
49F5
  8
0
  6
PHANTOM2
 10
12203.37480032673
 20
8687.5
 30
0.0
 11
12217.62519967309
 21
8687.4999999999982
 31
0.0
  0
ARC
  5
49F6
  8
0
  6
PHANTOM2
 10
12217.84999999936
 20
8683.7433528799411
 30
0.0
 40
3.76336721186187
 50
49.381998276927703
 51
130.6180017024522
  0
ARC
  5
49F7
  8
0
  6
PHANTOM2
 10
12203.1500000005
 20
8683.7433528799374
 30
0.0
 40
3.7633672118671999
 50
49.38199829761659
 51
130.6180017230723
  0
LINE
  5
49F8
  8
0
  6
PHANTOM2
 10
12220.29999999993
 20
8680.5
 30
0.0
 11
12200.69999999993
 21
8680.5
 31
0.0
  0
LINE
  5
49F9
  8
0
  6
PHANTOM2
 10
12220.29999999993
 20
8686.5999999999985
 30
0.0
 11
12220.29999999993
 21
8680.5
 31
0.0
  0
LINE
  5
49FA
  8
0
  6
PHANTOM2
 10
12200.69999999993
 20
8680.5
 30
0.0
 11
12200.69999999993
 21
8686.5999999999985
 31
0.0
  0
LINE
  5
49FB
  8
0
  6
PHANTOM2
 10
12205.599999999929
 20
8686.6000000010044
 30
0.0
 11
12205.599999999929
 21
8680.4999999999964
 31
0.0
  0
LINE
  5
49FC
  8
0
  6
PHANTOM2
 10
12215.399999999931
 20
8686.6000000010044
 30
0.0
 11
12215.399999999931
 21
8680.4999999999964
 31
0.0
  0
LINE
  5
49FD
  8
0
  6
PHANTOM2
 10
12217.625199689401
 20
8663.5
 30
0.0
 11
12203.374800310419
 21
8663.5
 31
0.0
  0
ARC
  5
49FE
  8
0
  6
PHANTOM2
 10
12210.499999999931
 20
8677.2888888889993
 30
0.0
 40
13.788888889000001
 50
249.18457737496041
 51
290.8154226250395
  0
LINE
  5
49FF
  8
0
  6
PHANTOM2
 10
12205.599999999929
 20
8671.4999999999982
 30
0.0
 11
12205.599999999929
 21
8664.3999999999978
 31
0.0
  0
LINE
  5
4A00
  8
0
  6
PHANTOM2
 10
12215.399999999931
 20
8671.4999999999982
 30
0.0
 11
12215.399999999931
 21
8664.3999999999978
 31
0.0
  0
LINE
  5
4A01
  8
0
  6
PHANTOM2
 10
12220.29999999993
 20
8671.4999999999982
 30
0.0
 11
12220.29999999993
 21
8664.3999999999978
 31
0.0
  0
ARC
  5
4A02
  8
0
  6
PHANTOM2
 10
12217.84999999994
 20
8667.2566471223945
 30
0.0
 40
3.7633672132585581
 50
229.38199830412461
 51
310.6180016933651
  0
LINE
  5
4A03
  8
0
  6
PHANTOM2
 10
12200.69999999993
 20
8664.3999999999978
 30
0.0
 11
12200.69999999993
 21
8671.4999999999982
 31
0.0
  0
LINE
  5
4A04
  8
0
  6
PHANTOM2
 10
12220.29999999993
 20
8671.4999999999982
 30
0.0
 11
12200.69999999993
 21
8671.4999999999982
 31
0.0
  0
ARC
  5
4A05
  8
0
  6
PHANTOM2
 10
12203.14999999992
 20
8667.2566471223909
 30
0.0
 40
3.7633672132528879
 50
229.3819983066349
 51
310.61800169587542
  0
LINE
  5
4A06
  8
0
 10
5250.0
 20
3150.0
 30
0.0
 11
5350.0
 21
3150.0
 31
0.0
  0
LINE
  5
4A07
  8
0
 10
5350.0
 20
3150.0
 30
0.0
 11
5350.0
 21
3050.0
 31
0.0
  0
LINE
  5
4A08
  8
0
 10
5350.0
 20
3050.0
 30
0.0
 11
5400.0
 21
3100.0
 31
0.0
  0
LINE
  5
4A09
  8
0
 10
5350.0
 20
3050.0
 30
0.0
 11
5300.0
 21
3100.0
 31
0.0
  0
LINE
  5
4A0A
  8
0
 10
4750.0
 20
3150.0
 30
0.0
 11
4650.0
 21
3150.0
 31
0.0
  0
LINE
  5
4A0B
  8
0
 10
4650.0
 20
3150.0
 30
0.0
 11
4650.0
 21
3050.0
 31
0.0
  0
LINE
  5
4A0C
  8
0
 10
4650.0
 20
3050.0
 30
0.0
 11
4600.0
 21
3100.0
 31
0.0
  0
LINE
  5
4A0D
  8
0
 10
4650.0
 20
3050.0
 30
0.0
 11
4700.0
 21
3100.0
 31
0.0
  0
LINE
  5
4A0F
  8
0
 10
3097.0
 20
3393.0585523655209
 30
0.0
 11
3203.9414476344969
 21
3500.0000000000191
 31
0.0
  0
LINE
  5
4A10
  8
0
 10
3097.0
 20
3375.0585523655209
 30
0.0
 11
3221.9414476344982
 21
3500.0000000000191
 31
0.0
  0
LINE
  5
4A11
  8
0
 10
3143.9414476344982
 20
2940.0000000000191
 30
0.0
 11
3297.0
 21
3093.0585523655209
 31
0.0
  0
LINE
  5
4A12
  8
0
 10
3161.9414476344982
 20
2940.0000000000191
 30
0.0
 11
3297.0
 21
3075.0585523655209
 31
0.0
  0
LINE
  5
4A13
  8
0
 10
6703.0
 20
3393.0585523655209
 30
0.0
 11
6809.9414476344973
 21
3500.0000000000191
 31
0.0
  0
LINE
  5
4A14
  8
0
 10
6703.0
 20
3375.0585523655209
 30
0.0
 11
6827.9414476344973
 21
3500.0000000000191
 31
0.0
  0
LINE
  5
4A15
  8
0
 10
6703.0
 20
2893.0585523655209
 30
0.0
 11
6903.0
 21
3093.0585523655209
 31
0.0
  0
LINE
  5
4A16
  8
0
 10
6703.0
 20
2875.0585523655209
 30
0.0
 11
6903.0
 21
3075.0585523655209
 31
0.0
  0
LINE
  5
4A17
  8
0
 10
6703.0
 20
2393.0585523655209
 30
0.0
 11
6903.0
 21
2593.0585523655209
 31
0.0
  0
LINE
  5
4A18
  8
0
 10
6703.0
 20
2375.0585523655209
 30
0.0
 11
6903.0
 21
2575.0585523655209
 31
0.0
  0
ENDSEC
  0
EOF
