  0
SECTION
  2
HEADER
  9
$ACADVER
  1
AC1015
  9
$ACADMAINTVER
 70
    20
  9
$DWGCODEPAGE
  3
ANSI_932
  9
$INSBASE
 10
0.0
 20
0.0
 30
0.0
  9
$EXTMIN
 10
-0.6664733953512041
 20
-0.4778833961136116
 30
-0.0000000349181948
  9
$EXTMAX
 10
10920.66657509887
 20
7830.477956320895
 30
0.0000000814935746
  9
$LIMMIN
 10
0.0
 20
0.0
  9
$LIMMAX
 10
420.0
 20
297.0
  9
$ORTHOMODE
 70
     1
  9
$REGENMODE
 70
     1
  9
$FILLMODE
 70
     1
  9
$QTEXTMODE
 70
     0
  9
$MIRRTEXT
 70
     0
  9
$LTSCALE
 40
5.0
  9
$ATTMODE
 70
     1
  9
$TEXTSIZE
 40
70.0
  9
$TRACEWID
 40
1.0
  9
$TEXTSTYLE
  7
横文字
  9
$CLAYER
  8
0
  9
$CELTYPE
  6
ByLayer
  9
$CECOLOR
 62
   256
  9
$CELTSCALE
 40
1.0
  9
$DISPSILH
 70
     0
  9
$DIMSCALE
 40
20.0
  9
$DIMASZ
 40
1.0
  9
$DIMEXO
 40
5.0
  9
$DIMDLI
 40
7.5
  9
$DIMRND
 40
0.0
  9
$DIMDLE
 40
0.0
  9
$DIMEXE
 40
1.0
  9
$DIMTP
 40
0.0
  9
$DIMTM
 40
0.0
  9
$DIMTXT
 40
3.5
  9
$DIMCEN
 40
1.0
  9
$DIMTSZ
 40
0.0
  9
$DIMTOL
 70
     0
  9
$DIMLIM
 70
     0
  9
$DIMTIH
 70
     0
  9
$DIMTOH
 70
     0
  9
$DIMSE1
 70
     0
  9
$DIMSE2
 70
     0
  9
$DIMTAD
 70
     1
  9
$DIMZIN
 70
     8
  9
$DIMBLK
  1
Origin
  9
$DIMASO
 70
     1
  9
$DIMSHO
 70
     1
  9
$DIMPOST
  1

  9
$DIMAPOST
  1

  9
$DIMALT
 70
     0
  9
$DIMALTD
 70
     3
  9
$DIMALTF
 40
0.03937007874016
  9
$DIMLFAC
 40
1.0
  9
$DIMTOFL
 70
     1
  9
$DIMTVP
 40
0.0
  9
$DIMTIX
 70
     1
  9
$DIMSOXD
 70
     0
  9
$DIMSAH
 70
     0
  9
$DIMBLK1
  1

  9
$DIMBLK2
  1

  9
$DIMSTYLE
  2
寸法線20
  9
$DIMCLRD
 70
   256
  9
$DIMCLRE
 70
   256
  9
$DIMCLRT
 70
   256
  9
$DIMTFAC
 40
1.0
  9
$DIMGAP
 40
1.0
  9
$DIMJUST
 70
     0
  9
$DIMSD1
 70
     0
  9
$DIMSD2
 70
     0
  9
$DIMTOLJ
 70
     2
  9
$DIMTZIN
 70
     8
  9
$DIMALTZ
 70
     0
  9
$DIMALTTZ
 70
     0
  9
$DIMUPT
 70
     0
  9
$DIMDEC
 70
     2
  9
$DIMTDEC
 70
     2
  9
$DIMALTU
 70
     2
  9
$DIMALTTD
 70
     3
  9
$DIMTXSTY
  7
文字
  9
$DIMAUNIT
 70
     0
  9
$DIMADEC
 70
     1
  9
$DIMALTRND
 40
0.0
  9
$DIMAZIN
 70
     2
  9
$DIMDSEP
 70
    46
  9
$DIMATFIT
 70
     3
  9
$DIMFRAC
 70
     0
  9
$DIMLDRBLK
  1
Open30
  9
$DIMLUNIT
 70
     2
  9
$DIMLWD
 70
    -2
  9
$DIMLWE
 70
    -2
  9
$DIMTMOVE
 70
     2
  9
$LUNITS
 70
     2
  9
$LUPREC
 70
     4
  9
$SKETCHINC
 40
1.0
  9
$FILLETRAD
 40
0.0
  9
$AUNITS
 70
     0
  9
$AUPREC
 70
     0
  9
$MENU
  1
.
  9
$ELEVATION
 40
0.0
  9
$PELEVATION
 40
0.0
  9
$THICKNESS
 40
0.0
  9
$LIMCHECK
 70
     0
  9
$CHAMFERA
 40
0.0
  9
$CHAMFERB
 40
0.0
  9
$CHAMFERC
 40
0.0
  9
$CHAMFERD
 40
0.0
  9
$SKPOLY
 70
     0
  9
$TDCREATE
 40
2456741.552136042
  9
$TDUCREATE
 40
2456741.177136042
  9
$TDUPDATE
 40
2456743.681569780
  9
$TDUUPDATE
 40
2456743.306569781
  9
$TDINDWG
 40
0.1574657292
  9
$TDUSRTIMER
 40
0.1574657292
  9
$USRTIMER
 70
     1
  9
$ANGBASE
 50
0.0
  9
$ANGDIR
 70
     0
  9
$PDMODE
 70
     0
  9
$PDSIZE
 40
0.0
  9
$PLINEWID
 40
0.0
  9
$SPLFRAME
 70
     0
  9
$SPLINETYPE
 70
     6
  9
$SPLINESEGS
 70
     8
  9
$HANDSEED
  5
376D
  9
$SURFTAB1
 70
     6
  9
$SURFTAB2
 70
     6
  9
$SURFTYPE
 70
     6
  9
$SURFU
 70
     6
  9
$SURFV
 70
     6
  9
$UCSBASE
  2

  9
$UCSNAME
  2

  9
$UCSORG
 10
0.0
 20
0.0
 30
0.0
  9
$UCSXDIR
 10
1.0
 20
0.0
 30
0.0
  9
$UCSYDIR
 10
0.0
 20
1.0
 30
0.0
  9
$UCSORTHOREF
  2

  9
$UCSORTHOVIEW
 70
     0
  9
$UCSORGTOP
 10
0.0
 20
0.0
 30
0.0
  9
$UCSORGBOTTOM
 10
0.0
 20
0.0
 30
0.0
  9
$UCSORGLEFT
 10
0.0
 20
0.0
 30
0.0
  9
$UCSORGRIGHT
 10
0.0
 20
0.0
 30
0.0
  9
$UCSORGFRONT
 10
0.0
 20
0.0
 30
0.0
  9
$UCSORGBACK
 10
0.0
 20
0.0
 30
0.0
  9
$PUCSBASE
  2

  9
$PUCSNAME
  2

  9
$PUCSORG
 10
0.0
 20
0.0
 30
0.0
  9
$PUCSXDIR
 10
1.0
 20
0.0
 30
0.0
  9
$PUCSYDIR
 10
0.0
 20
1.0
 30
0.0
  9
$PUCSORTHOREF
  2

  9
$PUCSORTHOVIEW
 70
     0
  9
$PUCSORGTOP
 10
0.0
 20
0.0
 30
0.0
  9
$PUCSORGBOTTOM
 10
0.0
 20
0.0
 30
0.0
  9
$PUCSORGLEFT
 10
0.0
 20
0.0
 30
0.0
  9
$PUCSORGRIGHT
 10
0.0
 20
0.0
 30
0.0
  9
$PUCSORGFRONT
 10
0.0
 20
0.0
 30
0.0
  9
$PUCSORGBACK
 10
0.0
 20
0.0
 30
0.0
  9
$USERI1
 70
     0
  9
$USERI2
 70
     0
  9
$USERI3
 70
     0
  9
$USERI4
 70
     0
  9
$USERI5
 70
     0
  9
$USERR1
 40
0.0
  9
$USERR2
 40
0.0
  9
$USERR3
 40
0.0
  9
$USERR4
 40
0.0
  9
$USERR5
 40
0.0
  9
$WORLDVIEW
 70
     1
  9
$SHADEDGE
 70
     3
  9
$SHADEDIF
 70
    70
  9
$TILEMODE
 70
     1
  9
$MAXACTVP
 70
    64
  9
$PINSBASE
 10
0.0
 20
0.0
 30
0.0
  9
$PLIMCHECK
 70
     0
  9
$PEXTMIN
 10
1.000000000000000E+20
 20
1.000000000000000E+20
 30
1.000000000000000E+20
  9
$PEXTMAX
 10
-1.000000000000000E+20
 20
-1.000000000000000E+20
 30
-1.000000000000000E+20
  9
$PLIMMIN
 10
0.0
 20
0.0
  9
$PLIMMAX
 10
420.0
 20
297.0
  9
$UNITMODE
 70
     0
  9
$VISRETAIN
 70
     1
  9
$PLINEGEN
 70
     0
  9
$PSLTSCALE
 70
     1
  9
$TREEDEPTH
 70
  3020
  9
$CMLSTYLE
  2
Standard
  9
$CMLJUST
 70
     0
  9
$CMLSCALE
 40
20.0
  9
$PROXYGRAPHICS
 70
     1
  9
$MEASUREMENT
 70
     1
  9
$CELWEIGHT
370
    -1
  9
$ENDCAPS
280
     0
  9
$JOINSTYLE
280
     0
  9
$LWDISPLAY
290
     0
  9
$INSUNITS
 70
     4
  9
$HYPERLINKBASE
  1

  9
$STYLESHEET
  1
toyo-pen.ctb
  9
$XEDIT
290
     1
  9
$CEPSNTYPE
380
     0
  9
$PSTYLEMODE
290
     1
  9
$FINGERPRINTGUID
  2
{060A5E66-48B1-45E9-AF04-5145F79D6C5A}
  9
$VERSIONGUID
  2
{2DA01F45-C8C6-4263-89C8-720CC7C4A049}
  9
$EXTNAMES
290
     1
  9
$PSVPSCALE
 40
0.0
  9
$OLESTARTUP
290
     0
  0
ENDSEC
  0
SECTION
  2
CLASSES
  0
CLASS
  1
ACDBDICTIONARYWDFLT
  2
AcDbDictionaryWithDefault
  3
ObjectDBX Classes
 90
        0
280
     0
281
     0
  0
CLASS
  1
MATERIAL
  2
AcDbMaterial
  3
ObjectDBX Classes
 90
     1153
280
     0
281
     0
  0
CLASS
  1
VISUALSTYLE
  2
AcDbVisualStyle
  3
ObjectDBX Classes
 90
     4095
280
     0
281
     0
  0
CLASS
  1
SCALE
  2
AcDbScale
  3
ObjectDBX Classes
 90
     1153
280
     0
281
     0
  0
CLASS
  1
TABLESTYLE
  2
AcDbTableStyle
  3
ObjectDBX Classes
 90
     4095
280
     0
281
     0
  0
CLASS
  1
MLEADERSTYLE
  2
AcDbMLeaderStyle
  3
ACDB_MLEADERSTYLE_CLASS
 90
     4095
280
     0
281
     0
  0
CLASS
  1
SORTENTSTABLE
  2
AcDbSortentsTable
  3
ObjectDBX Classes
 90
    32768
280
     0
281
     0
  0
CLASS
  1
DICTIONARYVAR
  2
AcDbDictionaryVar
  3
ObjectDBX Classes
 90
        0
280
     0
281
     0
  0
CLASS
  1
CELLSTYLEMAP
  2
AcDbCellStyleMap
  3
ObjectDBX Classes
 90
     1152
280
     0
281
     0
  0
CLASS
  1
DIMASSOC
  2
AcDbDimAssoc
  3
"AcDbDimAssoc|Product Desc:     AcDim ARX App For Dimension|Company:          Autodesk, Inc.|WEB Address:      www.autodesk.com"
 90
    32768
280
     0
281
     0
  0
CLASS
  1
AEC_REFEDIT_STATUS_TRACKER
  2
AecDbRefEditStatusTracker
  3
AecArchBase60|Product Desc: Autodesk Architectural Desktop 2007 |Company: Autodesk,Inc. |WEB Address: www.autodesk.com
 90
    32897
280
     0
281
     0
  0
CLASS
  1
NPOCOLLECTION
  2
AcDbImpNonPersistentObjectsCollection
  3
ObjectDBX Classes
 90
    33921
280
     0
281
     0
  0
CLASS
  1
ACDBPLACEHOLDER
  2
AcDbPlaceHolder
  3
ObjectDBX Classes
 90
        0
280
     0
281
     0
  0
CLASS
  1
LAYOUT
  2
AcDbLayout
  3
ObjectDBX Classes
 90
        0
280
     0
281
     0
  0
ENDSEC
  0
SECTION
  2
TABLES
  0
TABLE
  2
VPORT
  5
8
102
{ACAD_XDICTIONARY
360
193F
102
}
330
0
100
AcDbSymbolTable
 70
     1
  0
VPORT
  5
57
330
8
100
AcDbSymbolTableRecord
100
AcDbViewportTableRecord
  2
*Active
 70
     0
 10
0.0
 20
0.0
 11
1.0
 21
1.0
 12
5460.000050851758
 22
3915.000036462391
 13
0.0
 23
0.0
 14
10.0
 24
10.0
 15
10.0
 25
10.0
 16
0.0
 26
0.0
 36
1.0
 17
0.0
 27
0.0
 37
0.0
 40
7906.739283327174
 41
2.29886914378029
 42
50.0
 43
0.0
 44
0.0
 50
0.0
 51
0.0
 71
     0
 72
  1000
 73
     1
 74
     3
 75
     0
 76
     0
 77
     0
 78
     0
281
     0
 65
     1
110
0.0
120
0.0
130
0.0
111
1.0
121
0.0
131
0.0
112
0.0
122
1.0
132
0.0
 79
     0
146
0.0
  0
ENDTAB
  0
TABLE
  2
LTYPE
  5
5
330
0
100
AcDbSymbolTable
 70
     4
  0
LTYPE
  5
5B
330
5
100
AcDbSymbolTableRecord
100
AcDbLinetypeTableRecord
  2
ByBlock
 70
     0
  3

 72
    65
 73
     0
 40
0.0
  0
LTYPE
  5
5C
330
5
100
AcDbSymbolTableRecord
100
AcDbLinetypeTableRecord
  2
ByLayer
 70
     0
  3

 72
    65
 73
     0
 40
0.0
  0
LTYPE
  5
5D
330
5
100
AcDbSymbolTableRecord
100
AcDbLinetypeTableRecord
  2
Continuous
 70
     0
  3
Solid line
 72
    65
 73
     0
 40
0.0
  0
LTYPE
  5
58A
330
5
100
AcDbSymbolTableRecord
100
AcDbLinetypeTableRecord
  2
CENTER2
 70
     0
  3
Center (.5x) ___ _ ___ _ ___ _ ___ _ ___ _ ___
 72
    65
 73
     4
 40
28.575
 49
19.05
 74
     0
 49
-3.174999999999999
 74
     0
 49
3.174999999999999
 74
     0
 49
-3.174999999999999
 74
     0
  0
LTYPE
  5
58B
330
5
100
AcDbSymbolTableRecord
100
AcDbLinetypeTableRecord
  2
PHANTOM2
 70
     0
  3
Phantom (.5x) ___ _ _ ___ _ _ ___ _ _ ___ _ _
 72
    65
 73
     6
 40
31.75
 49
15.875
 74
     0
 49
-3.174999999999999
 74
     0
 49
3.174999999999999
 74
     0
 49
-3.174999999999999
 74
     0
 49
3.174999999999999
 74
     0
 49
-3.174999999999999
 74
     0
  0
LTYPE
  5
3440
330
5
100
AcDbSymbolTableRecord
100
AcDbLinetypeTableRecord
  2
HIDDEN
 70
     0
  3
Hidden __ __ __ __ __ __ __ __ __ __ __ __ __ _
 72
    65
 73
     2
 40
9.524999999999998
 49
6.349999999999999
 74
     0
 49
-3.174999999999999
 74
     0
  0
ENDTAB
  0
TABLE
  2
LAYER
  5
2
102
{ACAD_XDICTIONARY
360
88
102
}
330
0
100
AcDbSymbolTable
 70
     2
  0
LAYER
  5
54
330
2
100
AcDbSymbolTableRecord
100
AcDbLayerTableRecord
  2
0
 70
     0
 62
     7
  6
Continuous
370
    -3
390
F
  0
LAYER
  5
EB
330
2
100
AcDbSymbolTableRecord
100
AcDbLayerTableRecord
  2
Defpoints
 70
     0
 62
     7
  6
Continuous
290
     0
370
    -3
390
F
  0
ENDTAB
  0
TABLE
  2
STYLE
  5
3
330
0
100
AcDbSymbolTable
 70
     4
  0
STYLE
  5
55
330
3
100
AcDbSymbolTableRecord
100
AcDbTextStyleTableRecord
  2
Standard
 70
     0
 40
0.0
 41
1.0
 50
0.0
 71
     0
 42
2.5
  3
romans.shx
  4
bigfont.shx
  0
STYLE
  5
81
330
3
100
AcDbSymbolTableRecord
100
AcDbTextStyleTableRecord
  2
文字
 70
     0
 40
0.0
 41
0.8
 50
0.0
 71
     0
 42
105.0
  3
romans.shx
  4
extfont.shx
  0
STYLE
  5
F2
330
3
100
AcDbSymbolTableRecord
100
AcDbTextStyleTableRecord
  2
横文字
 70
     0
 40
0.0
 41
0.8
 50
0.0
 71
     0
 42
70.0
  3
romans.shx
  4
extfont.shx
  0
STYLE
  5
21EC
330
3
100
AcDbSymbolTableRecord
100
AcDbTextStyleTableRecord
  2
縦文字
 70
     4
 40
0.0
 41
0.8
 50
0.0
 71
     0
 42
3.0
  3
romans.shx
  4
extfont.shx
  0
ENDTAB
  0
TABLE
  2
VIEW
  5
6
330
0
100
AcDbSymbolTable
 70
     0
  0
ENDTAB
  0
TABLE
  2
UCS
  5
7
330
0
100
AcDbSymbolTable
 70
     0
  0
ENDTAB
  0
TABLE
  2
APPID
  5
9
330
0
100
AcDbSymbolTable
 70
    11
  0
APPID
  5
56
330
9
100
AcDbSymbolTableRecord
100
AcDbRegAppTableRecord
  2
ACAD
 70
     0
  0
APPID
  5
5E
330
9
100
AcDbSymbolTableRecord
100
AcDbRegAppTableRecord
  2
AcadAnnotative
 70
     0
  0
APPID
  5
84
330
9
100
AcDbSymbolTableRecord
100
AcDbRegAppTableRecord
  2
ADE
 70
     0
  0
APPID
  5
85
330
9
100
AcDbSymbolTableRecord
100
AcDbRegAppTableRecord
  2
ACAD_PSEXT
 70
     0
  0
APPID
  5
86
330
9
100
AcDbSymbolTableRecord
100
AcDbRegAppTableRecord
  2
ACAD_DSTYLE_DIMJAG
 70
     0
  0
APPID
  5
87
330
9
100
AcDbSymbolTableRecord
100
AcDbRegAppTableRecord
  2
ACAD_DSTYLE_DIMTALN
 70
     0
  0
APPID
  5
B2
330
9
100
AcDbSymbolTableRecord
100
AcDbRegAppTableRecord
  2
AcadAnnoPO
 70
     0
  0
APPID
  5
B4
330
9
100
AcDbSymbolTableRecord
100
AcDbRegAppTableRecord
  2
ACAD_EXEMPT_FROM_CAD_STANDARDS
 70
     0
  0
APPID
  5
F7
330
9
100
AcDbSymbolTableRecord
100
AcDbRegAppTableRecord
  2
DCO15
 70
     0
  0
APPID
  5
7E4
330
9
100
AcDbSymbolTableRecord
100
AcDbRegAppTableRecord
  2
SetW_mm
 70
     0
  0
APPID
  5
1975
330
9
100
AcDbSymbolTableRecord
100
AcDbRegAppTableRecord
  2
ACAD_MLEADERVER
 70
     0
  0
ENDTAB
  0
TABLE
  2
DIMSTYLE
  5
A
330
0
100
AcDbSymbolTable
 70
     2
100
AcDbDimStyleTable
 71
     2
340
F5
340
82
  0
DIMSTYLE
105
82
330
A
100
AcDbSymbolTableRecord
100
AcDbDimStyleTableRecord
  2
Standard
 70
     0
 40
30.0
 41
1.0
 42
5.0
 43
7.5
 44
1.0
 73
     0
 74
     0
 77
     1
 78
     8
140
3.5
141
2.5
147
1.0
172
     1
174
     1
279
     2
340
55
341
7B
342
76
  0
DIMSTYLE
105
F5
102
{ACAD_REACTORS
330
31EE
330
31EF
330
31F0
330
31F5
330
31FD
330
31FF
330
3201
330
3202
330
3203
330
3204
330
3208
330
337D
102
}
330
A
100
AcDbSymbolTableRecord
100
AcDbDimStyleTableRecord
  2
寸法線20
 70
     0
 40
20.0
 41
1.0
 42
5.0
 43
7.5
 44
1.0
 73
     0
 74
     0
 77
     1
 78
     8
 79
     2
140
3.5
141
1.0
143
0.03937007874016
147
1.0
171
     3
172
     1
174
     1
176
   256
177
   256
178
   256
179
     1
271
     2
272
     2
274
     3
279
     2
283
     2
284
     8
340
81
341
7B
342
76
1001
ACAD_DSTYLE_DIMJAG
1070
   388
1040
1.5
1001
ACAD_DSTYLE_DIMTALN
1070
   392
1070
     0
  0
ENDTAB
  0
TABLE
  2
BLOCK_RECORD
  5
1
330
0
100
AcDbSymbolTable
 70
    15
  0
BLOCK_RECORD
  5
6C
330
1
100
AcDbSymbolTableRecord
100
AcDbBlockTableRecord
  2
*Model_Space
340
6F
  0
BLOCK_RECORD
  5
68
330
1
100
AcDbSymbolTableRecord
100
AcDbBlockTableRecord
  2
*Paper_Space
340
6B
  0
BLOCK_RECORD
  5
70
330
1
100
AcDbSymbolTableRecord
100
AcDbBlockTableRecord
  2
*Paper_Space0
340
73
  0
BLOCK_RECORD
  5
76
330
1
100
AcDbSymbolTableRecord
100
AcDbBlockTableRecord
  2
_Origin
340
0
102
{BLKREFS
331
32D1
331
32D2
331
32DA
331
32DB
331
32E3
331
32E4
331
32EC
331
32ED
331
32F8
331
32F9
331
3303
331
3304
331
330E
331
330F
331
3316
331
3317
331
3320
331
3321
331
338D
331
338E
331
342C
331
342D
331
3437
331
3438
102
}
  0
BLOCK_RECORD
  5
7B
330
1
100
AcDbSymbolTableRecord
100
AcDbBlockTableRecord
  2
_Open30
340
0
  0
BLOCK_RECORD
  5
322A
330
1
100
AcDbSymbolTableRecord
100
AcDbBlockTableRecord
  2
*D3
340
0
  0
BLOCK_RECORD
  5
3238
330
1
100
AcDbSymbolTableRecord
100
AcDbBlockTableRecord
  2
*D4
340
0
  0
BLOCK_RECORD
  5
3246
330
1
100
AcDbSymbolTableRecord
100
AcDbBlockTableRecord
  2
*D5
340
0
  0
BLOCK_RECORD
  5
3252
330
1
100
AcDbSymbolTableRecord
100
AcDbBlockTableRecord
  2
*D6
340
0
  0
BLOCK_RECORD
  5
325E
330
1
100
AcDbSymbolTableRecord
100
AcDbBlockTableRecord
  2
*D7
340
0
  0
BLOCK_RECORD
  5
326A
330
1
100
AcDbSymbolTableRecord
100
AcDbBlockTableRecord
  2
*D8
340
0
  0
BLOCK_RECORD
  5
3276
330
1
100
AcDbSymbolTableRecord
100
AcDbBlockTableRecord
  2
*D9
340
0
  0
BLOCK_RECORD
  5
3284
330
1
100
AcDbSymbolTableRecord
100
AcDbBlockTableRecord
  2
*D10
340
0
  0
BLOCK_RECORD
  5
3292
330
1
100
AcDbSymbolTableRecord
100
AcDbBlockTableRecord
  2
*D11
340
0
  0
BLOCK_RECORD
  5
32A0
330
1
100
AcDbSymbolTableRecord
100
AcDbBlockTableRecord
  2
*D12
340
0
  0
BLOCK_RECORD
  5
32AC
330
1
100
AcDbSymbolTableRecord
100
AcDbBlockTableRecord
  2
*D13
340
0
  0
BLOCK_RECORD
  5
337E
330
1
100
AcDbSymbolTableRecord
100
AcDbBlockTableRecord
  2
*D14
340
0
  0
ENDTAB
  0
ENDSEC
  0
SECTION
  2
BLOCKS
  0
BLOCK
  5
6D
330
6C
100
AcDbEntity
  8
0
100
AcDbBlockBegin
  2
*Model_Space
 70
     0
 10
0.0
 20
0.0
 30
0.0
  3
*Model_Space
  1

  0
ENDBLK
  5
6E
330
6C
100
AcDbEntity
  8
0
100
AcDbBlockEnd
  0
BLOCK
  5
69
330
68
100
AcDbEntity
 67
     1
  8
0
100
AcDbBlockBegin
  2
*Paper_Space
 70
     0
 10
0.0
 20
0.0
 30
0.0
  3
*Paper_Space
  1

  0
ENDBLK
  5
6A
330
68
100
AcDbEntity
 67
     1
  8
0
100
AcDbBlockEnd
  0
BLOCK
  5
71
330
70
100
AcDbEntity
 67
     1
  8
0
100
AcDbBlockBegin
  2
*Paper_Space0
 70
     0
 10
0.0
 20
0.0
 30
0.0
  3
*Paper_Space0
  1

  0
ENDBLK
  5
72
330
70
100
AcDbEntity
 67
     1
  8
0
100
AcDbBlockEnd
  0
BLOCK
  5
77
330
76
100
AcDbEntity
  8
0
100
AcDbBlockBegin
  2
_Origin
 70
     0
 10
0.0
 20
0.0
 30
0.0
  3
_Origin
  1

  0
CIRCLE
  5
78
330
76
100
AcDbEntity
  8
0
  6
ByBlock
 62
     0
370
    -2
100
AcDbCircle
 10
0.0
 20
0.0
 30
0.0
 40
0.5
  0
LINE
  5
79
330
76
100
AcDbEntity
  8
0
  6
ByBlock
 62
     0
370
    -2
100
AcDbLine
 10
0.0
 20
0.0
 30
0.0
 11
-1.0
 21
0.0
 31
0.0
  0
ENDBLK
  5
7A
330
76
100
AcDbEntity
  8
0
100
AcDbBlockEnd
  0
BLOCK
  5
7C
330
7B
100
AcDbEntity
  8
0
100
AcDbBlockBegin
  2
_Open30
 70
     0
 10
0.0
 20
0.0
 30
0.0
  3
_Open30
  1

  0
LINE
  5
7D
330
7B
100
AcDbEntity
  8
0
  6
ByBlock
 62
     0
370
    -2
100
AcDbLine
 10
-1.0
 20
0.26794919
 30
0.0
 11
0.0
 21
0.0
 31
0.0
  0
LINE
  5
7E
330
7B
100
AcDbEntity
  8
0
  6
ByBlock
 62
     0
370
    -2
100
AcDbLine
 10
0.0
 20
0.0
 30
0.0
 11
-1.0
 21
-0.26794919
 31
0.0
  0
LINE
  5
7F
330
7B
100
AcDbEntity
  8
0
  6
ByBlock
 62
     0
370
    -2
100
AcDbLine
 10
0.0
 20
0.0
 30
0.0
 11
-1.0
 21
0.0
 31
0.0
  0
ENDBLK
  5
80
330
7B
100
AcDbEntity
  8
0
100
AcDbBlockEnd
  0
BLOCK
  5
322B
330
322A
100
AcDbEntity
  8
0
100
AcDbBlockBegin
  2
*D3
 70
     1
 10
0.0
 20
0.0
 30
0.0
  3
*D3
  1

  0
LINE
  5
3431
330
322A
100
AcDbEntity
  8
0
370
    -2
100
AcDbLine
 10
3610.000000000047
 20
1750.0
 30
0.0
 11
3590.000000000048
 21
1750.0
 31
0.0
  0
LINE
  5
3432
330
322A
100
AcDbEntity
  8
0
370
    -2
100
AcDbLine
 10
3910.000000000047
 20
1800.000000000001
 30
0.0
 11
3590.000000000048
 21
1800.000000000001
 31
0.0
  0
LINE
  5
3433
330
322A
100
AcDbEntity
  8
0
370
    -2
100
AcDbLine
 10
3610.000000000047
 20
1730.0
 30
0.0
 11
3610.000000000047
 21
1710.0
 31
0.0
  0
LINE
  5
3434
330
322A
100
AcDbEntity
  8
0
370
    -2
100
AcDbLine
 10
3610.000000000047
 20
1820.000000000001
 30
0.0
 11
3610.000000000047
 21
1840.000000000001
 31
0.0
  0
MTEXT
  5
3435
330
322A
100
AcDbEntity
  8
0
100
AcDbMText
 10
3555.000000000048
 20
1815.0
 30
0.0
 40
70.0
 41
0.0
 71
     5
 72
     1
  1
\A2;50
  7
文字
 11
0.0000000000000001
 21
1.0
 31
0.0
 73
     1
 44
1.0
1001
ACAD
1000
MTEXTBEGIN
1070
    73
1070
     1
1070
    44
1040
1.0
1070
    74
1070
     0
1000
MTEXTEND
  0
LINE
  5
3436
330
322A
100
AcDbEntity
  8
0
370
    -2
100
AcDbLine
 10
3610.000000000047
 20
1750.0
 30
0.0
 11
3610.000000000047
 21
1800.000000000001
 31
0.0
  0
INSERT
  5
3437
330
322A
100
AcDbEntity
  8
0
370
    -2
100
AcDbBlockReference
  2
_Origin
 10
3610.000000000047
 20
1750.0
 30
0.0
 41
20.0
 42
20.0
 43
20.0
 50
90.0
  0
INSERT
  5
3438
330
322A
100
AcDbEntity
  8
0
370
    -2
100
AcDbBlockReference
  2
_Origin
 10
3610.000000000047
 20
1800.000000000001
 30
0.0
 41
20.0
 42
20.0
 43
20.0
 50
270.0
  0
POINT
  5
3439
330
322A
100
AcDbEntity
  8
Defpoints
 62
     0
100
AcDbPoint
 10
3710.000000000047
 20
1750.0
 30
0.0
  0
POINT
  5
343A
330
322A
100
AcDbEntity
  8
Defpoints
 62
     0
100
AcDbPoint
 10
4010.000000000046
 20
1800.000000000001
 30
0.0
  0
POINT
  5
343B
330
322A
100
AcDbEntity
  8
Defpoints
 62
     0
100
AcDbPoint
 10
3610.000000000047
 20
1800.000000000001
 30
0.0
  0
ENDBLK
  5
322C
330
322A
100
AcDbEntity
  8
0
100
AcDbBlockEnd
  0
BLOCK
  5
3239
330
3238
100
AcDbEntity
  8
0
100
AcDbBlockBegin
  2
*D4
 70
     1
 10
0.0
 20
0.0
 30
0.0
  3
*D4
  1

  0
LINE
  5
3426
330
3238
100
AcDbEntity
  8
0
370
    -2
100
AcDbLine
 10
2500.0
 20
5700.000000000001
 30
0.0
 11
2500.0
 21
5680.000000000001
 31
0.0
  0
LINE
  5
3427
330
3238
100
AcDbEntity
  8
0
370
    -2
100
AcDbLine
 10
2450.0
 20
5900.000000000003
 30
0.0
 11
2450.0
 21
5680.000000000001
 31
0.0
  0
LINE
  5
3428
330
3238
100
AcDbEntity
  8
0
370
    -2
100
AcDbLine
 10
2520.0
 20
5700.000000000001
 30
0.0
 11
2540.0
 21
5700.000000000001
 31
0.0
  0
LINE
  5
3429
330
3238
100
AcDbEntity
  8
0
370
    -2
100
AcDbLine
 10
2430.0
 20
5700.000000000001
 30
0.0
 11
2410.0
 21
5700.000000000001
 31
0.0
  0
MTEXT
  5
342A
330
3238
100
AcDbEntity
  8
0
100
AcDbMText
 10
2560.0
 20
5755.000000000001
 30
0.0
 40
70.0
 41
0.0
 71
     5
 72
     1
  1
\A2;50
  7
文字
 73
     1
 44
1.0
1001
ACAD
1000
MTEXTBEGIN
1070
    73
1070
     1
1070
    44
1040
1.0
1070
    74
1070
     0
1000
MTEXTEND
  0
LINE
  5
342B
330
3238
100
AcDbEntity
  8
0
370
    -2
100
AcDbLine
 10
2500.0
 20
5700.000000000001
 30
0.0
 11
2450.0
 21
5700.000000000001
 31
0.0
  0
INSERT
  5
342C
330
3238
100
AcDbEntity
  8
0
370
    -2
100
AcDbBlockReference
  2
_Origin
 10
2500.0
 20
5700.000000000001
 30
0.0
 41
20.0
 42
20.0
 43
20.0
 50
180.0
  0
INSERT
  5
342D
330
3238
100
AcDbEntity
  8
0
370
    -2
100
AcDbBlockReference
  2
_Origin
 10
2450.0
 20
5700.000000000001
 30
0.0
 41
20.0
 42
20.0
 43
20.0
  0
POINT
  5
342E
330
3238
100
AcDbEntity
  8
Defpoints
 62
     0
100
AcDbPoint
 10
2500.0
 20
5800.0
 30
0.0
  0
POINT
  5
342F
330
3238
100
AcDbEntity
  8
Defpoints
 62
     0
100
AcDbPoint
 10
2450.0
 20
6000.000000000003
 30
0.0
  0
POINT
  5
3430
330
3238
100
AcDbEntity
  8
Defpoints
 62
     0
100
AcDbPoint
 10
2450.0
 20
5700.000000000001
 30
0.0
  0
ENDBLK
  5
323A
330
3238
100
AcDbEntity
  8
0
100
AcDbBlockEnd
  0
BLOCK
  5
3247
330
3246
100
AcDbEntity
  8
0
100
AcDbBlockBegin
  2
*D5
 70
     1
 10
0.0
 20
0.0
 30
0.0
  3
*D5
  1

  0
LINE
  5
32CE
330
3246
100
AcDbEntity
  8
0
370
    -2
100
AcDbLine
 10
2450.0
 20
6680.000000000003
 30
0.0
 11
2450.0
 21
6900.000000000003
 31
0.0
  0
LINE
  5
32CF
330
3246
100
AcDbEntity
  8
0
370
    -2
100
AcDbLine
 10
2810.0
 20
6680.000000000003
 30
0.0
 11
2810.0
 21
6900.000000000003
 31
0.0
  0
LINE
  5
32D0
330
3246
100
AcDbEntity
  8
0
370
    -2
100
AcDbLine
 10
2470.0
 20
6880.000000000002
 30
0.0
 11
2790.0
 21
6880.000000000002
 31
0.0
  0
INSERT
  5
32D1
330
3246
100
AcDbEntity
  8
0
370
    -2
100
AcDbBlockReference
  2
_Origin
 10
2450.0
 20
6880.000000000002
 30
0.0
 41
20.0
 42
20.0
 43
20.0
 50
180.0
  0
INSERT
  5
32D2
330
3246
100
AcDbEntity
  8
0
370
    -2
100
AcDbBlockReference
  2
_Origin
 10
2810.0
 20
6880.000000000002
 30
0.0
 41
20.0
 42
20.0
 43
20.0
  0
MTEXT
  5
32D3
330
3246
100
AcDbEntity
  8
0
100
AcDbMText
 10
2630.0
 20
6935.000000000002
 30
0.0
 40
70.0
 41
0.0
 71
     5
 72
     1
  1
\A2;A
  7
文字
 73
     1
 44
1.0
1001
ACAD
1000
MTEXTBEGIN
1070
    73
1070
     1
1070
    44
1040
1.0
1070
    74
1070
     0
1000
MTEXTEND
  0
POINT
  5
32D4
330
3246
100
AcDbEntity
  8
Defpoints
 62
     0
100
AcDbPoint
 10
2450.0
 20
6580.000000000002
 30
0.0
  0
POINT
  5
32D5
330
3246
100
AcDbEntity
  8
Defpoints
 62
     0
100
AcDbPoint
 10
2810.0
 20
6580.000000000002
 30
0.0
  0
POINT
  5
32D6
330
3246
100
AcDbEntity
  8
Defpoints
 62
     0
100
AcDbPoint
 10
2810.0
 20
6880.000000000002
 30
0.0
  0
ENDBLK
  5
3248
330
3246
100
AcDbEntity
  8
0
100
AcDbBlockEnd
  0
BLOCK
  5
3253
330
3252
100
AcDbEntity
  8
0
100
AcDbBlockBegin
  2
*D6
 70
     1
 10
0.0
 20
0.0
 30
0.0
  3
*D6
  1

  0
LINE
  5
32D7
330
3252
100
AcDbEntity
  8
0
370
    -2
100
AcDbLine
 10
3010.0
 20
6460.000000000002
 30
0.0
 11
3380.0
 21
6460.000000000002
 31
0.0
  0
LINE
  5
32D8
330
3252
100
AcDbEntity
  8
0
370
    -2
100
AcDbLine
 10
3010.0
 20
6100.000000000003
 30
0.0
 11
3380.0
 21
6100.000000000003
 31
0.0
  0
LINE
  5
32D9
330
3252
100
AcDbEntity
  8
0
370
    -2
100
AcDbLine
 10
3360.0
 20
6440.000000000003
 30
0.0
 11
3360.0
 21
6120.000000000003
 31
0.0
  0
INSERT
  5
32DA
330
3252
100
AcDbEntity
  8
0
370
    -2
100
AcDbBlockReference
  2
_Origin
 10
3360.0
 20
6460.000000000002
 30
0.0
 41
20.0
 42
20.0
 43
20.0
 50
90.0
  0
INSERT
  5
32DB
330
3252
100
AcDbEntity
  8
0
370
    -2
100
AcDbBlockReference
  2
_Origin
 10
3360.0
 20
6100.000000000003
 30
0.0
 41
20.0
 42
20.0
 43
20.0
 50
270.0
  0
MTEXT
  5
32DC
330
3252
100
AcDbEntity
  8
0
100
AcDbMText
 10
3304.999999999999
 20
6280.000000000004
 30
0.0
 40
70.0
 41
0.0
 71
     5
 72
     1
  1
\A2;B
  7
文字
 11
0.0000000000000001
 21
1.0
 31
0.0
 73
     1
 44
1.0
1001
ACAD
1000
MTEXTBEGIN
1070
    73
1070
     1
1070
    44
1040
1.0
1070
    74
1070
     0
1000
MTEXTEND
  0
POINT
  5
32DD
330
3252
100
AcDbEntity
  8
Defpoints
 62
     0
100
AcDbPoint
 10
2910.0
 20
6460.000000000002
 30
0.0
  0
POINT
  5
32DE
330
3252
100
AcDbEntity
  8
Defpoints
 62
     0
100
AcDbPoint
 10
2910.0
 20
6100.000000000003
 30
0.0
  0
POINT
  5
32DF
330
3252
100
AcDbEntity
  8
Defpoints
 62
     0
100
AcDbPoint
 10
3360.0
 20
6100.000000000003
 30
0.0
  0
ENDBLK
  5
3254
330
3252
100
AcDbEntity
  8
0
100
AcDbBlockEnd
  0
BLOCK
  5
325F
330
325E
100
AcDbEntity
  8
0
100
AcDbBlockBegin
  2
*D7
 70
     1
 10
0.0
 20
0.0
 30
0.0
  3
*D7
  1

  0
LINE
  5
32E0
330
325E
100
AcDbEntity
  8
0
370
    -2
100
AcDbLine
 10
1000.0
 20
2100.0
 30
0.0
 11
1000.0
 21
2420.0
 31
0.0
  0
LINE
  5
32E1
330
325E
100
AcDbEntity
  8
0
370
    -2
100
AcDbLine
 10
4000.0
 20
2100.0
 30
0.0
 11
4000.0
 21
2420.0
 31
0.0
  0
LINE
  5
32E2
330
325E
100
AcDbEntity
  8
0
370
    -2
100
AcDbLine
 10
1020.0
 20
2400.0
 30
0.0
 11
3980.0
 21
2400.0
 31
0.0
  0
INSERT
  5
32E3
330
325E
100
AcDbEntity
  8
0
370
    -2
100
AcDbBlockReference
  2
_Origin
 10
1000.0
 20
2400.0
 30
0.0
 41
20.0
 42
20.0
 43
20.0
 50
180.0
  0
INSERT
  5
32E4
330
325E
100
AcDbEntity
  8
0
370
    -2
100
AcDbBlockReference
  2
_Origin
 10
4000.0
 20
2400.0
 30
0.0
 41
20.0
 42
20.0
 43
20.0
  0
MTEXT
  5
32E5
330
325E
100
AcDbEntity
  8
0
100
AcDbMText
 10
2500.0
 20
2455.0
 30
0.0
 40
70.0
 41
0.0
 71
     5
 72
     1
  1
\A2;W
  7
文字
 73
     1
 44
1.0
1001
ACAD
1000
MTEXTBEGIN
1070
    73
1070
     1
1070
    44
1040
1.0
1070
    74
1070
     0
1000
MTEXTEND
  0
POINT
  5
32E6
330
325E
100
AcDbEntity
  8
Defpoints
 62
     0
100
AcDbPoint
 10
1000.0
 20
2000.0
 30
0.0
  0
POINT
  5
32E7
330
325E
100
AcDbEntity
  8
Defpoints
 62
     0
100
AcDbPoint
 10
4000.0
 20
2000.0
 30
0.0
  0
POINT
  5
32E8
330
325E
100
AcDbEntity
  8
Defpoints
 62
     0
100
AcDbPoint
 10
4000.0
 20
2400.0
 30
0.0
  0
ENDBLK
  5
3260
330
325E
100
AcDbEntity
  8
0
100
AcDbBlockEnd
  0
BLOCK
  5
326B
330
326A
100
AcDbEntity
  8
0
100
AcDbBlockBegin
  2
*D8
 70
     1
 10
0.0
 20
0.0
 30
0.0
  3
*D8
  1

  0
LINE
  5
32E9
330
326A
100
AcDbEntity
  8
0
370
    -2
100
AcDbLine
 10
3010.0
 20
6000.0
 30
0.0
 11
3380.000000000001
 21
6000.0
 31
0.0
  0
LINE
  5
32EA
330
326A
100
AcDbEntity
  8
0
370
    -2
100
AcDbLine
 10
3360.0
 20
3500.000000000002
 30
0.0
 11
3380.0
 21
3500.000000000002
 31
0.0
  0
LINE
  5
32EB
330
326A
100
AcDbEntity
  8
0
370
    -2
100
AcDbLine
 10
3360.000000000001
 20
5980.000000000001
 30
0.0
 11
3360.0
 21
3520.000000000002
 31
0.0
  0
INSERT
  5
32EC
330
326A
100
AcDbEntity
  8
0
370
    -2
100
AcDbBlockReference
  2
_Origin
 10
3360.000000000001
 20
6000.0
 30
0.0
 41
20.0
 42
20.0
 43
20.0
 50
90.0
  0
INSERT
  5
32ED
330
326A
100
AcDbEntity
  8
0
370
    -2
100
AcDbBlockReference
  2
_Origin
 10
3360.0
 20
3500.000000000002
 30
0.0
 41
20.0
 42
20.0
 43
20.0
 50
270.0
  0
MTEXT
  5
32EE
330
326A
100
AcDbEntity
  8
0
100
AcDbMText
 10
3305.0
 20
4750.000000000002
 30
0.0
 40
70.0
 41
0.0
 71
     5
 72
     1
  1
\A2;H
  7
文字
 11
0.0000000000000001
 21
1.0
 31
0.0
 73
     1
 44
1.0
1001
ACAD
1000
MTEXTBEGIN
1070
    73
1070
     1
1070
    44
1040
1.0
1070
    74
1070
     0
1000
MTEXTEND
  0
POINT
  5
32EF
330
326A
100
AcDbEntity
  8
Defpoints
 62
     0
100
AcDbPoint
 10
2910.0
 20
6000.0
 30
0.0
  0
POINT
  5
32F0
330
326A
100
AcDbEntity
  8
Defpoints
 62
     0
100
AcDbPoint
 10
3260.0
 20
3500.000000000002
 30
0.0
  0
POINT
  5
32F1
330
326A
100
AcDbEntity
  8
Defpoints
 62
     0
100
AcDbPoint
 10
3360.0
 20
3500.000000000002
 30
0.0
  0
ENDBLK
  5
326C
330
326A
100
AcDbEntity
  8
0
100
AcDbBlockEnd
  0
BLOCK
  5
3277
330
3276
100
AcDbEntity
  8
0
100
AcDbBlockBegin
  2
*D9
 70
     1
 10
0.0
 20
0.0
 30
0.0
  3
*D9
  1

  0
LINE
  5
32F2
330
3276
100
AcDbEntity
  8
0
370
    -2
100
AcDbLine
 10
3010.0
 20
6460.000000000002
 30
0.0
 11
3380.0
 21
6460.000000000002
 31
0.0
  0
LINE
  5
32F3
330
3276
100
AcDbEntity
  8
0
370
    -2
100
AcDbLine
 10
3010.0
 20
6480.000000000003
 30
0.0
 11
3380.0
 21
6480.000000000003
 31
0.0
  0
LINE
  5
32F4
330
3276
100
AcDbEntity
  8
0
370
    -2
100
AcDbLine
 10
3360.0
 20
6440.000000000003
 30
0.0
 11
3360.0
 21
6420.000000000003
 31
0.0
  0
LINE
  5
32F5
330
3276
100
AcDbEntity
  8
0
370
    -2
100
AcDbLine
 10
3360.0
 20
6500.000000000003
 30
0.0
 11
3360.0
 21
6520.000000000003
 31
0.0
  0
MTEXT
  5
32F6
330
3276
100
AcDbEntity
  8
0
100
AcDbMText
 10
3305.0
 20
6545.000000000003
 30
0.0
 40
70.0
 41
0.0
 71
     5
 72
     1
  1
\A2;20
  7
文字
 11
0.0000000000000001
 21
1.0
 31
0.0
 73
     1
 44
1.0
1001
ACAD
1000
MTEXTBEGIN
1070
    73
1070
     1
1070
    44
1040
1.0
1070
    74
1070
     0
1000
MTEXTEND
  0
LINE
  5
32F7
330
3276
100
AcDbEntity
  8
0
370
    -2
100
AcDbLine
 10
3360.0
 20
6460.000000000002
 30
0.0
 11
3360.0
 21
6480.000000000003
 31
0.0
  0
INSERT
  5
32F8
330
3276
100
AcDbEntity
  8
0
370
    -2
100
AcDbBlockReference
  2
_Origin
 10
3360.0
 20
6460.000000000002
 30
0.0
 41
20.0
 42
20.0
 43
20.0
 50
90.0
  0
INSERT
  5
32F9
330
3276
100
AcDbEntity
  8
0
370
    -2
100
AcDbBlockReference
  2
_Origin
 10
3360.0
 20
6480.000000000003
 30
0.0
 41
20.0
 42
20.0
 43
20.0
 50
270.0
  0
POINT
  5
32FA
330
3276
100
AcDbEntity
  8
Defpoints
 62
     0
100
AcDbPoint
 10
2910.0
 20
6460.000000000002
 30
0.0
  0
POINT
  5
32FB
330
3276
100
AcDbEntity
  8
Defpoints
 62
     0
100
AcDbPoint
 10
2910.0
 20
6480.000000000003
 30
0.0
  0
POINT
  5
32FC
330
3276
100
AcDbEntity
  8
Defpoints
 62
     0
100
AcDbPoint
 10
3360.0
 20
6480.000000000003
 30
0.0
  0
ENDBLK
  5
3278
330
3276
100
AcDbEntity
  8
0
100
AcDbBlockEnd
  0
BLOCK
  5
3285
330
3284
100
AcDbEntity
  8
0
100
AcDbBlockBegin
  2
*D10
 70
     1
 10
0.0
 20
0.0
 30
0.0
  3
*D10
  1

  0
LINE
  5
32FD
330
3284
100
AcDbEntity
  8
0
370
    -2
100
AcDbLine
 10
955.0
 20
1240.0
 30
0.0
 11
955.0
 21
770.0
 31
0.0
  0
LINE
  5
32FE
330
3284
100
AcDbEntity
  8
0
370
    -2
100
AcDbLine
 10
1000.0
 20
1240.0
 30
0.0
 11
1000.0
 21
770.0
 31
0.0
  0
LINE
  5
32FF
330
3284
100
AcDbEntity
  8
0
370
    -2
100
AcDbLine
 10
935.0
 20
790.0
 30
0.0
 11
915.0
 21
790.0
 31
0.0
  0
LINE
  5
3300
330
3284
100
AcDbEntity
  8
0
370
    -2
100
AcDbLine
 10
1020.0
 20
790.0
 30
0.0
 11
1040.0
 21
790.0
 31
0.0
  0
MTEXT
  5
3301
330
3284
100
AcDbEntity
  8
0
100
AcDbMText
 10
877.5
 20
845.0
 30
0.0
 40
70.0
 41
0.0
 71
     5
 72
     1
  1
\A2;45
  7
文字
 73
     1
 44
1.0
1001
ACAD
1000
MTEXTBEGIN
1070
    73
1070
     1
1070
    44
1040
1.0
1070
    74
1070
     0
1000
MTEXTEND
  0
LINE
  5
3302
330
3284
100
AcDbEntity
  8
0
370
    -2
100
AcDbLine
 10
955.0
 20
790.0
 30
0.0
 11
1000.0
 21
790.0
 31
0.0
  0
INSERT
  5
3303
330
3284
100
AcDbEntity
  8
0
370
    -2
100
AcDbBlockReference
  2
_Origin
 10
955.0
 20
790.0
 30
0.0
 41
20.0
 42
20.0
 43
20.0
  0
INSERT
  5
3304
330
3284
100
AcDbEntity
  8
0
370
    -2
100
AcDbBlockReference
  2
_Origin
 10
1000.0
 20
790.0
 30
0.0
 41
20.0
 42
20.0
 43
20.0
 50
180.0
  0
POINT
  5
3305
330
3284
100
AcDbEntity
  8
Defpoints
 62
     0
100
AcDbPoint
 10
955.0
 20
1340.0
 30
0.0
  0
POINT
  5
3306
330
3284
100
AcDbEntity
  8
Defpoints
 62
     0
100
AcDbPoint
 10
1000.0
 20
1340.0
 30
0.0
  0
POINT
  5
3307
330
3284
100
AcDbEntity
  8
Defpoints
 62
     0
100
AcDbPoint
 10
1000.0
 20
790.0
 30
0.0
  0
ENDBLK
  5
3286
330
3284
100
AcDbEntity
  8
0
100
AcDbBlockEnd
  0
BLOCK
  5
3293
330
3292
100
AcDbEntity
  8
0
100
AcDbBlockBegin
  2
*D11
 70
     1
 10
0.0
 20
0.0
 30
0.0
  3
*D11
  1

  0
LINE
  5
3308
330
3292
100
AcDbEntity
  8
0
370
    -2
100
AcDbLine
 10
4000.0
 20
1240.0
 30
0.0
 11
4000.0
 21
770.0
 31
0.0
  0
LINE
  5
3309
330
3292
100
AcDbEntity
  8
0
370
    -2
100
AcDbLine
 10
4045.0
 20
1240.0
 30
0.0
 11
4045.0
 21
770.0
 31
0.0
  0
LINE
  5
330A
330
3292
100
AcDbEntity
  8
0
370
    -2
100
AcDbLine
 10
3980.0
 20
790.0
 30
0.0
 11
3960.0
 21
790.0
 31
0.0
  0
LINE
  5
330B
330
3292
100
AcDbEntity
  8
0
370
    -2
100
AcDbLine
 10
4065.0
 20
790.0
 30
0.0
 11
4085.0
 21
790.0
 31
0.0
  0
MTEXT
  5
330C
330
3292
100
AcDbEntity
  8
0
100
AcDbMText
 10
4122.5
 20
845.0
 30
0.0
 40
70.0
 41
0.0
 71
     5
 72
     1
  1
\A2;45
  7
文字
 73
     1
 44
1.0
1001
ACAD
1000
MTEXTBEGIN
1070
    73
1070
     1
1070
    44
1040
1.0
1070
    74
1070
     0
1000
MTEXTEND
  0
LINE
  5
330D
330
3292
100
AcDbEntity
  8
0
370
    -2
100
AcDbLine
 10
4000.0
 20
790.0
 30
0.0
 11
4045.0
 21
790.0
 31
0.0
  0
INSERT
  5
330E
330
3292
100
AcDbEntity
  8
0
370
    -2
100
AcDbBlockReference
  2
_Origin
 10
4000.0
 20
790.0
 30
0.0
 41
20.0
 42
20.0
 43
20.0
  0
INSERT
  5
330F
330
3292
100
AcDbEntity
  8
0
370
    -2
100
AcDbBlockReference
  2
_Origin
 10
4045.0
 20
790.0
 30
0.0
 41
20.0
 42
20.0
 43
20.0
 50
180.0
  0
POINT
  5
3310
330
3292
100
AcDbEntity
  8
Defpoints
 62
     0
100
AcDbPoint
 10
4000.0
 20
1340.0
 30
0.0
  0
POINT
  5
3311
330
3292
100
AcDbEntity
  8
Defpoints
 62
     0
100
AcDbPoint
 10
4045.0
 20
1340.0
 30
0.0
  0
POINT
  5
3312
330
3292
100
AcDbEntity
  8
Defpoints
 62
     0
100
AcDbPoint
 10
4045.0
 20
790.0
 30
0.0
  0
ENDBLK
  5
3294
330
3292
100
AcDbEntity
  8
0
100
AcDbBlockEnd
  0
BLOCK
  5
32A1
330
32A0
100
AcDbEntity
  8
0
100
AcDbBlockBegin
  2
*D12
 70
     1
 10
0.0
 20
0.0
 30
0.0
  3
*D12
  1

  0
LINE
  5
3313
330
32A0
100
AcDbEntity
  8
0
370
    -2
100
AcDbLine
 10
1000.0
 20
1240.0
 30
0.0
 11
1000.0
 21
770.0
 31
0.0
  0
LINE
  5
3314
330
32A0
100
AcDbEntity
  8
0
370
    -2
100
AcDbLine
 10
4000.0
 20
1240.0
 30
0.0
 11
4000.0
 21
770.0
 31
0.0
  0
LINE
  5
3315
330
32A0
100
AcDbEntity
  8
0
370
    -2
100
AcDbLine
 10
1020.0
 20
790.0
 30
0.0
 11
3980.0
 21
790.0
 31
0.0
  0
INSERT
  5
3316
330
32A0
100
AcDbEntity
  8
0
370
    -2
100
AcDbBlockReference
  2
_Origin
 10
1000.0
 20
790.0
 30
0.0
 41
20.0
 42
20.0
 43
20.0
 50
180.0
  0
INSERT
  5
3317
330
32A0
100
AcDbEntity
  8
0
370
    -2
100
AcDbBlockReference
  2
_Origin
 10
4000.0
 20
790.0
 30
0.0
 41
20.0
 42
20.0
 43
20.0
  0
MTEXT
  5
3318
330
32A0
100
AcDbEntity
  8
0
100
AcDbMText
 10
2500.0
 20
845.0
 30
0.0
 40
70.0
 41
0.0
 71
     5
 72
     1
  1
\A2;W
  7
文字
 73
     1
 44
1.0
1001
ACAD
1000
MTEXTBEGIN
1070
    73
1070
     1
1070
    44
1040
1.0
1070
    74
1070
     0
1000
MTEXTEND
  0
POINT
  5
3319
330
32A0
100
AcDbEntity
  8
Defpoints
 62
     0
100
AcDbPoint
 10
1000.0
 20
1340.0
 30
0.0
  0
POINT
  5
331A
330
32A0
100
AcDbEntity
  8
Defpoints
 62
     0
100
AcDbPoint
 10
4000.0
 20
1340.0
 30
0.0
  0
POINT
  5
331B
330
32A0
100
AcDbEntity
  8
Defpoints
 62
     0
100
AcDbPoint
 10
4000.0
 20
790.0
 30
0.0
  0
ENDBLK
  5
32A2
330
32A0
100
AcDbEntity
  8
0
100
AcDbBlockEnd
  0
BLOCK
  5
32AD
330
32AC
100
AcDbEntity
  8
0
100
AcDbBlockBegin
  2
*D13
 70
     1
 10
0.0
 20
0.0
 30
0.0
  3
*D13
  1

  0
LINE
  5
331C
330
32AC
100
AcDbEntity
  8
0
370
    -2
100
AcDbLine
 10
3010.0
 20
6100.000000000003
 30
0.0
 11
3380.0
 21
6100.000000000003
 31
0.0
  0
LINE
  5
331D
330
32AC
100
AcDbEntity
  8
0
370
    -2
100
AcDbLine
 10
3010.0
 20
6000.0
 30
0.0
 11
3380.0
 21
6000.0
 31
0.0
  0
LINE
  5
331E
330
32AC
100
AcDbEntity
  8
0
370
    -2
100
AcDbLine
 10
3360.0
 20
6080.000000000002
 30
0.0
 11
3360.0
 21
6020.000000000001
 31
0.0
  0
MTEXT
  5
331F
330
32AC
100
AcDbEntity
  8
0
100
AcDbMText
 10
3414.999999999996
 20
6100.000000000003
 30
0.0
 40
70.0
 41
0.0
 71
     5
 72
     1
  1
\A2;100
  7
文字
 11
0.0000000000000001
 21
1.0
 31
0.0
 73
     1
 44
1.0
1001
ACAD
1000
MTEXTBEGIN
1070
    73
1070
     1
1070
    44
1040
1.0
1070
    74
1070
     0
1000
MTEXTEND
  0
INSERT
  5
3320
330
32AC
100
AcDbEntity
  8
0
370
    -2
100
AcDbBlockReference
  2
_Origin
 10
3360.0
 20
6100.000000000003
 30
0.0
 41
20.0
 42
20.0
 43
20.0
 50
90.0
  0
INSERT
  5
3321
330
32AC
100
AcDbEntity
  8
0
370
    -2
100
AcDbBlockReference
  2
_Origin
 10
3360.0
 20
6000.0
 30
0.0
 41
20.0
 42
20.0
 43
20.0
 50
270.0
  0
POINT
  5
3322
330
32AC
100
AcDbEntity
  8
Defpoints
 62
     0
100
AcDbPoint
 10
2910.0
 20
6100.000000000003
 30
0.0
  0
POINT
  5
3323
330
32AC
100
AcDbEntity
  8
Defpoints
 62
     0
100
AcDbPoint
 10
2910.0
 20
6000.0
 30
0.0
  0
POINT
  5
3324
330
32AC
100
AcDbEntity
  8
Defpoints
 62
     0
100
AcDbPoint
 10
3360.0
 20
6000.0
 30
0.0
  0
ENDBLK
  5
32AE
330
32AC
100
AcDbEntity
  8
0
100
AcDbBlockEnd
  0
BLOCK
  5
337F
330
337E
100
AcDbEntity
  8
0
100
AcDbBlockBegin
  2
*D14
 70
     1
 10
0.0
 20
0.0
 30
0.0
  3
*D14
  1

  0
LINE
  5
338A
330
337E
100
AcDbEntity
  8
0
370
    -2
100
AcDbLine
 10
955.0
 20
1240.0
 30
0.0
 11
955.0
 21
620.0
 31
0.0
  0
LINE
  5
338B
330
337E
100
AcDbEntity
  8
0
370
    -2
100
AcDbLine
 10
4045.0
 20
1240.0
 30
0.0
 11
4045.0
 21
620.0
 31
0.0
  0
LINE
  5
338C
330
337E
100
AcDbEntity
  8
0
370
    -2
100
AcDbLine
 10
975.0
 20
640.0
 30
0.0
 11
4025.0
 21
640.0
 31
0.0
  0
INSERT
  5
338D
330
337E
100
AcDbEntity
  8
0
370
    -2
100
AcDbBlockReference
  2
_Origin
 10
955.0
 20
640.0
 30
0.0
 41
20.0
 42
20.0
 43
20.0
 50
180.0
  0
INSERT
  5
338E
330
337E
100
AcDbEntity
  8
0
370
    -2
100
AcDbBlockReference
  2
_Origin
 10
4045.0
 20
640.0
 30
0.0
 41
20.0
 42
20.0
 43
20.0
  0
MTEXT
  5
338F
330
337E
100
AcDbEntity
  8
0
100
AcDbMText
 10
2500.0
 20
695.0
 30
0.0
 40
70.0
 41
0.0
 71
     5
 72
     1
  1
\A2;W+90
  7
文字
 73
     1
 44
1.0
1001
ACAD
1000
MTEXTBEGIN
1070
    73
1070
     1
1070
    44
1040
1.0
1070
    74
1070
     0
1000
MTEXTEND
  0
POINT
  5
3390
330
337E
100
AcDbEntity
  8
Defpoints
 62
     0
100
AcDbPoint
 10
955.0
 20
1340.0
 30
0.0
  0
POINT
  5
3391
330
337E
100
AcDbEntity
  8
Defpoints
 62
     0
100
AcDbPoint
 10
4045.0
 20
1340.0
 30
0.0
  0
POINT
  5
3392
330
337E
100
AcDbEntity
  8
Defpoints
 62
     0
100
AcDbPoint
 10
4045.0
 20
640.0
 30
0.0
  0
ENDBLK
  5
3380
330
337E
100
AcDbEntity
  8
0
100
AcDbBlockEnd
  0
ENDSEC
  0
SECTION
  2
ENTITIES
  0
LINE
  5
A1
330
6C
100
AcDbEntity
  8
0
100
AcDbLine
 10
10920.0
 20
0.0
 30
0.0
 11
0.0
 21
0.0
 31
0.0
  0
LINE
  5
A2
330
6C
100
AcDbEntity
  8
0
100
AcDbLine
 10
0.0
 20
7830.0
 30
0.0
 11
10920.0
 21
7830.0
 31
0.0
  0
LINE
  5
A3
330
6C
100
AcDbEntity
  8
0
100
AcDbLine
 10
0.0
 20
7830.0
 30
0.0
 11
0.0
 21
0.0
 31
0.0
  0
LINE
  5
A4
330
6C
100
AcDbEntity
  8
0
100
AcDbLine
 10
10920.0
 20
7830.0
 30
0.0
 11
10920.0
 21
0.0
 31
0.0
  0
LINE
  5
A5
330
6C
100
AcDbEntity
  8
0
100
AcDbLine
 10
6753.333333333333
 20
266.6666666666667
 30
0.0
 11
6753.333333333333
 21
0.0000000000000612
 31
0.0
  0
TEXT
  5
A6
330
6C
100
AcDbEntity
  8
0
100
AcDbText
 10
7319.999999999976
 20
165.0
 30
0.0
 40
70.0
  1
軽量スプリングシャッター（天井納まり）
 11
7319.999999999976
 21
200.0
 31
0.0
100
AcDbText
 73
     2
  0
TEXT
  5
A7
330
6C
100
AcDbEntity
  8
0
100
AcDbText
 10
6819.999999999976
 20
165.0
 30
0.0
 40
70.0
  1
製品名称  :
 11
6819.999999999976
 21
200.0
 31
0.0
100
AcDbText
 73
     2
  0
TEXT
  5
A8
330
6C
100
AcDbEntity
  8
0
100
AcDbText
 10
7319.999999999976
 20
31.66666666666671
 30
0.0
 40
70.0
  1
手動
 11
7319.999999999976
 21
66.66666666666671
 31
0.0
100
AcDbText
 73
     2
  0
TEXT
  5
A9
330
6C
100
AcDbEntity
  8
0
100
AcDbText
 10
6819.999999999976
 20
31.66666666666671
 30
0.0
 40
70.0
  1
操作　　　:
 11
6819.999999999976
 21
66.66666666666671
 31
0.0
100
AcDbText
 73
     2
  0
LINE
  5
AA
330
6C
100
AcDbEntity
  8
0
100
AcDbLine
 10
6753.333333333333
 20
133.3333333333333
 30
0.0
 11
9253.333333333335
 21
133.3333333333333
 31
0.0
  0
LINE
  5
AB
330
6C
100
AcDbEntity
  8
0
100
AcDbLine
 10
9253.333333333332
 20
266.6666666666666
 30
0.0
 11
9253.333333333332
 21
0.0
 31
0.0
  0
TEXT
  5
AC
330
6C
100
AcDbEntity
  8
0
100
AcDbText
 10
9332.22222222222
 20
74.99999999999976
 30
0.0
 40
116.6666666666666
  1
東洋シヤッター株式会社
 72
     1
 11
10086.66666666666
 21
133.3333333333331
 31
0.0
100
AcDbText
 73
     2
  0
LINE
  5
AD
330
6C
100
AcDbEntity
  8
0
100
AcDbLine
 10
6753.333333333333
 20
266.6666666666667
 30
0.0
 11
10920.0
 21
266.6666666666666
 31
0.0
  0
TEXT
  5
AF
330
6C
100
AcDbEntity
  8
0
100
AcDbText
 10
8653.333333333309
 20
31.6666666666667
 30
0.0
 40
70.0
  1
縮尺:1/20
 11
8653.333333333309
 21
66.6666666666667
 31
0.0
100
AcDbText
 73
     2
  0
TEXT
  5
29F0
330
6C
100
AcDbEntity
  8
0
100
AcDbText
 10
4599.066666666667
 20
6190.0
 30
0.0
 40
70.0
  1
1000～1500
 41
0.8
  7
文字
 72
     1
 11
4850.0
 21
6225.0
 31
0.0
100
AcDbText
 73
     2
  0
TEXT
  5
29F1
330
6C
100
AcDbEntity
  8
0
100
AcDbText
 10
4599.066666666667
 20
6040.0
 30
0.0
 40
70.0
  1
1501～2750
 41
0.8
  7
文字
 72
     1
 11
4850.0
 21
6075.0
 31
0.0
100
AcDbText
 73
     2
  0
LINE
  5
29F2
330
6C
100
AcDbEntity
  8
0
100
AcDbLine
 10
4450.0
 20
6600.0
 30
0.0
 11
4450.0
 21
5700.0
 31
0.0
  0
LINE
  5
29F3
330
6C
100
AcDbEntity
  8
0
100
AcDbLine
 10
5250.0
 20
6600.0
 30
0.0
 11
5250.0
 21
5700.0
 31
0.0
  0
LINE
  5
29F4
330
6C
100
AcDbEntity
  8
0
100
AcDbLine
 10
4450.0
 20
6150.0
 30
0.0
 11
6250.0
 21
6150.0
 31
0.0
  0
LINE
  5
29F5
330
6C
100
AcDbEntity
  8
0
100
AcDbLine
 10
4450.0
 20
5700.0
 30
0.0
 11
6250.0
 21
5700.0
 31
0.0
  0
LINE
  5
29F6
330
6C
100
AcDbEntity
  8
0
100
AcDbLine
 10
4450.0
 20
6300.0
 30
0.0
 11
6250.0
 21
6300.0
 31
0.0
  0
LINE
  5
29F7
330
6C
100
AcDbEntity
  8
0
100
AcDbLine
 10
5750.0
 20
6600.0
 30
0.0
 11
5750.0
 21
5700.0
 31
0.0
  0
LINE
  5
29F8
330
6C
100
AcDbEntity
  8
0
100
AcDbLine
 10
6250.0
 20
6600.0
 30
0.0
 11
6250.0
 21
5700.0
 31
0.0
  0
LINE
  5
29F9
330
6C
100
AcDbEntity
  8
0
100
AcDbLine
 10
4450.0
 20
6600.0
 30
0.0
 11
6250.0
 21
6600.0
 31
0.0
  0
TEXT
  5
29FA
330
6C
100
AcDbEntity
  8
0
100
AcDbText
 10
5476.0
 20
6415.0
 30
0.0
 40
70.0
  1
A
 41
0.8
  7
文字
 72
     1
 11
5500.0
 21
6450.0
 31
0.0
100
AcDbText
 73
     2
  0
TEXT
  5
29FB
330
6C
100
AcDbEntity
  8
0
100
AcDbText
 10
5970.666666666667
 20
6415.0
 30
0.0
 40
70.0
  1
B
 41
0.8
  7
文字
 72
     1
 11
6000.0
 21
6450.0
 31
0.0
100
AcDbText
 73
     2
  0
TEXT
  5
29FC
330
6C
100
AcDbEntity
  8
0
100
AcDbText
 10
5420.0
 20
6190.0
 30
0.0
 40
70.0
  1
330
 41
0.8
  7
文字
 72
     1
 11
5500.0
 21
6225.0
 31
0.0
100
AcDbText
 73
     2
  0
TEXT
  5
29FD
330
6C
100
AcDbEntity
  8
0
100
AcDbText
 10
5420.0
 20
6040.0
 30
0.0
 40
70.0
  1
360
 41
0.8
  7
文字
 72
     1
 11
5500.0
 21
6075.0
 31
0.0
100
AcDbText
 73
     2
  0
TEXT
  5
29FE
330
6C
100
AcDbEntity
  8
0
100
AcDbText
 10
5920.0
 20
6190.0
 30
0.0
 40
70.0
  1
330
 41
0.8
  7
文字
 72
     1
 11
6000.0
 21
6225.0
 31
0.0
100
AcDbText
 73
     2
  0
TEXT
  5
29FF
330
6C
100
AcDbEntity
  8
0
100
AcDbText
 10
5920.0
 20
6040.0
 30
0.0
 40
70.0
  1
360
 41
0.8
  7
文字
 72
     1
 11
6000.0
 21
6075.0
 31
0.0
100
AcDbText
 73
     2
  0
LINE
  5
2A00
330
6C
100
AcDbEntity
  8
0
100
AcDbLine
 10
4450.0
 20
6600.0
 30
0.0
 11
5250.0
 21
6300.0
 31
0.0
  0
TEXT
  5
2A01
330
6C
100
AcDbEntity
  8
0
100
AcDbText
 10
4514.733333333333
 20
6340.0
 30
0.0
 40
70.0
  1
開口高さH
 41
0.8
  7
文字
 72
     1
 11
4675.0
 21
6375.0
 31
0.0
100
AcDbText
 73
     2
  0
TEXT
  5
2A02
330
6C
100
AcDbEntity
  8
0
100
AcDbText
 10
4768.533333333333
 20
6490.0
 30
0.0
 40
70.0
  1
ブラケット寸法
 41
0.8
  7
文字
 72
     1
 11
5000.0
 21
6525.0
 31
0.0
100
AcDbText
 73
     2
  0
LINE
  5
2A81
330
6C
100
AcDbEntity
  8
0
100
AcDbLine
 10
4450.0
 20
6000.0
 30
0.0
 11
6250.0
 21
6000.0
 31
0.0
  0
TEXT
  5
2A82
330
6C
100
AcDbEntity
  8
0
100
AcDbText
 10
4603.066666666666
 20
5740.0
 30
0.0
 40
70.0
  1
3251～4000
 41
0.8
  7
文字
 72
     1
 11
4850.0
 21
5775.0
 31
0.0
100
AcDbText
 73
     2
  0
TEXT
  5
2A83
330
6C
100
AcDbEntity
  8
0
100
AcDbText
 10
5420.0
 20
5740.0
 30
0.0
 40
70.0
  1
420
 41
0.8
  7
文字
 72
     1
 11
5500.0
 21
5775.0
 31
0.0
100
AcDbText
 73
     2
  0
TEXT
  5
2A84
330
6C
100
AcDbEntity
  8
0
100
AcDbText
 10
5920.0
 20
5740.0
 30
0.0
 40
70.0
  1
420
 41
0.8
  7
文字
 72
     1
 11
6000.0
 21
5775.0
 31
0.0
100
AcDbText
 73
     2
  0
TEXT
  5
3057
330
6C
100
AcDbEntity
  8
0
100
AcDbText
 10
4603.066666666666
 20
5890.0
 30
0.0
 40
70.0
  1
2751～3250
 41
0.8
  7
文字
 72
     1
 11
4850.0
 21
5925.0
 31
0.0
100
AcDbText
 73
     2
  0
TEXT
  5
3058
330
6C
100
AcDbEntity
  8
0
100
AcDbText
 10
5420.0
 20
5890.0
 30
0.0
 40
70.0
  1
390
 41
0.8
  7
文字
 72
     1
 11
5500.0
 21
5925.0
 31
0.0
100
AcDbText
 73
     2
  0
TEXT
  5
3059
330
6C
100
AcDbEntity
  8
0
100
AcDbText
 10
5920.0
 20
5890.0
 30
0.0
 40
70.0
  1
390
 41
0.8
  7
文字
 72
     1
 11
6000.0
 21
5925.0
 31
0.0
100
AcDbText
 73
     2
  0
LINE
  5
305A
330
6C
100
AcDbEntity
  8
0
100
AcDbLine
 10
4450.0
 20
5850.0
 30
0.0
 11
6250.0
 21
5850.0
 31
0.0
  0
DIMENSION
  5
31EE
330
6C
100
AcDbEntity
  8
0
100
AcDbDimension
  2
*D3
 10
3610.000000000047
 20
1800.000000000001
 30
0.0
 11
3555.000000000048
 21
1815.0
 31
0.0
 70
   160
 71
     5
 42
50.00000000000091
  3
寸法線20
100
AcDbAlignedDimension
 13
3710.000000000047
 23
1750.0
 33
0.0
 14
4010.000000000046
 24
1800.000000000001
 34
0.0
 50
90.0
100
AcDbRotatedDimension
  0
DIMENSION
  5
31EF
330
6C
100
AcDbEntity
  8
0
100
AcDbDimension
  2
*D4
 10
2450.0
 20
5700.000000000001
 30
0.0
 11
2560.0
 21
5755.000000000001
 31
0.0
 70
   160
 71
     5
 42
50.0
  3
寸法線20
100
AcDbAlignedDimension
 13
2500.0
 23
5800.0
 33
0.0
 14
2450.0
 24
6000.000000000003
 34
0.0
100
AcDbRotatedDimension
  0
DIMENSION
  5
31F0
330
6C
100
AcDbEntity
  8
0
100
AcDbDimension
  2
*D5
 10
2810.0
 20
6880.000000000002
 30
0.0
 11
2630.0
 21
6935.000000000002
 31
0.0
 70
    32
  1
A
 71
     5
 42
360.0
  3
寸法線20
100
AcDbAlignedDimension
 13
2450.0
 23
6580.000000000002
 33
0.0
 14
2810.0
 24
6580.000000000002
 34
0.0
100
AcDbRotatedDimension
  0
LINE
  5
31F1
330
6C
100
AcDbEntity
  8
0
100
AcDbLine
 10
2450.0
 20
6480.000000000001
 30
0.0
 11
2810.0
 21
6460.0
 31
0.0
  0
LINE
  5
31F2
330
6C
100
AcDbEntity
  8
0
  6
CENTER2
100
AcDbLine
 10
2480.0
 20
6300.000000000003
 30
0.0
 11
2780.0
 21
6300.0
 31
0.0
  0
CIRCLE
  5
31F3
330
6C
100
AcDbEntity
  8
0
100
AcDbCircle
 10
2630.0
 20
6300.000000000003
 30
0.0
 40
153.0
  0
LINE
  5
31F4
330
6C
100
AcDbEntity
  8
0
100
AcDbLine
 10
2810.0
 20
6100.000000000003
 30
0.0
 11
2560.0
 21
6100.000000000003
 31
0.0
  0
DIMENSION
  5
31F5
330
6C
100
AcDbEntity
  8
0
100
AcDbDimension
  2
*D6
 10
3360.0
 20
6100.000000000003
 30
0.0
 11
3304.999999999999
 21
6280.000000000004
 31
0.0
 70
    32
  1
B
 71
     5
 42
360.0
  3
寸法線20
100
AcDbAlignedDimension
 13
2910.0
 23
6460.000000000002
 33
0.0
 14
2910.0
 24
6100.000000000003
 34
0.0
 50
90.0
100
AcDbRotatedDimension
  0
LINE
  5
31F6
330
6C
100
AcDbEntity
  8
0
100
AcDbLine
 10
2450.0
 20
6480.000000000001
 30
0.0
 11
2450.0
 21
6000.000000000003
 31
0.0
  0
LINE
  5
31F7
330
6C
100
AcDbEntity
  8
0
100
AcDbLine
 10
2810.0
 20
6460.0
 30
0.0
 11
2810.0
 21
6100.000000000003
 31
0.0
  0
LINE
  5
31F8
330
6C
100
AcDbEntity
  8
0
  6
CENTER2
100
AcDbLine
 10
2630.0
 20
6150.000000000003
 30
0.0
 11
2630.0
 21
6450.000000000002
 31
0.0
  0
LINE
  5
31F9
330
6C
100
AcDbEntity
  8
0
  6
PHANTOM2
100
AcDbLine
 10
4045.0
 20
1800.000000000001
 30
0.0
 11
4045.0
 21
1440.000000000001
 31
0.0
  0
LINE
  5
31FA
330
6C
100
AcDbEntity
  8
0
  6
PHANTOM2
100
AcDbLine
 10
955.0
 20
1440.000000000001
 30
0.0
 11
955.0
 21
1800.000000000001
 31
0.0
  0
LINE
  5
31FB
330
6C
100
AcDbEntity
  8
0
  6
PHANTOM2
100
AcDbLine
 10
4045.0
 20
1440.000000000001
 30
0.0
 11
4025.0
 21
1440.000000000001
 31
0.0
  0
LINE
  5
31FC
330
6C
100
AcDbEntity
  8
0
100
AcDbLine
 10
4000.0
 20
3500.000000000001
 30
0.0
 11
1260.0
 21
3500.000000000001
 31
0.0
  0
DIMENSION
  5
31FD
330
6C
100
AcDbEntity
  8
0
100
AcDbDimension
  2
*D7
 10
4000.0
 20
2400.0
 30
0.0
 11
2500.0
 21
2455.0
 31
0.0
 70
    32
  1
W
 71
     5
 42
3000.0
  3
寸法線20
100
AcDbAlignedDimension
 13
1000.0
 23
2000.0
 33
0.0
 14
4000.0
 24
2000.0
 34
0.0
100
AcDbRotatedDimension
  0
LINE
  5
31FE
330
6C
100
AcDbEntity
  8
0
  6
CENTER2
100
AcDbLine
 10
967.0
 20
1750.0
 30
0.0
 11
4033.0
 21
1750.0
 31
0.0
  0
DIMENSION
  5
31FF
330
6C
100
AcDbEntity
  8
0
100
AcDbDimension
  2
*D8
 10
3360.0
 20
3500.000000000002
 30
0.0
 11
3305.0
 21
4750.000000000002
 31
0.0
 70
    32
  1
H
 71
     5
 42
2500.0
  3
寸法線20
100
AcDbAlignedDimension
 13
2910.0
 23
6000.0
 33
0.0
 14
3260.0
 24
3500.000000000002
 34
0.0
 50
90.0
100
AcDbRotatedDimension
  0
LINE
  5
3200
330
6C
100
AcDbEntity
  8
0
  6
CENTER2
100
AcDbLine
 10
2500.0
 20
6100.000000000003
 30
0.0
 11
2500.0
 21
3500.000000000001
 31
0.0
  0
DIMENSION
  5
3201
330
6C
100
AcDbEntity
  8
0
100
AcDbDimension
  2
*D9
 10
3360.0
 20
6480.000000000003
 30
0.0
 11
3305.0
 21
6545.000000000003
 31
0.0
 70
   160
 71
     5
 42
20.0
  3
寸法線20
100
AcDbAlignedDimension
 13
2910.0
 23
6460.000000000002
 33
0.0
 14
2910.0
 24
6480.000000000003
 34
0.0
 50
90.0
100
AcDbRotatedDimension
  0
DIMENSION
  5
3202
330
6C
100
AcDbEntity
  8
0
100
AcDbDimension
  2
*D10
 10
1000.0
 20
790.0
 30
0.0
 11
877.5
 21
845.0
 31
0.0
 70
   160
 71
     5
 42
45.0
  3
寸法線20
100
AcDbAlignedDimension
 13
955.0
 23
1340.0
 33
0.0
 14
1000.0
 24
1340.0
 34
0.0
100
AcDbRotatedDimension
  0
DIMENSION
  5
3203
330
6C
100
AcDbEntity
  8
0
100
AcDbDimension
  2
*D11
 10
4045.0
 20
790.0
 30
0.0
 11
4122.5
 21
845.0
 31
0.0
 70
   160
 71
     5
 42
45.0
  3
寸法線20
100
AcDbAlignedDimension
 13
4000.0
 23
1340.0
 33
0.0
 14
4045.0
 24
1340.0
 34
0.0
100
AcDbRotatedDimension
  0
DIMENSION
  5
3204
330
6C
100
AcDbEntity
  8
0
100
AcDbDimension
  2
*D12
 10
4000.0
 20
790.0
 30
0.0
 11
2500.0
 21
845.0
 31
0.0
 70
    32
  1
W
 71
     5
 42
3000.0
  3
寸法線20
100
AcDbAlignedDimension
 13
1000.0
 23
1340.0
 33
0.0
 14
4000.0
 24
1340.0
 34
0.0
100
AcDbRotatedDimension
  0
LINE
  5
3205
330
6C
100
AcDbEntity
  8
0
100
AcDbLine
 10
2560.0
 20
6100.000000000003
 30
0.0
 11
2560.0
 21
6000.000000000003
 31
0.0
  0
LINE
  5
3206
330
6C
100
AcDbEntity
  8
0
100
AcDbLine
 10
4000.0
 20
6010.000000000003
 30
0.0
 11
2565.0
 21
6010.000000000003
 31
0.0
  0
LINE
  5
3207
330
6C
100
AcDbEntity
  8
0
100
AcDbLine
 10
2445.0
 20
6010.000000000003
 30
0.0
 11
1260.0
 21
6010.000000000003
 31
0.0
  0
DIMENSION
  5
3208
330
6C
100
AcDbEntity
  8
0
100
AcDbDimension
  2
*D13
 10
3360.0
 20
6000.0
 30
0.0
 11
3414.999999999996
 21
6100.000000000003
 31
0.0
 70
   160
 71
     5
 42
100.0000000000018
  3
寸法線20
100
AcDbAlignedDimension
 13
2910.0
 23
6100.000000000003
 33
0.0
 14
2910.0
 24
6000.0
 34
0.0
 50
90.0
100
AcDbRotatedDimension
  0
LINE
  5
3209
330
6C
100
AcDbEntity
  8
0
  6
PHANTOM2
100
AcDbLine
 10
955.0
 20
1800.000000000001
 30
0.0
 11
975.0
 21
1800.000000000001
 31
0.0
  0
LINE
  5
320A
330
6C
100
AcDbEntity
  8
0
  6
PHANTOM2
100
AcDbLine
 10
975.0
 20
1440.000000000001
 30
0.0
 11
955.0
 21
1440.000000000001
 31
0.0
  0
LINE
  5
320B
330
6C
100
AcDbEntity
  8
0
  6
PHANTOM2
100
AcDbLine
 10
4045.0
 20
1800.000000000001
 30
0.0
 11
4025.0
 21
1800.000000000001
 31
0.0
  0
TEXT
  5
320C
330
6C
100
AcDbEntity
  8
0
100
AcDbText
 10
2850.0
 20
4903.000000000001
 30
0.0
 40
90.0
  1
外  部
 41
0.8
  7
縦文字
 72
     1
 11
2850.0
 21
4750.0
 31
0.0
100
AcDbText
 73
     2
  0
TEXT
  5
320D
330
6C
100
AcDbEntity
  8
0
100
AcDbText
 10
2150.0
 20
4903.000000000001
 30
0.0
 40
90.0
  1
内  部
 41
0.8
  7
縦文字
 72
     1
 11
2150.0
 21
4750.0
 31
0.0
100
AcDbText
 73
     2
  0
TEXT
  5
320E
330
6C
100
AcDbEntity
  8
0
100
AcDbText
 10
2380.0
 20
1035.0
 30
0.0
 40
90.0
  1
外  部
 41
0.8
  7
横文字
 72
     1
 11
2500.0
 21
1080.0
 31
0.0
100
AcDbText
 73
     2
  0
TEXT
  5
320F
330
6C
100
AcDbEntity
  8
0
100
AcDbText
 10
2377.6
 20
2205.0
 30
0.0
 40
90.0
  1
内  部
 41
0.8
  7
横文字
 72
     1
 11
2500.0
 21
2250.0
 31
0.0
100
AcDbText
 73
     2
  0
LINE
  5
3210
330
6C
100
AcDbEntity
  8
0
100
AcDbLine
 10
2435.0
 20
6010.000000000003
 30
0.0
 11
2435.0
 21
6000.000000000003
 31
0.0
  0
LINE
  5
3211
330
6C
100
AcDbEntity
  8
0
100
AcDbLine
 10
2435.0
 20
6000.000000000003
 30
0.0
 11
2475.0
 21
6000.000000000003
 31
0.0
  0
LINE
  5
3212
330
6C
100
AcDbEntity
  8
0
100
AcDbLine
 10
2535.0
 20
6000.000000000003
 30
0.0
 11
2575.0
 21
6000.000000000003
 31
0.0
  0
LINE
  5
3213
330
6C
100
AcDbEntity
  8
0
100
AcDbLine
 10
2575.0
 20
6000.000000000003
 30
0.0
 11
2575.0
 21
6010.000000000003
 31
0.0
  0
LINE
  5
3214
330
6C
100
AcDbEntity
  8
0
100
AcDbLine
 10
2805.0
 20
6455.000000000001
 30
0.0
 11
2805.0
 21
6415.0
 31
0.0
  0
LINE
  5
3215
330
6C
100
AcDbEntity
  8
0
100
AcDbLine
 10
2780.0
 20
6455.000000000001
 30
0.0
 11
2782.545517328094
 21
6445.500000000001
 31
0.0
  0
LINE
  5
3216
330
6C
100
AcDbEntity
  8
0
100
AcDbLine
 10
2805.0
 20
6455.000000000001
 30
0.0
 11
2780.0
 21
6455.000000000001
 31
0.0
  0
LINE
  5
3217
330
6C
100
AcDbEntity
  8
0
100
AcDbLine
 10
2783.5
 20
6415.0
 30
0.0
 11
2805.0
 21
6415.0
 31
0.0
  0
LINE
  5
3218
330
6C
100
AcDbEntity
  8
0
100
AcDbLine
 10
2475.0
 20
6000.000000000003
 30
0.0
 11
2475.0
 21
6040.000000000002
 31
0.0
  0
LINE
  5
3219
330
6C
100
AcDbEntity
  8
0
100
AcDbLine
 10
2535.0
 20
6040.000000000002
 30
0.0
 11
2535.0
 21
6000.000000000003
 31
0.0
  0
LINE
  5
321A
330
6C
100
AcDbEntity
  8
0
100
AcDbLine
 10
2475.0
 20
6040.000000000002
 30
0.0
 11
2452.0
 21
6040.000000000002
 31
0.0
  0
LINE
  5
321B
330
6C
100
AcDbEntity
  8
0
100
AcDbLine
 10
2535.0
 20
6040.000000000002
 30
0.0
 11
2558.0
 21
6040.000000000002
 31
0.0
  0
LINE
  5
321C
330
6C
100
AcDbEntity
  8
0
100
AcDbLine
 10
4000.0
 20
1730.0
 30
0.0
 11
4045.0
 21
1730.0
 31
0.0
  0
LINE
  5
321D
330
6C
100
AcDbEntity
  8
0
100
AcDbLine
 10
4045.0
 20
1730.0
 30
0.0
 11
4045.0
 21
1770.0
 31
0.0
  0
LINE
  5
321E
330
6C
100
AcDbEntity
  8
0
100
AcDbLine
 10
4000.0
 20
1770.0
 30
0.0
 11
4045.0
 21
1770.0
 31
0.0
  0
LINE
  5
321F
330
6C
100
AcDbEntity
  8
0
100
AcDbLine
 10
4000.0
 20
1770.0
 30
0.0
 11
4000.0
 21
1760.00000000004
 31
0.0
  0
LINE
  5
3220
330
6C
100
AcDbEntity
  8
0
100
AcDbLine
 10
4000.0
 20
1730.0
 30
0.0
 11
4000.0
 21
1740.00000000004
 31
0.0
  0
LINE
  5
3221
330
6C
100
AcDbEntity
  8
0
100
AcDbLine
 10
4000.0
 20
1760.00000000004
 30
0.0
 11
4007.299999999999
 21
1760.00000000004
 31
0.0
  0
LINE
  5
3222
330
6C
100
AcDbEntity
  8
0
100
AcDbLine
 10
4000.0
 20
1740.00000000004
 30
0.0
 11
4007.299999999999
 21
1740.00000000004
 31
0.0
  0
LINE
  5
3223
330
6C
100
AcDbEntity
  8
0
100
AcDbLine
 10
1000.0
 20
1730.0
 30
0.0
 11
955.0
 21
1730.0
 31
0.0
  0
LINE
  5
3224
330
6C
100
AcDbEntity
  8
0
100
AcDbLine
 10
955.0
 20
1730.0
 30
0.0
 11
955.0
 21
1770.0
 31
0.0
  0
LINE
  5
3225
330
6C
100
AcDbEntity
  8
0
100
AcDbLine
 10
1000.0
 20
1770.0
 30
0.0
 11
955.0
 21
1770.0
 31
0.0
  0
LINE
  5
3226
330
6C
100
AcDbEntity
  8
0
100
AcDbLine
 10
1000.0
 20
1770.0
 30
0.0
 11
1000.0
 21
1760.00000000004
 31
0.0
  0
LINE
  5
3227
330
6C
100
AcDbEntity
  8
0
100
AcDbLine
 10
1000.0
 20
1730.0
 30
0.0
 11
1000.0
 21
1740.00000000004
 31
0.0
  0
LINE
  5
3228
330
6C
100
AcDbEntity
  8
0
100
AcDbLine
 10
1000.0
 20
1760.00000000004
 30
0.0
 11
992.7000000000006
 21
1760.00000000004
 31
0.0
  0
LINE
  5
3229
330
6C
100
AcDbEntity
  8
0
100
AcDbLine
 10
1000.0
 20
1740.00000000004
 30
0.0
 11
992.7000000000006
 21
1740.00000000004
 31
0.0
  0
DIMENSION
  5
337D
330
6C
100
AcDbEntity
  8
0
100
AcDbDimension
  2
*D14
 10
4045.0
 20
640.0
 30
0.0
 11
2500.0
 21
695.0
 31
0.0
 70
    32
  1
W+90
 71
     5
 42
3090.0
  3
寸法線20
100
AcDbAlignedDimension
 13
955.0
 23
1340.0
 33
0.0
 14
4045.0
 24
1340.0
 34
0.0
100
AcDbRotatedDimension
  0
TEXT
  5
343C
330
6C
100
AcDbEntity
  8
0
100
AcDbText
 10
4450.0
 20
6625.0
 30
0.0
 40
70.0
  1
F6104・F6108共通
 41
0.8
  7
文字
 72
     1
 11
4810.0
 21
6660.0
 31
0.0
100
AcDbText
 73
     2
  0
LINE
  5
3493
330
6C
100
AcDbEntity
  8
0
100
AcDbLine
 10
7170.0
 20
6440.0
 30
0.0
 11
7800.0
 21
6440.0
 31
0.0
  0
LINE
  5
3494
330
6C
100
AcDbEntity
  8
0
100
AcDbLine
 10
7800.0
 20
6440.0
 30
0.0
 11
7800.0
 21
5760.0
 31
0.0
  0
LINE
  5
3495
330
6C
100
AcDbEntity
  8
0
100
AcDbLine
 10
7800.0
 20
5790.0
 30
0.0
 11
7200.0
 21
5790.0
 31
0.0
  0
LINE
  5
3496
330
6C
100
AcDbEntity
  8
0
100
AcDbLine
 10
7200.0
 20
5790.0
 30
0.0
 11
7200.0
 21
6440.0
 31
0.0
  0
LINE
  5
3497
330
6C
100
AcDbEntity
  8
0
  6
HIDDEN
100
AcDbLine
 10
7800.0
 20
5840.0
 30
0.0
 11
7170.0
 21
5840.0
 31
0.0
  0
LINE
  5
3498
330
6C
100
AcDbEntity
  8
0
  6
HIDDEN
100
AcDbLine
 10
7800.0
 20
6040.0
 30
0.0
 11
7170.0
 21
6040.0
 31
0.0
  0
LINE
  5
3499
330
6C
100
AcDbEntity
  8
0
  6
HIDDEN
100
AcDbLine
 10
7800.0
 20
6240.0
 30
0.0
 11
7170.0
 21
6240.0
 31
0.0
  0
LINE
  5
349A
330
6C
100
AcDbEntity
  8
0
  6
HIDDEN
100
AcDbLine
 10
7400.0
 20
5760.0
 30
0.0
 11
7400.0
 21
6440.0
 31
0.0
  0
LINE
  5
349B
330
6C
100
AcDbEntity
  8
0
  6
HIDDEN
100
AcDbLine
 10
7600.0
 20
6440.0
 30
0.0
 11
7600.0
 21
5760.0
 31
0.0
  0
TEXT
  5
349C
330
6C
100
AcDbEntity
  8
0
100
AcDbText
 10
7320.952380952379
 20
5705.0
 30
0.0
 40
50.0
  1
1000
 41
0.8
  7
横文字
 72
     1
 11
7399.999999999998
 21
5730.0
 31
0.0
100
AcDbText
 73
     2
  0
TEXT
  5
349D
330
6C
100
AcDbEntity
  8
0
100
AcDbText
 10
7523.809523809522
 20
5705.0
 30
0.0
 40
50.0
  1
2000
 41
0.8
  7
横文字
 72
     1
 11
7599.999999999998
 21
5730.0
 31
0.0
100
AcDbText
 73
     2
  0
TEXT
  5
349E
330
6C
100
AcDbEntity
  8
0
100
AcDbText
 10
7723.809523809523
 20
5705.0
 30
0.0
 40
50.0
  1
3000
 41
0.8
  7
横文字
 72
     1
 11
7799.999999999998
 21
5730.0
 31
0.0
100
AcDbText
 73
     2
  0
TEXT
  5
349F
330
6C
100
AcDbEntity
  8
0
100
AcDbText
 10
7003.333333333333
 20
6215.0
 30
0.0
 40
50.0
  1
3000
 41
0.8
  7
横文字
 72
     2
 11
7150.0
 21
6240.0
 31
0.0
100
AcDbText
 73
     2
  0
TEXT
  5
34A0
330
6C
100
AcDbEntity
  8
0
100
AcDbText
 10
7003.333333333333
 20
6415.0
 30
0.0
 40
50.0
  1
4000
 41
0.8
  7
横文字
 72
     2
 11
7150.0
 21
6440.0
 31
0.0
100
AcDbText
 73
     2
  0
TEXT
  5
34A1
330
6C
100
AcDbEntity
  8
0
100
AcDbText
 10
7003.333333333333
 20
6015.0
 30
0.0
 40
50.0
  1
2000
 41
0.8
  7
横文字
 72
     2
 11
7150.0
 21
6040.0
 31
0.0
100
AcDbText
 73
     2
  0
TEXT
  5
34A2
330
6C
100
AcDbEntity
  8
0
100
AcDbText
 10
7003.333333333333
 20
5815.0
 30
0.0
 40
50.0
  1
1000
 41
0.8
  7
横文字
 72
     2
 11
7150.0
 21
5840.0
 31
0.0
100
AcDbText
 73
     2
  0
LINE
  5
34A3
330
6C
100
AcDbEntity
  8
0
  6
HIDDEN
100
AcDbLine
 10
7340.0
 20
5790.0
 30
0.0
 11
7340.0
 21
6470.0
 31
0.0
  0
TEXT
  5
34A4
330
6C
100
AcDbEntity
  8
0
100
AcDbText
 10
7282.857142857143
 20
6475.0
 30
0.0
 40
50.0
  1
700
 41
0.8
  7
横文字
 72
     1
 11
7340.0
 21
6500.0
 31
0.0
100
AcDbText
 73
     2
  0
LINE
  5
34A5
330
6C
100
AcDbEntity
  8
0
  6
HIDDEN
100
AcDbLine
 10
7500.0
 20
5790.0
 30
0.0
 11
7500.0
 21
6530.0
 31
0.0
  0
TEXT
  5
34A6
330
6C
100
AcDbEntity
  8
0
100
AcDbText
 10
7420.952380952382
 20
6535.0
 30
0.0
 40
50.0
  1
1500
 41
0.8
  7
横文字
 72
     1
 11
7500.0
 21
6560.0
 31
0.0
100
AcDbText
 73
     2
  0
LINE
  5
34A7
330
6C
100
AcDbEntity
  8
0
  6
HIDDEN
100
AcDbLine
 10
7650.0
 20
6470.0
 30
0.0
 11
7650.0
 21
5790.0
 31
0.0
  0
TEXT
  5
34A8
330
6C
100
AcDbEntity
  8
0
100
AcDbText
 10
7573.809523809524
 20
6475.0
 30
0.0
 40
50.0
  1
2250
 41
0.8
  7
横文字
 72
     1
 11
7650.0
 21
6500.0
 31
0.0
100
AcDbText
 73
     2
  0
LINE
  5
34A9
330
6C
100
AcDbEntity
  8
0
100
AcDbLine
 10
7800.0
 20
5840.0
 30
0.0
 11
7340.0
 21
5840.0
 31
0.0
  0
LINE
  5
34AA
330
6C
100
AcDbEntity
  8
0
100
AcDbLine
 10
7340.0
 20
5840.0
 30
0.0
 11
7340.0
 21
6240.0
 31
0.0
  0
LINE
  5
34AB
330
6C
100
AcDbEntity
  8
0
100
AcDbLine
 10
7340.0
 20
6240.0
 30
0.0
 11
7500.0
 21
6440.0
 31
0.0
  0
LINE
  5
34AC
330
6C
100
AcDbEntity
  8
0
100
AcDbLine
 10
7500.0
 20
6440.0
 30
0.0
 11
7650.0
 21
6440.0
 31
0.0
  0
LINE
  5
34AD
330
6C
100
AcDbEntity
  8
0
100
AcDbLine
 10
7650.0
 20
6440.0
 30
0.0
 11
7800.0
 21
6240.0
 31
0.0
  0
LINE
  5
34AE
330
6C
100
AcDbEntity
  8
0
100
AcDbLine
 10
7800.0
 20
6240.0
 30
0.0
 11
7800.0
 21
5840.0
 31
0.0
  0
TEXT
  5
34AF
330
6C
100
AcDbEntity
  8
0
100
AcDbText
 10
6975.714285714285
 20
6495.0
 30
0.0
 40
50.0
  1
開口 H
 41
0.8
  7
横文字
 72
     2
 11
7130.0
 21
6520.0
 31
0.0
100
AcDbText
 73
     2
  0
CIRCLE
  5
34B0
330
6C
100
AcDbEntity
  8
0
100
AcDbCircle
 10
7115.0
 20
6520.0
 30
0.0
 40
40.0
  0
TEXT
  5
34B1
330
6C
100
AcDbEntity
  8
0
100
AcDbText
 10
6950.0
 20
6625.0
 30
0.0
 40
70.0
  1
%%UF06104仕様範囲
 41
0.8
  7
横文字
 11
6950.0
 21
6660.0
 31
0.0
100
AcDbText
 73
     2
  0
LINE
  5
34B2
330
6C
100
AcDbEntity
  8
0
100
AcDbLine
 10
8670.0
 20
6440.0
 30
0.0
 11
9300.0
 21
6440.0
 31
0.0
  0
LINE
  5
34B3
330
6C
100
AcDbEntity
  8
0
100
AcDbLine
 10
9300.0
 20
6440.0
 30
0.0
 11
9300.0
 21
5760.0
 31
0.0
  0
LINE
  5
34B4
330
6C
100
AcDbEntity
  8
0
100
AcDbLine
 10
9300.0
 20
5790.0
 30
0.0
 11
8700.0
 21
5790.0
 31
0.0
  0
LINE
  5
34B5
330
6C
100
AcDbEntity
  8
0
100
AcDbLine
 10
8700.0
 20
5790.0
 30
0.0
 11
8700.0
 21
6440.0
 31
0.0
  0
LINE
  5
34B6
330
6C
100
AcDbEntity
  8
0
  6
HIDDEN
100
AcDbLine
 10
9300.0
 20
5840.0
 30
0.0
 11
8670.0
 21
5840.0
 31
0.0
  0
LINE
  5
34B7
330
6C
100
AcDbEntity
  8
0
  6
HIDDEN
100
AcDbLine
 10
9300.0
 20
6040.0
 30
0.0
 11
8670.0
 21
6040.0
 31
0.0
  0
LINE
  5
34B8
330
6C
100
AcDbEntity
  8
0
  6
HIDDEN
100
AcDbLine
 10
9300.0
 20
6240.0
 30
0.0
 11
8670.0
 21
6240.0
 31
0.0
  0
LINE
  5
34B9
330
6C
100
AcDbEntity
  8
0
  6
HIDDEN
100
AcDbLine
 10
8900.0
 20
5760.0
 30
0.0
 11
8900.0
 21
6440.0
 31
0.0
  0
LINE
  5
34BA
330
6C
100
AcDbEntity
  8
0
  6
HIDDEN
100
AcDbLine
 10
9100.0
 20
6440.0
 30
0.0
 11
9100.0
 21
5760.0
 31
0.0
  0
TEXT
  5
34BB
330
6C
100
AcDbEntity
  8
0
100
AcDbText
 10
8820.95238095238
 20
5705.0
 30
0.0
 40
50.0
  1
1000
 41
0.8
  7
横文字
 72
     1
 11
8899.999999999998
 21
5730.0
 31
0.0
100
AcDbText
 73
     2
  0
TEXT
  5
34BC
330
6C
100
AcDbEntity
  8
0
100
AcDbText
 10
9023.809523809521
 20
5705.0
 30
0.0
 40
50.0
  1
2000
 41
0.8
  7
横文字
 72
     1
 11
9099.999999999999
 21
5730.0
 31
0.0
100
AcDbText
 73
     2
  0
TEXT
  5
34BD
330
6C
100
AcDbEntity
  8
0
100
AcDbText
 10
9223.809523809521
 20
5705.0
 30
0.0
 40
50.0
  1
3000
 41
0.8
  7
横文字
 72
     1
 11
9299.999999999998
 21
5730.0
 31
0.0
100
AcDbText
 73
     2
  0
TEXT
  5
34BE
330
6C
100
AcDbEntity
  8
0
100
AcDbText
 10
8503.333333333335
 20
6215.0
 30
0.0
 40
50.0
  1
3000
 41
0.8
  7
横文字
 72
     2
 11
8650.0
 21
6240.0
 31
0.0
100
AcDbText
 73
     2
  0
TEXT
  5
34BF
330
6C
100
AcDbEntity
  8
0
100
AcDbText
 10
8503.333333333335
 20
6415.0
 30
0.0
 40
50.0
  1
4000
 41
0.8
  7
横文字
 72
     2
 11
8650.0
 21
6440.0
 31
0.0
100
AcDbText
 73
     2
  0
TEXT
  5
34C0
330
6C
100
AcDbEntity
  8
0
100
AcDbText
 10
8503.333333333335
 20
6015.0
 30
0.0
 40
50.0
  1
2000
 41
0.8
  7
横文字
 72
     2
 11
8650.0
 21
6040.0
 31
0.0
100
AcDbText
 73
     2
  0
TEXT
  5
34C1
330
6C
100
AcDbEntity
  8
0
100
AcDbText
 10
8503.333333333335
 20
5815.0
 30
0.0
 40
50.0
  1
1000
 41
0.8
  7
横文字
 72
     2
 11
8650.0
 21
5840.0
 31
0.0
100
AcDbText
 73
     2
  0
LINE
  5
34C2
330
6C
100
AcDbEntity
  8
0
  6
HIDDEN
100
AcDbLine
 10
8840.0
 20
5790.0
 30
0.0
 11
8840.0
 21
6470.0
 31
0.0
  0
TEXT
  5
34C3
330
6C
100
AcDbEntity
  8
0
100
AcDbText
 10
8782.857142857144
 20
6475.0
 30
0.0
 40
50.0
  1
700
 41
0.8
  7
横文字
 72
     1
 11
8840.0
 21
6500.0
 31
0.0
100
AcDbText
 73
     2
  0
LINE
  5
34C4
330
6C
100
AcDbEntity
  8
0
  6
HIDDEN
100
AcDbLine
 10
9050.0
 20
6470.0
 30
0.0
 11
9050.0
 21
5790.0
 31
0.0
  0
TEXT
  5
34C5
330
6C
100
AcDbEntity
  8
0
100
AcDbText
 10
8970.952380952381
 20
6475.0
 30
0.0
 40
50.0
  1
1750
 41
0.8
  7
横文字
 72
     1
 11
9050.0
 21
6500.0
 31
0.0
100
AcDbText
 73
     2
  0
LINE
  5
34C6
330
6C
100
AcDbEntity
  8
0
100
AcDbLine
 10
9300.0
 20
5840.0
 30
0.0
 11
8840.0
 21
5840.0
 31
0.0
  0
LINE
  5
34C7
330
6C
100
AcDbEntity
  8
0
100
AcDbLine
 10
8840.0
 20
5840.0
 30
0.0
 11
8840.0
 21
6040.0
 31
0.0
  0
LINE
  5
34C8
330
6C
100
AcDbEntity
  8
0
100
AcDbLine
 10
8840.0
 20
6040.0
 30
0.0
 11
8900.0
 21
6340.0
 31
0.0
  0
LINE
  5
34C9
330
6C
100
AcDbEntity
  8
0
100
AcDbLine
 10
8900.0
 20
6340.0
 30
0.0
 11
9050.0
 21
6340.0
 31
0.0
  0
LINE
  5
34CA
330
6C
100
AcDbEntity
  8
0
100
AcDbLine
 10
9050.0
 20
6340.0
 30
0.0
 11
9300.0
 21
6040.0
 31
0.0
  0
LINE
  5
34CB
330
6C
100
AcDbEntity
  8
0
100
AcDbLine
 10
9300.0
 20
6040.0
 30
0.0
 11
9300.0
 21
5840.0
 31
0.0
  0
TEXT
  5
34CC
330
6C
100
AcDbEntity
  8
0
100
AcDbText
 10
8475.714285714287
 20
6495.0
 30
0.0
 40
50.0
  1
開口 H
 41
0.8
  7
横文字
 72
     2
 11
8630.0
 21
6520.0
 31
0.0
100
AcDbText
 73
     2
  0
CIRCLE
  5
34CD
330
6C
100
AcDbEntity
  8
0
100
AcDbCircle
 10
8615.0
 20
6520.0
 30
0.0
 40
40.0
  0
TEXT
  5
34CE
330
6C
100
AcDbEntity
  8
0
100
AcDbText
 10
8450.0
 20
6625.0
 30
0.0
 40
70.0
  1
%%UF06108仕様範囲
 41
0.8
  7
横文字
 11
8450.0
 21
6660.0
 31
0.0
100
AcDbText
 73
     2
  0
LINE
  5
34CF
330
6C
100
AcDbEntity
  8
0
  6
HIDDEN
100
AcDbLine
 10
9300.0
 20
6340.0
 30
0.0
 11
8670.0
 21
6340.0
 31
0.0
  0
TEXT
  5
34D0
330
6C
100
AcDbEntity
  8
0
100
AcDbText
 10
8503.333333333335
 20
6315.0
 30
0.0
 40
50.0
  1
3500
 41
0.8
  7
横文字
 72
     2
 11
8650.0
 21
6340.0
 31
0.0
100
AcDbText
 73
     2
  0
TEXT
  5
34D1
330
6C
100
AcDbEntity
  8
0
100
AcDbText
 10
7829.999999999998
 20
5860.0
 30
0.0
 40
50.0
  1
開口 W
 41
0.8
  7
横文字
 11
7829.999999999998
 21
5885.0
 31
0.0
100
AcDbText
 73
     2
  0
TEXT
  5
34D2
330
6C
100
AcDbEntity
  8
0
100
AcDbText
 10
7829.999999999998
 20
5790.0
 30
0.0
 40
50.0
  1
（1連当り）
 41
0.8
  7
横文字
 11
7829.999999999998
 21
5815.0
 31
0.0
100
AcDbText
 73
     2
  0
CIRCLE
  5
34D3
330
6C
100
AcDbEntity
  8
0
100
AcDbCircle
 10
7971.285714285712
 20
5885.0
 30
0.0
 40
40.0
  0
TEXT
  5
34D4
330
6C
100
AcDbEntity
  8
0
100
AcDbText
 10
9329.999999999998
 20
5860.0
 30
0.0
 40
50.0
  1
開口 W
 41
0.8
  7
横文字
 11
9329.999999999998
 21
5885.0
 31
0.0
100
AcDbText
 73
     2
  0
TEXT
  5
34D5
330
6C
100
AcDbEntity
  8
0
100
AcDbText
 10
9329.999999999998
 20
5790.0
 30
0.0
 40
50.0
  1
（1連当り）
 41
0.8
  7
横文字
 11
9329.999999999998
 21
5815.0
 31
0.0
100
AcDbText
 73
     2
  0
CIRCLE
  5
34D6
330
6C
100
AcDbEntity
  8
0
100
AcDbCircle
 10
9471.285714285711
 20
5885.0
 30
0.0
 40
40.0
  0
LINE
  5
360B
330
6C
100
AcDbEntity
  8
0
  6
PHANTOM2
100
AcDbLine
 10
2725.0
 20
1650.0
 30
0.0
 11
2275.0
 21
1650.0
 31
0.0
  0
LINE
  5
360C
330
6C
100
AcDbEntity
  8
0
  6
PHANTOM2
100
AcDbLine
 10
2275.0
 20
1650.0
 30
0.0
 11
2275.0
 21
1200.0
 31
0.0
  0
LINE
  5
360D
330
6C
100
AcDbEntity
  8
0
  6
PHANTOM2
100
AcDbLine
 10
2275.0
 20
1200.0
 30
0.0
 11
2725.0
 21
1200.0
 31
0.0
  0
LINE
  5
360E
330
6C
100
AcDbEntity
  8
0
  6
PHANTOM2
100
AcDbLine
 10
2725.0
 20
1200.0
 30
0.0
 11
2725.0
 21
1650.0
 31
0.0
  0
LINE
  5
360F
330
6C
100
AcDbEntity
  8
0
  6
PHANTOM2
100
AcDbLine
 10
2725.0
 20
1650.0
 30
0.0
 11
2275.0
 21
1200.000000000001
 31
0.0
  0
LINE
  5
3610
330
6C
100
AcDbEntity
  8
0
  6
PHANTOM2
100
AcDbLine
 10
2275.0
 20
1650.0
 30
0.0
 11
2725.0
 21
1200.0
 31
0.0
  0
TEXT
  5
3611
330
6C
100
AcDbEntity
  8
0
100
AcDbText
 10
2272.266666666669
 20
1264.000000000002
 30
0.0
 40
70.0
  1
（当社工事外）
 41
0.8
  7
横文字
 72
     1
 11
2500.000000000002
 21
1299.000000000002
 31
0.0
100
AcDbText
 73
     2
  0
TEXT
  5
3612
330
6C
100
AcDbEntity
  8
0
100
AcDbText
 10
2306.400000000002
 20
1390.000000000002
 30
0.0
 40
70.0
  1
450ｘ450
 41
0.8
  7
横文字
 72
     1
 11
2500.000000000002
 21
1425.000000000002
 31
0.0
100
AcDbText
 73
     2
  0
TEXT
  5
3613
330
6C
100
AcDbEntity
  8
0
100
AcDbText
 10
2341.333333333335
 20
1516.000000000001
 30
0.0
 40
70.0
  1
天井点検口
 41
0.8
  7
横文字
 72
     1
 11
2500.000000000002
 21
1551.000000000002
 31
0.0
100
AcDbText
 73
     2
  0
ENDSEC
  0
SECTION
  2
OBJECTS
  0
DICTIONARY
  5
C
330
0
100
AcDbDictionary
281
     1
  3
ACAD_COLOR
350
63
  3
ACAD_GROUP
350
D
  3
ACAD_LAYOUT
350
62
  3
ACAD_MATERIAL
350
10
  3
ACAD_MLEADERSTYLE
350
66
  3
ACAD_MLINESTYLE
350
5F
  3
ACAD_PLOTSETTINGS
350
61
  3
ACAD_PLOTSTYLENAME
350
E
  3
ACAD_SCALELIST
350
42
  3
ACAD_TABLESTYLE
350
64
  3
ACAD_VISUALSTYLE
350
29
  3
ACDB_RECOMPOSE_DATA
350
3732
  3
AcDbVariableDictionary
350
1976
  3
AEC_PROPERTY_SET_DEFS
350
28C7
  3
DWGPROPS
350
3733
  3
TS
350
1BEA
  0
DICTIONARY
  5
193F
330
8
100
AcDbDictionary
280
     1
281
     1
  0
DICTIONARY
  5
88
330
2
100
AcDbDictionary
280
     1
281
     1
  3
ACAD_LAYERSTATES
360
89
  0
DICTIONARY
  5
63
102
{ACAD_REACTORS
330
C
102
}
330
C
100
AcDbDictionary
281
     1
  0
DICTIONARY
  5
D
102
{ACAD_REACTORS
330
C
102
}
330
C
100
AcDbDictionary
281
     1
  0
DICTIONARY
  5
62
102
{ACAD_REACTORS
330
C
102
}
330
C
100
AcDbDictionary
281
     1
  3
Model
350
6F
  3
レイアウト1
350
6B
  3
レイアウト2
350
73
  0
DICTIONARY
  5
10
102
{ACAD_REACTORS
330
C
102
}
330
C
100
AcDbDictionary
281
     1
  3
ByBlock
350
19
  3
ByLayer
350
11
  3
Global
350
21
  0
DICTIONARY
  5
66
102
{ACAD_REACTORS
330
C
102
}
330
C
100
AcDbDictionary
281
     1
  3
Standard
350
67
  0
DICTIONARY
  5
5F
102
{ACAD_REACTORS
330
C
102
}
330
C
100
AcDbDictionary
281
     1
  3
Standard
350
60
  0
DICTIONARY
  5
61
102
{ACAD_REACTORS
330
C
102
}
330
C
100
AcDbDictionary
281
     1
  0
ACDBDICTIONARYWDFLT
  5
E
102
{ACAD_REACTORS
330
C
102
}
330
C
100
AcDbDictionary
281
     1
  3
Normal
350
F
100
AcDbDictionaryWithDefault
340
F
  0
DICTIONARY
  5
42
102
{ACAD_REACTORS
330
C
102
}
330
C
100
AcDbDictionary
281
     1
  3
A0
350
43
  3
A1
350
44
  3
A2
350
45
  3
A3
350
46
  3
A4
350
47
  3
A5
350
48
  3
A6
350
49
  3
A7
350
4A
  3
A8
350
4B
  3
A9
350
4C
  3
B0
350
4D
  3
B1
350
4E
  3
B2
350
4F
  3
B3
350
50
  3
B4
350
51
  3
B5
350
52
  3
B6
350
53
  0
DICTIONARY
  5
64
102
{ACAD_REACTORS
330
C
102
}
330
C
100
AcDbDictionary
281
     1
  3
Standard
350
65
  0
DICTIONARY
  5
29
102
{ACAD_REACTORS
330
C
102
}
330
C
100
AcDbDictionary
281
     1
  3
2dWireframe
350
2F
  3
Basic
350
2E
  3
Brighten
350
35
  3
ColorChange
350
39
  3
Conceptual
350
32
  3
Dim
350
34
  3
EdgeColorOff
350
41
  3
Facepattern
350
38
  3
Flat
350
2A
  3
FlatWithEdges
350
2B
  3
Gouraud
350
2C
  3
GouraudWithEdges
350
2D
  3
Hidden
350
31
  3
JitterOff
350
3F
  3
Linepattern
350
37
  3
OverhangOff
350
40
  3
Realistic
350
33
  3
Shaded
350
3E
  3
Shaded with edges
350
3D
  3
Shades of Gray
350
3A
  3
Sketchy
350
3B
  3
Thicken
350
36
  3
Wireframe
350
30
  3
X-Ray
350
3C
  0
XRECORD
  5
3732
102
{ACAD_REACTORS
330
C
102
}
330
C
100
AcDbXrecord
280
     1
 90
        1
330
65
  0
DICTIONARY
  5
1976
102
{ACAD_REACTORS
330
C
102
}
330
C
100
AcDbDictionary
281
     1
  3
CANNOSCALE
350
197A
  3
CMLEADERSTYLE
350
1978
  3
CTABLESTYLE
350
1977
  3
DIMASSOC
350
372F
  3
HIDETEXT
350
372E
  3
INDEXCTL
350
372D
  3
LAYEREVAL
350
197C
  3
LAYERNOTIFY
350
197D
  3
LIGHTINGUNITS
350
197B
  3
MSLTSCALE
350
1979
  3
SORTENTS
350
372C
  3
XCLIPFRAME
350
3730
  0
DICTIONARY
  5
28C7
102
{ACAD_REACTORS
330
C
102
}
330
C
100
AcDbDictionary
281
     1
  0
XRECORD
  5
3733
102
{ACAD_REACTORS
330
C
102
}
330
C
100
AcDbXrecord
280
     1
  1
DWGPROPS COOKIE
  2

  3

  4

  6

  7

  8
skcl1068
  9

300
=
301
=
302
=
303
=
304
=
305
=
306
=
307
=
308
=
309
=
 40
0.1574653703703704
 41
2456741.552136042
 42
2456743.68156978
  1

 90
        0
  0
DICTIONARY
  5
1BEA
102
{ACAD_REACTORS
330
C
102
}
330
C
100
AcDbDictionary
281
     1
  3
BLANK
350
1BEB
  0
DICTIONARY
  5
89
102
{ACAD_REACTORS
330
88
102
}
330
88
100
AcDbDictionary
281
     1
  0
LAYOUT
  5
6F
102
{ACAD_XDICTIONARY
360
163
102
}
102
{ACAD_REACTORS
330
62
102
}
330
62
100
AcDbPlotSettings
  1

  2
FUJITSU XL-9311_PRINT1031
  4
A3
  6

 40
5.873749732971191
 41
5.958403587341308
 42
5.958404541015625
 43
5.873748779296875
 44
297.1799926757812
 45
420.2006530761718
 46
0.0
 47
5.206064189530877
 48
0.0
 49
0.0
140
10920.0
141
7830.0
142
1.0
143
27.4401938485151
 70
 11956
 72
     1
 73
     1
 74
     4
  7
toyo-pen.ctb
 75
     0
147
0.0364428912390542
148
0.0
149
0.0
100
AcDbLayout
  1
Model
 70
     1
 71
     0
 10
0.0
 20
0.0
 11
12.0
 21
9.0
 12
0.0
 22
0.0
 32
0.0
 14
0.0
 24
0.0
 34
0.0
 15
0.0
 25
0.0
 35
0.0
146
0.0
 13
0.0
 23
0.0
 33
0.0
 16
1.0
 26
0.0
 36
0.0
 17
0.0
 27
1.0
 37
0.0
 76
     0
330
6C
331
57
1001
ACAD_PSEXT
1000
FUJITSU XL-9311_PRINT1031
1000
FUJITSU XL-9311_Pnavi2
1000
Fjxl_10.10.10.137
1000

1070
     0
  0
LAYOUT
  5
6B
102
{ACAD_XDICTIONARY
360
3768
102
}
102
{ACAD_REACTORS
330
62
102
}
330
62
100
AcDbPlotSettings
  1

  2
FUJITSU XL-9311_PRINT1031
  4

  6

 40
0.0
 41
0.0
 42
0.0
 43
0.0
 44
0.0
 45
0.0
 46
0.0
 47
0.0
 48
0.0
 49
0.0
140
0.0
141
0.0
142
1.0
143
1.0
 70
   688
 72
     0
 73
     0
 74
     5
  7
toyo-pen.ctb
 75
    16
147
1.0
148
0.0
149
0.0
100
AcDbLayout
  1
レイアウト1
 70
     1
 71
     1
 10
0.0
 20
0.0
 11
420.0
 21
297.0
 12
0.0
 22
0.0
 32
0.0
 14
1.000000000000000E+20
 24
1.000000000000000E+20
 34
1.000000000000000E+20
 15
-1.000000000000000E+20
 25
-1.000000000000000E+20
 35
-1.000000000000000E+20
146
0.0
 13
0.0
 23
0.0
 33
0.0
 16
1.0
 26
0.0
 36
0.0
 17
0.0
 27
1.0
 37
0.0
 76
     0
330
68
  0
LAYOUT
  5
73
102
{ACAD_XDICTIONARY
360
376B
102
}
102
{ACAD_REACTORS
330
62
102
}
330
62
100
AcDbPlotSettings
  1

  2
FUJITSU XL-9311_PRINT1031
  4

  6

 40
0.0
 41
0.0
 42
0.0
 43
0.0
 44
0.0
 45
0.0
 46
0.0
 47
0.0
 48
0.0
 49
0.0
140
0.0
141
0.0
142
1.0
143
1.0
 70
   688
 72
     0
 73
     0
 74
     5
  7
toyo-pen.ctb
 75
    16
147
1.0
148
0.0
149
0.0
100
AcDbLayout
  1
レイアウト2
 70
     1
 71
     2
 10
0.0
 20
0.0
 11
12.0
 21
9.0
 12
0.0
 22
0.0
 32
0.0
 14
0.0
 24
0.0
 34
0.0
 15
0.0
 25
0.0
 35
0.0
146
0.0
 13
0.0
 23
0.0
 33
0.0
 16
1.0
 26
0.0
 36
0.0
 17
0.0
 27
1.0
 37
0.0
 76
     0
330
70
  0
MATERIAL
  5
19
102
{ACAD_XDICTIONARY
360
1A
102
}
102
{ACAD_REACTORS
330
10
102
}
330
10
100
AcDbMaterial
  1
ByBlock
 72
     0
 43
0.0208333333333333
 43
0.0
 43
0.0
 43
0.0
 43
0.0
 43
0.0208333333333333
 43
0.0
 43
0.0
 43
0.0
 43
0.0
 43
1.0
 43
0.0
 43
0.0
 43
0.0
 43
0.0
 43
1.0
 77
     0
 47
0.0208333333333333
 47
0.0
 47
0.0
 47
0.0
 47
0.0
 47
0.0208333333333333
 47
0.0
 47
0.0
 47
0.0
 47
0.0
 47
1.0
 47
0.0
 47
0.0
 47
0.0
 47
0.0
 47
1.0
171
     0
 49
0.0208333333333333
 49
0.0
 49
0.0
 49
0.0
 49
0.0
 49
0.0208333333333333
 49
0.0
 49
0.0
 49
0.0
 49
0.0
 49
1.0
 49
0.0
 49
0.0
 49
0.0
 49
0.0
 49
1.0
175
     0
142
0.0208333333333333
142
0.0
142
0.0
142
0.0
142
0.0
142
0.0208333333333333
142
0.0
142
0.0
142
0.0
142
0.0
142
1.0
142
0.0
142
0.0
142
0.0
142
0.0
142
1.0
179
     0
144
0.0208333333333333
144
0.0
144
0.0
144
0.0
144
0.0
144
0.0208333333333333
144
0.0
144
0.0
144
0.0
144
0.0
144
1.0
144
0.0
144
0.0
144
0.0
144
0.0
144
1.0
147
0.0208333333333333
147
0.0
147
0.0
147
0.0
147
0.0
147
0.0208333333333333
147
0.0
147
0.0
147
0.0
147
0.0
147
1.0
147
0.0
147
0.0
147
0.0
147
0.0
147
1.0
  0
MATERIAL
  5
11
102
{ACAD_XDICTIONARY
360
12
102
}
102
{ACAD_REACTORS
330
10
102
}
330
10
100
AcDbMaterial
  1
ByLayer
 72
     0
 43
0.0208333333333333
 43
0.0
 43
0.0
 43
0.0
 43
0.0
 43
0.0208333333333333
 43
0.0
 43
0.0
 43
0.0
 43
0.0
 43
1.0
 43
0.0
 43
0.0
 43
0.0
 43
0.0
 43
1.0
 77
     0
 47
0.0208333333333333
 47
0.0
 47
0.0
 47
0.0
 47
0.0
 47
0.0208333333333333
 47
0.0
 47
0.0
 47
0.0
 47
0.0
 47
1.0
 47
0.0
 47
0.0
 47
0.0
 47
0.0
 47
1.0
171
     0
 49
0.0208333333333333
 49
0.0
 49
0.0
 49
0.0
 49
0.0
 49
0.0208333333333333
 49
0.0
 49
0.0
 49
0.0
 49
0.0
 49
1.0
 49
0.0
 49
0.0
 49
0.0
 49
0.0
 49
1.0
175
     0
142
0.0208333333333333
142
0.0
142
0.0
142
0.0
142
0.0
142
0.0208333333333333
142
0.0
142
0.0
142
0.0
142
0.0
142
1.0
142
0.0
142
0.0
142
0.0
142
0.0
142
1.0
179
     0
144
0.0208333333333333
144
0.0
144
0.0
144
0.0
144
0.0
144
0.0208333333333333
144
0.0
144
0.0
144
0.0
144
0.0
144
1.0
144
0.0
144
0.0
144
0.0
144
0.0
144
1.0
147
0.0208333333333333
147
0.0
147
0.0
147
0.0
147
0.0
147
0.0208333333333333
147
0.0
147
0.0
147
0.0
147
0.0
147
1.0
147
0.0
147
0.0
147
0.0
147
0.0
147
1.0
  0
MATERIAL
  5
21
102
{ACAD_XDICTIONARY
360
22
102
}
102
{ACAD_REACTORS
330
10
102
}
330
10
100
AcDbMaterial
  1
Global
 72
     0
 43
0.0208333333333333
 43
0.0
 43
0.0
 43
0.0
 43
0.0
 43
0.0208333333333333
 43
0.0
 43
0.0
 43
0.0
 43
0.0
 43
1.0
 43
0.0
 43
0.0
 43
0.0
 43
0.0
 43
1.0
 77
     0
 47
0.0208333333333333
 47
0.0
 47
0.0
 47
0.0
 47
0.0
 47
0.0208333333333333
 47
0.0
 47
0.0
 47
0.0
 47
0.0
 47
1.0
 47
0.0
 47
0.0
 47
0.0
 47
0.0
 47
1.0
171
     0
 49
0.0208333333333333
 49
0.0
 49
0.0
 49
0.0
 49
0.0
 49
0.0208333333333333
 49
0.0
 49
0.0
 49
0.0
 49
0.0
 49
1.0
 49
0.0
 49
0.0
 49
0.0
 49
0.0
 49
1.0
175
     0
142
0.0208333333333333
142
0.0
142
0.0
142
0.0
142
0.0
142
0.0208333333333333
142
0.0
142
0.0
142
0.0
142
0.0
142
1.0
142
0.0
142
0.0
142
0.0
142
0.0
142
1.0
179
     0
144
0.0208333333333333
144
0.0
144
0.0
144
0.0
144
0.0
144
0.0208333333333333
144
0.0
144
0.0
144
0.0
144
0.0
144
1.0
144
0.0
144
0.0
144
0.0
144
0.0
144
1.0
147
0.0208333333333333
147
0.0
147
0.0
147
0.0
147
0.0
147
0.0208333333333333
147
0.0
147
0.0
147
0.0
147
0.0
147
1.0
147
0.0
147
0.0
147
0.0
147
0.0
147
1.0
  0
MLEADERSTYLE
  5
67
102
{ACAD_REACTORS
330
66
102
}
330
66
100
AcDbMLeaderStyle
170
     2
171
     1
172
     0
 90
        2
 40
0.0
 41
0.0
173
     1
 91
-1056964608
340
5B
 92
       -2
290
     1
 42
0.09
291
     1
 43
0.36
  3
Standard
 44
0.18
300

342
55
174
     1
178
     6
175
     1
176
     0
 93
-1056964608
 45
0.18
292
     0
297
     0
 46
0.18
 94
-1056964608
 47
1.0
 49
1.0
140
1.0
293
     1
141
0.0
294
     1
177
     0
142
1.0
295
     0
296
     0
143
0.125
1001
ACAD_MLEADERVER
1070
     2
  0
MLINESTYLE
  5
60
102
{ACAD_REACTORS
330
5F
102
}
330
5F
100
AcDbMlineStyle
  2
STANDARD
 70
     0
  3

 62
   256
 51
90.0
 52
90.0
 71
     2
 49
0.5
 62
   256
  6
BYLAYER
 49
-0.5
 62
   256
  6
BYLAYER
  0
ACDBPLACEHOLDER
  5
F
102
{ACAD_REACTORS
330
E
102
}
330
E
  0
SCALE
  5
43
102
{ACAD_REACTORS
330
42
102
}
330
42
100
AcDbScale
 70
     0
300
1:1
140
1.0
141
1.0
290
     1
  0
SCALE
  5
44
102
{ACAD_REACTORS
330
42
102
}
330
42
100
AcDbScale
 70
     0
300
1:2
140
1.0
141
2.0
290
     0
  0
SCALE
  5
45
102
{ACAD_REACTORS
330
42
102
}
330
42
100
AcDbScale
 70
     0
300
1:4
140
1.0
141
4.0
290
     0
  0
SCALE
  5
46
102
{ACAD_REACTORS
330
42
102
}
330
42
100
AcDbScale
 70
     0
300
1:5
140
1.0
141
5.0
290
     0
  0
SCALE
  5
47
102
{ACAD_REACTORS
330
42
102
}
330
42
100
AcDbScale
 70
     0
300
1:8
140
1.0
141
8.0
290
     0
  0
SCALE
  5
48
102
{ACAD_REACTORS
330
42
102
}
330
42
100
AcDbScale
 70
     0
300
1:10
140
1.0
141
10.0
290
     0
  0
SCALE
  5
49
102
{ACAD_REACTORS
330
42
102
}
330
42
100
AcDbScale
 70
     0
300
1:16
140
1.0
141
16.0
290
     0
  0
SCALE
  5
4A
102
{ACAD_REACTORS
330
42
102
}
330
42
100
AcDbScale
 70
     0
300
1:20
140
1.0
141
20.0
290
     0
  0
SCALE
  5
4B
102
{ACAD_REACTORS
330
42
102
}
330
42
100
AcDbScale
 70
     0
300
1:30
140
1.0
141
30.0
290
     0
  0
SCALE
  5
4C
102
{ACAD_REACTORS
330
42
102
}
330
42
100
AcDbScale
 70
     0
300
1:40
140
1.0
141
40.0
290
     0
  0
SCALE
  5
4D
102
{ACAD_REACTORS
330
42
102
}
330
42
100
AcDbScale
 70
     0
300
1:50
140
1.0
141
50.0
290
     0
  0
SCALE
  5
4E
102
{ACAD_REACTORS
330
42
102
}
330
42
100
AcDbScale
 70
     0
300
1:100
140
1.0
141
100.0
290
     0
  0
SCALE
  5
4F
102
{ACAD_REACTORS
330
42
102
}
330
42
100
AcDbScale
 70
     0
300
2:1
140
2.0
141
1.0
290
     0
  0
SCALE
  5
50
102
{ACAD_REACTORS
330
42
102
}
330
42
100
AcDbScale
 70
     0
300
4:1
140
4.0
141
1.0
290
     0
  0
SCALE
  5
51
102
{ACAD_REACTORS
330
42
102
}
330
42
100
AcDbScale
 70
     0
300
8:1
140
8.0
141
1.0
290
     0
  0
SCALE
  5
52
102
{ACAD_REACTORS
330
42
102
}
330
42
100
AcDbScale
 70
     0
300
10:1
140
10.0
141
1.0
290
     0
  0
SCALE
  5
53
102
{ACAD_REACTORS
330
42
102
}
330
42
100
AcDbScale
 70
     0
300
100:1
140
100.0
141
1.0
290
     0
  0
TABLESTYLE
  5
65
102
{ACAD_XDICTIONARY
360
193C
102
}
102
{ACAD_REACTORS
330
64
102
}
330
64
100
AcDbTableStyle
  3
Standard
 70
     0
 71
     0
 40
1.5
 41
1.5
280
     0
281
     0
  7
Standard
140
4.5
170
     2
 62
     0
 63
     7
283
     0
274
    -2
284
     1
 64
     0
275
    -2
285
     1
 65
     0
276
    -2
286
     1
 66
     0
277
    -2
287
     1
 67
     0
278
    -2
288
     1
 68
     0
279
    -2
289
     1
 69
     0
  7
Standard
140
6.0
170
     5
 62
     0
 63
     7
283
     0
274
    -2
284
     1
 64
     0
275
    -2
285
     1
 65
     0
276
    -2
286
     1
 66
     0
277
    -2
287
     1
 67
     0
278
    -2
288
     1
 68
     0
279
    -2
289
     1
 69
     0
  7
Standard
140
4.5
170
     5
 62
     0
 63
     7
283
     0
274
    -2
284
     1
 64
     0
275
    -2
285
     1
 65
     0
276
    -2
286
     1
 66
     0
277
    -2
287
     1
 67
     0
278
    -2
288
     1
 68
     0
279
    -2
289
     1
 69
     0
  0
VISUALSTYLE
  5
2F
102
{ACAD_XDICTIONARY
360
3741
102
}
102
{ACAD_REACTORS
330
29
102
}
330
29
100
AcDbVisualStyle
  2
2dWireframe
 70
     4
 71
     0
 72
     2
 73
     0
 90
        0
 40
-0.6
 41
-30.0
 62
     5
 63
     7
 74
     1
 91
        4
 64
     7
 65
   257
 75
     1
175
     1
 42
1.0
 92
        0
 66
   257
 43
1.0
 76
     1
 77
     6
 78
     2
 67
     7
 79
     5
170
     0
171
     0
290
     0
174
     0
 93
        1
 44
0.0
173
     0
291
     0
 45
0.0
1001
ACAD
1000
AcDbSavedByObjectVersion
1070
     0
  0
VISUALSTYLE
  5
2E
102
{ACAD_XDICTIONARY
360
373F
102
}
102
{ACAD_REACTORS
330
29
102
}
330
29
100
AcDbVisualStyle
  2
Basic
 70
     7
 71
     1
 72
     0
 73
     1
 90
        0
 40
-0.6
 41
-30.0
 62
     5
 63
     7
 74
     0
 91
        4
 64
     7
 65
   257
 75
     1
175
     1
 42
1.0
 92
        8
 66
     7
 43
1.0
 76
     1
 77
     6
 78
     2
 67
     7
 79
     5
170
     0
171
     0
290
     0
174
     0
 93
        1
 44
0.0
173
     0
291
     1
 45
0.0
1001
ACAD
1000
AcDbSavedByObjectVersion
1070
     0
  0
VISUALSTYLE
  5
35
102
{ACAD_XDICTIONARY
360
374D
102
}
102
{ACAD_REACTORS
330
29
102
}
330
29
100
AcDbVisualStyle
  2
Brighten
 70
    12
 71
     2
 72
     2
 73
     0
 90
        0
 40
-0.6
 41
-30.0
 62
     5
 63
     7
 74
     1
 91
        4
 64
     7
 65
   257
 75
     1
175
     1
 42
1.0
 92
        8
 66
     7
 43
1.0
 76
     1
 77
     6
 78
     2
 67
     7
 79
     5
170
     0
171
     0
290
     0
174
     0
 93
        1
 44
50.0
173
     0
291
     1
 45
0.0
1001
ACAD
1000
AcDbSavedByObjectVersion
1070
     0
  0
VISUALSTYLE
  5
39
102
{ACAD_XDICTIONARY
360
3755
102
}
102
{ACAD_REACTORS
330
29
102
}
330
29
100
AcDbVisualStyle
  2
ColorChange
 70
    16
 71
     2
 72
     2
 73
     3
 90
        0
 40
-0.6
 41
-30.0
 62
     5
 63
     8
 74
     1
 91
        4
 64
     7
 65
   257
 75
     1
175
     1
 42
1.0
 92
        8
 66
     8
 43
1.0
 76
     1
 77
     6
 78
     2
 67
     7
 79
     5
170
     0
171
     0
290
     0
174
     0
 93
        1
 44
0.0
173
     0
291
     1
 45
0.0
1001
ACAD
1000
AcDbSavedByObjectVersion
1070
     0
  0
VISUALSTYLE
  5
32
102
{ACAD_XDICTIONARY
360
3747
102
}
102
{ACAD_REACTORS
330
29
102
}
330
29
100
AcDbVisualStyle
  2
Conceptual
 70
     9
 71
     3
 72
     2
 73
     0
 90
        0
 40
-0.6
 41
-30.0
 62
     5
 63
     7
 74
     2
 91
        2
 64
     7
 65
   257
 75
     1
175
     1
 42
179.0
 92
        8
 66
     7
 43
1.0
 76
     1
 77
     6
 78
     2
 67
     7
 79
     3
170
     0
171
     0
290
     0
174
     0
 93
        1
 44
0.0
173
     0
291
     0
 45
0.0
1001
ACAD
1000
AcDbSavedByObjectVersion
1070
     0
  0
VISUALSTYLE
  5
34
102
{ACAD_XDICTIONARY
360
374B
102
}
102
{ACAD_REACTORS
330
29
102
}
330
29
100
AcDbVisualStyle
  2
Dim
 70
    11
 71
     2
 72
     2
 73
     0
 90
        0
 40
-0.6
 41
-30.0
 62
     5
 63
     7
 74
     1
 91
        4
 64
     7
 65
   257
 75
     1
175
     1
 42
1.0
 92
        8
 66
     7
 43
1.0
 76
     1
 77
     6
 78
     2
 67
     7
 79
     5
170
     0
171
     0
290
     0
174
     0
 93
        1
 44
-50.0
173
     0
291
     1
 45
0.0
1001
ACAD
1000
AcDbSavedByObjectVersion
1070
     0
  0
VISUALSTYLE
  5
41
102
{ACAD_XDICTIONARY
360
3765
102
}
102
{ACAD_REACTORS
330
29
102
}
330
29
100
AcDbVisualStyle
  2
EdgeColorOff
 70
    22
 71
     2
 72
     2
 73
     0
 90
        0
 40
-0.6
 41
-30.0
 62
     5
 63
     7
 74
     1
 91
        4
 64
     7
 65
   257
 75
     1
175
     1
 42
1.0
 92
        8
 66
     7
 43
1.0
 76
     1
 77
     6
 78
     2
 67
     7
 79
     5
170
     0
171
     0
290
     0
174
     0
 93
        1
 44
0.0
173
     0
291
     1
 45
0.0
1001
ACAD
1000
AcDbSavedByObjectVersion
1070
     0
  0
VISUALSTYLE
  5
38
102
{ACAD_XDICTIONARY
360
3753
102
}
102
{ACAD_REACTORS
330
29
102
}
330
29
100
AcDbVisualStyle
  2
Facepattern
 70
    15
 71
     2
 72
     2
 73
     0
 90
        0
 40
-0.6
 41
-30.0
 62
     5
 63
     7
 74
     1
 91
        4
 64
     7
 65
   257
 75
     1
175
     1
 42
1.0
 92
        8
 66
     7
 43
1.0
 76
     1
 77
     6
 78
     2
 67
     7
 79
     5
170
     0
171
     0
290
     0
174
     0
 93
        1
 44
0.0
173
     0
291
     1
 45
0.0
1001
ACAD
1000
AcDbSavedByObjectVersion
1070
     0
  0
VISUALSTYLE
  5
2A
102
{ACAD_XDICTIONARY
360
3737
102
}
102
{ACAD_REACTORS
330
29
102
}
330
29
100
AcDbVisualStyle
  2
Flat
 70
     0
 71
     2
 72
     1
 73
     1
 90
        2
 40
-0.6
 41
30.0
 62
     5
 63
     7
 74
     0
 91
        0
 64
     7
 65
   257
 75
     1
175
     1
 42
1.0
 92
        8
 66
     7
 43
1.0
 76
     1
 77
     6
 78
     2
 67
     7
 79
     5
170
     0
171
     0
290
     0
174
     0
 93
       13
 44
0.0
173
     0
291
     1
 45
0.0
1001
ACAD
1000
AcDbSavedByObjectVersion
1070
     0
  0
VISUALSTYLE
  5
2B
102
{ACAD_XDICTIONARY
360
3739
102
}
102
{ACAD_REACTORS
330
29
102
}
330
29
100
AcDbVisualStyle
  2
FlatWithEdges
 70
     1
 71
     2
 72
     1
 73
     1
 90
        2
 40
-0.6
 41
30.0
 62
     5
 63
     7
 74
     1
 91
        0
 64
     7
 65
   257
 75
     1
175
     1
 42
1.0
 92
        0
 66
   257
 43
1.0
 76
     1
 77
     6
 78
     2
 67
     7
 79
     5
170
     0
171
     0
290
     0
174
     0
 93
       13
 44
0.0
173
     0
291
     1
 45
0.0
1001
ACAD
1000
AcDbSavedByObjectVersion
1070
     0
  0
VISUALSTYLE
  5
2C
102
{ACAD_XDICTIONARY
360
373B
102
}
102
{ACAD_REACTORS
330
29
102
}
330
29
100
AcDbVisualStyle
  2
Gouraud
 70
     2
 71
     2
 72
     2
 73
     1
 90
        2
 40
-0.6
 41
30.0
 62
     5
 63
     7
 74
     0
 91
        0
 64
     7
 65
   257
 75
     1
175
     1
 42
1.0
 92
        0
 66
     7
 43
1.0
 76
     1
 77
     6
 78
     2
 67
     7
 79
     5
170
     0
171
     0
290
     0
174
     0
 93
       13
 44
0.0
173
     0
291
     1
 45
0.0
1001
ACAD
1000
AcDbSavedByObjectVersion
1070
     0
  0
VISUALSTYLE
  5
2D
102
{ACAD_XDICTIONARY
360
373D
102
}
102
{ACAD_REACTORS
330
29
102
}
330
29
100
AcDbVisualStyle
  2
GouraudWithEdges
 70
     3
 71
     2
 72
     2
 73
     1
 90
        2
 40
-0.6
 41
30.0
 62
     5
 63
     7
 74
     1
 91
        0
 64
     7
 65
   257
 75
     1
175
     1
 42
1.0
 92
        0
 66
   257
 43
1.0
 76
     1
 77
     6
 78
     2
 67
     7
 79
     5
170
     0
171
     0
290
     0
174
     0
 93
       13
 44
0.0
173
     0
291
     1
 45
0.0
1001
ACAD
1000
AcDbSavedByObjectVersion
1070
     0
  0
VISUALSTYLE
  5
31
102
{ACAD_XDICTIONARY
360
3745
102
}
102
{ACAD_REACTORS
330
29
102
}
330
29
100
AcDbVisualStyle
  2
Hidden
 70
     6
 71
     1
 72
     2
 73
     2
 90
        0
 40
-0.6
 41
-30.0
 62
     5
 63
     7
 74
     2
 91
        2
 64
     7
 65
   257
 75
     2
175
     1
 42
40.0
 92
        0
 66
   257
 43
1.0
 76
     1
 77
     6
 78
     2
 67
     7
 79
     3
170
     0
171
     0
290
     0
174
     0
 93
        1
 44
0.0
173
     0
291
     0
 45
0.0
1001
ACAD
1000
AcDbSavedByObjectVersion
1070
     0
  0
VISUALSTYLE
  5
3F
102
{ACAD_XDICTIONARY
360
3761
102
}
102
{ACAD_REACTORS
330
29
102
}
330
29
100
AcDbVisualStyle
  2
JitterOff
 70
    20
 71
     2
 72
     2
 73
     0
 90
        0
 40
-0.6
 41
-30.0
 62
     5
 63
     7
 74
     1
 91
        4
 64
     7
 65
   257
 75
     1
175
     1
 42
1.0
 92
       10
 66
     7
 43
1.0
 76
     1
 77
     6
 78
     2
 67
     7
 79
     5
170
     0
171
     0
290
     0
174
     0
 93
        1
 44
0.0
173
     0
291
     1
 45
0.0
1001
ACAD
1000
AcDbSavedByObjectVersion
1070
     0
  0
VISUALSTYLE
  5
37
102
{ACAD_XDICTIONARY
360
3751
102
}
102
{ACAD_REACTORS
330
29
102
}
330
29
100
AcDbVisualStyle
  2
Linepattern
 70
    14
 71
     2
 72
     2
 73
     0
 90
        0
 40
-0.6
 41
-30.0
 62
     5
 63
     7
 74
     1
 91
        4
 64
     7
 65
   257
 75
     7
175
     7
 42
1.0
 92
        8
 66
     7
 43
1.0
 76
     1
 77
     6
 78
     2
 67
     7
 79
     5
170
     0
171
     0
290
     0
174
     0
 93
        1
 44
0.0
173
     0
291
     1
 45
0.0
1001
ACAD
1000
AcDbSavedByObjectVersion
1070
     0
  0
VISUALSTYLE
  5
40
102
{ACAD_XDICTIONARY
360
3763
102
}
102
{ACAD_REACTORS
330
29
102
}
330
29
100
AcDbVisualStyle
  2
OverhangOff
 70
    21
 71
     2
 72
     2
 73
     0
 90
        0
 40
-0.6
 41
-30.0
 62
     5
 63
     7
 74
     1
 91
        4
 64
     7
 65
   257
 75
     1
175
     1
 42
1.0
 92
        9
 66
     7
 43
1.0
 76
     1
 77
     6
 78
     2
 67
     7
 79
     5
170
     0
171
     0
290
     0
174
     0
 93
        1
 44
0.0
173
     0
291
     1
 45
0.0
1001
ACAD
1000
AcDbSavedByObjectVersion
1070
     0
  0
VISUALSTYLE
  5
33
102
{ACAD_XDICTIONARY
360
3749
102
}
102
{ACAD_REACTORS
330
29
102
}
330
29
100
AcDbVisualStyle
  2
Realistic
 70
     8
 71
     2
 72
     2
 73
     0
 90
        2
 40
-0.6
 41
30.0
 62
     5
 63
     7
 74
     0
 91
        0
 64
     7
 65
   257
 75
     1
175
     1
 42
1.0
 92
        8
 66
   257
 43
1.0
 76
     1
 77
     6
 78
     2
 67
     7
 79
     3
170
     0
171
     0
290
     0
174
     0
 93
       13
 44
0.0
173
     0
291
     0
 45
0.0
1001
ACAD
1000
AcDbSavedByObjectVersion
1070
     0
  0
VISUALSTYLE
  5
3E
102
{ACAD_XDICTIONARY
360
375F
102
}
102
{ACAD_REACTORS
330
29
102
}
330
29
100
AcDbVisualStyle
  2
Shaded
 70
    27
 71
     2
 72
     2
 73
     1
 90
        2
 40
-0.6
 41
30.0
 62
     5
 63
     7
 74
     0
 91
        4
 64
     7
 65
   257
 75
     1
175
     1
 42
1.0
 92
        8
 66
   257
 43
1.0
 76
     1
 77
     6
 78
     2
 67
     8
 79
     3
170
     0
171
     0
290
     0
174
     0
 93
        5
 44
0.0
173
     0
291
     0
 45
0.0
1001
ACAD
1000
AcDbSavedByObjectVersion
1070
     0
  0
VISUALSTYLE
  5
3D
102
{ACAD_XDICTIONARY
360
375D
102
}
102
{ACAD_REACTORS
330
29
102
}
330
29
100
AcDbVisualStyle
  2
Shaded with edges
 70
    26
 71
     2
 72
     2
 73
     1
 90
        2
 40
-0.6
 41
30.0
 62
     5
 63
     7
 74
     1
 91
       10
 64
     7
 65
   257
 75
     2
175
     1
 42
1.0
 92
        8
 66
   257
 43
1.0
 76
     1
 77
     6
 78
     2
 67
     7
 79
     3
170
     0
171
     0
290
     0
174
     0
 93
        5
 44
0.0
173
     0
291
     0
 45
0.0
1001
ACAD
1000
AcDbSavedByObjectVersion
1070
     0
  0
VISUALSTYLE
  5
3A
102
{ACAD_XDICTIONARY
360
3757
102
}
102
{ACAD_REACTORS
330
29
102
}
330
29
100
AcDbVisualStyle
  2
Shades of Gray
 70
    23
 71
     2
 72
     2
 73
     3
 90
        0
 40
-0.6
 41
-30.0
 62
     5
 63
     7
 74
     2
 91
        2
 64
     7
 65
     7
 75
     1
175
     1
 42
40.0
 92
        8
 66
     7
 43
1.0
 76
     1
 77
     6
 78
     2
 67
     7
 79
     3
170
     0
171
     0
290
     0
174
     0
 93
        1
 44
0.0
173
     0
291
     0
 45
0.0
1001
ACAD
1000
AcDbSavedByObjectVersion
1070
     0
  0
VISUALSTYLE
  5
3B
102
{ACAD_XDICTIONARY
360
3759
102
}
102
{ACAD_REACTORS
330
29
102
}
330
29
100
AcDbVisualStyle
  2
Sketchy
 70
    24
 71
     1
 72
     2
 73
     2
 90
        0
 40
-0.6
 41
-30.0
 62
     5
 63
     7
 74
     2
 91
        2
 64
     7
 65
     7
 75
     1
175
     1
 42
40.0
 92
       11
 66
     7
 43
1.0
 76
     1
 77
     6
 78
     2
 67
     7
 79
     6
170
     0
171
     0
290
     0
174
     0
 93
        1
 44
0.0
173
     0
291
     0
 45
0.0
1001
ACAD
1000
AcDbSavedByObjectVersion
1070
     0
  0
VISUALSTYLE
  5
36
102
{ACAD_XDICTIONARY
360
374F
102
}
102
{ACAD_REACTORS
330
29
102
}
330
29
100
AcDbVisualStyle
  2
Thicken
 70
    13
 71
     2
 72
     2
 73
     0
 90
        0
 40
-0.6
 41
-30.0
 62
     5
 63
     7
 74
     1
 91
        4
 64
     7
 65
   257
 75
     1
175
     1
 42
1.0
 92
       12
 66
     7
 43
1.0
 76
     1
 77
     6
 78
     2
 67
     7
 79
     5
170
     0
171
     0
290
     0
174
     0
 93
        1
 44
0.0
173
     0
291
     1
 45
0.0
1001
ACAD
1000
AcDbSavedByObjectVersion
1070
     0
  0
VISUALSTYLE
  5
30
102
{ACAD_XDICTIONARY
360
3743
102
}
102
{ACAD_REACTORS
330
29
102
}
330
29
100
AcDbVisualStyle
  2
Wireframe
 70
     5
 71
     0
 72
     2
 73
     0
 90
        0
 40
-0.6
 41
-30.0
 62
     5
 63
     7
 74
     1
 91
        4
 64
     7
 65
   257
 75
     1
175
     1
 42
1.0
 92
        0
 66
   257
 43
1.0
 76
     1
 77
     6
 78
     2
 67
     7
 79
     3
170
     0
171
     0
290
     0
174
     0
 93
        1
 44
0.0
173
     0
291
     0
 45
0.0
1001
ACAD
1000
AcDbSavedByObjectVersion
1070
     0
  0
VISUALSTYLE
  5
3C
102
{ACAD_XDICTIONARY
360
375B
102
}
102
{ACAD_REACTORS
330
29
102
}
330
29
100
AcDbVisualStyle
  2
X-Ray
 70
    25
 71
     2
 72
     2
 73
     1
 90
        1
 40
0.5
 41
-30.0
 62
     5
 63
     7
 74
     1
 91
        0
 64
     7
 65
   257
 75
     1
175
     1
 42
1.0
 92
        8
 66
     7
 43
1.0
 76
     1
 77
     6
 78
     2
 67
     7
 79
     3
170
     0
171
     0
290
     0
174
     0
 93
       13
 44
0.0
173
     0
291
     0
 45
0.0
1001
ACAD
1000
AcDbSavedByObjectVersion
1070
     0
  0
DICTIONARYVAR
  5
197A
102
{ACAD_REACTORS
330
1976
102
}
330
1976
100
DictionaryVariables
280
     0
  1
1:1
  0
DICTIONARYVAR
  5
1978
102
{ACAD_REACTORS
330
1976
102
}
330
1976
100
DictionaryVariables
280
     0
  1
STANDARD
  0
DICTIONARYVAR
  5
1977
102
{ACAD_REACTORS
330
1976
102
}
330
1976
100
DictionaryVariables
280
     0
  1
STANDARD
  0
DICTIONARYVAR
  5
372F
102
{ACAD_REACTORS
330
1976
102
}
330
1976
100
DictionaryVariables
280
     0
  1
2
  0
DICTIONARYVAR
  5
372E
102
{ACAD_REACTORS
330
1976
102
}
330
1976
100
DictionaryVariables
280
     0
  1
1
  0
DICTIONARYVAR
  5
372D
102
{ACAD_REACTORS
330
1976
102
}
330
1976
100
DictionaryVariables
280
     0
  1
0
  0
DICTIONARYVAR
  5
197C
102
{ACAD_REACTORS
330
1976
102
}
330
1976
100
DictionaryVariables
280
     0
  1
0
  0
DICTIONARYVAR
  5
197D
102
{ACAD_REACTORS
330
1976
102
}
330
1976
100
DictionaryVariables
280
     0
  1
0
  0
DICTIONARYVAR
  5
197B
102
{ACAD_REACTORS
330
1976
102
}
330
1976
100
DictionaryVariables
280
     0
  1
2
  0
DICTIONARYVAR
  5
1979
102
{ACAD_REACTORS
330
1976
102
}
330
1976
100
DictionaryVariables
280
     0
  1
1
  0
DICTIONARYVAR
  5
372C
102
{ACAD_REACTORS
330
1976
102
}
330
1976
100
DictionaryVariables
280
     0
  1
127
  0
DICTIONARYVAR
  5
3730
102
{ACAD_REACTORS
330
1976
102
}
330
1976
100
DictionaryVariables
280
     0
  1
2
  0
DICTIONARY
  5
1BEB
102
{ACAD_REACTORS
330
1BEA
102
}
330
1BEA
100
AcDbDictionary
281
     1
  0
DICTIONARY
  5
163
330
6F
100
AcDbDictionary
280
     1
281
     1
  3
ACAD_XREC_ROUNDTRIP
360
376A
  3
ADSK_XREC_LAYOUTTHUMBNAIL
360
164
  0
DICTIONARY
  5
3768
330
6B
100
AcDbDictionary
280
     1
281
     1
  3
ACAD_XREC_ROUNDTRIP
360
3769
  0
DICTIONARY
  5
376B
330
73
100
AcDbDictionary
280
     1
281
     1
  3
ACAD_XREC_ROUNDTRIP
360
376C
  0
DICTIONARY
  5
1A
330
19
100
AcDbDictionary
280
     1
281
     1
  3
ACAD_XREC_ROUNDTRIP
360
3735
  3
BUMPTILE
360
1C
  3
DIFFUSETILE
360
1B
  3
OPACITYTILE
360
1F
  3
REFLECTIONTILE
360
1E
  3
REFRACTIONTILE
360
20
  3
SPECULARTILE
360
1D
  0
DICTIONARY
  5
12
330
11
100
AcDbDictionary
280
     1
281
     1
  3
ACAD_XREC_ROUNDTRIP
360
3734
  3
BUMPTILE
360
14
  3
DIFFUSETILE
360
13
  3
OPACITYTILE
360
17
  3
REFLECTIONTILE
360
16
  3
REFRACTIONTILE
360
18
  3
SPECULARTILE
360
15
  0
DICTIONARY
  5
22
330
21
100
AcDbDictionary
280
     1
281
     1
  3
ACAD_XREC_ROUNDTRIP
360
3736
  3
BUMPTILE
360
24
  3
DIFFUSETILE
360
23
  3
OPACITYTILE
360
27
  3
REFLECTIONTILE
360
26
  3
REFRACTIONTILE
360
28
  3
SPECULARTILE
360
25
  0
DICTIONARY
  5
193C
330
65
100
AcDbDictionary
280
     1
281
     1
  3
ACAD_ROUNDTRIP_2008_TABLESTYLE_CELLSTYLEMAP
360
3731
  3
ACAD_XREC_ROUNDTRIP
360
3767
  0
DICTIONARY
  5
3741
330
2F
100
AcDbDictionary
280
     1
281
     1
  3
ACAD_XREC_ROUNDTRIP
360
3742
  0
DICTIONARY
  5
373F
330
2E
100
AcDbDictionary
280
     1
281
     1
  3
ACAD_XREC_ROUNDTRIP
360
3740
  0
DICTIONARY
  5
374D
330
35
100
AcDbDictionary
280
     1
281
     1
  3
ACAD_XREC_ROUNDTRIP
360
374E
  0
DICTIONARY
  5
3755
330
39
100
AcDbDictionary
280
     1
281
     1
  3
ACAD_XREC_ROUNDTRIP
360
3756
  0
DICTIONARY
  5
3747
330
32
100
AcDbDictionary
280
     1
281
     1
  3
ACAD_XREC_ROUNDTRIP
360
3748
  0
DICTIONARY
  5
374B
330
34
100
AcDbDictionary
280
     1
281
     1
  3
ACAD_XREC_ROUNDTRIP
360
374C
  0
DICTIONARY
  5
3765
330
41
100
AcDbDictionary
280
     1
281
     1
  3
ACAD_XREC_ROUNDTRIP
360
3766
  0
DICTIONARY
  5
3753
330
38
100
AcDbDictionary
280
     1
281
     1
  3
ACAD_XREC_ROUNDTRIP
360
3754
  0
DICTIONARY
  5
3737
330
2A
100
AcDbDictionary
280
     1
281
     1
  3
ACAD_XREC_ROUNDTRIP
360
3738
  0
DICTIONARY
  5
3739
330
2B
100
AcDbDictionary
280
     1
281
     1
  3
ACAD_XREC_ROUNDTRIP
360
373A
  0
DICTIONARY
  5
373B
330
2C
100
AcDbDictionary
280
     1
281
     1
  3
ACAD_XREC_ROUNDTRIP
360
373C
  0
DICTIONARY
  5
373D
330
2D
100
AcDbDictionary
280
     1
281
     1
  3
ACAD_XREC_ROUNDTRIP
360
373E
  0
DICTIONARY
  5
3745
330
31
100
AcDbDictionary
280
     1
281
     1
  3
ACAD_XREC_ROUNDTRIP
360
3746
  0
DICTIONARY
  5
3761
330
3F
100
AcDbDictionary
280
     1
281
     1
  3
ACAD_XREC_ROUNDTRIP
360
3762
  0
DICTIONARY
  5
3751
330
37
100
AcDbDictionary
280
     1
281
     1
  3
ACAD_XREC_ROUNDTRIP
360
3752
  0
DICTIONARY
  5
3763
330
40
100
AcDbDictionary
280
     1
281
     1
  3
ACAD_XREC_ROUNDTRIP
360
3764
  0
DICTIONARY
  5
3749
330
33
100
AcDbDictionary
280
     1
281
     1
  3
ACAD_XREC_ROUNDTRIP
360
374A
  0
DICTIONARY
  5
375F
330
3E
100
AcDbDictionary
280
     1
281
     1
  3
ACAD_XREC_ROUNDTRIP
360
3760
  0
DICTIONARY
  5
375D
330
3D
100
AcDbDictionary
280
     1
281
     1
  3
ACAD_XREC_ROUNDTRIP
360
375E
  0
DICTIONARY
  5
3757
330
3A
100
AcDbDictionary
280
     1
281
     1
  3
ACAD_XREC_ROUNDTRIP
360
3758
  0
DICTIONARY
  5
3759
330
3B
100
AcDbDictionary
280
     1
281
     1
  3
ACAD_XREC_ROUNDTRIP
360
375A
  0
DICTIONARY
  5
374F
330
36
100
AcDbDictionary
280
     1
281
     1
  3
ACAD_XREC_ROUNDTRIP
360
3750
  0
DICTIONARY
  5
3743
330
30
100
AcDbDictionary
280
     1
281
     1
  3
ACAD_XREC_ROUNDTRIP
360
3744
  0
DICTIONARY
  5
375B
330
3C
100
AcDbDictionary
280
     1
281
     1
  3
ACAD_XREC_ROUNDTRIP
360
375C
  0
XRECORD
  5
376A
102
{ACAD_REACTORS
330
163
102
}
330
163
100
AcDbXrecord
280
     1
102
SHADEPLOT
 70
     0
102
SHADEPLOTRESLEVEL
 70
     2
102
SHADEPLOTCUSTOMDPI
 70
   300
  0
XRECORD
  5
164
102
{ACAD_REACTORS
330
163
102
}
330
163
100
AcDbXrecord
280
     1
310
28000000000100006F0000000100080000000000006F0000000000000000000000010000000000000000000000000000FFFFFF000000000000000000000000000000000000000000000000000000000000000000330000006600000099000000CC000000FF00000000330000333300006633000099330000CC330000FF3300
310
0000660000336600006666000099660000CC660000FF66000000990000339900006699000099990000CC990000FF99000000CC000033CC000066CC000099CC0000CCCC0000FFCC000000FF000033FF000066FF000099FF0000CCFF0000FFFF000000003300330033006600330099003300CC003300FF003300003333003333
310
33006633330099333300CC333300FF33330000663300336633006666330099663300CC663300FF66330000993300339933006699330099993300CC993300FF99330000CC330033CC330066CC330099CC3300CCCC3300FFCC330000FF330033FF330066FF330099FF3300CCFF3300FFFF330000006600330066006600660099
310
006600CC006600FF00660000336600333366006633660099336600CC336600FF33660000666600336666006666660099666600CC666600FF66660000996600339966006699660099996600CC996600FF99660000CC660033CC660066CC660099CC6600CCCC6600FFCC660000FF660033FF660066FF660099FF6600CCFF6600
310
FFFF660000009900330099006600990099009900CC009900FF00990000339900333399006633990099339900CC339900FF33990000669900336699006666990099669900CC669900FF66990000999900339999006699990099999900CC999900FF99990000CC990033CC990066CC990099CC9900CCCC9900FFCC990000FF99
310
0033FF990066FF990099FF9900CCFF9900FFFF99000000CC003300CC006600CC009900CC00CC00CC00FF00CC000033CC003333CC006633CC009933CC00CC33CC00FF33CC000066CC003366CC006666CC009966CC00CC66CC00FF66CC000099CC003399CC006699CC009999CC00CC99CC00FF99CC0000CCCC0033CCCC0066CC
310
CC0099CCCC00CCCCCC00FFCCCC0000FFCC0033FFCC0066FFCC0099FFCC00CCFFCC00FFFFCC000000FF003300FF006600FF009900FF00CC00FF00FF00FF000033FF003333FF006633FF009933FF00CC33FF00FF33FF000066FF003366FF006666FF009966FF00CC66FF00FF66FF000099FF003399FF006699FF009999FF00CC
310
99FF00FF99FF0000CCFF0033CCFF0066CCFF0099CCFF00CCCCFF00FFCCFF0000FFFF0033FFFF0066FFFF0099FFFF00CCFFFF00FFFFFF00000000000D0D0D001A1A1A00282828003535350043434300505050005D5D5D006B6B6B00787878008686860093939300A1A1A100AEAEAE00BBBBBB00C9C9C900D6D6D600E4E4E400
310
F1F1F100FFFFFF000000000000000000000000000000000000000000000000000000000000000000000000000000000000000000000000000000000000000000000000000000000000000000000000000000000000000000000000000000000000000000000000000000000000000000000000000000000000000000000000
310
00000000000000000000000000000000000000000000000000000000000000000000000000000000000000000000000000000000000000000000000000000000000000000000000000000000000000000000000000000000000000000000000000000000000000000000000000000000000000000000000000000000000000
310
0000000000000000000000000000000000000000000000000000000000000000000000000000000000000000000000000000000000000000000000000000000000000000000000000000000000000000000000000000000000000000000000000000000000F5F5F5F5F5F5F5F5F5F5F5F5F5F5F5F5F5F5F5F5F5F5F5F5F5F5
310
F5F5F5F5F5F5F5F5F5F5F5F5F5F5F5F5F5F5F5F5F5F5F5F5F5F5F5F5F5F5F5F5F5F5F5F5F5F5F5F5F5F5F5F5F5F5F5F5F5F5F5F5F5F5F5F5F5F5F5F5F5F5F5F5F5F5F5F5F5F5F5F5F5F5F5F5F5F5F5F5F5F5F5F5F5F5F5F5F5F5F5F5F5F5F5F5F5F5F5F5F5F5F5F5F5F5F5F5F5F5F5F5F5F5F5F5F5F5F5F5F5F5F5F5F5F5F5
310
F5000000000000000000000000000000000000000000000000000000000000000000000000000000000000000000000000000000000000000000000000000000000000000000000000000000000000000000000000000000000000000000000000000000000000F50000000000000000000000000000000000000000000000
310
0000000000000000000000000000000000000000000000000000000000000000000000000000000000000000000000000000000000000000000000000000000000000000000000F5F5F5F5F5F5F5F5F5F5F5F5F5F5F5F5F5F5F5F5F5F5F5F5F5F5F5F5F5F5F5F5F5F5F5F5F5F5F5F5F5F5F5F5F5F5F5F5F500F5F5F5F5F5F5
310
F5F5F5000000000000000000000000000000000000000000000000000000000000000000000000000000000000000000000000000000000000000000000000000000000000000000000000000000000000000000000000000000000000000000000000000000000000F5000000000000000000000000000000000000000000
310
00000000000000000000000000000000000000000000000000000000000000000000000000000000000000000000000000000000000000000000000000000000000000000000000000F5F5F5F5F5F500F5F5F5F5F5F5F5F5F5F5F5F5F5F5F5F5F5F5F5F5F5F5F50000000000F5F5F5F5F5F5F5F5F5F5F5F5F5F5F5F5F5F5F5
310
F5F5F5F5F5000000000000000000000000000000000000000000000000000000000000000000000000000000000000000000000000000000000000000000000000000000000000000000000000000000000000000000000000000000000000000000000000000000000000F500000000000000000000000000000000000000
310
000000000000000000000000000000000000000000000000000000000000000000000000000000000000000000000000000000000000000000000000000000000000000000000000000000F5F5F5F5F5F5F5F5F5F5F5F5F5F5F5F5F5F5F5F5F5F5F5F5F5F5F5F5F5F5F5F5F5F5F5F5F5F5F5F5F5F5F5F5F5F5F5F5F5F5F5F5
310
F5F5F5F5F5F5F5000000000000000000000000000000000000000000000000000000000000000000000000000000000000000000000000000000000000000000000000000000000000000000000000000000000000000000000000000000000000000000000000000000000000F50000000000000000000000000000000000
310
00000000000000000000000000000000000000000000000000000000000000000000000000000000000000000000000000000000000000000000000000000000000000000000000000000000000000000000000000000000000000000000000000000000000000000000000000000000000000000000000000000000000000
310
0000000000000000F5000000000000000000000000000000000000000000000000000000000000000000000000000000000000000000000000000000000000000000000000000000000000000000000000000000000000000000000000000000000000000000000000000000000000F5000000000000000000000000000000
310
00000000000000000000000000000000000000000000000000000000000000000000000000000000000000000000000000000000000000000000000000000000000000000000000000000000000000000000000000000000000000000000000000000000000000000000000000000000000000000000000000000000000000
310
00000000000000000000F5000000000000000000000000000000000000000000000000000000000000000000000000000000000000000000000000000000000000000000000000000000000000000000000000000000000000000000000000000000000000000000000000000000000000F500000000000000000000000000
310
00000000000000000000000000000000000000000000000000000000000000000000000000000000000000000000000000000000000000000000000000000000000000000000000000000000000000000000000000000000000000000000000000000000000000000000000000000000000000000000000000000000000000
310
000000000000000000000000F5000000000000000000000000000000000000000000000000000000000000000000000000000000000000000000000000000000000000000000000000000000000000000000000000000000000000000000000000000000000000000000000000000000000000F50000000000000000000000
310
00000000000000000000000000000000000000000000000000000000000000000000000000000000000000000000000000000000000000000000000000000000000000000000000000000000000000000000000000000000000000000000000000000000000000000000000000000000000000000000000000000000000000
310
0000000000000000000000000000F5000000000000000000000000000000000000000000000000000000000000000000000000000000000000000000000000000000000000000000000000000000000000000000000000000000000000000000000000000000000000000000000000000000000000F5000000000000000000
310
000000F5F5F5F5F5F5F5F5F5F5F5F5F5F5F5F5F5F5F5F5F5F5F5F5F5F5F5F5F5F5F5F5F5F5F5F5F5F5F5F5F5F5F5F5F500000000000000000000000000000000000000000000000000000000000000000000000000000000000000000000000000000000000000000000000000000000000000000000000000000000000000
310
00000000000000000000000000000000F5000000000000000000000000000000000000000000000000000000000000000000000000000000000000000000000000000000000000000000000000000000000000000000000000000000000000000000000000000000000000000000000000000000000000F500000000000000
310
0000000000F50000000000000000000000000000000000000000F5F5F5F500000000000000000000000000000000000000F50000000000000000000000000000000000000000000000000000000000000000000000000000000000000000000000000000000000000000000000000000000000000000000000000000000000
310
000000000000000000000000000000000000F5000000000000000000000000000000000000000000000000000000000000000000000000000000000000000000000000000000000000000000000000000000000000000000000000000000000000000000000000000000000000000000000000000000000000F50000000000
310
00000000000000F5F5000000000000000000000000000000000000F5F5F5F5F5000000000000000000000000000000000000F5F5000000000000000000000000000000000000000000000000000000000000000000000000000000000000000000000000000000000000000000000000000000000000000000000000000000
310
0000000000000000000000000000000000000000F5000000000000000000000000000000000000000000000000000000000000000000000000000000000000000000000000000000000000000000000000000000000000000000000000000000000000000000000000000000000000000000000000000000000000F5000000
310
0000000000000000F5F5F5F5F5F5F5F5F5F5F5F5F5F5F5F5F5F5F5F5F5F5F5F5F5F5F5F5F5F5F5F5F5F5F5F5F5F5F5F5F5F5F5F5F5F5F5000000000000000000000000000000000000000000000000000000000000000000000000000000000000000000000000000000000000000000000000000000000000000000000000
310
00000000000000000000000000000000000000000000F5000000000000000000000000000000000000000000000000000000000000000000000000000000000000000000000000000000000000000000000000000000000000000000000000000000000000000000000000000000000000000000000000000000000000F500
310
00000000000000000000F5F5F50000000000000000000000000000000000000000F50000000000000000000000000000000000000000F5F5F500000000000000000000000000000000000000000000000000000000000000000000000000000000000000000000000000000000000000000000000000000000000000000000
310
000000000000000000000000000000000000000000000000F5000000000000000000000000000000000000000000000000000000000000000000000000000000000000000000000000000000000000000000000000000000000000000000000000000000000000000000000000000000000000000000000000000000000000
310
F5000000000000000000000000F5F50000000000000000000000000000000000000000000000000000000000000000000000000000000000F5F5000000000000000000000000000000000000000000000000000000000000000000000000000000000000000000000000000000000000000000000000000000000000000000
310
0000000000000000000000000000000000000000000000000000F500000000000000000000000000000000000000000000000000000000000000000000000000000000000000000000000000000000000000000000000000000000000000000000000000000000000000000000000000000000000000000000000000000000
310
0000F5000000000000000000000000F5F5000000000000000000000000000000000000F5F500F5F5000000000000000000000000000000000000F5F500000000000000000000000000000000000000000000000000000000000000000000000000000000000000000000000000000000000000000000000000000000000000
310
00000000000000000000000000000000000000000000000000000000F50000000000000000000000000000000000000000000000000000000000000000000000000000000000000000000000000000000000000000000000000000000000000000000000000000000000000000000000000000000000000000000000000000
310
00000000F5000000000000000000000000F5F5000000000000000000000000000000000000F5F500F5F5000000000000000000000000000000000000F5F50000000000000000000000000000000000000000000000000000000000000000000000000000000000000000000000000000000000000000000000000000000000
310
000000000000000000000000000000000000000000000000000000000000F5000000000000000000000000000000000000000000000000000000000000000000000000000000000000000000000000000000000000000000000000000000000000000000000000000000000000000000000000000000000000000000000000
310
000000000000F5000000000000000000000000F5F50000000000000000000000000000000000F5F5F5F5F5F5F50000000000000000000000000000000000F5F5000000000000000000000000000000000000000000000000000000000000000000000000000000000000000000000000000000000000000000000000000000
310
0000000000000000000000000000000000000000000000000000000000000000F500000000000000000000000000000000000000000000000000000000000000000000000000000000000000000000000000000000000000000000000000000000000000000000000000000000000000000000000000000000000000000000
310
0000000000000000F5000000000000000000000000F5F50000000000000000000000000000000000F5F5F5F5F5F5F50000000000000000000000000000000000F5F500000000000000000000000000000000000000000000000000000000000000000000000000000000000000000000000000000000000000000000000000
310
00000000000000000000000000000000000000000000000000000000000000000000F50000000000000000000000000000000000000000000000000000000000000000000000000000000000000000000000000000000000000000000000000000000000000000000000000000000000000000000000000000000000000000
310
00000000000000000000F5000000000000000000000000F5F50000000000000000000000000000000000F5F5F5F5F5F5F50000000000000000000000000000000000F5F50000000000000000000000000000000000000000000000000000000000000000000000000000000000000000000000000000000000000000000000
310
000000000000000000000000000000000000000000000000000000000000000000000000F5000000000000000000000000000000000000000000000000000000000000000000000000000000000000000000000000000000000000000000000000000000000000000000000000000000000000000000000000000000000000
310
000000000000000000000000F500000000000000000000000000000000000000000000000000000000000000F5F5F5F5F5F5F500000000000000000000000000000000000000000000000000000000000000000000000000000000000000000000000000000000000000000000000000000000000000000000000000000000
310
0000000000000000000000000000000000000000000000000000000000000000000000000000F500000000000000000000000000000000000000000000000000000000000000000000000000000000000000000000000000000000000000000000000000000000000000000000000000000000000000000000000000000000
310
0000000000000000000000000000F5000000000000000000000000F5F50000000000000000000000000000000000F5F5F5F5F5F5F50000000000000000000000000000000000F5F500000000000000000000000000000000000000000000000000000000000000000000000000000000000000000000000000000000000000
310
00000000000000000000000000000000000000000000000000000000000000000000000000000000F50000000000000000000000000000000000000000000000000000000000000000000000000000000000000000000000000000000000000000000000000000000000000000000000000000000000000000000000000000
310
00000000000000000000000000000000F5000000000000000000000000F5000000000000000000000000000000000000F5F5F5F5F5F5F5000000000000000000000000000000000000F50000000000000000000000000000000000000000000000000000000000000000000000000000000000000000000000000000000000
310
000000000000000000000000000000000000000000000000000000000000000000000000000000000000F5000000000000000000000000000000000000000000000000000000000000000000000000000000000000000000000000000000000000000000000000000000000000000000000000000000000000000000000000
310
000000000000000000000000000000000000F5000000000000000000000000F5000000000000000000000000000000000000F5F5F5F5F5F5F5000000000000000000000000000000000000F5000000000000000000000000000000000000000000000000000000000000000000000000000000000000000000000000000000
310
0000000000000000000000000000000000000000000000000000000000000000000000000000000000000000F500000000000000000000000000000000000000000000000000000000000000000000000000000000000000000000000000000000000000000000000000000000000000000000000000000000000000000000
310
0000000000000000000000000000000000000000F5000000000000000000000000F500000000000000000000000000000000000000000000000000000000000000000000000000F50000000000F500000000000000000000000000000000000000000000000000000000000000000000000000000000000000000000000000
310
00000000000000000000000000000000000000000000000000000000000000000000000000000000000000000000F50000000000000000000000000000000000000000000000000000000000000000000000000000000000000000000000000000000000000000000000000000000000000000000000000000000000000000
310
00000000000000000000000000000000000000000000F5000000000000000000000000F5F5F5F5F5F5F5F5F5F5F5F5F5F5F5F5F5F5F5F5F5F5F5F5F5F5F5F5F5F5F5F5F5F5F5F5F5F5F5F5F5F5F5F5F50000000000000000000000000000000000000000000000000000000000000000000000000000000000000000000000
310
000000000000000000000000000000000000000000000000000000000000000000000000000000000000000000000000F5000000000000000000000000000000000000000000000000000000000000000000000000000000000000000000000000000000000000000000000000000000000000000000000000000000000000
310
000000000000000000000000000000000000000000000000F5000000000000000000000000F5F500000000000000000000000000000000000000000000000000000000000000000000F5F5F5F5F5F5F5F5F5000000000000000000000000000000000000000000000000000000000000000000000000000000000000000000
310
0000000000000000000000000000000000000000000000000000000000000000000000000000000000000000000000000000F500000000000000000000000000000000000000000000000000000000000000000000000000000000000000000000000000000000000000000000000000000000000000000000000000000000
310
0000000000000000000000000000000000000000000000000000F500000000000000000000000000000000000000000000000000000000000000000000000000000000000000000000000000000000000000000000000000000000000000000000000000000000000000000000000000000000000000000000000000000000
310
00000000000000000000000000000000000000000000000000000000000000000000000000000000000000000000000000000000F50000000000000000000000000000000000000000000000000000000000000000000000000000000000000000000000000000000000000000000000000000000000000000000000000000
310
00000000000000000000000000000000000000000000000000000000F500000000000000000000000000F50000000000000000000000000000000000000000000000000000000000000000000000000000000000F5000000000000000000000000000000000000000000000000000000000000000000000000000000000000
310
000000000000000000000000000000000000000000000000000000000000000000000000000000000000000000000000000000000000F5000000000000000000000000000000000000000000000000000000000000000000000000000000000000000000000000000000000000000000000000000000000000000000000000
310
000000000000000000000000000000000000000000000000000000000000F5000000000000000000000000000000000000000000000000000000000000000000000000000000000000000000000000000000000000000000000000000000000000000000000000000000000000000000000000000000000000000000000000
310
0000000000000000000000000000000000000000000000000000000000000000000000000000000000000000000000000000000000000000F500000000000000000000000000000000000000000000000000000000000000000000000000000000000000000000000000000000000000000000000000000000000000000000
310
0000000000000000000000000000000000000000000000000000000000000000F500000000000000000000000000F50000000000000000000000000000000000000000000000000000000000000000000000000000000000F50000000000000000000000000000000000000000000000000000000000000000000000000000
310
00000000000000000000000000000000000000000000000000000000000000000000000000000000000000000000000000000000000000000000F50000000000000000000000000000000000000000000000000000000000000000000000000000000000000000000000000000000000000000000000000000000000000000
310
00000000000000000000000000000000000000000000000000000000000000000000F500000000000000000000000000F5000000000000000000000000000000000000F5F500F5F5000000000000000000000000000000000000F5000000000000000000000000000000000000000000000000000000000000000000000000
310
000000000000000000000000000000000000000000000000000000000000000000000000000000000000000000000000000000000000000000000000F5000000000000000000000000000000000000000000000000000000000000000000000000000000000000000000000000000000000000000000000000000000000000
310
000000000000000000000000000000000000000000000000000000000000000000000000F500000000000000000000000000F5000000000000000000000000000000000000F5F500F5F5000000000000000000000000000000000000F500000000000000000000000000000000000000000000000000000000000000000000
310
0000000000000000000000000000000000000000000000000000000000000000000000000000000000000000000000000000000000000000000000000000F500000000000000000000000000000000000000000000000000000000000000000000000000000000000000000000000000000000000000000000000000000000
310
0000000000000000000000000000000000000000000000000000000000000000000000000000F500000000000000000000000000F50000000000000000000000000000000000000000000000000000000000000000000000000000000000F50000000000000000000000000000000000000000000000000000000000000000
310
00000000000000000000000000000000000000000000000000000000000000000000000000000000000000000000000000000000000000000000000000000000F50000000000000000000000000000000000000000000000000000000000000000000000000000000000000000000000000000000000000000000000000000
310
00000000000000000000000000000000000000000000000000000000000000000000000000000000F500000000000000000000000000F5F5F5F5F5F5F5F5F5F5F5F5F5F5F5F5F5F5F5F5F5F5F5F5F5F5F5F5F5F5F5F5F5F5F5F5F5F5F5F5F5F5F5000000000000000000000000000000000000000000000000000000000000
310
000000000000000000000000000000000000000000000000000000000000000000000000000000000000000000000000000000000000000000000000000000000000F5000000000000000000000000000000000000000000000000000000000000000000000000000000000000000000000000000000000000000000000000
310
000000000000000000000000000000000000000000000000000000000000000000000000000000000000F500000000000000000000000000000000000000000000000000000000000000000000F500000000000000000000000000000000000000000000000000000000000000000000000000000000000000000000000000
310
0000000000000000000000000000000000000000000000000000000000000000000000000000000000000000000000000000000000000000000000000000000000000000F500000000000000000000000000000000000000000000000000000000000000000000000000000000000000000000000000000000000000000000
310
0000000000000000000000000000000000000000000000000000000000000000000000000000000000000000F500000000000000000000000000000000000000000000000000000000000000000000000000000000000000000000000000000000000000000000000000000000000000000000000000000000000000000000
310
00000000000000000000000000000000000000000000000000000000000000000000000000000000000000000000000000000000000000000000000000000000000000000000F50000000000000000000000000000000000000000000000000000000000000000000000000000000000000000000000000000000000000000
310
00000000000000000000000000000000000000000000000000000000000000000000000000000000000000000000F50000000000000000000000000000000000000000000000000000000000000000000000000000000000000000000000000000000000000000000000000000000000000000000000000000000000000000
310
000000000000000000000000000000000000000000000000000000000000000000000000000000000000000000000000000000000000000000000000000000000000000000000000F5000000000000000000000000000000000000000000000000000000000000000000000000000000000000000000000000000000000000
310
000000000000000000000000000000000000000000000000000000000000000000000000000000000000000000000000F5000000000000000000000000000000000000000000000000000000000000000000000000000000000000000000000000000000000000000000000000000000000000000000000000000000000000
310
0000000000000000000000000000000000000000000000000000000000000000000000000000000000000000000000000000000000000000000000000000000000000000000000000000F500000000000000000000000000000000000000000000000000000000000000000000000000000000000000000000000000000000
310
0000000000000000000000000000000000000000000000000000000000000000000000000000000000000000000000000000F500000000000000000000000000000000000000000000000000000000000000000000000000000000000000000000000000000000000000000000000000000000000000000000000000000000
310
00000000000000000000000000000000000000000000000000000000000000000000000000000000000000000000000000000000000000000000000000000000000000000000000000000000F50000000000000000000000000000000000000000000000000000000000000000000000000000000000000000000000000000
310
00000000000000000000000000000000000000000000000000000000000000000000000000000000000000000000000000000000F50000000000000000000000000000000000000000000000000000000000000000000000000000000000000000000000000000000000000000000000000000000000000000000000000000
310
000000000000000000000000000000000000000000000000000000000000000000000000000000000000000000000000000000000000000000000000000000000000000000000000000000000000F5000000000000000000000000000000000000000000000000000000000000000000000000000000000000000000000000
310
000000000000000000000000000000000000000000000000000000000000000000000000000000000000000000000000000000000000F5000000000000000000000000000000000000000000000000000000000000000000000000000000000000000000000000000000000000000000000000000000000000000000000000
310
0000000000000000000000000000000000000000000000000000000000000000000000000000000000000000000000000000000000000000000000000000000000000000000000000000000000000000F500000000000000000000000000000000000000000000000000000000000000000000000000000000000000000000
310
0000000000000000000000000000000000000000000000000000000000000000000000000000000000000000000000000000000000000000F500000000000000000000000000000000000000000000000000000000000000000000000000000000000000000000000000000000000000000000000000000000000000000000
310
00000000000000000000000000000000000000000000000000000000000000000000000000000000000000000000000000000000000000000000000000000000000000000000000000000000000000000000F50000000000000000000000000000000000000000000000000000000000000000000000000000000000000000
310
00000000000000000000000000000000000000000000000000000000000000000000000000000000000000000000000000000000000000000000F50000000000000000000000000000000000000000000000000000000000000000000000000000000000000000000000000000000000000000000000000000000000000000
310
000000000000000000000000000000000000000000000000000000000000000000000000000000000000000000000000000000000000000000000000000000000000000000000000000000000000000000000000F5000000000000000000000000000000000000000000000000000000000000000000000000000000000000
310
000000000000000000000000000000000000000000000000000000000000000000000000000000000000000000000000000000000000000000000000F5000000000000000000000000000000000000000000000000000000000000000000000000000000000000000000000000000000000000000000000000000000000000
310
0000000000000000000000000000000000000000000000000000000000000000000000000000000000000000000000000000000000000000000000000000000000000000000000000000000000000000000000000000F500000000000000000000000000000000000000000000000000000000000000000000000000000000
310
0000000000000000000000000000000000000000000000000000000000000000000000000000000000000000000000000000000000000000000000000000F500000000000000000000000000000000000000000000000000000000000000000000000000000000000000000000000000000000000000000000000000000000
310
00000000000000000000000000000000000000000000000000000000000000000000000000000000000000000000000000000000000000000000000000000000000000000000000000000000000000000000000000000000F50000000000000000000000000000000000000000000000000000000000000000000000000000
310
00000000000000000000000000000000000000000000000000000000000000000000000000000000000000000000000000000000000000000000000000000000F50000000000000000000000000000000000000000000000000000000000000000000000000000000000000000000000000000000000000000000000000000
310
000000000000000000000000000000000000000000000000000000000000000000000000000000000000000000000000000000000000000000000000000000000000000000000000000000000000000000000000000000000000F5000000000000000000000000000000000000000000000000000000000000000000000000
310
000000000000000000000000000000000000000000000000000000000000000000000000000000000000000000000000000000000000000000000000000000000000F5000000000000000000000000000000000000000000000000000000000000000000000000000000000000000000000000000000000000000000000000
310
0000000000000000000000000000000000000000000000000000000000000000000000000000000000000000000000000000000000000000000000000000000000000000000000000000000000000000000000000000000000000000F500000000000000000000000000000000000000000000000000000000000000000000
310
0000000000000000000000000000000000000000000000000000000000000000000000000000000000000000000000000000000000000000000000000000000000000000F500000000000000000000000000000000000000000000000000000000000000000000000000000000000000000000000000000000000000000000
310
00000000000000000000000000000000000000000000000000000000000000000000000000000000000000000000000000000000000000000000000000000000000000000000000000000000000000000000000000000000000000000000F50000000000000000000000000000000000000000000000000000000000000000
310
00000000000000000000000000000000000000000000000000000000000000000000000000000000000000000000000000000000000000000000000000000000000000000000F50000000000000000000000000000000000F5F5F5F5F5F5F5F5F5F5F5F5F5F5F5F5F5F5F5F5F5F5F5F5F5F5F5F5F5F5F5F5F5F5F5F5F5F5F5
310
000000000000000000000000000000000000000000000000000000000000000000000000000000000000000000000000000000000000000000000000000000000000000000000000000000000000000000000000000000000000000000000000F5000000000000000000000000000000000000000000000000000000000000
310
000000000000000000000000000000000000000000000000000000000000000000000000000000000000000000000000000000000000000000000000000000000000000000000000F500000000000000000000000000000000000000000000000000000000000000000000F50000000000000000000000F500000000000000
310
0000000000000000000000000000000000000000000000000000000000000000000000000000000000000000000000000000000000000000000000000000000000000000000000000000000000000000000000000000000000000000000000000000F500000000000000000000000000000000000000000000000000000000
310
0000000000000000000000000000000000000000000000000000000000000000000000000000000000000000000000000000000000000000000000000000000000000000000000000000F500000000000000000000000000000000000000000000000000000000000000000000F50000000000000000000000F50000000000
310
00000000000000000000000000000000000000000000000000000000000000000000000000000000000000000000000000000000000000000000000000000000000000000000000000000000000000000000000000000000000000000000000000000000F50000000000000000000000000000000000000000000000000000
310
00000000000000000000000000000000000000000000000000000000000000000000000000000000000000000000000000000000000000000000000000000000000000000000000000000000F500000000000000000000000000000000000000000000000000000000000000000000F50000000000000000000000F5000000
310
000000000000000000000000000000000000000000000000000000000000000000000000000000000000000000000000000000000000000000000000000000000000000000000000000000000000000000000000000000000000000000000000000000000000F5000000000000000000000000000000000000000000000000
310
000000000000000000000000000000000000000000000000000000000000000000000000000000000000000000000000000000000000000000000000000000000000000000000000000000000000F500000000000000000000000000000000000000000000000000000000000000000000F50000000000000000000000F500
310
0000000000000000000000000000000000000000000000000000000000000000000000000000000000000000000000000000000000000000000000000000000000000000000000000000000000000000000000000000000000000000000000000000000000000000F500000000000000000000000000000000000000000000
310
0000000000000000000000000000000000000000000000000000000000000000000000000000000000000000000000000000000000000000000000000000000000000000000000000000000000000000F500000000000000000000000000000000000000000000000000000000000000000000F50000000000000000000000
310
F5000000000000000000000000000000000000000000000000000000000000000000000000000000000000000000000000000000000000000000000000000000000000000000000000000000000000000000000000000000000000000000000000000000000000000000F50000000000000000000000000000000000000000
310
00000000000000000000000000000000000000000000000000000000000000000000000000000000000000000000000000000000000000000000000000000000000000000000000000000000000000000000F500000000000000000000000000000000000000000000000000000000000000000000F5000000000000000000
310
0000F5000000000000000000000000000000000000000000000000000000000000000000000000000000000000000000000000000000000000000000000000000000000000000000000000000000000000000000000000000000000000000000000000000000000000000000F5000000000000000000000000000000000000
310
000000000000000000000000000000000000000000000000000000000000000000000000000000000000000000000000000000000000000000000000000000000000000000000000000000000000000000000000F500000000000000000000000000000000000000000000000000000000000000000000F500000000000000
310
00000000F5000000000000000000000000000000000000000000000000000000000000000000000000000000000000000000000000000000000000000000000000000000000000000000000000000000000000000000000000000000000000000000000000000000000000000000F500000000000000000000000000000000
310
0000000000000000000000000000000000000000000000000000000000000000000000000000000000000000000000000000000000000000000000000000000000000000000000000000000000000000000000000000F500000000000000000000000000000000000000000000000000000000000000000000F50000000000
310
000000000000F5000000000000000000000000000000000000000000000000000000000000000000000000000000000000000000000000000000000000000000000000000000000000000000000000000000000000000000000000000000000000000000000000000000000000000000F50000000000000000000000000000
310
00000000000000000000000000000000000000000000000000000000000000000000000000000000000000000000000000000000000000000000000000000000000000000000000000000000000000000000000000000000F500000000000000000000000000000000000000000000000000000000000000000000F5000000
310
0000000000000000F5000000000000000000000000000000000000000000000000000000000000000000000000000000000000000000000000000000000000000000000000000000000000000000000000000000000000000000000000000000000000000000000000000000000000000000F5000000000000000000000000
310
000000000000000000000000000000000000000000000000000000000000000000000000000000000000000000000000000000000000000000000000000000000000000000000000000000000000000000000000000000000000F500000000000000000000000000000000000000000000000000000000000000000000F500
310
00000000000000000000F5000000000000000000000000000000000000000000000000000000000000000000000000000000000000000000000000000000000000000000000000000000000000000000000000000000000000000000000000000000000000000000000000000000000000000000F500000000000000000000
310
0000000000000000000000000000000000000000000000000000000000000000000000000000000000000000000000000000000000000000000000000000000000000000000000000000000000000000000000000000000000000000F500000000000000000000000000000000000000000000000000000000000000000000
310
F50000000000000000000000F5000000000000000000000000000000000000000000000000000000000000000000000000000000000000000000000000000000000000000000000000000000000000000000000000000000000000000000000000000000000000000000000000000000000000000000F50000000000000000
310
00000000000000000000000000000000000000000000000000000000000000000000000000000000000000000000000000000000000000000000000000000000000000000000000000000000000000000000000000000000000000000000F50000000000000000000000000000000000000000000000000000000000000000
310
0000F50000000000000000000000F5000000000000000000000000000000000000000000000000000000000000000000000000000000000000000000000000000000000000000000000000000000000000000000000000000000000000000000000000000000000000000000000000000000000000000000F5000000000000
310
000000000000000000000000000000000000000000000000000000000000000000000000000000000000000000000000000000000000000000000000000000000000000000000000000000000000000000000000000000000000000000000000F5000000000000000000000000000000000000000000000000000000000000
310
00000000F50000000000000000000000F5000000000000000000000000000000000000000000000000000000000000000000000000000000000000000000000000000000000000000000000000000000000000000000000000000000000000000000000000000000000000000000000000000000000000000000F500000000
310
0000000000000000000000000000000000000000000000000000000000000000000000000000000000000000000000000000000000000000000000000000000000000000000000000000000000000000000000000000000000000000000000000000F500000000000000000000000000000000000000000000000000000000
310
000000000000F50000000000000000000000F5000000000000000000000000000000000000000000000000000000000000000000000000000000000000000000000000000000000000000000000000000000000000000000000000000000000000000000000000000000000000000000000000000000000000000000F50000
310
00000000000000000000000000000000000000000000000000000000000000000000000000000000000000000000000000000000000000000000000000000000000000000000000000000000000000000000000000000000000000000000000000000000F50000000000000000000000000000000000000000000000000000
310
000000F500000000F500000000F5000000000000F5000000000000000000000000000000000000000000000000000000000000000000000000000000000000000000000000000000000000000000000000000000000000000000000000000000000000000000000000000000000000000000000000000000000000000000F5
310
000000000000000000000000000000000000000000000000000000000000000000000000000000000000000000000000000000000000000000000000000000000000000000000000000000000000000000000000000000000000000000000000000000000000F5000000000000000000000000000000000000000000000000
310
0000000000F5F5000000F5000000F5F5000000000000F50000000000000000000000000000000000000000000000000000000000000000000000000000000000000000000000000000000000000000000000000000000000000000000000000000000000000000000000000000000000000000000000000000000000000000
310
00F5000000000000000000000000000000000000000000000000000000000000000000000000000000000000000000000000000000000000000000000000000000000000000000000000000000000000000000000000000000000000000000000000000000000000F500000000000000000000000000000000000000000000
310
00000000000000F5F5000000F5000000F5F50000000000F5F5000000000000000000000000000000000000000000000000000000000000000000000000000000000000000000000000000000000000000000000000000000000000000000000000000000000000000000000000000000000000000000000000000000000000
310
000000F5000000000000000000000000000000000000000000000000000000000000000000000000000000000000000000000000000000000000000000000000000000000000000000000000000000000000000000000000000000000000000000000000000000000000F50000000000000000000000000000000000000000
310
000000000000000000F500000000F5000000F5F50000000000F5F500000000000000000000000000000000000000000000000000000000000000000000000000000000000000000000000000000000000000000000000000000000000000000000000000000000000000000000000000000000000000000000000000000000
310
0000000000F5000000000000000000000000000000000000000000000000000000000000000000000000000000000000000000000000000000000000000000000000000000000000000000000000000000000000000000000000000000000000000000000000000000000000F5000000000000000000000000000000000000
310
0000000000000000000000F500000000F5000000F5F5000000000000F50000000000000000000000000000000000000000000000000000000000000000000000000000000000000000000000000000000000000000000000000000000000000000000000000000000000000000000000000000000000000000000000000000
310
00000000000000F5000000000000000000000000000000000000000000000000000000000000000000000000000000000000000000000000000000000000000000000000000000000000000000000000000000000000000000000000000000000000000000000000000000000000F500000000000000000000000000000000
310
00000000000000000000000000F500000000F500000000F5000000000000F5000000000000000000000000000000000000000000000000000000000000000000000000000000000000000000000000000000000000000000000000000000000000000000000000000000000000000000000000000000000000000000000000
310
000000000000000000F5000000000000000000000000000000000000000000000000000000000000000000000000000000000000000000000000000000000000000000000000000000000000000000000000000000000000000000000000000000000000000000000000000000000000F50000000000000000000000000000
310
0000000000000000000000000000000000000000F50000000000000000000000F500000000000000000000000000000000000000000000000000000000000000000000000000000000000000000000000000000000000000000000000000000000000000000000000000000000000000000000000000000000000000000000
310
0000000000000000000000F5000000000000000000000000000000000000000000000000000000000000000000000000000000000000000000000000000000000000000000000000000000000000000000000000000000000000000000000000000000000000000000000000000000000000F5000000000000000000000000
310
00000000000000000000000000000000000000000000F50000000000000000000000F50000000000000000000000000000000000000000000000000000000000000000000000000000000000000000000000000000000000000000000000000000000000000000000000000000000000000000000000000000000000000000
310
00000000000000000000000000F5000000000000000000000000000000000000000000000000000000000000000000000000000000000000000000000000000000000000000000000000000000000000000000000000000000000000000000000000000000000000000000000000000000000000F500000000000000000000
310
000000000000000000000000000000000000000000000000F50000000000000000000000F5000000000000000000000000000000000000000000000000000000000000000000000000000000000000000000000000000000000000000000000000000000000000000000000000000000000000000000000000000000000000
310
000000000000000000000000000000F5000000000000000000000000000000000000000000000000000000000000000000000000000000000000000000000000000000000000000000000000000000000000000000000000000000000000000000000000000000000000000000000000000000000000F50000000000000000
310
0000000000000000000000000000000000000000000000000000F50000000000000000000000F500000000000000000000000000000000000000000000000000000000000000000000000000000000000000000000000000000000000000000000000000000000000000000000000000000000000000000000000000000000
310
0000000000000000000000000000000000F5000000000000000000000000000000000000000000000000000000000000000000000000000000000000000000000000000000000000000000000000000000000000000000000000000000000000000000000000000000000000000000000000000000000000F5000000000000
310
00000000000000000000000000000000000000000000000000000000F50000000000000000000000F50000000000000000000000000000000000000000000000000000000000000000000000000000000000000000000000000000000000000000000000000000000000000000000000000000000000000000000000000000
310
00000000000000000000000000000000000000F5000000000000000000000000000000000000000000000000000000000000000000000000000000000000000000000000000000000000000000000000000000000000000000000000000000000000000000000000000000000000000000000000000000000000F500000000
310
000000000000000000000000000000000000000000000000000000000000F50000000000000000000000F5000000000000000000000000000000000000000000000000000000000000000000000000000000000000000000000000000000000000000000000000000000000000000000000000000000000000000000000000
310
000000000000000000000000000000000000000000F5000000000000000000000000000000000000000000000000000000000000000000000000000000000000000000000000000000000000000000000000000000000000000000000000000000000000000000000000000000000000000000000000000000000000F50000
310
0000000000000000000000000000000000000000000000000000000000000000F50000000000000000000000F500000000000000000000000000000000000000000000000000000000000000000000000000000000000000000000000000000000000000000000000000000000000000000000000000000000000000000000
310
0000000000000000000000000000000000000000000000F5000000000000000000000000000000000000000000000000000000000000000000000000000000000000000000000000000000000000000000000000000000000000000000000000000000000000000000000000000000000000000000000000000000000000F5
310
00000000000000000000000000000000000000000000000000000000000000000000F50000000000000000000000F50000000000000000000000000000000000000000000000000000000000000000000000000000000000000000000000000000000000000000000000000000000000000000000000000000000000000000
310
00000000000000000000000000000000000000000000000000F50000000000000000000000000000000000000000000000000000000000000000000000000000000000000000000000000000000000000000000000000000000000000000000000000000000000000000000000000000000000000000000000000000000000
310
00F500000000000000000000000000000000000000000000000000000000000000000000F50000000000000000000000F5000000000000000000000000000000000000000000000000000000000000000000000000000000000000000000000000000000000000000000000000000000000000000000000000000000000000
310
000000000000000000000000000000000000000000000000000000F5000000000000000000000000000000000000000000000000000000000000000000000000000000000000000000000000000000000000000000000000000000000000000000000000000000000000000000000000000000000000000000000000000000
310
000000F500000000000000000000000000000000000000000000000000000000000000000000F50000000000000000000000F500000000000000000000000000000000000000000000000000000000000000000000000000000000000000000000000000000000000000000000000000000000000000000000000000000000
310
0000000000000000000000000000000000000000000000000000000000F500000000000000000000000000000000000000000000000000000000000000000000000000000000000000000000000000000000000000000000000000000000000000000000000000000000000000000000000000000000000000000000000000
310
0000000000F5000000000000000000000000000000000000000000000000000000000000000000F5F5F500000000000000000000F50000000000000000000000000000F5F5F5F5F5F5F5F5F5F5F5F5F5F5F5F5F5F5F5F5F5F5F5F5F5F5F50000000000000000000000000000F5F5F5F5F5F5F5F50000000000000000000000
310
0000F5F5F5F5F5F5F5F5000000000000000000000000000000000000000000F50000000000000000000000000000000000000000000000000000000000000000000000000000000000000000000000000000000000000000000000000000000000000000000000000000000000000000000000000000000000000000000000
310
00000000000000F5000000000000000000000000000000000000000000000000000000000000000000F5F5F500000000000000000000F50000000000000000000000000000F50000F5F5F5F5F5F5F50000F500F5F5F50000F500F5F5F50000F5000000000000000000F5F5F5F5F5F5F5F5F5F5F5F5F5F5F5F50000000000F5
310
F5F5F5F5F5F5F5F5F5F5F5F5F5F5F5000000000000000000000000000000000000F5000000000000000000000000000000000000000000000000000000000000000000000000000000000000000000000000000000000000000000000000000000000000000000000000000000000000000000000000000000000000000000
310
000000000000000000F5000000000000000000000000000000000000000000000000000000000000000000F5F50000000000000000000000F50000000000000000000000000000F5F5F5F5F5F5F5F5F5F5F5F5F5F5F5F5F5F5F5F5F5F5F5F5F5F5F5000000000000000000F5F5F5F5F5F5F5F5F5F5F5F5F5F5F5F500000000
310
00F5F5F5F5F5F5F5F5F5F5F5F5F5F5F5F5000000000000000000000000000000000000F500000000000000000000000000000000000000000000000000000000000000000000000000000000000000000000000000000000000000000000000000000000000000000000000000000000000000000000000000000000000000
310
0000000000000000000000F5000000000000000000000000000000000000000000000000000000000000000000F5F50000000000000000000000F50000000000000000000000000000F50000F5F5F5F5F5F5F50000F500F5F5F50000F500F5F5F50000F5000000000000000000000000F500F5F5F500F500F5F5F5F5000000
310
000000000000F500F5F500F5F500F5F5F5F500000000000000000000000000000000000000F50000000000000000000000000000000000000000000000000000000000000000000000000000000000000000000000000000000000000000000000000000000000000000000000000000000000000000000000000000000000
310
00000000000000000000000000F50000000000000000000000000000000000F5F5F5F5F5F5F5F5F5F5F5F5F5F5F5F5F5F5F5F5F5F5F5F5F5F5F5F5F5F5F5F5F5F5F5F5F5F5F50000000000F5F5F5F5F5F5F5F5F5F5F5F5F5F5F5F5F5F5F5F5F5F5F5F5F5F5F5000000000000000000F5F5F5F500F5F5F500F500F500000000
310
0000000000F5F5F5F500F5F500F5F500F500000000000000000000000000000000000000000000F5000000000000000000000000000000000000000000000000000000000000000000000000000000000000000000000000000000000000000000000000000000000000000000000000000000000000000000000000000000
310
000000000000000000000000000000F5000000000000000000000000000000000000000000000000000000000000000000F5F5F5F5F5F500F5F5F5F5F5F5F5F500000000000000000000000000F50000F5F5F5F5F5F5F50000F500F5F5F50000F500F5F5F50000F5000000000000000000F5F5F5F5F5F5F5F5F5F5F5F50000
310
00000000000000F5F5F5F5F5F5F5F5F5F5F5F500000000000000000000000000000000000000000000F500000000000000000000000000000000000000000000000000000000000000000000000000000000000000000000000000000000000000000000000000000000000000000000000000000000000000000000000000
310
0000000000000000000000000000000000F5000000000000000000000000000000000000000000000000000000000000000000F500F5F5F5F500000000000000F5F500000000000000000000000000F5F5F5F5F5F5F5F5F5F5F5F5F5F5F5F5F5F5F5F5F5F5F5F5F5F5F5000000000000000000000000F500F5F5F500F500F5
310
000000000000000000000000F500F5F500F5F5F5F500000000000000000000000000000000000000000000F50000000000000000000000000000000000000000000000000000000000000000000000000000000000000000000000000000000000000000000000000000000000000000000000000000000000000000000000
310
00000000000000000000000000000000000000F5000000000000000000000000000000000000000000000000000000000000000000F5F500F5F5F500000000000000F50000000000000000000000000000F50000F5F5F5F5F5F5F50000F500F5F5F50000F500F5F5F50000F5000000000000000000F5F5F5F5F5F5F5F5F5F5
310
F5F5000000000000000000F5F5F5F5F5F5F5F5F5F5F5F500000000000000000000000000000000000000000000F5000000000000000000000000000000000000000000000000000000000000000000000000000000000000000000000000000000000000000000000000000000000000000000000000000000000000000000
310
000000000000000000000000000000000000000000F5000000000000000000000000000000000000000000000000000000000000000000F5F5F5F5F5F5000000000000F5F50000000000000000000000000000F5F5F5F5F5F5F5F5F5F5F5F5F5F5F5F5F5F5F5F5F5F5F5F5F5F5F5000000000000000000F5F5F5F500F5F5F5
310
00F5F5F5000000000000000000F5F5F5F500F5F500F5F500F500000000000000000000000000000000000000000000F500000000000000000000000000000000000000000000000000000000000000000000000000000000000000000000000000000000000000000000000000000000000000000000000000000000000000
310
0000000000000000000000000000000000000000000000F5000000000000000000000000000000000000000000000000000000000000000000F5F500F500F500000000000000F50000000000000000000000000000F5F5F5F5F5F5F500F5F5F500F5000000000000F5000000000000F5000000000000000000000000F500F5
310
F5F500F5F5F5000000000000000000F5F5F5F5F5F5F5F5F5F5F5F500000000000000000000000000000000000000000000F50000000000000000000000000000000000000000000000000000000000000000000000000000000000000000000000000000000000000000000000000000000000000000000000000000000000
310
00000000000000000000000000000000000000000000000000F5000000000000000000000000000000000000000000000000000000000000000000F5F5F5F5F5F500F5F5F5F5F5F5F50000000000000000000000000000F5F5F5F5F5F5F5F500000000F50000F5000000F50000F5000000F5000000000000000000F5F5F5F5
310
F5F5F5F5F5F5F5F5000000000000000000F5F5F5F5F5F5F5F5F5F5F5F500000000000000000000000000000000000000000000F5000000000000000000000000000000000000000000000000000000000000000000000000000000000000000000000000000000000000000000000000000000000000000000000000000000
310
000000000000000000000000000000000000000000000000000000F5000000000000000000000000000000000000000000000000000000000000000000F5F5F500000000F5F5F5F5F5F5F50000000000000000000000000000F500F5F5F5F5F5F5F5F5F5F5F50000F5000000F50000F5000000F5000000000000000000F5F5
310
F500F5F5F5F5F5F5F500000000000000000000F5F5F500F5F5F5F5F5F5000000000000000000000000000000000000000000000000F500000000000000000000000000000000000000000000000000000000000000000000000000000000000000000000000000000000000000000000000000000000000000000000000000
310
0000000000000000000000000000000000000000000000000000000000F5000000000000000000000000000000000000000000000000000000000000000000F500000000F5000000000000F5F50000000000000000000000000000F5F5F5F5F5F5F5F5F5F5F5F5F5F5F5F5F5F5F5F5F5F5F5F5F5F5F5000000000000000000
310
F5F5F5000000F5F5F5000000000000000000000000F5F5F500000000000000000000000000000000000000000000000000000000000000F50000000000000000000000000000000000000000000000000000000000000000000000000000000000000000000000000000000000000000000000000000000000000000000000
310
00000000000000000000000000000000000000000000000000000000000000F5000000000000000000000000000000000000000000000000000000000000000000F500000000F500000000000000000000000000000000000000000000F5F5F5F5F5F5F5F5F5F5F50000000000000000000000000000000000000000000000
310
00F5F5F5F5F5F5F5F5F5000000000000000000000000F5F5F5F5F5F5F5F5F5F500000000000000000000000000000000000000000000000000F5000000000000000000000000000000000000000000000000000000000000000000000000000000000000000000000000000000000000000000000000000000000000000000
310
000000000000000000000000000000000000000000000000000000000000000000F5000000000000000000000000000000000000000000000000000000000000000000F500000000F500000000000000000000000000000000000000000000F5F5F5F5F5F5F5F5F5F5F5000000000000000000000000000000000000000000
310
00000000F5F5F5F5F5F5F5F500000000000000000000000000F5F5F5F5F5F5F5F50000000000000000000000000000000000000000000000000000F500000000000000000000000000000000000000000000000000000000000000000000000000000000000000000000000000000000000000000000000000000000000000
310
0000000000000000000000000000000000000000000000000000000000000000000000F5000000000000000000000000000000000000000000000000000000000000000000F500000000F500000000000000000000000000000000000000000000000000000000000000000000000000000000000000000000000000000000
310
00000000000000000000000000000000000000000000000000000000000000000000000000000000000000000000000000000000000000000000000000F50000000000000000000000000000000000000000000000000000000000000000000000000000000000000000000000000000000000000000000000000000000000
310
00000000000000000000000000000000000000000000000000000000000000000000000000F5000000000000000000000000000000000000000000000000000000000000000000F5F5F5F5F5F50000000000000000000000000000000000000000000000000000000000000000000000000000000000000000000000000000
310
000000000000000000000000000000000000000000000000000000000000000000000000000000000000000000000000000000000000000000000000000000F5000000000000000000000000000000000000000000000000000000000000000000000000000000000000000000000000000000000000000000000000000000
310
000000000000000000000000000000000000000000000000000000000000000000000000000000F5000000000000000000000000000000000000000000000000000000000000000000F500F5F500F5000000000000000000000000000000000000000000000000000000000000000000000000000000000000000000000000
310
0000000000000000000000000000000000000000000000000000000000000000000000000000000000000000000000000000000000000000000000000000000000F500000000000000000000000000000000000000000000000000000000000000000000000000000000000000000000000000000000000000000000000000
310
0000000000000000000000000000000000000000000000000000000000000000000000000000000000F5000000000000000000000000000000000000000000000000000000000000000000000000F5000000000000000000000000000000000000000000000000000000000000000000000000000000000000000000000000
310
00000000000000000000000000000000000000000000000000000000000000000000000000000000000000000000000000000000000000000000000000000000000000F50000000000000000000000000000000000000000000000000000000000000000000000000000000000000000000000000000000000000000000000
310
00000000000000000000000000000000000000000000000000000000000000000000000000000000000000F50000000000000000000000000000000000000000000000000000000000000000000000000000000000000000000000000000000000000000000000000000000000000000000000000000000000000000000000
310
000000000000000000000000000000000000000000000000000000000000000000000000000000000000000000000000000000000000000000000000000000000000000000F5000000000000000000000000000000000000000000000000000000000000000000000000000000000000000000000000000000000000000000
310
000000000000000000000000000000000000000000000000000000000000000000000000000000000000000000F5000000000000000000000000000000000000000000000000000000000000000000000000000000000000000000000000000000000000000000000000000000000000000000000000000000000000000000
310
0000000000000000000000000000000000000000000000000000000000000000000000000000000000000000000000000000000000000000000000000000000000000000000000F500000000000000000000000000000000000000000000000000000000000000000000000000000000000000000000000000000000000000
310
0000000000000000000000000000000000000000000000000000000000000000000000000000000000000000000000F500000000000000000000000000000000000000000000000000000000000000000000000000000000000000000000000000000000000000000000000000000000000000000000000000000000000000
310
00000000000000000000000000000000000000000000000000000000000000000000000000000000000000000000000000000000000000000000000000000000000000000000000000F50000000000000000000000000000000000000000000000000000000000000000000000000000000000000000000000000000000000
310
00000000000000000000000000000000000000000000000000000000000000000000000000000000000000000000000000F50000000000000000000000000000000000000000000000000000000000000000000000000000000000000000000000000000000000000000000000000000000000000000000000000000000000
310
000000000000000000000000000000000000000000000000000000000000000000000000000000000000000000000000000000000000000000000000000000000000000000000000000000F5000000000000000000000000000000000000000000000000000000000000000000000000000000000000000000000000000000
310
000000000000000000000000000000000000000000000000000000000000000000000000000000000000000000000000000000F5000000000000000000000000000000000000000000000000000000000000000000000000000000000000000000000000000000000000000000000000000000000000000000000000000000
310
0000000000000000000000000000000000000000000000000000000000000000000000000000000000000000000000000000000000000000000000000000000000000000000000000000000000F500000000000000000000000000000000000000000000000000000000000000000000000000000000000000000000000000
310
0000000000000000000000000000000000000000000000000000000000000000000000000000000000000000000000000000000000F500000000000000000000000000000000000000000000000000000000000000000000000000000000000000000000000000000000000000000000000000000000000000000000000000
310
00000000000000000000000000000000000000000000000000000000000000000000000000000000000000000000000000000000000000000000000000000000000000000000000000000000000000F50000000000000000000000000000000000000000000000000000000000000000000000000000000000000000000000
310
00000000000000000000000000000000000000000000000000000000000000000000000000000000000000000000000000000000000000F50000000000000000000000000000000000000000000000000000000000000000000000000000000000000000000000000000000000000000000000000000000000000000000000
310
000000000000000000000000000000000000000000000000000000000000000000000000000000000000000000000000000000000000000000000000000000000000000000000000000000000000000000F5000000000000000000000000000000000000000000000000000000000000000000000000000000000000000000
310
000000000000000000000000000000000000000000000000000000000000000000000000000000000000000000000000000000000000000000F5000000000000000000000000000000000000000000000000000000000000000000000000000000000000000000000000000000000000000000000000000000000000000000
310
0000000000000000000000000000000000000000000000000000000000000000000000000000000000000000000000000000000000000000000000000000000000000000000000000000000000000000000000F500000000000000000000000000000000000000000000000000000000000000000000000000000000000000
310
0000000000000000000000000000000000000000000000000000000000000000000000000000000000000000000000000000000000000000000000F500000000000000000000000000000000000000000000000000000000000000000000000000000000000000000000000000000000000000000000000000000000000000
310
00000000000000000000000000000000000000000000000000000000000000000000000000000000000000000000000000000000000000000000000000000000000000000000000000000000000000000000000000F50000000000000000000000000000000000000000000000000000000000000000000000000000000000
310
00000000000000000000000000000000000000000000000000000000000000000000000000000000000000000000000000000000000000000000000000F50000000000000000000000000000000000000000000000000000000000000000000000000000000000000000000000000000000000000000000000000000000000
310
000000000000000000000000000000000000000000000000000000000000000000000000000000000000000000000000000000000000000000000000000000000000000000000000000000000000000000000000000000F5000000000000000000000000000000000000000000000000000000000000000000000000000000
310
000000000000000000000000000000000000000000000000000000000000000000000000000000000000000000000000000000000000000000000000000000F5F5F5F5F5F5F5F5F5F5F5F5F5F5F5F5F5F5F5F5F5F5F5F5F5F5F5F5F5F5F5F5F5F5F5F5F5F5F5F5F5F5F5F5F5F5F5F5F5F5F5F5F5F5F5F5F5F5F5F5F5F5F5F5
310
F5F5F5F5F5F5F5F5F5F5F5F5F5F5F5F5F5F5F5F5F5F5F5F5F5F5F5F5F5F5F5F5F5F5F5F5F5F5F5F5F5F5F5F5F5F5F5F5F5F5F5F5F5F5F5F5F5F5F5F5F5F5F5F5F5F5F5F5F5F5F5F5F5F5F5F5F5F5F5F5F5F5F5F5F5F5F5F5F5F500000000000000000000000000000000000000000000000000000000000000000000000000
310
00000000000000000000000000000000000000000000000000000000000000000000000000000000000000000000000000000000000000000000000000000000000000000000000000000000000000000000000000000000000000000000000000000000000000000000000000000000000000000000000000000000000000
310
00000000000000000000000000000000000000000000000000000000000000000000000000000000000000000000000000000000000000000000000000000000000000000000000000000000000000000000000000000000000000000000000000000000000000000000000000000000000000000000000000000000000000
310
00000000000000000000000000000000
  0
XRECORD
  5
3769
102
{ACAD_REACTORS
330
3768
102
}
330
3768
100
AcDbXrecord
280
     1
102
SHADEPLOT
 70
     0
102
SHADEPLOTRESLEVEL
 70
     2
102
SHADEPLOTCUSTOMDPI
 70
   300
  0
XRECORD
  5
376C
102
{ACAD_REACTORS
330
376B
102
}
330
376B
100
AcDbXrecord
280
     1
102
SHADEPLOT
 70
     0
102
SHADEPLOTRESLEVEL
 70
     2
102
SHADEPLOTCUSTOMDPI
 70
   300
  0
XRECORD
  5
3735
102
{ACAD_REACTORS
330
1A
102
}
330
1A
100
AcDbXrecord
280
     1
102
MATERIAL
148
0.0
149
0.0
149
0.0
 93
        0
 94
      127
282
     0
 72
     0
 77
     0
171
     0
175
     0
179
     0
273
     0
  0
XRECORD
  5
1C
102
{ACAD_REACTORS
330
1A
102
}
330
1A
100
AcDbXrecord
280
     1
270
     1
271
     1
  0
XRECORD
  5
1B
102
{ACAD_REACTORS
330
1A
102
}
330
1A
100
AcDbXrecord
280
     1
270
     1
271
     1
  0
XRECORD
  5
1F
102
{ACAD_REACTORS
330
1A
102
}
330
1A
100
AcDbXrecord
280
     1
270
     1
271
     1
  0
XRECORD
  5
1E
102
{ACAD_REACTORS
330
1A
102
}
330
1A
100
AcDbXrecord
280
     1
270
     1
271
     1
  0
XRECORD
  5
20
102
{ACAD_REACTORS
330
1A
102
}
330
1A
100
AcDbXrecord
280
     1
270
     1
271
     1
  0
XRECORD
  5
1D
102
{ACAD_REACTORS
330
1A
102
}
330
1A
100
AcDbXrecord
280
     1
270
     1
271
     1
  0
XRECORD
  5
3734
102
{ACAD_REACTORS
330
12
102
}
330
12
100
AcDbXrecord
280
     1
102
MATERIAL
148
0.0
149
0.0
149
0.0
 93
        0
 94
      127
282
     0
 72
     0
 77
     0
171
     0
175
     0
179
     0
273
     0
  0
XRECORD
  5
14
102
{ACAD_REACTORS
330
12
102
}
330
12
100
AcDbXrecord
280
     1
270
     1
271
     1
  0
XRECORD
  5
13
102
{ACAD_REACTORS
330
12
102
}
330
12
100
AcDbXrecord
280
     1
270
     1
271
     1
  0
XRECORD
  5
17
102
{ACAD_REACTORS
330
12
102
}
330
12
100
AcDbXrecord
280
     1
270
     1
271
     1
  0
XRECORD
  5
16
102
{ACAD_REACTORS
330
12
102
}
330
12
100
AcDbXrecord
280
     1
270
     1
271
     1
  0
XRECORD
  5
18
102
{ACAD_REACTORS
330
12
102
}
330
12
100
AcDbXrecord
280
     1
270
     1
271
     1
  0
XRECORD
  5
15
102
{ACAD_REACTORS
330
12
102
}
330
12
100
AcDbXrecord
280
     1
270
     1
271
     1
  0
XRECORD
  5
3736
102
{ACAD_REACTORS
330
22
102
}
330
22
100
AcDbXrecord
280
     1
102
MATERIAL
148
0.0
149
0.0
149
0.0
 93
        0
 94
      127
282
     0
 72
     0
 77
     0
171
     0
175
     0
179
     0
273
     0
  0
XRECORD
  5
24
102
{ACAD_REACTORS
330
22
102
}
330
22
100
AcDbXrecord
280
     1
270
     1
271
     1
  0
XRECORD
  5
23
102
{ACAD_REACTORS
330
22
102
}
330
22
100
AcDbXrecord
280
     1
270
     1
271
     1
  0
XRECORD
  5
27
102
{ACAD_REACTORS
330
22
102
}
330
22
100
AcDbXrecord
280
     1
270
     1
271
     1
  0
XRECORD
  5
26
102
{ACAD_REACTORS
330
22
102
}
330
22
100
AcDbXrecord
280
     1
270
     1
271
     1
  0
XRECORD
  5
28
102
{ACAD_REACTORS
330
22
102
}
330
22
100
AcDbXrecord
280
     1
270
     1
271
     1
  0
XRECORD
  5
25
102
{ACAD_REACTORS
330
22
102
}
330
22
100
AcDbXrecord
280
     1
270
     1
271
     1
  0
CELLSTYLEMAP
  5
3731
102
{ACAD_REACTORS
330
193C
102
}
330
193C
100
AcDbCellStyleMap
 90
        3
300
CELLSTYLE
  1
TABLEFORMAT_BEGIN
 90
        5
170
     1
 91
        0
 92
    32768
 62
   257
 93
        1
300
CONTENTFORMAT
  1
CONTENTFORMAT_BEGIN
 90
        0
 91
        0
 92
      512
 93
        0
300

 40
0.0
140
1.0
 94
        5
 62
     0
340
55
144
6.0
309
CONTENTFORMAT_END
171
     1
301
MARGIN
  1
CELLMARGIN_BEGIN
 40
1.5
 40
1.5
 40
1.5
 40
1.5
 40
4.5
 40
4.5
309
CELLMARGIN_END
 94
        6
 95
        1
302
GRIDFORMAT
  1
GRIDFORMAT_BEGIN
 90
        0
 91
        1
 62
     0
 92
       -2
340
0
 93
        0
 40
1.125
309
GRIDFORMAT_END
 95
        2
302
GRIDFORMAT
  1
GRIDFORMAT_BEGIN
 90
        0
 91
        1
 62
     0
 92
       -2
340
0
 93
        0
 40
1.125
309
GRIDFORMAT_END
 95
        4
302
GRIDFORMAT
  1
GRIDFORMAT_BEGIN
 90
        0
 91
        1
 62
     0
 92
       -2
340
0
 93
        0
 40
1.125
309
GRIDFORMAT_END
 95
        8
302
GRIDFORMAT
  1
GRIDFORMAT_BEGIN
 90
        0
 91
        1
 62
     0
 92
       -2
340
0
 93
        0
 40
1.125
309
GRIDFORMAT_END
 95
       16
302
GRIDFORMAT
  1
GRIDFORMAT_BEGIN
 90
        0
 91
        1
 62
     0
 92
       -2
340
0
 93
        0
 40
1.125
309
GRIDFORMAT_END
 95
       32
302
GRIDFORMAT
  1
GRIDFORMAT_BEGIN
 90
        0
 91
        1
 62
     0
 92
       -2
340
0
 93
        0
 40
1.125
309
GRIDFORMAT_END
309
TABLEFORMAT_END
  1
CELLSTYLE_BEGIN
 90
        1
 91
        1
300
_TITLE
309
CELLSTYLE_END
300
CELLSTYLE
  1
TABLEFORMAT_BEGIN
 90
        5
170
     1
 91
        0
 92
        0
 62
   257
 93
        1
300
CONTENTFORMAT
  1
CONTENTFORMAT_BEGIN
 90
        0
 91
        0
 92
      512
 93
        0
300

 40
0.0
140
1.0
 94
        5
 62
     0
340
55
144
4.5
309
CONTENTFORMAT_END
171
     1
301
MARGIN
  1
CELLMARGIN_BEGIN
 40
1.5
 40
1.5
 40
1.5
 40
1.5
 40
4.5
 40
4.5
309
CELLMARGIN_END
 94
        6
 95
        1
302
GRIDFORMAT
  1
GRIDFORMAT_BEGIN
 90
        0
 91
        1
 62
     0
 92
       -2
340
0
 93
        0
 40
1.125
309
GRIDFORMAT_END
 95
        2
302
GRIDFORMAT
  1
GRIDFORMAT_BEGIN
 90
        0
 91
        1
 62
     0
 92
       -2
340
0
 93
        0
 40
1.125
309
GRIDFORMAT_END
 95
        4
302
GRIDFORMAT
  1
GRIDFORMAT_BEGIN
 90
        0
 91
        1
 62
     0
 92
       -2
340
0
 93
        0
 40
1.125
309
GRIDFORMAT_END
 95
        8
302
GRIDFORMAT
  1
GRIDFORMAT_BEGIN
 90
        0
 91
        1
 62
     0
 92
       -2
340
0
 93
        0
 40
1.125
309
GRIDFORMAT_END
 95
       16
302
GRIDFORMAT
  1
GRIDFORMAT_BEGIN
 90
        0
 91
        1
 62
     0
 92
       -2
340
0
 93
        0
 40
1.125
309
GRIDFORMAT_END
 95
       32
302
GRIDFORMAT
  1
GRIDFORMAT_BEGIN
 90
        0
 91
        1
 62
     0
 92
       -2
340
0
 93
        0
 40
1.125
309
GRIDFORMAT_END
309
TABLEFORMAT_END
  1
CELLSTYLE_BEGIN
 90
        2
 91
        1
300
_HEADER
309
CELLSTYLE_END
300
CELLSTYLE
  1
TABLEFORMAT_BEGIN
 90
        5
170
     1
 91
        0
 92
        0
 62
   257
 93
        1
300
CONTENTFORMAT
  1
CONTENTFORMAT_BEGIN
 90
        0
 91
        0
 92
      512
 93
        0
300

 40
0.0
140
1.0
 94
        2
 62
     0
340
55
144
4.5
309
CONTENTFORMAT_END
171
     1
301
MARGIN
  1
CELLMARGIN_BEGIN
 40
1.5
 40
1.5
 40
1.5
 40
1.5
 40
4.5
 40
4.5
309
CELLMARGIN_END
 94
        6
 95
        1
302
GRIDFORMAT
  1
GRIDFORMAT_BEGIN
 90
        0
 91
        1
 62
     0
 92
       -2
340
0
 93
        0
 40
1.125
309
GRIDFORMAT_END
 95
        2
302
GRIDFORMAT
  1
GRIDFORMAT_BEGIN
 90
        0
 91
        1
 62
     0
 92
       -2
340
0
 93
        0
 40
1.125
309
GRIDFORMAT_END
 95
        4
302
GRIDFORMAT
  1
GRIDFORMAT_BEGIN
 90
        0
 91
        1
 62
     0
 92
       -2
340
0
 93
        0
 40
1.125
309
GRIDFORMAT_END
 95
        8
302
GRIDFORMAT
  1
GRIDFORMAT_BEGIN
 90
        0
 91
        1
 62
     0
 92
       -2
340
0
 93
        0
 40
1.125
309
GRIDFORMAT_END
 95
       16
302
GRIDFORMAT
  1
GRIDFORMAT_BEGIN
 90
        0
 91
        1
 62
     0
 92
       -2
340
0
 93
        0
 40
1.125
309
GRIDFORMAT_END
 95
       32
302
GRIDFORMAT
  1
GRIDFORMAT_BEGIN
 90
        0
 91
        1
 62
     0
 92
       -2
340
0
 93
        0
 40
1.125
309
GRIDFORMAT_END
309
TABLEFORMAT_END
  1
CELLSTYLE_BEGIN
 90
        3
 91
        2
300
_DATA
309
CELLSTYLE_END
  0
XRECORD
  5
3767
102
{ACAD_REACTORS
330
193C
102
}
330
193C
100
AcDbXrecord
280
     1
102
ACAD_ROUNDTRIP_PRE2007_TABLESTYLE
 90
      512
 91
        0
  1

 92
      512
 93
        0
  2

 94
      512
 95
        0
  3

  0
XRECORD
  5
3742
102
{ACAD_REACTORS
330
3741
102
}
330
3741
100
AcDbXrecord
280
     1
102
RTVSPropertyOp0
 70
     1
102
RTVSPropertyOp1
 70
     1
102
RTVSPropertyOp2
 70
     1
102
RTVSPropertyOp3
 70
     1
102
RTVSPropertyOp4
 70
     1
102
RTVSPropertyOp5
 70
     1
102
RTVSPropertyOp6
 70
     1
102
RTVSPropertyOp7
 70
     1
102
RTVSPropertyOp8
 70
     1
102
RTVSPropertyOp9
 70
     1
102
RTVSPropertyOp10
 70
     1
102
RTVSPropertyOp11
 70
     1
102
RTVSPropertyOp12
 70
     1
102
RTVSPropertyOp13
 70
     1
102
RTVSPropertyOp14
 70
     1
102
RTVSPropertyOp15
 70
     1
102
RTVSPropertyOp16
 70
     1
102
RTVSPropertyOp17
 70
     1
102
RTVSPropertyOp18
 70
     1
102
RTVSPropertyOp19
 70
     1
102
RTVSPropertyOp20
 70
     1
102
RTVSPropertyOp21
 70
     1
102
RTVSPropertyOp22
 70
     1
102
RTVSPropertyOp23
 70
     1
102
RTVSPropertyOp24
 70
     1
102
RTVSPropertyOp25
 70
     1
102
RTVSPropertyOp26
 70
     1
102
RTVSPropertyOp27
 70
     1
102
RTVSPropertyOp28
 70
     1
102
RTVSPropertyOp29
 70
     1
102
RTVSPropertyOp30
 70
     1
102
RTVSPropertyOp31
 70
     1
102
RTVSPropertyOp32
 70
     1
  0
XRECORD
  5
3740
102
{ACAD_REACTORS
330
373F
102
}
330
373F
100
AcDbXrecord
280
     1
102
RTVSPropertyOp0
 70
     1
102
RTVSPropertyOp1
 70
     1
102
RTVSPropertyOp2
 70
     1
102
RTVSPropertyOp3
 70
     1
102
RTVSPropertyOp4
 70
     1
102
RTVSPropertyOp5
 70
     1
102
RTVSPropertyOp6
 70
     1
102
RTVSPropertyOp7
 70
     1
102
RTVSPropertyOp8
 70
     1
102
RTVSPropertyOp9
 70
     1
102
RTVSPropertyOp10
 70
     1
102
RTVSPropertyOp11
 70
     1
102
RTVSPropertyOp12
 70
     1
102
RTVSPropertyOp13
 70
     1
102
RTVSPropertyOp14
 70
     1
102
RTVSPropertyOp15
 70
     1
102
RTVSPropertyOp16
 70
     1
102
RTVSPropertyOp17
 70
     1
102
RTVSPropertyOp18
 70
     1
102
RTVSPropertyOp19
 70
     1
102
RTVSPropertyOp20
 70
     1
102
RTVSPropertyOp21
 70
     1
102
RTVSPropertyOp22
 70
     1
102
RTVSPropertyOp23
 70
     1
102
RTVSPropertyOp24
 70
     1
102
RTVSPropertyOp25
 70
     1
102
RTVSPropertyOp26
 70
     1
102
RTVSPropertyOp27
 70
     1
102
RTVSPropertyOp28
 70
     1
102
RTVSPropertyOp29
 70
     1
102
RTVSPropertyOp30
 70
     1
102
RTVSPropertyOp31
 70
     1
102
RTVSPropertyOp32
 70
     1
  0
XRECORD
  5
374E
102
{ACAD_REACTORS
330
374D
102
}
330
374D
100
AcDbXrecord
280
     1
102
RTVSPropertyOp0
 70
     1
102
RTVSPropertyOp1
 70
     1
102
RTVSPropertyOp2
 70
     1
102
RTVSPropertyOp3
 70
     1
102
RTVSPropertyOp4
 70
     1
102
RTVSPropertyOp5
 70
     1
102
RTVSPropertyOp6
 70
     1
102
RTVSPropertyOp7
 70
     1
102
RTVSPropertyOp8
 70
     1
102
RTVSPropertyOp9
 70
     1
102
RTVSPropertyOp10
 70
     1
102
RTVSPropertyOp11
 70
     1
102
RTVSPropertyOp12
 70
     1
102
RTVSPropertyOp13
 70
     1
102
RTVSPropertyOp14
 70
     1
102
RTVSPropertyOp15
 70
     1
102
RTVSPropertyOp16
 70
     1
102
RTVSPropertyOp17
 70
     1
102
RTVSPropertyOp18
 70
     1
102
RTVSPropertyOp19
 70
     1
102
RTVSPropertyOp20
 70
     1
102
RTVSPropertyOp21
 70
     1
102
RTVSPropertyOp22
 70
     1
102
RTVSPropertyOp23
 70
     1
102
RTVSPropertyOp24
 70
     1
102
RTVSPropertyOp25
 70
     1
102
RTVSPropertyOp26
 70
     1
102
RTVSPropertyOp27
 70
     1
102
RTVSPropertyOp28
 70
     1
102
RTVSPropertyOp29
 70
     1
102
RTVSPropertyOp30
 70
     1
102
RTVSPropertyOp31
 70
     1
102
RTVSPropertyOp32
 70
     1
  0
XRECORD
  5
3756
102
{ACAD_REACTORS
330
3755
102
}
330
3755
100
AcDbXrecord
280
     1
102
RTVSPropertyOp0
 70
     1
102
RTVSPropertyOp1
 70
     1
102
RTVSPropertyOp2
 70
     1
102
RTVSPropertyOp3
 70
     1
102
RTVSPropertyOp4
 70
     1
102
RTVSPropertyOp5
 70
     1
102
RTVSPropertyOp6
 70
     1
102
RTVSPropertyOp7
 70
     1
102
RTVSPropertyOp8
 70
     1
102
RTVSPropertyOp9
 70
     1
102
RTVSPropertyOp10
 70
     1
102
RTVSPropertyOp11
 70
     1
102
RTVSPropertyOp12
 70
     1
102
RTVSPropertyOp13
 70
     1
102
RTVSPropertyOp14
 70
     1
102
RTVSPropertyOp15
 70
     1
102
RTVSPropertyOp16
 70
     1
102
RTVSPropertyOp17
 70
     1
102
RTVSPropertyOp18
 70
     1
102
RTVSPropertyOp19
 70
     1
102
RTVSPropertyOp20
 70
     1
102
RTVSPropertyOp21
 70
     1
102
RTVSPropertyOp22
 70
     1
102
RTVSPropertyOp23
 70
     1
102
RTVSPropertyOp24
 70
     1
102
RTVSPropertyOp25
 70
     1
102
RTVSPropertyOp26
 70
     1
102
RTVSPropertyOp27
 70
     1
102
RTVSPropertyOp28
 70
     1
102
RTVSPropertyOp29
 70
     1
102
RTVSPropertyOp30
 70
     1
102
RTVSPropertyOp31
 70
     1
102
RTVSPropertyOp32
 70
     1
  0
XRECORD
  5
3748
102
{ACAD_REACTORS
330
3747
102
}
330
3747
100
AcDbXrecord
280
     1
102
RTVSPropertyOp0
 70
     1
102
RTVSPropertyOp1
 70
     1
102
RTVSPropertyOp2
 70
     1
102
RTVSPropertyOp3
 70
     1
102
RTVSPropertyOp4
 70
     1
102
RTVSPropertyOp5
 70
     1
102
RTVSPropertyOp6
 70
     1
102
RTVSPropertyOp7
 70
     1
102
RTVSPropertyOp8
 70
     1
102
RTVSPropertyOp9
 70
     1
102
RTVSPropertyOp10
 70
     1
102
RTVSPropertyOp11
 70
     1
102
RTVSPropertyOp12
 70
     1
102
RTVSPropertyOp13
 70
     1
102
RTVSPropertyOp14
 70
     1
102
RTVSPropertyOp15
 70
     1
102
RTVSPropertyOp16
 70
     1
102
RTVSPropertyOp17
 70
     1
102
RTVSPropertyOp18
 70
     1
102
RTVSPropertyOp19
 70
     1
102
RTVSPropertyOp20
 70
     1
102
RTVSPropertyOp21
 70
     1
102
RTVSPropertyOp22
 70
     1
102
RTVSPropertyOp23
 70
     1
102
RTVSPropertyOp24
 70
     1
102
RTVSPropertyOp25
 70
     1
102
RTVSPropertyOp26
 70
     1
102
RTVSPropertyOp27
 70
     1
102
RTVSPropertyOp28
 70
     1
102
RTVSPropertyOp29
 70
     1
102
RTVSPropertyOp30
 70
     1
102
RTVSPropertyOp31
 70
     1
102
RTVSPropertyOp32
 70
     1
  0
XRECORD
  5
374C
102
{ACAD_REACTORS
330
374B
102
}
330
374B
100
AcDbXrecord
280
     1
102
RTVSPropertyOp0
 70
     1
102
RTVSPropertyOp1
 70
     1
102
RTVSPropertyOp2
 70
     1
102
RTVSPropertyOp3
 70
     1
102
RTVSPropertyOp4
 70
     1
102
RTVSPropertyOp5
 70
     1
102
RTVSPropertyOp6
 70
     1
102
RTVSPropertyOp7
 70
     1
102
RTVSPropertyOp8
 70
     1
102
RTVSPropertyOp9
 70
     1
102
RTVSPropertyOp10
 70
     1
102
RTVSPropertyOp11
 70
     1
102
RTVSPropertyOp12
 70
     1
102
RTVSPropertyOp13
 70
     1
102
RTVSPropertyOp14
 70
     1
102
RTVSPropertyOp15
 70
     1
102
RTVSPropertyOp16
 70
     1
102
RTVSPropertyOp17
 70
     1
102
RTVSPropertyOp18
 70
     1
102
RTVSPropertyOp19
 70
     1
102
RTVSPropertyOp20
 70
     1
102
RTVSPropertyOp21
 70
     1
102
RTVSPropertyOp22
 70
     1
102
RTVSPropertyOp23
 70
     1
102
RTVSPropertyOp24
 70
     1
102
RTVSPropertyOp25
 70
     1
102
RTVSPropertyOp26
 70
     1
102
RTVSPropertyOp27
 70
     1
102
RTVSPropertyOp28
 70
     1
102
RTVSPropertyOp29
 70
     1
102
RTVSPropertyOp30
 70
     1
102
RTVSPropertyOp31
 70
     1
102
RTVSPropertyOp32
 70
     1
  0
XRECORD
  5
3766
102
{ACAD_REACTORS
330
3765
102
}
330
3765
100
AcDbXrecord
280
     1
102
RTVSPropertyOp0
 70
     0
102
RTVSPropertyOp1
 70
     0
102
RTVSPropertyOp2
 70
     0
102
RTVSPropertyOp3
 70
     0
102
RTVSPropertyOp4
 70
     0
102
RTVSPropertyOp5
 70
     0
102
RTVSPropertyOp6
 70
     0
102
RTVSPropertyOp7
 70
     0
102
RTVSPropertyOp8
 70
     0
102
RTVSPropertyOp9
 70
     0
102
RTVSPropertyOp10
 70
     0
102
RTVSPropertyOp11
 70
     0
102
RTVSPropertyOp12
 70
     0
102
RTVSPropertyOp13
 70
     0
102
RTVSPropertyOp14
 70
     2
102
RTVSPropertyOp15
 70
     0
102
RTVSPropertyOp16
 70
     0
102
RTVSPropertyOp17
 70
     0
102
RTVSPropertyOp18
 70
     0
102
RTVSPropertyOp19
 70
     0
102
RTVSPropertyOp20
 70
     0
102
RTVSPropertyOp21
 70
     0
102
RTVSPropertyOp22
 70
     0
102
RTVSPropertyOp23
 70
     0
102
RTVSPropertyOp24
 70
     0
102
RTVSPropertyOp25
 70
     0
102
RTVSPropertyOp26
 70
     0
102
RTVSPropertyOp27
 70
     0
102
RTVSPropertyOp28
 70
     0
102
RTVSPropertyOp29
 70
     0
102
RTVSPropertyOp30
 70
     0
102
RTVSPropertyOp31
 70
     0
102
RTVSPropertyOp32
 70
     0
  0
XRECORD
  5
3754
102
{ACAD_REACTORS
330
3753
102
}
330
3753
100
AcDbXrecord
280
     1
102
RTVSPropertyOp0
 70
     1
102
RTVSPropertyOp1
 70
     1
102
RTVSPropertyOp2
 70
     1
102
RTVSPropertyOp3
 70
     1
102
RTVSPropertyOp4
 70
     1
102
RTVSPropertyOp5
 70
     1
102
RTVSPropertyOp6
 70
     1
102
RTVSPropertyOp7
 70
     1
102
RTVSPropertyOp8
 70
     1
102
RTVSPropertyOp9
 70
     1
102
RTVSPropertyOp10
 70
     1
102
RTVSPropertyOp11
 70
     1
102
RTVSPropertyOp12
 70
     1
102
RTVSPropertyOp13
 70
     1
102
RTVSPropertyOp14
 70
     1
102
RTVSPropertyOp15
 70
     1
102
RTVSPropertyOp16
 70
     1
102
RTVSPropertyOp17
 70
     1
102
RTVSPropertyOp18
 70
     1
102
RTVSPropertyOp19
 70
     1
102
RTVSPropertyOp20
 70
     1
102
RTVSPropertyOp21
 70
     1
102
RTVSPropertyOp22
 70
     1
102
RTVSPropertyOp23
 70
     1
102
RTVSPropertyOp24
 70
     1
102
RTVSPropertyOp25
 70
     1
102
RTVSPropertyOp26
 70
     1
102
RTVSPropertyOp27
 70
     1
102
RTVSPropertyOp28
 70
     1
102
RTVSPropertyOp29
 70
     1
102
RTVSPropertyOp30
 70
     1
102
RTVSPropertyOp31
 70
     1
102
RTVSPropertyOp32
 70
     1
  0
XRECORD
  5
3738
102
{ACAD_REACTORS
330
3737
102
}
330
3737
100
AcDbXrecord
280
     1
102
RTVSPropertyOp0
 70
     1
102
RTVSPropertyOp1
 70
     1
102
RTVSPropertyOp2
 70
     1
102
RTVSPropertyOp3
 70
     1
102
RTVSPropertyOp4
 70
     1
102
RTVSPropertyOp5
 70
     1
102
RTVSPropertyOp6
 70
     1
102
RTVSPropertyOp7
 70
     1
102
RTVSPropertyOp8
 70
     1
102
RTVSPropertyOp9
 70
     1
102
RTVSPropertyOp10
 70
     1
102
RTVSPropertyOp11
 70
     1
102
RTVSPropertyOp12
 70
     1
102
RTVSPropertyOp13
 70
     1
102
RTVSPropertyOp14
 70
     1
102
RTVSPropertyOp15
 70
     1
102
RTVSPropertyOp16
 70
     1
102
RTVSPropertyOp17
 70
     1
102
RTVSPropertyOp18
 70
     1
102
RTVSPropertyOp19
 70
     1
102
RTVSPropertyOp20
 70
     1
102
RTVSPropertyOp21
 70
     1
102
RTVSPropertyOp22
 70
     1
102
RTVSPropertyOp23
 70
     1
102
RTVSPropertyOp24
 70
     1
102
RTVSPropertyOp25
 70
     1
102
RTVSPropertyOp26
 70
     1
102
RTVSPropertyOp27
 70
     1
102
RTVSPropertyOp28
 70
     1
102
RTVSPropertyOp29
 70
     1
102
RTVSPropertyOp30
 70
     1
102
RTVSPropertyOp31
 70
     1
102
RTVSPropertyOp32
 70
     1
  0
XRECORD
  5
373A
102
{ACAD_REACTORS
330
3739
102
}
330
3739
100
AcDbXrecord
280
     1
102
RTVSPropertyOp0
 70
     1
102
RTVSPropertyOp1
 70
     1
102
RTVSPropertyOp2
 70
     1
102
RTVSPropertyOp3
 70
     1
102
RTVSPropertyOp4
 70
     1
102
RTVSPropertyOp5
 70
     1
102
RTVSPropertyOp6
 70
     1
102
RTVSPropertyOp7
 70
     1
102
RTVSPropertyOp8
 70
     1
102
RTVSPropertyOp9
 70
     1
102
RTVSPropertyOp10
 70
     1
102
RTVSPropertyOp11
 70
     1
102
RTVSPropertyOp12
 70
     1
102
RTVSPropertyOp13
 70
     1
102
RTVSPropertyOp14
 70
     1
102
RTVSPropertyOp15
 70
     1
102
RTVSPropertyOp16
 70
     1
102
RTVSPropertyOp17
 70
     1
102
RTVSPropertyOp18
 70
     1
102
RTVSPropertyOp19
 70
     1
102
RTVSPropertyOp20
 70
     1
102
RTVSPropertyOp21
 70
     1
102
RTVSPropertyOp22
 70
     1
102
RTVSPropertyOp23
 70
     1
102
RTVSPropertyOp24
 70
     1
102
RTVSPropertyOp25
 70
     1
102
RTVSPropertyOp26
 70
     1
102
RTVSPropertyOp27
 70
     1
102
RTVSPropertyOp28
 70
     1
102
RTVSPropertyOp29
 70
     1
102
RTVSPropertyOp30
 70
     1
102
RTVSPropertyOp31
 70
     1
102
RTVSPropertyOp32
 70
     1
  0
XRECORD
  5
373C
102
{ACAD_REACTORS
330
373B
102
}
330
373B
100
AcDbXrecord
280
     1
102
RTVSPropertyOp0
 70
     1
102
RTVSPropertyOp1
 70
     1
102
RTVSPropertyOp2
 70
     1
102
RTVSPropertyOp3
 70
     1
102
RTVSPropertyOp4
 70
     1
102
RTVSPropertyOp5
 70
     1
102
RTVSPropertyOp6
 70
     1
102
RTVSPropertyOp7
 70
     1
102
RTVSPropertyOp8
 70
     1
102
RTVSPropertyOp9
 70
     1
102
RTVSPropertyOp10
 70
     1
102
RTVSPropertyOp11
 70
     1
102
RTVSPropertyOp12
 70
     1
102
RTVSPropertyOp13
 70
     1
102
RTVSPropertyOp14
 70
     1
102
RTVSPropertyOp15
 70
     1
102
RTVSPropertyOp16
 70
     1
102
RTVSPropertyOp17
 70
     1
102
RTVSPropertyOp18
 70
     1
102
RTVSPropertyOp19
 70
     1
102
RTVSPropertyOp20
 70
     1
102
RTVSPropertyOp21
 70
     1
102
RTVSPropertyOp22
 70
     1
102
RTVSPropertyOp23
 70
     1
102
RTVSPropertyOp24
 70
     1
102
RTVSPropertyOp25
 70
     1
102
RTVSPropertyOp26
 70
     1
102
RTVSPropertyOp27
 70
     1
102
RTVSPropertyOp28
 70
     1
102
RTVSPropertyOp29
 70
     1
102
RTVSPropertyOp30
 70
     1
102
RTVSPropertyOp31
 70
     1
102
RTVSPropertyOp32
 70
     1
  0
XRECORD
  5
373E
102
{ACAD_REACTORS
330
373D
102
}
330
373D
100
AcDbXrecord
280
     1
102
RTVSPropertyOp0
 70
     1
102
RTVSPropertyOp1
 70
     1
102
RTVSPropertyOp2
 70
     1
102
RTVSPropertyOp3
 70
     1
102
RTVSPropertyOp4
 70
     1
102
RTVSPropertyOp5
 70
     1
102
RTVSPropertyOp6
 70
     1
102
RTVSPropertyOp7
 70
     1
102
RTVSPropertyOp8
 70
     1
102
RTVSPropertyOp9
 70
     1
102
RTVSPropertyOp10
 70
     1
102
RTVSPropertyOp11
 70
     1
102
RTVSPropertyOp12
 70
     1
102
RTVSPropertyOp13
 70
     1
102
RTVSPropertyOp14
 70
     1
102
RTVSPropertyOp15
 70
     1
102
RTVSPropertyOp16
 70
     1
102
RTVSPropertyOp17
 70
     1
102
RTVSPropertyOp18
 70
     1
102
RTVSPropertyOp19
 70
     1
102
RTVSPropertyOp20
 70
     1
102
RTVSPropertyOp21
 70
     1
102
RTVSPropertyOp22
 70
     1
102
RTVSPropertyOp23
 70
     1
102
RTVSPropertyOp24
 70
     1
102
RTVSPropertyOp25
 70
     1
102
RTVSPropertyOp26
 70
     1
102
RTVSPropertyOp27
 70
     1
102
RTVSPropertyOp28
 70
     1
102
RTVSPropertyOp29
 70
     1
102
RTVSPropertyOp30
 70
     1
102
RTVSPropertyOp31
 70
     1
102
RTVSPropertyOp32
 70
     1
  0
XRECORD
  5
3746
102
{ACAD_REACTORS
330
3745
102
}
330
3745
100
AcDbXrecord
280
     1
102
RTVSPropertyOp0
 70
     1
102
RTVSPropertyOp1
 70
     1
102
RTVSPropertyOp2
 70
     1
102
RTVSPropertyOp3
 70
     1
102
RTVSPropertyOp4
 70
     1
102
RTVSPropertyOp5
 70
     1
102
RTVSPropertyOp6
 70
     1
102
RTVSPropertyOp7
 70
     1
102
RTVSPropertyOp8
 70
     1
102
RTVSPropertyOp9
 70
     1
102
RTVSPropertyOp10
 70
     1
102
RTVSPropertyOp11
 70
     1
102
RTVSPropertyOp12
 70
     1
102
RTVSPropertyOp13
 70
     1
102
RTVSPropertyOp14
 70
     1
102
RTVSPropertyOp15
 70
     1
102
RTVSPropertyOp16
 70
     1
102
RTVSPropertyOp17
 70
     1
102
RTVSPropertyOp18
 70
     1
102
RTVSPropertyOp19
 70
     1
102
RTVSPropertyOp20
 70
     1
102
RTVSPropertyOp21
 70
     1
102
RTVSPropertyOp22
 70
     1
102
RTVSPropertyOp23
 70
     1
102
RTVSPropertyOp24
 70
     1
102
RTVSPropertyOp25
 70
     1
102
RTVSPropertyOp26
 70
     1
102
RTVSPropertyOp27
 70
     1
102
RTVSPropertyOp28
 70
     1
102
RTVSPropertyOp29
 70
     1
102
RTVSPropertyOp30
 70
     1
102
RTVSPropertyOp31
 70
     1
102
RTVSPropertyOp32
 70
     1
  0
XRECORD
  5
3762
102
{ACAD_REACTORS
330
3761
102
}
330
3761
100
AcDbXrecord
280
     1
102
RTVSPropertyOp0
 70
     0
102
RTVSPropertyOp1
 70
     0
102
RTVSPropertyOp2
 70
     0
102
RTVSPropertyOp3
 70
     0
102
RTVSPropertyOp4
 70
     0
102
RTVSPropertyOp5
 70
     0
102
RTVSPropertyOp6
 70
     0
102
RTVSPropertyOp7
 70
     0
102
RTVSPropertyOp8
 70
     0
102
RTVSPropertyOp9
 70
     0
102
RTVSPropertyOp10
 70
     0
102
RTVSPropertyOp11
 70
     0
102
RTVSPropertyOp12
 70
     0
102
RTVSPropertyOp13
 70
     0
102
RTVSPropertyOp14
 70
     2
102
RTVSPropertyOp15
 70
     0
102
RTVSPropertyOp16
 70
     0
102
RTVSPropertyOp17
 70
     0
102
RTVSPropertyOp18
 70
     0
102
RTVSPropertyOp19
 70
     0
102
RTVSPropertyOp20
 70
     0
102
RTVSPropertyOp21
 70
     0
102
RTVSPropertyOp22
 70
     0
102
RTVSPropertyOp23
 70
     0
102
RTVSPropertyOp24
 70
     0
102
RTVSPropertyOp25
 70
     0
102
RTVSPropertyOp26
 70
     0
102
RTVSPropertyOp27
 70
     0
102
RTVSPropertyOp28
 70
     0
102
RTVSPropertyOp29
 70
     0
102
RTVSPropertyOp30
 70
     0
102
RTVSPropertyOp31
 70
     0
102
RTVSPropertyOp32
 70
     0
  0
XRECORD
  5
3752
102
{ACAD_REACTORS
330
3751
102
}
330
3751
100
AcDbXrecord
280
     1
102
RTVSPropertyOp0
 70
     1
102
RTVSPropertyOp1
 70
     1
102
RTVSPropertyOp2
 70
     1
102
RTVSPropertyOp3
 70
     1
102
RTVSPropertyOp4
 70
     1
102
RTVSPropertyOp5
 70
     1
102
RTVSPropertyOp6
 70
     1
102
RTVSPropertyOp7
 70
     1
102
RTVSPropertyOp8
 70
     1
102
RTVSPropertyOp9
 70
     1
102
RTVSPropertyOp10
 70
     1
102
RTVSPropertyOp11
 70
     1
102
RTVSPropertyOp12
 70
     1
102
RTVSPropertyOp13
 70
     1
102
RTVSPropertyOp14
 70
     1
102
RTVSPropertyOp15
 70
     1
102
RTVSPropertyOp16
 70
     1
102
RTVSPropertyOp17
 70
     1
102
RTVSPropertyOp18
 70
     1
102
RTVSPropertyOp19
 70
     1
102
RTVSPropertyOp20
 70
     1
102
RTVSPropertyOp21
 70
     1
102
RTVSPropertyOp22
 70
     1
102
RTVSPropertyOp23
 70
     1
102
RTVSPropertyOp24
 70
     1
102
RTVSPropertyOp25
 70
     1
102
RTVSPropertyOp26
 70
     1
102
RTVSPropertyOp27
 70
     1
102
RTVSPropertyOp28
 70
     1
102
RTVSPropertyOp29
 70
     1
102
RTVSPropertyOp30
 70
     1
102
RTVSPropertyOp31
 70
     1
102
RTVSPropertyOp32
 70
     1
  0
XRECORD
  5
3764
102
{ACAD_REACTORS
330
3763
102
}
330
3763
100
AcDbXrecord
280
     1
102
RTVSPropertyOp0
 70
     0
102
RTVSPropertyOp1
 70
     0
102
RTVSPropertyOp2
 70
     0
102
RTVSPropertyOp3
 70
     0
102
RTVSPropertyOp4
 70
     0
102
RTVSPropertyOp5
 70
     0
102
RTVSPropertyOp6
 70
     0
102
RTVSPropertyOp7
 70
     0
102
RTVSPropertyOp8
 70
     0
102
RTVSPropertyOp9
 70
     0
102
RTVSPropertyOp10
 70
     0
102
RTVSPropertyOp11
 70
     0
102
RTVSPropertyOp12
 70
     0
102
RTVSPropertyOp13
 70
     0
102
RTVSPropertyOp14
 70
     2
102
RTVSPropertyOp15
 70
     0
102
RTVSPropertyOp16
 70
     0
102
RTVSPropertyOp17
 70
     0
102
RTVSPropertyOp18
 70
     0
102
RTVSPropertyOp19
 70
     0
102
RTVSPropertyOp20
 70
     0
102
RTVSPropertyOp21
 70
     0
102
RTVSPropertyOp22
 70
     0
102
RTVSPropertyOp23
 70
     0
102
RTVSPropertyOp24
 70
     0
102
RTVSPropertyOp25
 70
     0
102
RTVSPropertyOp26
 70
     0
102
RTVSPropertyOp27
 70
     0
102
RTVSPropertyOp28
 70
     0
102
RTVSPropertyOp29
 70
     0
102
RTVSPropertyOp30
 70
     0
102
RTVSPropertyOp31
 70
     0
102
RTVSPropertyOp32
 70
     0
  0
XRECORD
  5
374A
102
{ACAD_REACTORS
330
3749
102
}
330
3749
100
AcDbXrecord
280
     1
102
RTVSPropertyOp0
 70
     1
102
RTVSPropertyOp1
 70
     1
102
RTVSPropertyOp2
 70
     1
102
RTVSPropertyOp3
 70
     1
102
RTVSPropertyOp4
 70
     1
102
RTVSPropertyOp5
 70
     1
102
RTVSPropertyOp6
 70
     1
102
RTVSPropertyOp7
 70
     1
102
RTVSPropertyOp8
 70
     1
102
RTVSPropertyOp9
 70
     1
102
RTVSPropertyOp10
 70
     1
102
RTVSPropertyOp11
 70
     1
102
RTVSPropertyOp12
 70
     1
102
RTVSPropertyOp13
 70
     1
102
RTVSPropertyOp14
 70
     1
102
RTVSPropertyOp15
 70
     1
102
RTVSPropertyOp16
 70
     1
102
RTVSPropertyOp17
 70
     1
102
RTVSPropertyOp18
 70
     1
102
RTVSPropertyOp19
 70
     1
102
RTVSPropertyOp20
 70
     1
102
RTVSPropertyOp21
 70
     1
102
RTVSPropertyOp22
 70
     1
102
RTVSPropertyOp23
 70
     1
102
RTVSPropertyOp24
 70
     1
102
RTVSPropertyOp25
 70
     1
102
RTVSPropertyOp26
 70
     1
102
RTVSPropertyOp27
 70
     1
102
RTVSPropertyOp28
 70
     1
102
RTVSPropertyOp29
 70
     1
102
RTVSPropertyOp30
 70
     1
102
RTVSPropertyOp31
 70
     1
102
RTVSPropertyOp32
 70
     1
  0
XRECORD
  5
3760
102
{ACAD_REACTORS
330
375F
102
}
330
375F
100
AcDbXrecord
280
     1
102
RTVSPropertyOp0
 70
     1
102
RTVSPropertyOp1
 70
     1
102
RTVSPropertyOp2
 70
     1
102
RTVSPropertyOp3
 70
     1
102
RTVSPropertyOp4
 70
     1
102
RTVSPropertyOp5
 70
     1
102
RTVSPropertyOp6
 70
     1
102
RTVSPropertyOp7
 70
     1
102
RTVSPropertyOp8
 70
     1
102
RTVSPropertyOp9
 70
     1
102
RTVSPropertyOp10
 70
     1
102
RTVSPropertyOp11
 70
     1
102
RTVSPropertyOp12
 70
     1
102
RTVSPropertyOp13
 70
     1
102
RTVSPropertyOp14
 70
     1
102
RTVSPropertyOp15
 70
     1
102
RTVSPropertyOp16
 70
     1
102
RTVSPropertyOp17
 70
     1
102
RTVSPropertyOp18
 70
     1
102
RTVSPropertyOp19
 70
     1
102
RTVSPropertyOp20
 70
     1
102
RTVSPropertyOp21
 70
     1
102
RTVSPropertyOp22
 70
     1
102
RTVSPropertyOp23
 70
     1
102
RTVSPropertyOp24
 70
     1
102
RTVSPropertyOp25
 70
     1
102
RTVSPropertyOp26
 70
     1
102
RTVSPropertyOp27
 70
     1
102
RTVSPropertyOp28
 70
     1
102
RTVSPropertyOp29
 70
     1
102
RTVSPropertyOp30
 70
     1
102
RTVSPropertyOp31
 70
     1
102
RTVSPropertyOp32
 70
     1
  0
XRECORD
  5
375E
102
{ACAD_REACTORS
330
375D
102
}
330
375D
100
AcDbXrecord
280
     1
102
RTVSPropertyOp0
 70
     1
102
RTVSPropertyOp1
 70
     1
102
RTVSPropertyOp2
 70
     1
102
RTVSPropertyOp3
 70
     1
102
RTVSPropertyOp4
 70
     1
102
RTVSPropertyOp5
 70
     1
102
RTVSPropertyOp6
 70
     1
102
RTVSPropertyOp7
 70
     1
102
RTVSPropertyOp8
 70
     1
102
RTVSPropertyOp9
 70
     1
102
RTVSPropertyOp10
 70
     1
102
RTVSPropertyOp11
 70
     1
102
RTVSPropertyOp12
 70
     1
102
RTVSPropertyOp13
 70
     1
102
RTVSPropertyOp14
 70
     1
102
RTVSPropertyOp15
 70
     1
102
RTVSPropertyOp16
 70
     1
102
RTVSPropertyOp17
 70
     1
102
RTVSPropertyOp18
 70
     1
102
RTVSPropertyOp19
 70
     1
102
RTVSPropertyOp20
 70
     1
102
RTVSPropertyOp21
 70
     1
102
RTVSPropertyOp22
 70
     1
102
RTVSPropertyOp23
 70
     1
102
RTVSPropertyOp24
 70
     1
102
RTVSPropertyOp25
 70
     1
102
RTVSPropertyOp26
 70
     1
102
RTVSPropertyOp27
 70
     1
102
RTVSPropertyOp28
 70
     1
102
RTVSPropertyOp29
 70
     1
102
RTVSPropertyOp30
 70
     1
102
RTVSPropertyOp31
 70
     1
102
RTVSPropertyOp32
 70
     1
  0
XRECORD
  5
3758
102
{ACAD_REACTORS
330
3757
102
}
330
3757
100
AcDbXrecord
280
     1
102
RTVSPropertyOp0
 70
     1
102
RTVSPropertyOp1
 70
     1
102
RTVSPropertyOp2
 70
     1
102
RTVSPropertyOp3
 70
     1
102
RTVSPropertyOp4
 70
     1
102
RTVSPropertyOp5
 70
     1
102
RTVSPropertyOp6
 70
     1
102
RTVSPropertyOp7
 70
     1
102
RTVSPropertyOp8
 70
     1
102
RTVSPropertyOp9
 70
     1
102
RTVSPropertyOp10
 70
     1
102
RTVSPropertyOp11
 70
     1
102
RTVSPropertyOp12
 70
     1
102
RTVSPropertyOp13
 70
     1
102
RTVSPropertyOp14
 70
     1
102
RTVSPropertyOp15
 70
     1
102
RTVSPropertyOp16
 70
     1
102
RTVSPropertyOp17
 70
     1
102
RTVSPropertyOp18
 70
     1
102
RTVSPropertyOp19
 70
     1
102
RTVSPropertyOp20
 70
     1
102
RTVSPropertyOp21
 70
     1
102
RTVSPropertyOp22
 70
     1
102
RTVSPropertyOp23
 70
     1
102
RTVSPropertyOp24
 70
     1
102
RTVSPropertyOp25
 70
     1
102
RTVSPropertyOp26
 70
     1
102
RTVSPropertyOp27
 70
     1
102
RTVSPropertyOp28
 70
     1
102
RTVSPropertyOp29
 70
     1
102
RTVSPropertyOp30
 70
     1
102
RTVSPropertyOp31
 70
     1
102
RTVSPropertyOp32
 70
     1
  0
XRECORD
  5
375A
102
{ACAD_REACTORS
330
3759
102
}
330
3759
100
AcDbXrecord
280
     1
102
RTVSPropertyOp0
 70
     1
102
RTVSPropertyOp1
 70
     1
102
RTVSPropertyOp2
 70
     1
102
RTVSPropertyOp3
 70
     1
102
RTVSPropertyOp4
 70
     1
102
RTVSPropertyOp5
 70
     1
102
RTVSPropertyOp6
 70
     1
102
RTVSPropertyOp7
 70
     1
102
RTVSPropertyOp8
 70
     1
102
RTVSPropertyOp9
 70
     1
102
RTVSPropertyOp10
 70
     1
102
RTVSPropertyOp11
 70
     1
102
RTVSPropertyOp12
 70
     1
102
RTVSPropertyOp13
 70
     1
102
RTVSPropertyOp14
 70
     1
102
RTVSPropertyOp15
 70
     1
102
RTVSPropertyOp16
 70
     1
102
RTVSPropertyOp17
 70
     1
102
RTVSPropertyOp18
 70
     1
102
RTVSPropertyOp19
 70
     1
102
RTVSPropertyOp20
 70
     1
102
RTVSPropertyOp21
 70
     1
102
RTVSPropertyOp22
 70
     1
102
RTVSPropertyOp23
 70
     1
102
RTVSPropertyOp24
 70
     1
102
RTVSPropertyOp25
 70
     1
102
RTVSPropertyOp26
 70
     1
102
RTVSPropertyOp27
 70
     1
102
RTVSPropertyOp28
 70
     1
102
RTVSPropertyOp29
 70
     1
102
RTVSPropertyOp30
 70
     1
102
RTVSPropertyOp31
 70
     1
102
RTVSPropertyOp32
 70
     1
  0
XRECORD
  5
3750
102
{ACAD_REACTORS
330
374F
102
}
330
374F
100
AcDbXrecord
280
     1
102
RTVSPropertyOp0
 70
     1
102
RTVSPropertyOp1
 70
     1
102
RTVSPropertyOp2
 70
     1
102
RTVSPropertyOp3
 70
     1
102
RTVSPropertyOp4
 70
     1
102
RTVSPropertyOp5
 70
     1
102
RTVSPropertyOp6
 70
     1
102
RTVSPropertyOp7
 70
     1
102
RTVSPropertyOp8
 70
     1
102
RTVSPropertyOp9
 70
     1
102
RTVSPropertyOp10
 70
     1
102
RTVSPropertyOp11
 70
     1
102
RTVSPropertyOp12
 70
     1
102
RTVSPropertyOp13
 70
     1
102
RTVSPropertyOp14
 70
     1
102
RTVSPropertyOp15
 70
     1
102
RTVSPropertyOp16
 70
     1
102
RTVSPropertyOp17
 70
     1
102
RTVSPropertyOp18
 70
     1
102
RTVSPropertyOp19
 70
     1
102
RTVSPropertyOp20
 70
     1
102
RTVSPropertyOp21
 70
     1
102
RTVSPropertyOp22
 70
     1
102
RTVSPropertyOp23
 70
     1
102
RTVSPropertyOp24
 70
     1
102
RTVSPropertyOp25
 70
     1
102
RTVSPropertyOp26
 70
     1
102
RTVSPropertyOp27
 70
     1
102
RTVSPropertyOp28
 70
     1
102
RTVSPropertyOp29
 70
     1
102
RTVSPropertyOp30
 70
     1
102
RTVSPropertyOp31
 70
     1
102
RTVSPropertyOp32
 70
     1
  0
XRECORD
  5
3744
102
{ACAD_REACTORS
330
3743
102
}
330
3743
100
AcDbXrecord
280
     1
102
RTVSPropertyOp0
 70
     1
102
RTVSPropertyOp1
 70
     1
102
RTVSPropertyOp2
 70
     1
102
RTVSPropertyOp3
 70
     1
102
RTVSPropertyOp4
 70
     1
102
RTVSPropertyOp5
 70
     1
102
RTVSPropertyOp6
 70
     1
102
RTVSPropertyOp7
 70
     1
102
RTVSPropertyOp8
 70
     1
102
RTVSPropertyOp9
 70
     1
102
RTVSPropertyOp10
 70
     1
102
RTVSPropertyOp11
 70
     1
102
RTVSPropertyOp12
 70
     1
102
RTVSPropertyOp13
 70
     1
102
RTVSPropertyOp14
 70
     1
102
RTVSPropertyOp15
 70
     1
102
RTVSPropertyOp16
 70
     1
102
RTVSPropertyOp17
 70
     1
102
RTVSPropertyOp18
 70
     1
102
RTVSPropertyOp19
 70
     1
102
RTVSPropertyOp20
 70
     1
102
RTVSPropertyOp21
 70
     1
102
RTVSPropertyOp22
 70
     1
102
RTVSPropertyOp23
 70
     1
102
RTVSPropertyOp24
 70
     1
102
RTVSPropertyOp25
 70
     1
102
RTVSPropertyOp26
 70
     1
102
RTVSPropertyOp27
 70
     1
102
RTVSPropertyOp28
 70
     1
102
RTVSPropertyOp29
 70
     1
102
RTVSPropertyOp30
 70
     1
102
RTVSPropertyOp31
 70
     1
102
RTVSPropertyOp32
 70
     1
  0
XRECORD
  5
375C
102
{ACAD_REACTORS
330
375B
102
}
330
375B
100
AcDbXrecord
280
     1
102
RTVSPropertyOp0
 70
     1
102
RTVSPropertyOp1
 70
     1
102
RTVSPropertyOp2
 70
     1
102
RTVSPropertyOp3
 70
     1
102
RTVSPropertyOp4
 70
     1
102
RTVSPropertyOp5
 70
     1
102
RTVSPropertyOp6
 70
     1
102
RTVSPropertyOp7
 70
     1
102
RTVSPropertyOp8
 70
     1
102
RTVSPropertyOp9
 70
     1
102
RTVSPropertyOp10
 70
     1
102
RTVSPropertyOp11
 70
     1
102
RTVSPropertyOp12
 70
     1
102
RTVSPropertyOp13
 70
     1
102
RTVSPropertyOp14
 70
     1
102
RTVSPropertyOp15
 70
     1
102
RTVSPropertyOp16
 70
     1
102
RTVSPropertyOp17
 70
     1
102
RTVSPropertyOp18
 70
     1
102
RTVSPropertyOp19
 70
     1
102
RTVSPropertyOp20
 70
     1
102
RTVSPropertyOp21
 70
     1
102
RTVSPropertyOp22
 70
     1
102
RTVSPropertyOp23
 70
     1
102
RTVSPropertyOp24
 70
     1
102
RTVSPropertyOp25
 70
     1
102
RTVSPropertyOp26
 70
     1
102
RTVSPropertyOp27
 70
     1
102
RTVSPropertyOp28
 70
     1
102
RTVSPropertyOp29
 70
     1
102
RTVSPropertyOp30
 70
     1
102
RTVSPropertyOp31
 70
     1
102
RTVSPropertyOp32
 70
     1
  0
ENDSEC
  0
EOF
